  0
SECTION
  2
HEADER
  9
$ACADVER
  1
AC1015
  9
$ACADMAINTVER
 70
    20
  9
$DWGCODEPAGE
  3
ANSI_932
  9
$INSBASE
 10
0.0
 20
0.0
 30
0.0
  9
$EXTMIN
 10
2970.467048644275
 20
-1261.528941946171
 30
0.0
  9
$EXTMAX
 10
9596.53878474522
 20
2443.305998625299
 30
0.0
  9
$LIMMIN
 10
3016.51691678317
 20
-5199.731160501375
  9
$LIMMAX
 10
4204.51691678317
 20
-4359.731160501374
  9
$ORTHOMODE
 70
     0
  9
$REGENMODE
 70
     1
  9
$FILLMODE
 70
     1
  9
$QTEXTMODE
 70
     0
  9
$MIRRTEXT
 70
     0
  9
$LTSCALE
 40
1.0
  9
$ATTMODE
 70
     1
  9
$TEXTSIZE
 40
3.2
  9
$TRACEWID
 40
1.0
  9
$TEXTSTYLE
  7
STANDARD
  9
$CLAYER
  8
AM_0
  9
$CELTYPE
  6
ByLayer
  9
$CECOLOR
 62
   256
  9
$CELTSCALE
 40
1.0
  9
$DISPSILH
 70
     0
  9
$DIMSCALE
 40
1.0
  9
$DIMASZ
 40
1.0
  9
$DIMEXO
 40
1.0
  9
$DIMDLI
 40
10.0
  9
$DIMRND
 40
0.0
  9
$DIMDLE
 40
0.0
  9
$DIMEXE
 40
1.0
  9
$DIMTP
 40
0.1
  9
$DIMTM
 40
0.1
  9
$DIMTXT
 40
3.5
  9
$DIMCEN
 40
0.0
  9
$DIMTSZ
 40
0.0
  9
$DIMTOL
 70
     0
  9
$DIMLIM
 70
     0
  9
$DIMTIH
 70
     0
  9
$DIMTOH
 70
     0
  9
$DIMSE1
 70
     0
  9
$DIMSE2
 70
     0
  9
$DIMTAD
 70
     1
  9
$DIMZIN
 70
     8
  9
$DIMBLK
  1

  9
$DIMASO
 70
     1
  9
$DIMSHO
 70
     1
  9
$DIMPOST
  1

  9
$DIMAPOST
  1
"
  9
$DIMALT
 70
     0
  9
$DIMALTD
 70
     2
  9
$DIMALTF
 40
0.0393701
  9
$DIMLFAC
 40
1.0
  9
$DIMTOFL
 70
     1
  9
$DIMTVP
 40
0.0
  9
$DIMTIX
 70
     0
  9
$DIMSOXD
 70
     0
  9
$DIMSAH
 70
     0
  9
$DIMBLK1
  1

  9
$DIMBLK2
  1

  9
$DIMSTYLE
  2
SYS
  9
$DIMCLRD
 70
   256
  9
$DIMCLRE
 70
   256
  9
$DIMCLRT
 70
     7
  9
$DIMTFAC
 40
0.71
  9
$DIMGAP
 40
1.5
  9
$DIMJUST
 70
     0
  9
$DIMSD1
 70
     0
  9
$DIMSD2
 70
     0
  9
$DIMTOLJ
 70
     0
  9
$DIMTZIN
 70
     8
  9
$DIMALTZ
 70
     0
  9
$DIMALTTZ
 70
     0
  9
$DIMUPT
 70
     0
  9
$DIMDEC
 70
     2
  9
$DIMTDEC
 70
     2
  9
$DIMALTU
 70
     2
  9
$DIMALTTD
 70
     2
  9
$DIMTXSTY
  7
STANDARD
  9
$DIMAUNIT
 70
     0
  9
$DIMADEC
 70
     0
  9
$DIMALTRND
 40
0.0
  9
$DIMAZIN
 70
     2
  9
$DIMDSEP
 70
    46
  9
$DIMATFIT
 70
     3
  9
$DIMFRAC
 70
     0
  9
$DIMLDRBLK
  1

  9
$DIMLUNIT
 70
     2
  9
$DIMLWD
 70
    -1
  9
$DIMLWE
 70
    -1
  9
$DIMTMOVE
 70
     0
  9
$LUNITS
 70
     2
  9
$LUPREC
 70
     2
  9
$SKETCHINC
 40
1.0
  9
$FILLETRAD
 40
1.199999999999999
  9
$AUNITS
 70
     0
  9
$AUPREC
 70
     0
  9
$MENU
  1
.
  9
$ELEVATION
 40
0.0
  9
$PELEVATION
 40
0.0
  9
$THICKNESS
 40
0.0
  9
$LIMCHECK
 70
     0
  9
$CHAMFERA
 40
0.0
  9
$CHAMFERB
 40
0.0
  9
$CHAMFERC
 40
20.0
  9
$CHAMFERD
 40
0.0
  9
$SKPOLY
 70
     0
  9
$TDCREATE
 40
2455567.680725081
  9
$TDUCREATE
 40
2455567.305725081
  9
$TDUPDATE
 40
2455629.684214815
  9
$TDUUPDATE
 40
2455629.309214815
  9
$TDINDWG
 40
4.7348522338
  9
$TDUSRTIMER
 40
4.7348506019
  9
$USRTIMER
 70
     1
  9
$ANGBASE
 50
0.0
  9
$ANGDIR
 70
     0
  9
$PDMODE
 70
     0
  9
$PDSIZE
 40
-3.0
  9
$PLINEWID
 40
0.0
  9
$SPLFRAME
 70
     0
  9
$SPLINETYPE
 70
     6
  9
$SPLINESEGS
 70
     8
  9
$HANDSEED
  5
64556
  9
$SURFTAB1
 70
     6
  9
$SURFTAB2
 70
     6
  9
$SURFTYPE
 70
     6
  9
$SURFU
 70
     6
  9
$SURFV
 70
     6
  9
$UCSBASE
  2

  9
$UCSNAME
  2

  9
$UCSORG
 10
0.0
 20
0.0
 30
0.0
  9
$UCSXDIR
 10
1.0
 20
0.0
 30
0.0
  9
$UCSYDIR
 10
0.0
 20
1.0
 30
0.0
  9
$UCSORTHOREF
  2

  9
$UCSORTHOVIEW
 70
     0
  9
$UCSORGTOP
 10
0.0
 20
0.0
 30
0.0
  9
$UCSORGBOTTOM
 10
0.0
 20
0.0
 30
0.0
  9
$UCSORGLEFT
 10
0.0
 20
0.0
 30
0.0
  9
$UCSORGRIGHT
 10
0.0
 20
0.0
 30
0.0
  9
$UCSORGFRONT
 10
0.0
 20
0.0
 30
0.0
  9
$UCSORGBACK
 10
0.0
 20
0.0
 30
0.0
  9
$PUCSBASE
  2

  9
$PUCSNAME
  2

  9
$PUCSORG
 10
0.0
 20
0.0
 30
0.0
  9
$PUCSXDIR
 10
1.0
 20
0.0
 30
0.0
  9
$PUCSYDIR
 10
0.0
 20
1.0
 30
0.0
  9
$PUCSORTHOREF
  2

  9
$PUCSORTHOVIEW
 70
     0
  9
$PUCSORGTOP
 10
0.0
 20
0.0
 30
0.0
  9
$PUCSORGBOTTOM
 10
0.0
 20
0.0
 30
0.0
  9
$PUCSORGLEFT
 10
0.0
 20
0.0
 30
0.0
  9
$PUCSORGRIGHT
 10
0.0
 20
0.0
 30
0.0
  9
$PUCSORGFRONT
 10
0.0
 20
0.0
 30
0.0
  9
$PUCSORGBACK
 10
0.0
 20
0.0
 30
0.0
  9
$USERI1
 70
     0
  9
$USERI2
 70
     0
  9
$USERI3
 70
     0
  9
$USERI4
 70
     0
  9
$USERI5
 70
     0
  9
$USERR1
 40
0.0
  9
$USERR2
 40
0.0
  9
$USERR3
 40
0.0
  9
$USERR4
 40
0.0
  9
$USERR5
 40
0.0
  9
$WORLDVIEW
 70
     1
  9
$SHADEDGE
 70
     3
  9
$SHADEDIF
 70
    70
  9
$TILEMODE
 70
     1
  9
$MAXACTVP
 70
    64
  9
$PINSBASE
 10
0.0
 20
0.0
 30
0.0
  9
$PLIMCHECK
 70
     0
  9
$PEXTMIN
 10
1.000000000000000E+20
 20
1.000000000000000E+20
 30
1.000000000000000E+20
  9
$PEXTMAX
 10
-1.000000000000000E+20
 20
-1.000000000000000E+20
 30
-1.000000000000000E+20
  9
$PLIMMIN
 10
-3.17498779296875
 20
-3.174999952316284
  9
$PLIMMAX
 10
293.4970092773438
 20
206.692492723465
  9
$UNITMODE
 70
     0
  9
$VISRETAIN
 70
     1
  9
$PLINEGEN
 70
     0
  9
$PSLTSCALE
 70
     1
  9
$TREEDEPTH
 70
  3020
  9
$CMLSTYLE
  2
Standard
  9
$CMLJUST
 70
     0
  9
$CMLSCALE
 40
20.0
  9
$PROXYGRAPHICS
 70
     1
  9
$MEASUREMENT
 70
     1
  9
$CELWEIGHT
370
    -1
  9
$ENDCAPS
280
     0
  9
$JOINSTYLE
280
     0
  9
$LWDISPLAY
290
     1
  9
$INSUNITS
 70
     4
  9
$HYPERLINKBASE
  1

  9
$STYLESHEET
  1
monochrome.ctb
  9
$XEDIT
290
     1
  9
$CEPSNTYPE
380
     0
  9
$PSTYLEMODE
290
     1
  9
$FINGERPRINTGUID
  2
{487E49EE-344A-43F6-800E-CE119D8346FF}
  9
$VERSIONGUID
  2
{DC671C6F-C665-45E4-861B-C389887E4990}
  9
$EXTNAMES
290
     1
  9
$PSVPSCALE
 40
0.0
  9
$OLESTARTUP
290
     0
  0
ENDSEC
  0
SECTION
  2
CLASSES
  0
CLASS
  1
ACDBDICTIONARYWDFLT
  2
AcDbDictionaryWithDefault
  3
ObjectDBX Classes
 90
        0
280
     0
281
     0
  0
CLASS
  1
ACDBPLACEHOLDER
  2
AcDbPlaceHolder
  3
ObjectDBX Classes
 90
        0
280
     0
281
     0
  0
CLASS
  1
LAYOUT
  2
AcDbLayout
  3
ObjectDBX Classes
 90
        0
280
     0
281
     0
  0
CLASS
  1
AMGSETTINGSOBJ
  2
AmgSettingsObj
  3
"AcadM|Product Description: AutoCAD Mechanical|Company: Autodesk"
 90
        0
280
     0
281
     0
  0
CLASS
  1
ACME_DOCUMENT
  2
AcMeDbDoc
  3
AcMeServices
 90
        0
280
     0
281
     0
  0
CLASS
  1
ACMESCOPE
  2
AcMeScope
  3
AcMeServices
 90
        0
280
     0
281
     0
  0
CLASS
  1
ACMECOMMANDHISTORY
  2
AcMeCommandHistory
  3
AcMeServices
 90
        0
280
     0
281
     0
  0
CLASS
  1
DICTIONARYVAR
  2
AcDbDictionaryVar
  3
ObjectDBX Classes
 90
        0
280
     0
281
     0
  0
CLASS
  1
ACIMSYSVARMAN
  2
AcImSysVarManager
  3
AcMeServices
 90
        0
280
     0
281
     0
  0
CLASS
  1
ACIMREALSYSVAR
  2
AcImRealSysVar
  3
AcMeServices
 90
        0
280
     0
281
     0
  0
CLASS
  1
ACIMINTSYSVAR
  2
AcImIntSysVar
  3
AcMeServices
 90
        0
280
     0
281
     0
  0
CLASS
  1
ACMEDRAWINGMAN
  2
AcMeDrawingMan
  3
AcMeServices
 90
        0
280
     0
281
     0
  0
CLASS
  1
ACMEVIEW
  2
AcMeView
  3
AcMeServices
 90
        0
280
     0
281
     0
  0
CLASS
  1
ACDBENTITYCACHE
  2
AcMeEntityCache
  3
AcMeServices
 90
        0
280
     0
281
     0
  0
CLASS
  1
GSMANAGER
  2
AcMeGSManager
  3
AcMeServices
 90
        0
280
     0
281
     0
  0
CLASS
  1
AMDTINTERNALREACTOR
  2
AmdtInternalReactor
  3
AcMeServices
 90
        0
280
     0
281
     0
  0
CLASS
  1
ACMESTATEMGR
  2
AcMeStateMgr
  3
AcMeServices
 90
        0
280
     0
281
     0
  0
CLASS
  1
ACGREFMASTER
  2
AcGrefMaster
  3
AcAttribServices
 90
        0
280
     0
281
     0
  0
CLASS
  1
ACME_DATABASE
  2
AcMeDbDatabase
  3
AcMeServices
 90
        0
280
     0
281
     0
  0
CLASS
  1
ACRFINSADJUSTERMGR
  2
AcRfInsAdjusterMgr
  3
AcMeServices
 90
        0
280
     0
281
     0
  0
CLASS
  1
ACGREFACADMASTER
  2
AcGrefacadMaster
  3
AcGrefServices
 90
        0
280
     0
281
     0
  0
CLASS
  1
AMIMASTER
  2
AmiMaster
  3
AmiServices
 90
        0
280
     0
281
     0
  0
CLASS
  1
ACMDATADICTIONARY
  2
AcmDataDictionary
  3
"AcmSymBB|Product Description: AutoCAD Mechanical|Company: Autodesk"
 90
        0
280
     0
281
     0
  0
CLASS
  1
ACMDATAENTRYBLOCK
  2
AcmDataEntryBlock
  3
"AcmSymBB|Product Description: AutoCAD Mechanical|Company: Autodesk"
 90
        0
280
     0
281
     0
  0
CLASS
  1
ACIMSTRSYSVAR
  2
AcImStrSysVar
  3
AcMeServices
 90
        0
280
     0
281
     0
  0
CLASS
  1
ACMSTANDARDISO
  2
AcmStandardISO
  3
"Amdt_StdImp|Product Description: AutoCAD Mechanical|Company: Autodesk"
 90
        0
280
     0
281
     0
  0
CLASS
  1
AMGOBJPROPCFG
  2
AmgObjPropCfg
  3
"AmgLay|Product Description: AutoCAD Mechanical|Company: Autodesk"
 90
        1
280
     0
281
     0
  0
CLASS
  1
AMDTEDGESTANDARDISO
  2
AmdtEdgeStdISO
  3
"Amdt_StdImp|Product Description: AutoCAD Mechanical|Company: Autodesk"
 90
        0
280
     0
281
     0
  0
CLASS
  1
ACMSURFSTANDARDISO
  2
AcmSurfTextStdISO
  3
"Amdt_StdImp|Product Description: AutoCAD Mechanical|Company: Autodesk"
 90
        0
280
     0
281
     0
  0
CLASS
  1
ACMFCFSTANDARDISO
  2
AcmFCFStdISO
  3
"Amdt_StdImp|Product Description: AutoCAD Mechanical|Company: Autodesk"
 90
        0
280
     0
281
     0
  0
CLASS
  1
ACMWELDSTANDARDISO
  2
AcmWeldingStdISO
  3
"Amdt_StdImp|Product Description: AutoCAD Mechanical|Company: Autodesk"
 90
        0
280
     0
281
     0
  0
CLASS
  1
ACMIDSTANDARDISO
  2
AcmIdStdISO
  3
"Amdt_StdImp|Product Description: AutoCAD Mechanical|Company: Autodesk"
 90
        0
280
     0
281
     0
  0
CLASS
  1
ACMDATUMSTANDARDISO
  2
AcmDatumStdISO
  3
"Amdt_StdImp|Product Description: AutoCAD Mechanical|Company: Autodesk"
 90
        0
280
     0
281
     0
  0
CLASS
  1
ACMBOMSTANDARDISO
  2
AcmBOMStdISO
  3
"Amdt_StdImp|Product Description: AutoCAD Mechanical|Company: Autodesk"
 90
        0
280
     0
281
     0
  0
CLASS
  1
ACMDETAILSTANDARDISO
  2
AmdtDetailSymStdISO
  3
"Amdt_StdImp|Product Description: AutoCAD Mechanical|Company: Autodesk"
 90
        0
280
     0
281
     0
  0
CLASS
  1
ACMSECTIONSTANDARDISO
  2
AmdtSectionSymStdISO
  3
"Amdt_StdImp|Product Description: AutoCAD Mechanical|Company: Autodesk"
 90
        0
280
     0
281
     0
  0
CLASS
  1
ACMCENTERLINESTANDARDISO
  2
AmdtCenterLineStdISO
  3
"Amdt_StdImp|Product Description: AutoCAD Mechanical|Company: Autodesk"
 90
        0
280
     0
281
     0
  0
CLASS
  1
ACAMGLAYSTD
  2
AcAmgLayStd
  3
"AmgLay|Product Description: AutoCAD Mechanical|Company: Autodesk"
 90
        0
280
     0
281
     0
  0
CLASS
  1
ACAMGDIMSTD
  2
AcAmgDimStd
  3
"AmgDim|Product Description: AutoCAD Mechanical|Company: Autodesk"
 90
        0
280
     0
281
     0
  0
CLASS
  1
ACAMGTITLESTD
  2
AcAmgTitleStd
  3
"AmgTitle|Product Description: AutoCAD Mechanical|Company: Autodesk"
 90
        0
280
     0
281
     0
  0
CLASS
  1
ACAMGFILTERDAT
  2
AcAmgFilterDat
  3
"AcadM|Product Description: AutoCAD Mechanical|Company: Autodesk"
 90
        0
280
     0
281
     0
  0
CLASS
  1
LAYER_INDEX
  2
AcDbLayerIndex
  3
ObjectDBX Classes
 90
    32768
280
     0
281
     0
  0
CLASS
  1
IDBUFFER
  2
AcDbIdBuffer
  3
ObjectDBX Classes
 90
    32768
280
     0
281
     0
  0
CLASS
  1
PLOTSETTINGS
  2
AcDbPlotSettings
  3
ObjectDBX Classes
 90
    32768
280
     0
281
     0
  0
CLASS
  1
AMDTFORMULAUPDATEDISPATCHER
  2
AmdtFormulaUpdateDispatcher
  3
AcMeServices
 90
        0
280
     0
281
     0
  0
CLASS
  1
ACMSTANDARDANSI
  2
AcmStandardANSI
  3
"Amdt_StdImp|Product Description: AutoCAD Mechanical|Company: Autodesk"
 90
        0
280
     0
281
     0
  0
CLASS
  1
ACMSURFSTANDARDANSI
  2
AcmSurfTextStdANSI
  3
"Amdt_StdImp|Product Description: AutoCAD Mechanical|Company: Autodesk"
 90
        0
280
     0
281
     0
  0
CLASS
  1
ACMFCFSTANDARDANSI
  2
AcmFCFStdANSI
  3
"Amdt_StdImp|Product Description: AutoCAD Mechanical|Company: Autodesk"
 90
        0
280
     0
281
     0
  0
CLASS
  1
ACMWELDSTANDARDANSI
  2
AcmWeldingStdANSI
  3
"Amdt_StdImp|Product Description: AutoCAD Mechanical|Company: Autodesk"
 90
        0
280
     0
281
     0
  0
CLASS
  1
ACMIDSTANDARDANSI
  2
AcmIdStdANSI
  3
"Amdt_StdImp|Product Description: AutoCAD Mechanical|Company: Autodesk"
 90
        0
280
     0
281
     0
  0
CLASS
  1
ACMDATUMSTANDARDANSI
  2
AcmDatumStdANSI
  3
"Amdt_StdImp|Product Description: AutoCAD Mechanical|Company: Autodesk"
 90
        0
280
     0
281
     0
  0
CLASS
  1
ACMBOMSTANDARDANSI
  2
AcmBOMStdANSI
  3
"Amdt_StdImp|Product Description: AutoCAD Mechanical|Company: Autodesk"
 90
        0
280
     0
281
     0
  0
CLASS
  1
ACMDETAILSTANDARDANSI
  2
AmdtDetailSymStdANSI
  3
"Amdt_StdImp|Product Description: AutoCAD Mechanical|Company: Autodesk"
 90
        0
280
     0
281
     0
  0
CLASS
  1
ACMSECTIONSTANDARDANSI
  2
AmdtSectionSymStdANSI
  3
"Amdt_StdImp|Product Description: AutoCAD Mechanical|Company: Autodesk"
 90
        0
280
     0
281
     0
  0
CLASS
  1
ACMCENTERLINESTANDARDANSI
  2
AmdtCenterLineStdANSI
  3
"Amdt_StdImp|Product Description: AutoCAD Mechanical|Company: Autodesk"
 90
        0
280
     0
281
     0
  0
CLASS
  1
ACMBOM
  2
AcmBom
  3
"AcmSymBB|Product Description: AutoCAD Mechanical|Company: Autodesk"
 90
        0
280
     0
281
     0
  0
CLASS
  1
ACMDATAENTRYPART
  2
AcmDataEntryPart
  3
"AcmSymBB|Product Description: AutoCAD Mechanical|Company: Autodesk"
 90
    32768
280
     0
281
     0
  0
CLASS
  1
ACMPARTREF
  2
AcmPartRef
  3
"AcmSymBB|Product Description: AutoCAD Mechanical|Company: Autodesk"
 90
    35839
280
     0
281
     1
  0
CLASS
  1
ACDBCIRCARCRES
  2
AcDbCircArcRes
  3
AcGrefServices
 90
        0
280
     0
281
     0
  0
CLASS
  1
ACMBOMROW
  2
AcmBomRow
  3
"AcmSymBB|Product Description: AutoCAD Mechanical|Company: Autodesk"
 90
    32768
280
     0
281
     0
  0
CLASS
  1
ACMBALLOON
  2
AcmBalloon
  3
"AcmSymBB|Product Description: AutoCAD Mechanical|Company: Autodesk"
 90
    35839
280
     0
281
     1
  0
CLASS
  1
AMDTNOTE
  2
AmdtNote
  3
"AcmSymBB|Product Description: AutoCAD Mechanical|Company: Autodesk"
 90
     3071
280
     0
281
     1
  0
CLASS
  1
STDPART2D
  2
AmgStdPart
  3
"AmgStdPart|Product Description: AutoCAD Mechanical|Company: Autodesk"
 90
    35839
280
     0
281
     1
  0
CLASS
  1
ACDBSTDPARTRES_LINE
  2
AcDbStdPartRes_Line
  3
"AmgStdPart|Product Description: AutoCAD Mechanical|Company: Autodesk"
 90
    32768
280
     0
281
     0
  0
CLASS
  1
ACMDATAENTRY
  2
AcmDataEntry
  3
"AcmSymBB|Product Description: AutoCAD Mechanical|Company: Autodesk"
 90
        0
280
     0
281
     0
  0
CLASS
  1
ACDBOPPOLYLINERES
  2
AcDbOpPolylineRes
  3
AcGrefServices
 90
    32768
280
     0
281
     0
  0
CLASS
  1
ACMPARTLIST
  2
AcmPartList
  3
"AcmSymBB|Product Description: AutoCAD Mechanical|Company: Autodesk"
 90
    35839
280
     0
281
     1
  0
CLASS
  1
ACDBLINERES
  2
AcDbLineRes
  3
AcGrefServices
 90
        0
280
     0
281
     0
  0
CLASS
  1
ACRFINSADJ
  2
AcRfInsAdjuster
  3
AcMeServices
 90
    32768
280
     0
281
     0
  0
CLASS
  1
AM_DRAWING_MGR
  2
AcDmDwgMgr
  3
AcMechDwgViewMgmt
 90
        0
280
     0
281
     0
  0
CLASS
  1
AM_DWG_DOCUMENT
  2
AcDmDwgDocument
  3
AcMechDwgViewMgmt
 90
        0
280
     0
281
     0
  0
CLASS
  1
AM_DWG_SHEET
  2
AcDmSheet
  3
AcMechDwgViewMgmt
 90
        0
280
     0
281
     0
  0
CLASS
  1
AM_VIEWDIMPARMAP
  2
AcDmViewDimParMap
  3
AcMechDwgViewMgmt
 90
        0
280
     0
281
     0
  0
CLASS
  1
AM_DWGMGR_NAME
  2
AcDmDwgMgrName
  3
AcMechDwgViewMgmt
 90
        0
280
     0
281
     0
  0
CLASS
  1
AMDTMENUSTATEMGR
  2
AmdtMenuStateMgr
  3
McadcomServices
 90
        0
280
     0
281
     0
  0
CLASS
  1
AMDTMCOMMENUSTATE
  2
AmdtMcomMenuState
  3
McadcomServices
 90
        0
280
     0
281
     0
  0
CLASS
  1
ASAPP
  2
AcAsAppObject
  3
AutoSurfServices
 90
        0
280
     0
281
     0
  0
CLASS
  1
IM_STATIC_MAN
  2
AcImStaticVarManager
  3
AcMeServices
 90
        0
280
     0
281
     0
  0
CLASS
  1
ACIMDBLSTATICVAR
  2
AcImDblStaticVar
  3
AcMeServices
 90
        0
280
     0
281
     0
  0
CLASS
  1
ACIMSTRSTATICVAR
  2
AcImStrStaticVar
  3
AcMeServices
 90
        0
280
     0
281
     0
  0
CLASS
  1
ACIMINTSTATICVAR
  2
AcImIntStaticVar
  3
AcMeServices
 90
        0
280
     0
281
     0
  0
CLASS
  1
ACASGREFMASTER
  2
AcAsGrefMaster
  3
AutoSurfResolverServices
 90
        0
280
     0
281
     0
  0
CLASS
  1
ACADGREFMODULE
  2
AcAdGrefModule
  3
AdGrefServices
 90
        0
280
     0
281
     0
  0
CLASS
  1
AMDTMAPISURFMOUDULE
  2
AmdtMApiSurfModule
  3
MApiSurfServices
 90
        0
280
     0
281
     0
  0
CLASS
  1
MAPIAMMOUDLE
  2
MApiAmModule
  3
MApiAmServices
 90
        0
280
     0
281
     0
  0
CLASS
  1
AMDTADMENUSTATE
  2
AmdtAdMenuState
  3
DesignerServices
 90
        0
280
     0
281
     0
  0
CLASS
  1
ADAPPL
  2
AcAdAppl
  3
DesignerServices
 90
        0
280
     0
281
     0
  0
CLASS
  1
DEPMGR
  2
AcAdDepMgr
  3
DesignerServices
 90
        0
280
     0
281
     0
  0
CLASS
  1
PARAMMGR
  2
AcAdParamMgr
  3
DesignerServices
 90
        0
280
     0
281
     0
  0
CLASS
  1
PARAMSCOPE
  2
AcAdParamScope
  3
DesignerServices
 90
        0
280
     0
281
     0
  0
CLASS
  1
NAMEDAPPL
  2
AcAdNamedAppl
  3
DesignerServices
 90
        0
280
     0
281
     0
  0
CLASS
  1
ADHNTMPLT
  2
AdHoleNoteTemplateMgr
  3
DesignerServices
 90
    32768
280
     0
281
     0
  0
CLASS
  1
AM_HNTEMPLATE_MGR_NAME
  2
AdHoleNoteTemplateMgrName
  3
DesignerServices
 90
    32768
280
     0
281
     0
  0
CLASS
  1
AMDTDMMENUSTATE
  2
AmdtDmMenuState
  3
AcMechDwgViewMgmt
 90
        0
280
     0
281
     0
  0
CLASS
  1
MAPIADMODULE
  2
MApiAdModule
  3
MApiAdServices
 90
        0
280
     0
281
     0
  0
CLASS
  1
AMDTAMMENUSTATE
  2
AmdtAmMenuState
  3
DesignerAssemblies
 90
        0
280
     0
281
     0
  0
CLASS
  1
ACAMPROJECT
  2
AcAmProject
  3
DesignerAssemblies
 90
        0
280
     0
281
     0
  0
CLASS
  1
ACAMGRCOMPDEF
  2
AcAmGrCompDef
  3
DesignerAssemblies
 90
        0
280
     0
281
     0
  0
CLASS
  1
ACCMCONTEXT
  2
AcCmContext
  3
DesignerAssemblies
 90
        0
280
     0
281
     0
  0
CLASS
  1
ACAMCOMPDEF
  2
AcAmCompDef
  3
DesignerAssemblies
 90
        0
280
     0
281
     0
  0
CLASS
  1
ACAMCOMPDEFMGR
  2
AcAmCompDefMgr
  3
DesignerAssemblies
 90
        0
280
     0
281
     0
  0
CLASS
  1
AMCONTEXTMGR
  2
AcAmContextMgr
  3
DesignerAssemblies
 90
        0
280
     0
281
     0
  0
CLASS
  1
ACAMCONTEXTMODELER
  2
AcAmContextModeler
  3
DesignerAssemblies
 90
        0
280
     0
281
     0
  0
CLASS
  1
CATALOGSTATE
  2
AcAmCatalogState
  3
DesignerAssemblies
 90
        0
280
     0
281
     0
  0
CLASS
  1
ACAMGRCOMPDEFSET
  2
AcAmGrCompDefSet
  3
DesignerAssemblies
 90
        0
280
     0
281
     0
  0
CLASS
  1
AMDTBROWSERDBTAB
  2
AmdtBrowserDbTab
  3
McadcomServices
 90
        0
280
     0
281
     0
  0
CLASS
  1
CBROWSERAPPOBJECT
  2
CBrowserAppObject
  3
McadcomServices
 90
        0
280
     0
281
     0
  0
CLASS
  1
DM_PLACEHOLDER
  2
AcDmSelsetPlaceholder
  3
AcMechDwgViewMgmt
 90
        0
280
     0
281
     0
  0
CLASS
  1
ACMPICKOBJ
  2
AcmPickEnt
  3
"AcmSymBB|Product Description: AutoCAD Mechanical|Company: Autodesk"
 90
    32768
280
     0
281
     1
  0
CLASS
  1
ACMNOTESTANDARDISO
  2
AmdtNoteStdISO
  3
"Amdt_StdImp|Product Description: AutoCAD Mechanical|Company: Autodesk"
 90
        0
280
     0
281
     0
  0
CLASS
  1
ACMNOTESTANDARDANSI
  2
AmdtNoteStdANSI
  3
"Amdt_StdImp|Product Description: AutoCAD Mechanical|Company: Autodesk"
 90
        0
280
     0
281
     0
  0
CLASS
  1
ACMTHREADLINESTANDARDISO
  2
AmdtThreadLineStdISO
  3
"Amdt_StdImp|Product Description: AutoCAD Mechanical|Company: Autodesk"
 90
        0
280
     0
281
     0
  0
CLASS
  1
ACMTHREADLINESTANDARDANSI
  2
AmdtThreadLineStdANSI
  3
"Amdt_StdImp|Product Description: AutoCAD Mechanical|Company: Autodesk"
 90
        0
280
     0
281
     0
  0
CLASS
  1
TABLESTYLE
  2
AcDbTableStyle
  3
ObjectDBX Classes
 90
     4095
280
     0
281
     0
  0
CLASS
  1
SORTENTSTABLE
  2
AcDbSortentsTable
  3
ObjectDBX Classes
 90
        0
280
     0
281
     0
  0
CLASS
  1
MATERIAL
  2
AcDbMaterial
  3
ObjectDBX Classes
 90
     1153
280
     0
281
     0
  0
CLASS
  1
VISUALSTYLE
  2
AcDbVisualStyle
  3
ObjectDBX Classes
 90
     4095
280
     0
281
     0
  0
CLASS
  1
ACRFATTGENMGR
  2
AcRfAttGeneralMgr
  3
AcAttribServices
 90
        0
280
     0
281
     0
  0
CLASS
  1
ACRFOBJATTMGR
  2
AcRfObjAttGroupMgr
  3
AcAttribServices
 90
        0
280
     0
281
     0
  0
CLASS
  1
ACRFMCADAPIATTHOLDER
  2
AcRfMCADAPIAttHolder
  3
AcAttribServices
 90
        0
280
     0
281
     0
  0
CLASS
  1
AMDTSYSATTR
  2
AmdtSystemAttribute
  3
AcAttribServices
 90
        0
280
     0
281
     0
  0
CLASS
  1
ACMTAPERSTANDARDISO
  2
AcmTaperStdISO
  3
"Amdt_StdImp|Product Description: AutoCAD Mechanical|Company: Autodesk"
 90
        0
280
     0
281
     0
  0
CLASS
  1
CAMSSTRUCTBTNSTATE
  2
StructBtnState
  3
L"DesignerAssemblies"
 90
        0
280
     0
281
     0
  0
CLASS
  1
DIMASSOC
  2
AcDbDimAssoc
  3
"AcDbDimAssoc|Product Desc:     AcDim ARX App For Dimension|Company:          Autodesk, Inc.|WEB Address:      www.autodesk.com"
 90
        0
280
     0
281
     0
  0
CLASS
  1
EXACXREFPANELOBJECT
  2
ExAcXREFPanelObject
  3
EXAC_ESW
 90
    33793
280
     0
281
     0
  0
CLASS
  1
NPOCOLLECTION
  2
AcDbImpNonPersistentObjectsCollection
  3
ObjectDBX Classes
 90
    33921
280
     0
281
     0
  0
CLASS
  1
AMDTEDGESTANDARDISO13715
  2
AmdtEdgeStdISO13715
  3
"Amdt_StdImp|Product Description: AutoCAD Mechanical|Company: Autodesk"
 90
        0
280
     0
281
     0
  0
CLASS
  1
AMDTNOTETEMPLATEDB
  2
AmdtNoteTemplateDB
  3
AMDT_STDIMP_MODULE_NAME
 90
        0
280
     0
281
     0
  0
CLASS
  1
ACAMGHOLECHARTSTDISO
  2
AcAmgHoleChartStdISO
  3
ACMSYMBB_MODULE_NAME
 90
        0
280
     0
281
     0
  0
CLASS
  1
ACAMSTDPCOMPDEF
  2
AcAmStdpCompDef
  3
DesignerAssemblies
 90
    32768
280
     0
281
     0
  0
CLASS
  1
ACAMCOMP
  2
AcAmComp
  3
DesignerAssemblies
 90
    32768
280
     0
281
     0
  0
CLASS
  1
AC_AM_STDP_VIEW_DEF
  2
AcAmStdpViewDef
  3
DesignerAssemblies
 90
    32768
280
     0
281
     0
  0
CLASS
  1
AC_AM_MVD_DEP_MGR
  2
AcAmMVDdepMgr
  3
DesignerAssemblies
 90
        0
280
     0
281
     0
  0
CLASS
  1
AC_AM_MASTER_VIEW_DEF
  2
AcAmMasterViewDef
  3
DesignerAssemblies
 90
        0
280
     0
281
     0
  0
CLASS
  1
AC_AM_DIRTY_NODES
  2
AcAmDirtyNodes
  3
DesignerAssemblies
 90
        0
280
     0
281
     0
  0
CLASS
  1
AC_AM_MAPPER_CACHE
  2
AcAmMapperCache
  3
DesignerAssemblies
 90
        0
280
     0
281
     0
  0
CLASS
  1
ACAMMVDBACKUPOBJECT
  2
AcAmMVDBackupObject
  3
DesignerAssemblies
 90
        0
280
     0
281
     0
  0
CLASS
  1
AC_AM_COMP_VIEW_INST
  2
AcAmCompView
  3
DesignerAssemblies
 90
    32768
280
     0
281
     0
  0
CLASS
  1
AC_AM_2D_XREF_MGR
  2
AcAmXrefMgr2d
  3
DesignerAssemblies
 90
        0
280
     0
281
     0
  0
CLASS
  1
AC_AM_HIDE_SITUATION
  2
AcAmHideSituation
  3
DesignerAssemblies
 90
    32768
280
     0
281
     0
  0
CLASS
  1
ACMTAPERSTANDARDANSI
  2
AcmTaperStdANSI
  3
"Amdt_StdImp|Product Description: AutoCAD Mechanical|Company: Autodesk"
 90
        0
280
     0
281
     0
  0
CLASS
  1
ACAMGHOLECHARTSTDANSI
  2
AcAmgHoleChartStdANSI
  3
ACMSYMBB_MODULE_NAME
 90
        0
280
     0
281
     0
  0
CLASS
  1
ACDBPOLYLINERES
  2
AcDbPolylineRes
  3
AcGrefServices
 90
        0
280
     0
281
     0
  0
CLASS
  1
AMDTACMWBLOCKBOMENTITY
  2
AmdtAcmWblockBomEntity
  3
"AcmSymBB|Product Description: AutoCAD Mechanical|Company: Autodesk"
 90
     3071
280
     0
281
     1
  0
CLASS
  1
ACDBDIMENSIONRES
  2
AcDbDimensionRes
  3
L"AcDbDimensionRes|Product Description: AutoCAD Mechanical 2000|Company: Autodesk"
 90
        0
280
     0
281
     0
  0
CLASS
  1
AMDTSECTIONSYM
  2
AmdtSectionSym
  3
"AcmSymBB|Product Description: AutoCAD Mechanical|Company: Autodesk"
 90
    35839
280
     0
281
     1
  0
CLASS
  1
AMDTSECTIONSYMLABEL
  2
AmdtSectionSymLabel
  3
"AcmSymBB|Product Description: AutoCAD Mechanical|Company: Autodesk"
 90
    35839
280
     0
281
     1
  0
ENDSEC
  0
SECTION
  2
TABLES
  0
TABLE
  2
VPORT
  5
8
330
0
100
AcDbSymbolTable
 70
     1
  0
VPORT
  5
B0EC
330
8
100
AcDbSymbolTableRecord
100
AcDbViewportTableRecord
  2
*Active
 70
     0
 10
0.0
 20
0.0
 11
1.0
 21
1.0
 12
3366.244158481978
 22
-398.3365384021454
 13
0.0
 23
0.0
 14
2.5
 24
2.5
 15
10.0
 25
10.0
 16
0.0
 26
0.0
 36
1.0
 17
0.0
 27
0.0
 37
0.0
 40
914.5881330082774
 41
1.348039215686274
 42
50.0
 43
-1370.695619172058
 44
-1370.695619172058
 50
0.0
 51
0.0
 71
     0
 72
   100
 73
     1
 74
     3
 75
     0
 76
     0
 77
     0
 78
     0
281
     0
 65
     0
110
0.0
120
0.0
130
0.0
111
1.0
121
0.0
131
0.0
112
0.0
122
1.0
132
0.0
 79
     0
146
0.0
  0
ENDTAB
  0
TABLE
  2
LTYPE
  5
5
330
0
100
AcDbSymbolTable
 70
    24
  0
LTYPE
  5
14
330
5
100
AcDbSymbolTableRecord
100
AcDbLinetypeTableRecord
  2
ByBlock
 70
     0
  3

 72
    65
 73
     0
 40
0.0
  0
LTYPE
  5
15
330
5
100
AcDbSymbolTableRecord
100
AcDbLinetypeTableRecord
  2
ByLayer
 70
     0
  3

 72
    65
 73
     0
 40
0.0
  0
LTYPE
  5
16
330
5
100
AcDbSymbolTableRecord
100
AcDbLinetypeTableRecord
  2
Continuous
 70
     0
  3
Solid line
 72
    65
 73
     0
 40
0.0
  0
LTYPE
  5
4F
330
5
100
AcDbSymbolTableRecord
100
AcDbLinetypeTableRecord
  2
AM_ISO02W050
 70
     0
  3
__ __ __ __ __ __ __ __ __ __ __ __ __ __ __
 72
    65
 73
     2
 40
7.5
 49
6.0
 74
     0
 49
-1.5
 74
     0
  0
LTYPE
  5
52
330
5
100
AcDbSymbolTableRecord
100
AcDbLinetypeTableRecord
  2
Amconstr
 70
     0
  3
_______________________
 72
    65
 73
     2
 40
9999.0
 49
9999.0
 74
     0
 49
0.0
 74
     0
  0
LTYPE
  5
64
330
5
100
AcDbSymbolTableRecord
100
AcDbLinetypeTableRecord
  2
ACISOWELD
 70
     0
  3
_ _ _ _ _
 72
    65
 73
     2
 40
2.0
 49
2.0
 74
     0
 49
-1.0
 74
     0
  0
LTYPE
  5
65
330
5
100
AcDbSymbolTableRecord
100
AcDbLinetypeTableRecord
  2
ACISOTGB
 70
     0
  3
__ . . __ . .
 72
    65
 73
     6
 40
9.0
 49
4.0
 74
     0
 49
-1.0
 74
     0
 49
1.0
 74
     0
 49
-1.0
 74
     0
 49
1.0
 74
     0
 49
-1.0
 74
     0
  0
LTYPE
  5
66
330
5
100
AcDbSymbolTableRecord
100
AcDbLinetypeTableRecord
  2
ACISOTGL
 70
     0
  3
_ _ _ _ _
 72
    65
 73
     2
 40
3.0
 49
2.0
 74
     0
 49
-1.0
 74
     0
  0
LTYPE
  5
69
330
5
100
AcDbSymbolTableRecord
100
AcDbLinetypeTableRecord
  2
CENTER
 70
     0
  3
__ . __
 72
    65
 73
     4
 40
7.0
 49
4.0
 74
     0
 49
-1.0
 74
     0
 49
1.0
 74
     0
 49
-1.0
 74
     0
  0
LTYPE
  5
A6E
330
5
100
AcDbSymbolTableRecord
100
AcDbLinetypeTableRecord
  2
PHANTOM2
 70
     0
  3
Phantom (.5x) ___ _ _ ___ _ _ ___ _ _ ___ _ _
 72
    65
 73
     6
 40
31.75
 49
15.875
 74
     0
 49
-3.174999999999999
 74
     0
 49
3.174999999999999
 74
     0
 49
-3.174999999999999
 74
     0
 49
3.174999999999999
 74
     0
 49
-3.174999999999999
 74
     0
  0
LTYPE
  5
4DED
330
5
100
AcDbSymbolTableRecord
100
AcDbLinetypeTableRecord
  2
中線
 70
     0
  3
___________________
 72
    65
 73
     2
 40
2.0
 49
1.0
 74
     0
 49
1.0
 74
     0
  0
LTYPE
  5
4DF6
330
5
100
AcDbSymbolTableRecord
100
AcDbLinetypeTableRecord
  2
細線
 70
     0
  3
___________________
 72
    65
 73
     2
 40
2.0
 49
1.0
 74
     0
 49
1.0
 74
     0
  0
LTYPE
  5
4DF7
330
5
100
AcDbSymbolTableRecord
100
AcDbLinetypeTableRecord
  2
太線
 70
     0
  3
___________________
 72
    65
 73
     2
 40
2.0
 49
1.0
 74
     0
 49
1.0
 74
     0
  0
LTYPE
  5
4EA7
330
5
100
AcDbSymbolTableRecord
100
AcDbLinetypeTableRecord
  2
文字
 70
     0
  3
_________________
 72
    65
 73
     2
 40
2.0
 49
1.0
 74
     0
 49
1.0
 74
     0
  0
LTYPE
  5
4EA9
330
5
100
AcDbSymbolTableRecord
100
AcDbLinetypeTableRecord
  2
寸法線
 70
     0
  3
________________
 72
    65
 73
     2
 40
2.0
 49
1.0
 74
     0
 49
1.0
 74
     0
  0
LTYPE
  5
4F12
330
5
100
AcDbSymbolTableRecord
100
AcDbLinetypeTableRecord
  2
ハッチング
 70
     0
  3
_________________
 72
    65
 73
     2
 40
2.0
 49
1.0
 74
     0
 49
1.0
 74
     0
  0
LTYPE
  5
5180
330
5
100
AcDbSymbolTableRecord
100
AcDbLinetypeTableRecord
  2
陰線1
 70
     0
  3
__ __ __ __
 72
    65
 73
     2
 40
4.0
 49
2.2
 74
     0
 49
-1.8
 74
     0
  0
LTYPE
  5
5182
330
5
100
AcDbSymbolTableRecord
100
AcDbLinetypeTableRecord
  2
切断線
 70
     0
  3
/\/-/\/-/\/-/\/-/\/-/\/
 72
    65
 73
     2
 40
11.0001
 49
0.0001
 74
     4
 75
   135
340
56
 46
0.04
 50
0.0
 44
0.0
 45
0.0
 49
-11.0
 74
     0
  0
LTYPE
  5
5183
330
5
100
AcDbSymbolTableRecord
100
AcDbLinetypeTableRecord
  2
想像線1
 70
     0
  3
__ __ __ _____ __ __ ____
 72
    65
 73
     6
 40
14.5
 49
6.0
 74
     0
 49
-1.5
 74
     0
 49
2.0
 74
     0
 49
-1.5
 74
     0
 49
2.0
 74
     0
 49
-1.5
 74
     0
  0
LTYPE
  5
5185
330
5
100
AcDbSymbolTableRecord
100
AcDbLinetypeTableRecord
  2
中心線1
 70
     0
  3
___ _ ___ _ ___
 72
    65
 73
     4
 40
18.0
 49
12.0
 74
     0
 49
-2.0
 74
     0
 49
2.0
 74
     0
 49
-2.0
 74
     0
  0
LTYPE
  5
5188
330
5
100
AcDbSymbolTableRecord
100
AcDbLinetypeTableRecord
  2
補助線
 70
     0
  3
______________
 72
    65
 73
     2
 40
2.0
 49
1.0
 74
     0
 49
1.0
 74
     0
  0
LTYPE
  5
6427
330
5
100
AcDbSymbolTableRecord
100
AcDbLinetypeTableRecord
  2
HIDDEN
 70
     0
  3
Hidden __ __ __ __ __ __ __ __ __ __ __ __ __ _
 72
    65
 73
     2
 40
0.375
 49
0.25
 74
     0
 49
-0.125
 74
     0
  0
LTYPE
  5
AF95
330
5
100
AcDbSymbolTableRecord
100
AcDbLinetypeTableRecord
  2
AM_ISO08W050
 70
     0
  3
____ . ____ . ____ . ____ . ____ . ____ . ____
 72
    65
 73
     4
 40
18.0
 49
12.0
 74
     0
 49
-1.5
 74
     0
 49
3.0
 74
     0
 49
-1.5
 74
     0
  0
LTYPE
  5
D34C
330
5
100
AcDbSymbolTableRecord
100
AcDbLinetypeTableRecord
  2
ACANSTGB
 70
     0
  3
__ . . __ . .
 72
    65
 73
     6
 40
0.35433070866
 49
0.15748031496
 74
     0
 49
-0.03937007874
 74
     0
 49
0.03937007874
 74
     0
 49
-0.03937007874
 74
     0
 49
0.03937007874
 74
     0
 49
-0.03937007874
 74
     0
  0
LTYPE
  5
D34D
330
5
100
AcDbSymbolTableRecord
100
AcDbLinetypeTableRecord
  2
ACANSTGL
 70
     0
  3
_ _ _ _ _
 72
    65
 73
     2
 40
0.11811023622
 49
0.07874015748
 74
     0
 49
-0.03937007874
 74
     0
  0
ENDTAB
  0
TABLE
  2
LAYER
  5
2
102
{ACAD_XDICTIONARY
360
3F95
102
}
330
0
100
AcDbSymbolTable
 70
    38
  0
LAYER
  5
10
330
2
100
AcDbSymbolTableRecord
100
AcDbLayerTableRecord
  2
0
 70
     0
 62
     7
  6
Continuous
370
    -3
390
F
  0
LAYER
  5
6D1
330
2
100
AcDbSymbolTableRecord
100
AcDbLayerTableRecord
  2
Defpoints
 70
     0
 62
     7
  6
Continuous
290
     0
370
    -3
390
F
  0
LAYER
  5
5F85
330
2
100
AcDbSymbolTableRecord
100
AcDbLayerTableRecord
  2
AM_0
 70
     0
 62
     7
  6
中線
370
    25
390
F
1001
AcAecLayerStandard
1000

1000

  0
LAYER
  5
AC9F
330
2
100
AcDbSymbolTableRecord
100
AcDbLayerTableRecord
  2
size
 70
     0
 62
     5
  6
Continuous
290
     0
370
    25
390
F
  0
LAYER
  5
ACA0
330
2
100
AcDbSymbolTableRecord
100
AcDbLayerTableRecord
  2
waku
 70
     0
 62
     7
  6
Continuous
370
    35
390
F
  0
LAYER
  5
ACA1
330
2
100
AcDbSymbolTableRecord
100
AcDbLayerTableRecord
  2
AM_6
 70
     0
 62
     2
  6
文字
370
    15
390
F
1001
AcAecLayerStandard
1000

1000

  0
LAYER
  5
AD64
330
2
100
AcDbSymbolTableRecord
100
AcDbLayerTableRecord
  2
AM_2
 70
     0
 62
     1
  6
細線
370
    15
390
F
1001
AcAecLayerStandard
1000

1000

  0
LAYER
  5
AD68
330
2
100
AcDbSymbolTableRecord
100
AcDbLayerTableRecord
  2
AM_5
 70
     0
 62
     3
  6
寸法線
370
    15
390
F
1001
AcAecLayerStandard
1000

1000

  0
LAYER
  5
B5FB
330
2
100
AcDbSymbolTableRecord
100
AcDbLayerTableRecord
  2
0部品18
 70
     0
 62
   150
  6
細線
370
    30
390
F
1001
AcAecLayerStandard
1000

1000

  0
ENDTAB
  0
TABLE
  2
STYLE
  5
3
330
0
100
AcDbSymbolTable
 70
     8
  0
STYLE
  5
11
330
3
100
AcDbSymbolTableRecord
100
AcDbTextStyleTableRecord
  2
STANDARD
 70
     0
 40
0.0
 41
0.7
 50
0.0
 71
     0
 42
3.2
  3
romans.shx
  4
extfont.shx
  0
STYLE
  5
56
330
3
100
AcDbSymbolTableRecord
100
AcDbTextStyleTableRecord
  2

 70
     1
 40
0.0
 41
1.0
 50
0.0
 71
     0
 42
2.5
  3
ltypeshp.shx
  4

  0
STYLE
  5
58
330
3
100
AcDbSymbolTableRecord
100
AcDbTextStyleTableRecord
  2
ACISOTS
 70
     0
 40
1.0
 41
1.0
 50
0.0
 71
     0
 42
2.5
  3
isocp.shx
  4
extfont.shx
  0
STYLE
  5
63
330
3
100
AcDbSymbolTableRecord
100
AcDbTextStyleTableRecord
  2
ACISOGDT
 70
     0
 40
0.0
 41
1.0
 50
0.0
 71
     0
 42
2.5
  3
amgdt.shx
  4

  0
STYLE
  5
A74
330
3
100
AcDbSymbolTableRecord
100
AcDbTextStyleTableRecord
  2
DIM
 70
     0
 40
0.0
 41
1.0
 50
0.0
 71
     0
 42
2.5
  3
monotxt.shx
  4
extfont.shx
  0
STYLE
  5
D352
330
3
100
AcDbSymbolTableRecord
100
AcDbTextStyleTableRecord
  2
ACANSTS
 70
     0
 40
1.0
 41
1.0
 50
0.0
 71
     0
 42
0.2
  3
romans.shx
  4
extfont.shx
  0
STYLE
  5
D353
330
3
100
AcDbSymbolTableRecord
100
AcDbTextStyleTableRecord
  2
ACANSGDT
 70
     0
 40
0.0
 41
1.0
 50
0.0
 71
     0
 42
0.2
  3
amgdt.shx
  4

  0
ENDTAB
  0
TABLE
  2
VIEW
  5
6
330
0
100
AcDbSymbolTable
 70
     6
  0
VIEW
  5
AE1
330
6
100
AcDbSymbolTableRecord
100
AcDbViewTableRecord
  2
AM_VIEW1
 70
     0
 40
440.7792915531335
 10
3313.51691678317
 20
-4580.120806277942
 41
594.0
 11
0.0
 21
0.0
 31
1.0
 12
0.0
 22
0.0
 32
0.0
 42
50.0
 43
-1370.695619172058
 44
-1370.695619172058
 50
0.0
 71
     0
281
     0
 72
     0
  0
VIEW
  5
AE2
330
6
100
AcDbSymbolTableRecord
100
AcDbViewTableRecord
  2
AM_VIEW2
 70
     0
 40
440.7792915531335
 10
3907.516916783171
 20
-4580.120806277942
 41
594.0
 11
0.0
 21
0.0
 31
1.0
 12
0.0
 22
0.0
 32
0.0
 42
50.0
 43
-1370.695619172058
 44
-1370.695619172058
 50
0.0
 71
     0
281
     0
 72
     0
  0
VIEW
  5
AE3
330
6
100
AcDbSymbolTableRecord
100
AcDbViewTableRecord
  2
AM_VIEW3
 70
     0
 40
440.7792915531335
 10
3313.51691678317
 20
-4979.341514724808
 41
594.0
 11
0.0
 21
0.0
 31
1.0
 12
0.0
 22
0.0
 32
0.0
 42
50.0
 43
-1370.695619172058
 44
-1370.695619172058
 50
0.0
 71
     0
281
     0
 72
     0
  0
VIEW
  5
AE4
330
6
100
AcDbSymbolTableRecord
100
AcDbViewTableRecord
  2
AM_VIEW4
 70
     0
 40
440.7792915531335
 10
3907.516916783171
 20
-4979.341514724808
 41
594.0
 11
0.0
 21
0.0
 31
1.0
 12
0.0
 22
0.0
 32
0.0
 42
50.0
 43
-1370.695619172058
 44
-1370.695619172058
 50
0.0
 71
     0
281
     0
 72
     0
  0
VIEW
  5
AE5
330
6
100
AcDbSymbolTableRecord
100
AcDbViewTableRecord
  2
AM_VIEW5
 70
     0
 40
440.7792915531335
 10
3610.516916783171
 20
-4779.731160501374
 41
594.0
 11
0.0
 21
0.0
 31
1.0
 12
0.0
 22
0.0
 32
0.0
 42
50.0
 43
-1370.695619172058
 44
-1370.695619172058
 50
0.0
 71
     0
281
     0
 72
     0
  0
VIEW
  5
AE6
330
6
100
AcDbSymbolTableRecord
100
AcDbViewTableRecord
  2
AM_VIEW6
 70
     0
 40
881.5497675204351
 10
3610.516916783171
 20
-4779.731160501374
 41
1187.98812
 11
0.0
 21
0.0
 31
1.0
 12
0.0
 22
0.0
 32
0.0
 42
50.0
 43
-1370.695619172058
 44
-1370.695619172058
 50
0.0
 71
     0
281
     0
 72
     0
  0
ENDTAB
  0
TABLE
  2
UCS
  5
7
330
0
100
AcDbSymbolTable
 70
     0
  0
ENDTAB
  0
TABLE
  2
APPID
  5
9
330
0
100
AcDbSymbolTable
 70
    67
  0
APPID
  5
12
330
9
100
AcDbSymbolTableRecord
100
AcDbRegAppTableRecord
  2
ACAD
 70
     0
  0
APPID
  5
30
330
9
100
AcDbSymbolTableRecord
100
AcDbRegAppTableRecord
  2
MCAD_NO_VIS
 70
     0
  0
APPID
  5
31
330
9
100
AcDbSymbolTableRecord
100
AcDbRegAppTableRecord
  2
ACAD_TEMP_GRAPHIC
 70
     0
  0
APPID
  5
44
330
9
100
AcDbSymbolTableRecord
100
AcDbRegAppTableRecord
  2
ACATTRIBSERVICES
 70
     0
  0
APPID
  5
7A1
330
9
100
AcDbSymbolTableRecord
100
AcDbRegAppTableRecord
  2
GENIUS_GENDIMSH_14
 70
     0
  0
APPID
  5
A49
330
9
100
AcDbSymbolTableRecord
100
AcDbRegAppTableRecord
  2
GENIUS_GENREC_14
 70
     0
  0
APPID
  5
A4A
330
9
100
AcDbSymbolTableRecord
100
AcDbRegAppTableRecord
  2
GENIUS_GENOBJ-N-REC_13
 70
     0
  0
APPID
  5
A4B
330
9
100
AcDbSymbolTableRecord
100
AcDbRegAppTableRecord
  2
GENIUS_GENODEF_13
 70
     0
  0
APPID
  5
A4C
330
9
100
AcDbSymbolTableRecord
100
AcDbRegAppTableRecord
  2
DCO15
 70
     0
  0
APPID
  5
ADC
330
9
100
AcDbSymbolTableRecord
100
AcDbRegAppTableRecord
  2
GENIUS_GENOLIS_13
 70
     0
  0
APPID
  5
ADD
330
9
100
AcDbSymbolTableRecord
100
AcDbRegAppTableRecord
  2
GENIUS_GENOENT_13
 70
     0
  0
APPID
  5
ADE
330
9
100
AcDbSymbolTableRecord
100
AcDbRegAppTableRecord
  2
GENIUS_GENOBJ-N-TIT_13
 70
     0
  0
APPID
  5
ADF
330
9
100
AcDbSymbolTableRecord
100
AcDbRegAppTableRecord
  2
GENIUS_GENTITLE_13
 70
     0
  0
APPID
  5
AE0
330
9
100
AcDbSymbolTableRecord
100
AcDbRegAppTableRecord
  2
GENIUS_GENOREF_13
 70
     0
  0
APPID
  5
AE7
330
9
100
AcDbSymbolTableRecord
100
AcDbRegAppTableRecord
  2
GENIUS_GENSCREG_15
 70
     0
  0
APPID
  5
AE8
330
9
100
AcDbSymbolTableRecord
100
AcDbRegAppTableRecord
  2
GENIUS_GENOBJ-N-SDF_13
 70
     0
  0
APPID
  5
FAF
330
9
100
AcDbSymbolTableRecord
100
AcDbRegAppTableRecord
  2
GENIUS_GENBLLY_14
 70
     0
  0
APPID
  5
FB0
330
9
100
AcDbSymbolTableRecord
100
AcDbRegAppTableRecord
  2
GENIUS_GENTRA_14
 70
     0
  0
APPID
  5
1285
330
9
100
AcDbSymbolTableRecord
100
AcDbRegAppTableRecord
  2
GENIUS_GENDTOL_13
 70
     0
  0
APPID
  5
142D
330
9
100
AcDbSymbolTableRecord
100
AcDbRegAppTableRecord
  2
GENIUS_GENOBJ-N-CEN_13
 70
     0
  0
APPID
  5
1AB5
330
9
100
AcDbSymbolTableRecord
100
AcDbRegAppTableRecord
  2
GENIUS_GENOBJ-N-CRS_13
 70
     0
  0
APPID
  5
1B36
330
9
100
AcDbSymbolTableRecord
100
AcDbRegAppTableRecord
  2
GENIUS_GENOBJ-N-HTC_13
 70
     0
  0
APPID
  5
1B37
330
9
100
AcDbSymbolTableRecord
100
AcDbRegAppTableRecord
  2
GENIUS_GENHATCH_13
 70
     0
  0
APPID
  5
216D
330
9
100
AcDbSymbolTableRecord
100
AcDbRegAppTableRecord
  2
GENIUS_GENOBJ-N-FIL_13
 70
     0
  0
APPID
  5
2356
330
9
100
AcDbSymbolTableRecord
100
AcDbRegAppTableRecord
  2
GEVID990412420
 70
     0
  0
APPID
  5
2357
330
9
100
AcDbSymbolTableRecord
100
AcDbRegAppTableRecord
  2
GEVDC
 70
     0
  0
APPID
  5
2358
330
9
100
AcDbSymbolTableRecord
100
AcDbRegAppTableRecord
  2
GEVCON
 70
     0
  0
APPID
  5
235B
330
9
100
AcDbSymbolTableRecord
100
AcDbRegAppTableRecord
  2
GEVRADREF
 70
     0
  0
APPID
  5
2360
330
9
100
AcDbSymbolTableRecord
100
AcDbRegAppTableRecord
  2
GENIUS_GENBH_13
 70
     0
  0
APPID
  5
2362
330
9
100
AcDbSymbolTableRecord
100
AcDbRegAppTableRecord
  2
GENIUS_GENOBJ-NBEHI-BHF_13
 70
     0
  0
APPID
  5
2364
330
9
100
AcDbSymbolTableRecord
100
AcDbRegAppTableRecord
  2
GENIUS_GENOBJ-NBEHI-BHB_13
 70
     0
  0
APPID
  5
2379
330
9
100
AcDbSymbolTableRecord
100
AcDbRegAppTableRecord
  2
GENIUS_GENOBJ-F-SCPASSM_13
 70
     0
  0
APPID
  5
3D74
330
9
100
AcDbSymbolTableRecord
100
AcDbRegAppTableRecord
  2
GENIUS_GENDIM_13
 70
     0
  0
APPID
  5
3D76
330
9
100
AcDbSymbolTableRecord
100
AcDbRegAppTableRecord
  2
GENIUS_GE3DTOL_13
 70
     0
  0
APPID
  5
3D9C
330
9
100
AcDbSymbolTableRecord
100
AcDbRegAppTableRecord
  2
AD_DRAW
 70
     0
  0
APPID
  5
3DE8
330
9
100
AcDbSymbolTableRecord
100
AcDbRegAppTableRecord
  2
ASURF_PCURVE_APPNAME
 70
     0
  0
APPID
  5
3DED
330
9
100
AcDbSymbolTableRecord
100
AcDbRegAppTableRecord
  2
AMG_3D2D_5.0
 70
     0
  0
APPID
  5
3E1B
330
9
100
AcDbSymbolTableRecord
100
AcDbRegAppTableRecord
  2
DESIGNERASSEMBLIES
 70
     0
  0
APPID
  5
3E20
330
9
100
AcDbSymbolTableRecord
100
AcDbRegAppTableRecord
  2
ACADM_DIM_EDIT
 70
     0
  0
APPID
  5
3E21
330
9
100
AcDbSymbolTableRecord
100
AcDbRegAppTableRecord
  2
AMDT_DM_ADJ
 70
     0
  0
APPID
  5
4143
330
9
100
AcDbSymbolTableRecord
100
AcDbRegAppTableRecord
  2
GENIUS_GENFIL_13
 70
     0
  0
APPID
  5
4144
330
9
100
AcDbSymbolTableRecord
100
AcDbRegAppTableRecord
  2
GENIUS_GENOBJ-N-CHA_13
 70
     0
  0
APPID
  5
4E17
330
9
100
AcDbSymbolTableRecord
100
AcDbRegAppTableRecord
  2
GEVID1008153417
 70
     0
  0
APPID
  5
4E58
330
9
100
AcDbSymbolTableRecord
100
AcDbRegAppTableRecord
  2
GEVID1008153418
 70
     0
  0
APPID
  5
4E5E
330
9
100
AcDbSymbolTableRecord
100
AcDbRegAppTableRecord
  2
GEVID1008153419
 70
     0
  0
APPID
  5
4E64
330
9
100
AcDbSymbolTableRecord
100
AcDbRegAppTableRecord
  2
GEVID1008153420
 70
     0
  0
APPID
  5
4E75
330
9
100
AcDbSymbolTableRecord
100
AcDbRegAppTableRecord
  2
GEVID1008153421
 70
     0
  0
APPID
  5
4EB7
330
9
100
AcDbSymbolTableRecord
100
AcDbRegAppTableRecord
  2
GENIUS_AMGTXT_16
 70
     0
  0
APPID
  5
7645
330
9
100
AcDbSymbolTableRecord
100
AcDbRegAppTableRecord
  2
GENIUS_GENOBJ-N-DIM_13
 70
     0
  0
APPID
  5
AAD0
330
9
100
AcDbSymbolTableRecord
100
AcDbRegAppTableRecord
  2
ACAD_DSTYLE_DIMARC_LENGTH_SYMBOL
 70
     0
  0
APPID
  5
AAD1
330
9
100
AcDbSymbolTableRecord
100
AcDbRegAppTableRecord
  2
ACAD_DSTYLE_DIMJOGGED_JOGANGLE_SYMBOL
 70
     0
  0
APPID
  5
AAFD
330
9
100
AcDbSymbolTableRecord
100
AcDbRegAppTableRecord
  2
ACAD_PSEXT
 70
     0
  0
APPID
  5
AD61
330
9
100
AcDbSymbolTableRecord
100
AcDbRegAppTableRecord
  2
AcAecLayerStandard
 70
     0
  0
APPID
  5
AEE3
330
9
100
AcDbSymbolTableRecord
100
AcDbRegAppTableRecord
  2
ACAD_EXEMPT_FROM_CAD_STANDARDS
 70
     0
  0
APPID
  5
B1BE
330
9
100
AcDbSymbolTableRecord
100
AcDbRegAppTableRecord
  2
GENIUS_GENCEN_19
 70
     0
  0
APPID
  5
B4E1
330
9
100
AcDbSymbolTableRecord
100
AcDbRegAppTableRecord
  2
ACAD_MLEADERVER
 70
     0
  0
APPID
  5
CC30
330
9
100
AcDbSymbolTableRecord
100
AcDbRegAppTableRecord
  2
GEVID1295847770
 70
     0
  0
APPID
  5
CC31
330
9
100
AcDbSymbolTableRecord
100
AcDbRegAppTableRecord
  2
GEVMK
 70
     0
  0
APPID
  5
CC49
330
9
100
AcDbSymbolTableRecord
100
AcDbRegAppTableRecord
  2
AMG_2DHIDE
 70
     0
  0
APPID
  5
CC4A
330
9
100
AcDbSymbolTableRecord
100
AcDbRegAppTableRecord
  2
AMG_2DSTRUCT_BTR
 70
     0
  0
APPID
  5
CC5B
330
9
100
AcDbSymbolTableRecord
100
AcDbRegAppTableRecord
  2
ACADM_2DVIEW_IGN_NOTIFY
 70
     0
  0
APPID
  5
CC65
330
9
100
AcDbSymbolTableRecord
100
AcDbRegAppTableRecord
  2
GEVID1295847771
 70
     0
  0
APPID
  5
1E274
330
9
100
AcDbSymbolTableRecord
100
AcDbRegAppTableRecord
  2
ACAD_DSTYLE_DIMINSPECT
 70
     0
  0
APPID
  5
28791
330
9
100
AcDbSymbolTableRecord
100
AcDbRegAppTableRecord
  2
ACDBBLOCKREPETAG
 70
     0
  0
APPID
  5
28792
330
9
100
AcDbSymbolTableRecord
100
AcDbRegAppTableRecord
  2
AcDbDynamicBlockGUID
 70
     0
  0
APPID
  5
4B762
330
9
100
AcDbSymbolTableRecord
100
AcDbRegAppTableRecord
  2
ACAD_DSTYLE_DIMRADIAL_EXTENSION
 70
     0
  0
APPID
  5
64555
330
9
100
AcDbSymbolTableRecord
100
AcDbRegAppTableRecord
  2
AcDbAttr
 70
     0
  0
ENDTAB
  0
TABLE
  2
DIMSTYLE
  5
A
330
0
100
AcDbSymbolTable
 70
    30
100
AcDbDimStyleTable
 71
     3
340
2515
340
251A
340
251B
  0
DIMSTYLE
105
A76
330
A
100
AcDbSymbolTableRecord
100
AcDbDimStyleTableRecord
  2
STANDARD
 70
     0
 41
3.0
 42
1.0
 43
7.0
 44
2.0
 73
     0
 74
     0
 77
     1
140
2.799999999999999
141
0.0
143
0.0394
147
0.7
171
     4
172
     1
173
     1
176
     3
177
     3
178
     2
271
     3
272
     3
273
     8
274
     4
289
     0
340
A74
341
A66
343
A66
344
A66
  0
DIMSTYLE
105
2515
330
A
100
AcDbSymbolTableRecord
100
AcDbDimStyleTableRecord
  2
SYS
 70
     0
  4
"
 41
1.0
 42
1.0
 43
10.0
 44
1.0
 47
0.1
 48
0.1
 73
     0
 74
     0
 77
     1
 78
     8
 79
     2
140
3.5
141
0.0
143
0.0393701
146
0.71
147
1.5
172
     1
176
   256
177
   256
178
     7
271
     2
272
     2
283
     0
284
     8
340
11
371
    -1
372
    -1
1001
ACAD_DSTYLE_DIMJOGGED_JOGANGLE_SYMBOL
1070
   384
1040
0.7853981633974483
1001
ACAD_DSTYLE_DIMARC_LENGTH_SYMBOL
1070
   379
1070
     1
  0
DIMSTYLE
105
2516
330
A
100
AcDbSymbolTableRecord
100
AcDbDimStyleTableRecord
  2
SYS$3
 70
     0
  4
"
 41
2.0
 42
1.0
 43
10.0
 44
1.0
 47
0.1
 48
0.1
 73
     0
 77
     1
 78
     8
 79
     2
140
3.2
141
0.0
143
0.0393701
146
0.71
147
1.0
176
   256
177
   256
178
     2
271
     2
272
     2
283
     0
284
     8
288
     1
340
11
342
A66
371
    -1
372
    -1
1001
ACAD_DSTYLE_DIMJOGGED_JOGANGLE_SYMBOL
1070
   384
1040
0.7853981633974483
1001
ACAD_DSTYLE_DIMARC_LENGTH_SYMBOL
1070
   379
1070
     1
  0
DIMSTYLE
105
2517
330
A
100
AcDbSymbolTableRecord
100
AcDbDimStyleTableRecord
  2
SYS$4
 70
     0
  4
"
 41
2.0
 42
1.0
 43
10.0
 44
1.0
 47
0.1
 48
0.1
 73
     0
 77
     1
 78
     8
 79
     2
140
3.2
141
0.0
143
0.0393701
146
0.71
147
1.0
173
     1
176
   256
177
   256
178
     2
271
     2
272
     2
283
     0
284
     8
288
     1
340
11
344
A66
371
    -1
372
    -1
1001
ACAD_DSTYLE_DIMJOGGED_JOGANGLE_SYMBOL
1070
   384
1040
0.7853981633974483
1001
ACAD_DSTYLE_DIMARC_LENGTH_SYMBOL
1070
   379
1070
     1
  0
DIMSTYLE
105
2518
330
A
100
AcDbSymbolTableRecord
100
AcDbDimStyleTableRecord
  2
SYS$6
 70
     0
  4
"
 41
2.0
 42
1.0
 43
10.0
 44
1.0
 47
0.1
 48
0.1
 73
     0
 74
     0
 78
     8
 79
     2
140
3.2
141
0.0
143
0.0393701
146
0.71
147
1.0
172
     1
176
   256
177
   256
178
     2
271
     2
272
     2
283
     0
284
     8
340
11
341
A66
371
    -1
372
    -1
1001
ACAD_DSTYLE_DIMJOGGED_JOGANGLE_SYMBOL
1070
   384
1040
0.7853981633974483
1001
ACAD_DSTYLE_DIMARC_LENGTH_SYMBOL
1070
   379
1070
     1
  0
DIMSTYLE
105
2519
330
A
100
AcDbSymbolTableRecord
100
AcDbDimStyleTableRecord
  2
SYS$7
 70
     0
  4
"
 41
2.0
 42
1.0
 43
10.0
 44
1.0
 47
0.1
 48
0.1
 73
     0
 74
     0
 77
     1
 78
     8
 79
     2
140
3.2
141
0.0
143
0.0393701
146
0.71
147
1.0
172
     1
176
   256
177
   256
178
     2
271
     2
272
     2
283
     0
284
     8
340
11
341
A66
342
A66
371
    -1
372
    -1
1001
ACAD_DSTYLE_DIMJOGGED_JOGANGLE_SYMBOL
1070
   384
1040
0.7853981633974483
1001
ACAD_DSTYLE_DIMARC_LENGTH_SYMBOL
1070
   379
1070
     1
  0
DIMSTYLE
105
251A
330
A
100
AcDbSymbolTableRecord
100
AcDbDimStyleTableRecord
  2
SYS$SF
 70
     0
  4
"
 41
2.5
 42
1.0
 43
10.0
 44
1.0
 47
0.1
 48
0.1
 73
     0
 74
     0
 75
     1
 76
     1
 77
     1
 78
     8
 79
     2
140
3.2
141
0.0
143
0.0393701
146
0.71
147
1.0
172
     1
176
   256
177
   256
178
     2
271
     2
272
     2
283
     0
284
     8
340
11
341
6C4
342
6C4
371
    -1
372
    -1
1001
ACAD_DSTYLE_DIMJOGGED_JOGANGLE_SYMBOL
1070
   384
1040
0.7853981633974483
1001
ACAD_DSTYLE_DIMARC_LENGTH_SYMBOL
1070
   379
1070
     1
  0
DIMSTYLE
105
251B
330
A
100
AcDbSymbolTableRecord
100
AcDbDimStyleTableRecord
  2
SYS$SH
 70
     0
  4
"
 41
2.5
 42
1.0
 43
10.0
 44
1.0
 47
0.1
 48
0.1
 73
     0
 74
     0
 75
     1
 76
     1
 77
     1
 78
     8
 79
     2
140
3.2
141
0.0
143
0.0393701
144
2.0
146
0.71
147
1.0
172
     1
173
     1
176
   256
177
   256
178
     2
271
     2
272
     2
283
     0
284
     8
340
11
341
6C4
343
72
344
6C4
371
    -1
372
    -1
1001
ACAD_DSTYLE_DIMJOGGED_JOGANGLE_SYMBOL
1070
   384
1040
0.7853981633974483
1001
ACAD_DSTYLE_DIMARC_LENGTH_SYMBOL
1070
   379
1070
     1
  0
DIMSTYLE
105
2A59
330
A
100
AcDbSymbolTableRecord
100
AcDbDimStyleTableRecord
  2
SYS$2
 70
     0
  4
"
 41
1.0
 42
1.0
 43
10.0
 44
1.0
 47
0.1
 48
0.1
 73
     0
 74
     0
 77
     1
 78
     8
 79
     2
140
3.2
141
0.0
143
0.0393701
146
0.71
147
1.0
172
     1
176
   256
177
   256
178
     2
271
     2
272
     2
283
     0
284
     8
340
11
342
6C4
371
    -1
372
    -1
1001
ACAD_DSTYLE_DIMJOGGED_JOGANGLE_SYMBOL
1070
   384
1040
0.7853981633974483
1001
ACAD_DSTYLE_DIMARC_LENGTH_SYMBOL
1070
   379
1070
     1
  0
DIMSTYLE
105
2AAB
102
{ACAD_REACTORS
330
1669B
330
166D7
330
16742
330
1676E
330
1681A
330
16830
330
16846
330
168B8
330
168E8
330
16C95
330
16D13
330
18176
330
18177
330
3E2D2
330
3E2D3
330
3E2D4
102
}
330
A
100
AcDbSymbolTableRecord
100
AcDbDimStyleTableRecord
  2
SYS$0
 70
     0
  4
"
 41
1.0
 42
1.0
 43
10.0
 44
1.0
 47
0.1
 48
0.1
 73
     0
 74
     0
 77
     1
 78
     8
 79
     2
140
3.200000000000001
141
0.0
143
0.0393701
146
0.71
147
1.0
172
     1
176
   256
177
   256
178
     2
271
     2
272
     2
283
     0
284
     8
340
11
341
A66
342
6C4
371
    -1
372
    -1
1001
ACAD_DSTYLE_DIMJOGGED_JOGANGLE_SYMBOL
1070
   384
1040
0.7853981633974483
1001
ACAD_DSTYLE_DIMARC_LENGTH_SYMBOL
1070
   379
1070
     1
  0
DIMSTYLE
105
AF99
330
A
100
AcDbSymbolTableRecord
100
AcDbDimStyleTableRecord
  2
AM_ISO
 70
     0
  4
"
 41
2.5
 42
1.0
 43
10.0
 44
1.0
 47
0.1
 48
0.1
 73
     0
 74
     0
 77
     1
 78
     8
 79
     2
140
3.5
141
0.0
143
0.0393701
146
0.71
147
1.5
172
     1
176
   256
177
   256
178
     2
271
     2
272
     3
274
     4
283
     0
284
     8
340
11
371
    -1
372
    -1
  0
DIMSTYLE
105
AF9A
330
A
100
AcDbSymbolTableRecord
100
AcDbDimStyleTableRecord
  2
AM_ISO$3
 70
     0
  4
"
 41
2.5
 42
1.0
 43
10.0
 44
1.0
 47
0.1
 48
0.1
 73
     0
 77
     1
 78
     8
 79
     2
140
3.5
141
0.0
143
0.0393701
146
0.71
147
1.5
176
   256
177
   256
178
     2
271
     2
272
     3
274
     4
283
     0
284
     8
288
     1
289
     0
340
11
371
    -1
372
    -1
  0
DIMSTYLE
105
AF9B
330
A
100
AcDbSymbolTableRecord
100
AcDbDimStyleTableRecord
  2
AM_ISO$4
 70
     0
  4
"
 41
2.5
 42
1.0
 43
10.0
 44
1.0
 47
0.1
 48
0.1
 73
     0
 77
     1
 78
     8
 79
     2
140
3.5
141
0.0
143
0.0393701
146
0.71
147
1.5
176
   256
177
   256
178
     2
271
     2
272
     3
274
     4
283
     0
284
     8
288
     1
289
     0
340
11
371
    -1
372
    -1
  0
DIMSTYLE
105
AF9C
330
A
100
AcDbSymbolTableRecord
100
AcDbDimStyleTableRecord
  2
AM_ISO$6
 70
     0
  4
"
 41
2.5
 42
1.0
 43
10.0
 44
1.0
 47
0.1
 48
0.1
 73
     0
 74
     0
 78
     8
 79
     2
140
3.5
141
0.0
143
0.0393701
146
0.71
147
1.5
172
     1
176
   256
177
   256
178
     2
271
     2
272
     3
274
     4
283
     0
284
     8
340
11
371
    -1
372
    -1
  0
DIMSTYLE
105
AF9D
330
A
100
AcDbSymbolTableRecord
100
AcDbDimStyleTableRecord
  2
AM_ISO$7
 70
     0
  4
"
 41
2.5
 42
1.0
 43
10.0
 44
1.0
 47
0.1
 48
0.1
 73
     0
 74
     0
 77
     1
 78
     8
 79
     2
140
5.0
141
0.0
143
0.0393701
146
0.71
147
1.5
172
     1
176
   256
177
   256
178
     2
271
     2
272
     3
274
     4
283
     0
284
     8
340
11
371
    -1
372
    -1
  0
DIMSTYLE
105
AF9E
330
A
100
AcDbSymbolTableRecord
100
AcDbDimStyleTableRecord
  2
AM_ISO$SF
 70
     0
  4
"
 41
2.5
 42
1.0
 43
10.0
 44
1.0
 47
0.1
 48
0.1
 73
     0
 74
     0
 75
     1
 76
     1
 77
     1
 78
     8
 79
     2
140
3.5
141
0.0
143
0.0393701
146
0.71
147
1.5
172
     1
176
   256
177
   256
178
     2
271
     2
272
     3
274
     4
283
     0
284
     8
340
11
371
    -1
372
    -1
  0
DIMSTYLE
105
AF9F
330
A
100
AcDbSymbolTableRecord
100
AcDbDimStyleTableRecord
  2
AM_ISO$SH
 70
     0
  4
"
 41
2.5
 42
1.0
 43
10.0
 44
1.0
 47
0.1
 48
0.1
 73
     0
 74
     0
 75
     1
 76
     1
 77
     1
 78
     8
 79
     2
140
3.5
141
0.0
143
0.0393701
144
2.0
146
0.71
147
1.5
172
     1
173
     1
176
   256
177
   256
178
     2
271
     2
272
     3
274
     4
283
     0
284
     8
340
11
343
72
371
    -1
372
    -1
  0
DIMSTYLE
105
B60C
330
A
100
AcDbSymbolTableRecord
100
AcDbDimStyleTableRecord
  2
AM_ANSI
 70
     0
  4
mm
 41
0.1
 42
0.05
 43
0.5
 44
0.1
 47
0.1
 48
0.1
 78
     7
 79
     2
140
0.12
141
0.0
146
0.71
147
0.06
176
   256
177
   256
178
     2
274
     4
284
     7
340
11
371
    -1
372
    -1
  0
DIMSTYLE
105
D355
330
A
100
AcDbSymbolTableRecord
100
AcDbDimStyleTableRecord
  2
AM_ANSI$3
 70
     0
  4
mm
 41
0.1
 42
0.05
 43
0.5
 44
0.1
 47
0.1
 48
0.1
 78
     7
140
0.12
141
0.0
146
0.71
147
0.06
176
   256
177
   256
178
     2
271
     2
272
     2
279
     2
284
     8
285
     8
286
     8
340
11
  0
DIMSTYLE
105
D356
330
A
100
AcDbSymbolTableRecord
100
AcDbDimStyleTableRecord
  2
AM_ANSI$4
 70
     0
  4
mm
 41
0.1
 42
0.05
 43
0.5
 44
0.1
 47
0.1
 48
0.1
 78
     7
140
0.12
141
0.0
146
0.71
147
0.06
176
   256
177
   256
178
     2
271
     2
272
     2
279
     2
284
     8
285
     8
286
     8
340
11
  0
DIMSTYLE
105
D357
330
A
100
AcDbSymbolTableRecord
100
AcDbDimStyleTableRecord
  2
AM_ANSI$7
 70
     0
  4
mm
 41
0.1
 42
0.05
 43
0.5
 44
0.1
 47
0.1
 48
0.1
 78
     7
140
0.24
141
0.0
146
0.71
147
0.06
176
   256
177
   256
178
     2
271
     2
272
     2
279
     2
284
     8
285
     8
286
     8
340
11
  0
DIMSTYLE
105
D358
330
A
100
AcDbSymbolTableRecord
100
AcDbDimStyleTableRecord
  2
AM_ANSI$SF
 70
     0
  4
mm
 41
0.1
 42
0.05
 43
0.5
 44
0.1
 47
0.1
 48
0.1
 75
     1
 76
     1
 78
     7
140
0.12
141
0.0
146
0.71
147
0.06
176
   256
177
   256
178
     2
271
     2
272
     2
279
     2
284
     8
285
     8
286
     8
340
11
  0
DIMSTYLE
105
D359
330
A
100
AcDbSymbolTableRecord
100
AcDbDimStyleTableRecord
  2
AM_ANSI$SH
 70
     0
  4
mm
 41
0.1
 42
0.05
 43
0.5
 44
0.1
 47
0.1
 48
0.1
 75
     1
 76
     1
 78
     7
140
0.12
141
0.0
146
0.71
147
0.06
173
     1
176
   256
177
   256
178
     2
271
     2
272
     2
279
     2
284
     8
285
     8
286
     8
340
11
  0
DIMSTYLE
105
143E7
330
A
100
AcDbSymbolTableRecord
100
AcDbDimStyleTableRecord
  2
ＩＳＯ1
 70
     0
  4
"
 40
2.0
 41
2.5
 42
1.0
 43
10.0
 44
1.0
 47
0.1
 48
0.1
 73
     0
 74
     0
 77
     1
 78
     8
 79
     2
140
3.5
141
0.0
143
0.0393701
146
0.71
147
1.5
172
     1
176
   256
177
   256
178
     2
271
     2
272
     3
274
     4
283
     0
284
     8
340
11
371
    -1
372
    -1
  0
DIMSTYLE
105
143E8
330
A
100
AcDbSymbolTableRecord
100
AcDbDimStyleTableRecord
  2
ＩＳＯ1$3
 70
     0
  4
"
 40
2.0
 41
2.5
 42
1.0
 43
10.0
 44
1.0
 47
0.1
 48
0.1
 73
     0
 77
     1
 78
     8
 79
     2
140
3.5
141
0.0
143
0.0393701
146
0.71
147
1.5
176
   256
177
   256
178
     2
271
     2
272
     3
274
     4
283
     0
284
     8
288
     1
289
     0
340
11
371
    -1
372
    -1
  0
DIMSTYLE
105
143E9
330
A
100
AcDbSymbolTableRecord
100
AcDbDimStyleTableRecord
  2
ＩＳＯ1$4
 70
     0
  4
"
 40
2.0
 41
2.5
 42
1.0
 43
10.0
 44
1.0
 47
0.1
 48
0.1
 73
     0
 77
     1
 78
     8
 79
     2
140
3.5
141
0.0
143
0.0393701
146
0.71
147
1.5
176
   256
177
   256
178
     2
271
     2
272
     3
274
     4
283
     0
284
     8
288
     1
289
     0
340
11
371
    -1
372
    -1
  0
DIMSTYLE
105
143EA
330
A
100
AcDbSymbolTableRecord
100
AcDbDimStyleTableRecord
  2
ＩＳＯ1$6
 70
     0
  4
"
 40
2.0
 41
2.5
 42
1.0
 43
10.0
 44
1.0
 47
0.1
 48
0.1
 73
     0
 74
     0
 78
     8
 79
     2
140
3.5
141
0.0
143
0.0393701
146
0.71
147
1.5
172
     1
176
   256
177
   256
178
     2
271
     2
272
     3
274
     4
283
     0
284
     8
340
11
371
    -1
372
    -1
  0
DIMSTYLE
105
143EB
330
A
100
AcDbSymbolTableRecord
100
AcDbDimStyleTableRecord
  2
ＩＳＯ1$7
 70
     0
  4
"
 40
2.0
 41
2.5
 42
1.0
 43
10.0
 44
1.0
 47
0.1
 48
0.1
 73
     0
 74
     0
 77
     1
 78
     8
 79
     2
140
5.0
141
0.0
143
0.0393701
146
0.71
147
1.5
172
     1
176
   256
177
   256
178
     2
271
     2
272
     3
274
     4
283
     0
284
     8
340
11
371
    -1
372
    -1
  0
DIMSTYLE
105
143EC
330
A
100
AcDbSymbolTableRecord
100
AcDbDimStyleTableRecord
  2
ＩＳＯ1$SF
 70
     0
  4
"
 40
2.0
 41
2.5
 42
1.0
 43
10.0
 44
1.0
 47
0.1
 48
0.1
 73
     0
 74
     0
 75
     1
 76
     1
 77
     1
 78
     8
 79
     2
140
3.5
141
0.0
143
0.0393701
146
0.71
147
1.5
172
     1
176
   256
177
   256
178
     2
271
     2
272
     3
274
     4
283
     0
284
     8
340
11
371
    -1
372
    -1
  0
DIMSTYLE
105
143ED
330
A
100
AcDbSymbolTableRecord
100
AcDbDimStyleTableRecord
  2
ＩＳＯ1$SH
 70
     0
  4
"
 40
2.0
 41
2.5
 42
1.0
 43
10.0
 44
1.0
 47
0.1
 48
0.1
 73
     0
 74
     0
 75
     1
 76
     1
 77
     1
 78
     8
 79
     2
140
3.5
141
0.0
143
0.0393701
144
2.0
146
0.71
147
1.5
172
     1
173
     1
176
   256
177
   256
178
     2
271
     2
272
     3
274
     4
283
     0
284
     8
340
11
343
72
371
    -1
372
    -1
  0
ENDTAB
  0
TABLE
  2
BLOCK_RECORD
  5
1
330
0
100
AcDbSymbolTable
 70
   415
  0
BLOCK_RECORD
  5
1F
102
{ACAD_XDICTIONARY
360
8A
102
}
330
1
100
AcDbSymbolTableRecord
100
AcDbBlockTableRecord
  2
*Model_Space
340
22
  0
BLOCK_RECORD
  5
1B
330
1
100
AcDbSymbolTableRecord
100
AcDbBlockTableRecord
  2
*Paper_Space
340
1E
  0
BLOCK_RECORD
  5
23
330
1
100
AcDbSymbolTableRecord
100
AcDbBlockTableRecord
  2
*Paper_Space0
340
26
  0
BLOCK_RECORD
  5
72
330
1
100
AcDbSymbolTableRecord
100
AcDbBlockTableRecord
  2
GENAXEH
340
0
  0
BLOCK_RECORD
  5
6C4
330
1
100
AcDbSymbolTableRecord
100
AcDbBlockTableRecord
  2
_Dot
340
0
102
{BLKREFS
331
C5C4
331
C5C5
331
C5D8
331
C5D9
331
C5E1
331
C5E2
331
C852
331
C853
331
C85B
331
C85C
331
C9AE
331
C9AF
331
C9B7
331
C9B8
331
CD44
331
CD45
331
CD5F
331
CD60
331
D02F
331
D030
331
D053
331
D054
331
D1C8
331
D1C9
331
D1D1
331
D1D2
331
EF40
331
EF41
331
F097
331
F098
331
F0DE
331
F0DF
331
F18F
331
F190
331
F197
331
F198
331
F6C4
331
F6C5
331
F6D6
331
F6D7
331
10202
331
10203
331
1020C
331
1020D
331
10215
331
10216
331
10220
331
10221
331
10229
331
1022A
331
10234
331
10235
331
1023B
331
1023C
331
10244
331
10245
331
1024D
331
1024E
331
10256
331
10257
331
10268
331
10269
331
10271
331
10272
331
1027C
331
1027D
331
10285
331
10286
331
10FFD
331
10FFE
331
11006
331
11007
331
1100F
331
11010
331
1102A
331
1102B
331
112A0
331
112A1
331
11544
331
11545
331
1154D
331
1154E
331
1155F
331
11560
331
12179
331
1217A
331
12184
331
12185
331
1228E
331
1228F
331
12297
331
12298
331
122BC
331
122BD
331
122C5
331
122C6
331
1A261
331
1A262
331
1A26B
331
1A26C
331
1A28F
331
1A290
331
1A298
331
1A299
331
1A2A3
331
1A2A4
331
1A2AC
331
1A2AD
331
1A2B5
331
1A2B6
331
1A2BE
331
1A2BF
331
1A2C8
331
1A2C9
331
1A2EC
331
1A2ED
331
1A2F5
331
1A2F6
331
1A300
331
1A301
331
1A309
331
1A30A
331
1A31D
331
1A31E
331
1A326
331
1A327
331
1A330
331
1A331
331
1A33A
331
1A33B
331
1A343
331
1A344
331
1A34C
331
1A34D
331
1A355
331
1A356
331
1A367
331
1A368
331
1A370
331
1A371
331
1A37A
331
1A37B
331
1A383
331
1A384
331
1A38C
331
1A38D
331
1A395
331
1A396
331
1A39E
331
1A39F
331
1A3A8
331
1A3A9
331
1A3CD
331
1A3CE
331
1A3EA
331
1A3EB
331
1A3F3
331
1A3F4
331
1A3FC
331
1A3FD
331
1A407
331
1A408
331
1A410
331
1A411
331
1A419
331
1A41A
331
1A423
331
1A424
331
1A42C
331
1A42D
331
1A435
331
1A436
331
1A43E
331
1A43F
331
1A447
331
1A448
331
1A450
331
1A451
331
1A459
331
1A45A
331
1A462
331
1A463
331
1A46B
331
1A46C
331
1A475
331
1A476
331
1A47E
331
1A47F
331
1A488
331
1A489
331
1A491
331
1A492
331
1A49B
331
1A49C
331
1A4AE
331
1A4AF
331
1A4B7
331
1A4B8
331
1A4C1
331
1A4C2
331
1A4CC
331
1A4CD
331
1A4D6
331
1A4D7
331
1A4DF
331
1A4E0
331
1A4E8
331
1A4E9
331
1A4F3
331
1A4F4
331
1A4FC
331
1A4FD
331
1A505
331
1A506
331
1A50F
331
1A510
331
1A518
331
1A519
331
1A521
331
1A522
331
1A52A
331
1A52B
331
1A533
331
1A534
331
1A53C
331
1A53D
331
1A545
331
1A546
331
1A54E
331
1A54F
331
1A561
331
1A562
331
1A56A
331
1A56B
331
1A574
331
1A575
331
1A57F
331
1A580
331
1A589
331
1A58A
331
1A59B
331
1A59C
331
1A5A5
331
1A5A6
331
1A5B8
331
1A5B9
331
1A5C1
331
1A5C2
331
1A5CB
331
1A5CC
331
1A5D4
331
1A5D5
331
1A5DE
331
1A5DF
331
1A628
331
1A629
331
1A631
331
1A632
331
1A63B
331
1A63C
331
1A64E
331
1A64F
331
1A674
331
1A675
331
1A67D
331
1A67E
331
1A688
331
1A689
331
1A691
331
1A692
331
1A69A
331
1A69B
331
1A6A3
331
1A6A4
331
1A6AC
331
1A6AD
331
1A6B5
331
1A6B6
331
1A6BF
331
1A6C0
331
1A6C8
331
1A6C9
331
1A6D1
331
1A6D2
331
1A6DA
331
1A6DB
331
1A6ED
331
1A6EE
331
1A6F6
331
1A6F7
331
1A700
331
1A701
331
1A725
331
1A726
331
1A72E
331
1A72F
331
1A737
331
1A738
331
1A742
331
1A743
331
1A74B
331
1A74C
331
1A754
331
1A755
331
1A75D
331
1A75E
331
1A766
331
1A767
331
1A770
331
1A771
331
1A779
331
1A77A
331
1A783
331
1A784
331
1A7A8
331
1A7A9
331
1A7B3
331
1A7B4
331
1A7CE
331
1A7CF
331
1A7D7
331
1A7D8
331
1A7E1
331
1A7E2
331
1A7EA
331
1A7EB
331
1A7F3
331
1A7F4
331
1A7FC
331
1A7FD
331
1A805
331
1A806
331
1A80E
331
1A80F
331
1A817
331
1A818
331
1A897
331
1A898
331
1A8F3
331
1A8F4
331
1A9D7
331
1A9D8
331
1A9E1
331
1A9E2
331
1A9EC
331
1A9ED
331
1AC2C
331
1AC2D
331
1AC36
331
1AC37
331
1AC40
331
1AC41
331
1AC6F
331
1AC70
331
1AC79
331
1AC7A
331
1B2D2
331
1B2D3
331
1B2DB
331
1B2DC
331
1B47C
331
1B47D
331
1B485
331
1B486
331
3E071
331
3E072
331
3E07A
331
3E07B
331
3E0C2
331
3E0C3
331
3E0DD
331
3E0DE
331
3E0F8
331
3E0F9
331
3E155
331
3E156
331
3E15E
331
3E15F
331
3E167
331
3E168
331
3E170
331
3E171
331
3E179
331
3E17A
331
3E1A4
331
3E1A5
331
3E1D0
331
3E1D1
331
3E1E3
331
3E1E4
331
3E1F6
331
3E1F7
331
3E309
331
3E30A
331
3E312
331
3E313
331
3E39C
331
3E39D
331
3E3A5
331
3E3A6
331
3E3AE
331
3E3AF
331
3E3B7
331
3E3B8
331
3E3C2
331
3E3C3
331
3E411
331
3E412
331
3E41A
331
3E41B
331
3E425
331
3E426
331
3E48E
331
3E48F
331
3E497
331
3E498
331
3E4A0
331
3E4A1
331
3E4AB
331
3E4AC
331
63D0B
331
63D0C
331
63D14
331
63D15
331
63D99
331
63D9A
331
63DA3
331
63DA4
331
63DAC
331
63DAD
331
63DB6
331
63DB7
331
63DE4
331
63DE5
331
63DEE
331
63DEF
331
63E02
331
63E03
331
63E0B
331
63E0C
331
63E14
331
63E15
331
63E1D
331
63E1E
331
63F0B
331
63F0C
331
63F15
331
63F16
331
63F1E
331
63F1F
331
63F28
331
63F29
331
63F4E
331
63F4F
331
63F57
331
63F58
331
63F60
331
63F61
331
63F69
331
63F6A
331
63F72
331
63F73
331
63F85
331
63F86
331
63FA2
331
63FA3
331
63FBE
331
63FBF
331
63FFF
331
64000
331
64008
331
64009
331
6406C
331
6406D
331
64087
331
64088
331
64090
331
64091
331
64099
331
6409A
331
640B4
331
640B5
331
640BD
331
640BE
331
640C8
331
640C9
331
640E3
331
640E4
331
640EC
331
640ED
331
64107
331
64108
331
64110
331
64111
331
64122
331
64123
331
6412B
331
6412C
331
6413D
331
6413E
331
64148
331
64149
331
64163
331
64164
331
6416C
331
6416D
331
6417E
331
6417F
331
64187
331
64188
331
64199
331
6419A
331
641A2
331
641A3
331
641AB
331
641AC
331
641B4
331
641B5
331
641C6
331
641C7
331
641E1
331
641E2
331
641EA
331
641EB
331
641F5
331
641F6
331
64236
331
64237
331
6423F
331
64240
331
6424A
331
6424B
331
64253
331
64254
331
6425C
331
6425D
331
642C0
331
642C1
331
642DB
331
642DC
331
64358
331
64359
331
64361
331
64362
331
6436C
331
6436D
331
64387
331
64388
331
64390
331
64391
331
6439B
331
6439C
331
643A4
331
643A5
331
643AD
331
643AE
331
643B9
331
643BA
331
643C2
331
643C3
331
643CC
331
643CD
331
643D5
331
643D6
331
643DE
331
643DF
331
643E9
331
643EA
331
643F1
331
643F2
331
64483
331
64484
331
6448C
331
6448D
331
64495
331
64496
331
6449E
331
6449F
331
644A7
331
644A8
331
644B0
331
644B1
331
644B9
331
644BA
331
644C2
331
644C3
331
644CB
331
644CC
331
644D4
331
644D5
331
644DD
331
644DE
331
644E6
331
644E7
331
644F0
331
644F1
331
644FA
331
644FB
331
64503
331
64504
331
64515
331
64516
102
}
  0
BLOCK_RECORD
  5
A66
330
1
100
AcDbSymbolTableRecord
100
AcDbBlockTableRecord
  2
_OPEN30
340
0
102
{BLKREFS
331
1A360
331
1A361
331
1A646
331
1A647
331
1A822
331
1A823
331
63F7D
331
63F7E
331
64267
331
64268
102
}
  0
BLOCK_RECORD
  5
1669C
330
1
100
AcDbSymbolTableRecord
100
AcDbBlockTableRecord
  2
*D185
340
0
  0
BLOCK_RECORD
  5
166D8
330
1
100
AcDbSymbolTableRecord
100
AcDbBlockTableRecord
  2
*D186
340
0
  0
BLOCK_RECORD
  5
16743
330
1
100
AcDbSymbolTableRecord
100
AcDbBlockTableRecord
  2
*D187
340
0
  0
BLOCK_RECORD
  5
1676F
330
1
100
AcDbSymbolTableRecord
100
AcDbBlockTableRecord
  2
*D188
340
0
  0
BLOCK_RECORD
  5
1681B
330
1
100
AcDbSymbolTableRecord
100
AcDbBlockTableRecord
  2
*D189
340
0
  0
BLOCK_RECORD
  5
16831
330
1
100
AcDbSymbolTableRecord
100
AcDbBlockTableRecord
  2
*D190
340
0
  0
BLOCK_RECORD
  5
16847
330
1
100
AcDbSymbolTableRecord
100
AcDbBlockTableRecord
  2
*D191
340
0
  0
BLOCK_RECORD
  5
168B9
330
1
100
AcDbSymbolTableRecord
100
AcDbBlockTableRecord
  2
*D192
340
0
  0
BLOCK_RECORD
  5
168E9
330
1
100
AcDbSymbolTableRecord
100
AcDbBlockTableRecord
  2
*D193
340
0
  0
BLOCK_RECORD
  5
16C96
330
1
100
AcDbSymbolTableRecord
100
AcDbBlockTableRecord
  2
*D206
340
0
  0
BLOCK_RECORD
  5
16D14
330
1
100
AcDbSymbolTableRecord
100
AcDbBlockTableRecord
  2
*D208
340
0
  0
BLOCK_RECORD
  5
18178
330
1
100
AcDbSymbolTableRecord
100
AcDbBlockTableRecord
  2
*D239
340
0
  0
BLOCK_RECORD
  5
18184
330
1
100
AcDbSymbolTableRecord
100
AcDbBlockTableRecord
  2
*D240
340
0
  0
BLOCK_RECORD
  5
3E2D5
330
1
100
AcDbSymbolTableRecord
100
AcDbBlockTableRecord
  2
*D388
340
0
  0
BLOCK_RECORD
  5
3E2E3
330
1
100
AcDbSymbolTableRecord
100
AcDbBlockTableRecord
  2
*D389
340
0
  0
BLOCK_RECORD
  5
3E2EF
330
1
100
AcDbSymbolTableRecord
100
AcDbBlockTableRecord
  2
*D390
340
0
  0
BLOCK_RECORD
  5
6453A
330
1
100
AcDbSymbolTableRecord
100
AcDbBlockTableRecord
  2
*S414
340
0
  0
ENDTAB
  0
ENDSEC
  0
SECTION
  2
BLOCKS
  0
BLOCK
  5
20
330
1F
100
AcDbEntity
  8
0
100
AcDbBlockBegin
  2
*Model_Space
 70
     0
 10
0.0
 20
0.0
 30
0.0
  3
*Model_Space
  1

  0
ENDBLK
  5
21
330
1F
100
AcDbEntity
  8
0
100
AcDbBlockEnd
  0
BLOCK
  5
1C
330
1B
100
AcDbEntity
 67
     1
  8
0
100
AcDbBlockBegin
  2
*Paper_Space
 70
     0
 10
0.0
 20
0.0
 30
0.0
  3
*Paper_Space
  1

  0
ENDBLK
  5
1D
330
1B
100
AcDbEntity
 67
     1
  8
0
100
AcDbBlockEnd
  0
BLOCK
  5
24
330
23
100
AcDbEntity
 67
     1
  8
0
100
AcDbBlockBegin
  2
*Paper_Space0
 70
     0
 10
0.0
 20
0.0
 30
0.0
  3
*Paper_Space0
  1

  0
ENDBLK
  5
25
330
23
100
AcDbEntity
 67
     1
  8
0
100
AcDbBlockEnd
  0
BLOCK
  5
74
330
72
100
AcDbEntity
  8
0
100
AcDbBlockBegin
  2
GENAXEH
 70
     0
 10
0.0
 20
0.0
 30
0.0
  3
GENAXEH
  1

  0
LINE
  5
73
330
72
100
AcDbEntity
  8
0
100
AcDbLine
 10
-1.0
 20
0.0
 30
0.0
 11
1.0
 21
0.0
 31
0.0
  0
ENDBLK
  5
75
330
72
100
AcDbEntity
  8
0
100
AcDbBlockEnd
  0
BLOCK
  5
6C7
330
6C4
100
AcDbEntity
  8
0
100
AcDbBlockBegin
  2
_Dot
 70
     0
 10
0.0
 20
0.0
 30
0.0
  3
_Dot
  1

  0
LWPOLYLINE
  5
6C5
330
6C4
100
AcDbEntity
  8
0
  6
ByBlock
 62
     0
100
AcDbPolyline
 90
        2
 70
     1
 43
0.5
 10
-0.25
 20
0.0
 42
1.0
 10
0.25
 20
0.0
 42
1.0
  0
LINE
  5
6C6
330
6C4
100
AcDbEntity
  8
0
  6
ByBlock
 62
     0
370
    -2
100
AcDbLine
 10
-0.5
 20
0.0
 30
0.0
 11
-1.0
 21
0.0
 31
0.0
  0
ENDBLK
  5
6C8
330
6C4
100
AcDbEntity
  8
0
100
AcDbBlockEnd
  0
BLOCK
  5
A6A
330
A66
100
AcDbEntity
  8
0
100
AcDbBlockBegin
  2
_OPEN30
 70
     0
 10
0.0
 20
0.0
 30
0.0
  3
_OPEN30
  1

  0
LINE
  5
A67
330
A66
100
AcDbEntity
  8
0
  6
ByBlock
 62
     0
100
AcDbLine
 10
-1.0
 20
0.26794919
 30
0.0
 11
0.0
 21
0.0
 31
0.0
  0
LINE
  5
A68
330
A66
100
AcDbEntity
  8
0
  6
ByBlock
 62
     0
100
AcDbLine
 10
0.0
 20
0.0
 30
0.0
 11
-1.0
 21
-0.26794919
 31
0.0
  0
LINE
  5
A69
330
A66
100
AcDbEntity
  8
0
  6
ByBlock
 62
     0
100
AcDbLine
 10
0.0
 20
0.0
 30
0.0
 11
-1.0
 21
0.0
 31
0.0
  0
ENDBLK
  5
A6B
330
A66
100
AcDbEntity
  8
0
100
AcDbBlockEnd
  0
BLOCK
  5
166A6
330
1669C
100
AcDbEntity
  8
0
100
AcDbBlockBegin
  2
*D185
 70
     1
 10
0.0
 20
0.0
 30
0.0
  3
*D185
  1

  0
LINE
  5
1A25E
330
1669C
100
AcDbEntity
  8
AM_5
100
AcDbLine
 10
3426.34582833969
 20
-163.2847647700905
 30
0.0
 11
3447.34582833969
 21
-163.2847647700905
 31
0.0
  0
LINE
  5
1A25F
330
1669C
100
AcDbEntity
  8
AM_5
100
AcDbLine
 10
3420.34582833969
 20
-178.7847647700905
 30
0.0
 11
3447.34582833969
 21
-178.7847647700905
 31
0.0
  0
LINE
  5
1A260
330
1669C
100
AcDbEntity
  8
AM_5
100
AcDbLine
 10
3445.34582833969
 20
-165.2847647700905
 30
0.0
 11
3445.34582833969
 21
-176.7847647700905
 31
0.0
  0
INSERT
  5
1A261
330
1669C
100
AcDbEntity
  8
AM_5
100
AcDbBlockReference
  2
_Dot
 10
3445.34582833969
 20
-163.2847647700905
 30
0.0
 41
2.0
 42
2.0
 43
2.0
 50
90.0
  0
INSERT
  5
1A262
330
1669C
100
AcDbEntity
  8
AM_5
100
AcDbBlockReference
  2
_Dot
 10
3445.34582833969
 20
-178.7847647700905
 30
0.0
 41
2.0
 42
2.0
 43
2.0
 50
270.0
  0
MTEXT
  5
1A263
330
1669C
100
AcDbEntity
  8
AM_5
 62
     2
100
AcDbMText
 10
3440.14582833969
 20
-171.0347647700899
 30
0.0
 40
6.400000000000002
 41
0.0
 71
     5
 72
     1
  1
15.5
 11
0.0000000000000001
 21
1.0
 31
0.0
 73
     1
 44
1.0
1001
ACAD
1000
MTEXTBEGIN
1070
    73
1070
     1
1070
    44
1040
1.0
1070
    74
1070
     0
1000
MTEXTEND
  0
POINT
  5
1A264
330
1669C
100
AcDbEntity
  8
Defpoints
 62
     0
100
AcDbPoint
 10
3424.34582833969
 20
-163.2847647700905
 30
0.0
  0
POINT
  5
1A265
330
1669C
100
AcDbEntity
  8
Defpoints
 62
     0
100
AcDbPoint
 10
3418.34582833969
 20
-178.7847647700905
 30
0.0
  0
POINT
  5
1A266
330
1669C
100
AcDbEntity
  8
Defpoints
 62
     0
100
AcDbPoint
 10
3445.34582833969
 20
-178.7847647700905
 30
0.0
  0
ENDBLK
  5
166A7
330
1669C
100
AcDbEntity
  8
0
100
AcDbBlockEnd
  0
BLOCK
  5
166E3
330
166D8
100
AcDbEntity
  8
0
100
AcDbBlockBegin
  2
*D186
 70
     1
 10
0.0
 20
0.0
 30
0.0
  3
*D186
  1

  0
LINE
  5
1A267
330
166D8
100
AcDbEntity
  8
AM_5
100
AcDbLine
 10
3420.34582833969
 20
-178.7847647700905
 30
0.0
 11
3447.34582833969
 21
-178.7847647700905
 31
0.0
  0
LINE
  5
1A268
330
166D8
100
AcDbEntity
  8
AM_5
100
AcDbLine
 10
3420.34582833969
 20
-215.2847647700905
 30
0.0
 11
3447.34582833969
 21
-215.2847647700905
 31
0.0
  0
LINE
  5
1A269
330
166D8
100
AcDbEntity
  8
AM_5
100
AcDbLine
 10
3445.34582833969
 20
-180.7847647700905
 30
0.0
 11
3445.34582833969
 21
-213.2847647700905
 31
0.0
  0
LINE
  5
1A26A
330
166D8
100
AcDbEntity
  8
AM_5
100
AcDbLine
 10
3445.34582833969
 20
-215.2847647700905
 30
0.0
 11
3445.34582833969
 21
-269.370098103424
 31
0.0
  0
INSERT
  5
1A26B
330
166D8
100
AcDbEntity
  8
AM_5
100
AcDbBlockReference
  2
_Dot
 10
3445.34582833969
 20
-178.7847647700905
 30
0.0
 41
2.0
 42
2.0
 43
2.0
 50
90.0
  0
INSERT
  5
1A26C
330
166D8
100
AcDbEntity
  8
AM_5
100
AcDbBlockReference
  2
_Dot
 10
3445.34582833969
 20
-215.2847647700905
 30
0.0
 41
2.0
 42
2.0
 43
2.0
 50
270.0
  0
MTEXT
  5
1A26D
330
166D8
100
AcDbEntity
  8
AM_5
 62
     2
100
AcDbMText
 10
3440.14582833969
 20
-243.3274314367568
 30
0.0
 40
6.400000000000002
 41
0.0
 71
     5
 72
     1
  1
パイプピッチ:36.5
 11
0.0000000000000001
 21
1.0
 31
0.0
 73
     1
 44
1.0
1001
ACAD
1000
MTEXTBEGIN
1070
    73
1070
     1
1070
    44
1040
1.0
1070
    74
1070
     0
1000
MTEXTEND
  0
POINT
  5
1A26E
330
166D8
100
AcDbEntity
  8
Defpoints
 62
     0
100
AcDbPoint
 10
3418.34582833969
 20
-178.7847647700905
 30
0.0
  0
POINT
  5
1A26F
330
166D8
100
AcDbEntity
  8
Defpoints
 62
     0
100
AcDbPoint
 10
3418.34582833969
 20
-215.2847647700905
 30
0.0
  0
POINT
  5
1A270
330
166D8
100
AcDbEntity
  8
Defpoints
 62
     0
100
AcDbPoint
 10
3445.34582833969
 20
-215.2847647700905
 30
0.0
  0
ENDBLK
  5
166E4
330
166D8
100
AcDbEntity
  8
0
100
AcDbBlockEnd
  0
BLOCK
  5
1674D
330
16743
100
AcDbEntity
  8
0
100
AcDbBlockBegin
  2
*D187
 70
     1
 10
0.0
 20
0.0
 30
0.0
  3
*D187
  1

  0
LINE
  5
64084
330
16743
100
AcDbEntity
  8
AM_5
100
AcDbLine
 10
3057.34582833969
 20
-475.6288634999589
 30
0.0
 11
3057.34582833969
 21
-451.6288634999589
 31
0.0
  0
LINE
  5
64085
330
16743
100
AcDbEntity
  8
AM_5
100
AcDbLine
 10
3087.34582833969
 20
-475.6288634999589
 30
0.0
 11
3087.34582833969
 21
-451.6288634999589
 31
0.0
  0
LINE
  5
64086
330
16743
100
AcDbEntity
  8
AM_5
100
AcDbLine
 10
3059.34582833969
 20
-453.6288634999589
 30
0.0
 11
3085.345828339689
 21
-453.6288634999589
 31
0.0
  0
INSERT
  5
64087
330
16743
100
AcDbEntity
  8
AM_5
100
AcDbBlockReference
  2
_Dot
 10
3057.34582833969
 20
-453.6288634999589
 30
0.0
 41
2.0
 42
2.0
 43
2.0
 50
180.0
  0
INSERT
  5
64088
330
16743
100
AcDbEntity
  8
AM_5
100
AcDbBlockReference
  2
_Dot
 10
3087.34582833969
 20
-453.6288634999589
 30
0.0
 41
2.0
 42
2.0
 43
2.0
  0
MTEXT
  5
64089
330
16743
100
AcDbEntity
  8
AM_5
 62
     2
100
AcDbMText
 10
3072.34582833969
 20
-448.4288634999589
 30
0.0
 40
6.400000000000002
 41
0.0
 71
     5
 72
     1
  1
30
 73
     1
 44
1.0
1001
ACAD
1000
MTEXTBEGIN
1070
    73
1070
     1
1070
    44
1040
1.0
1070
    74
1070
     0
1000
MTEXTEND
  0
POINT
  5
6408A
330
16743
100
AcDbEntity
  8
Defpoints
 62
     0
100
AcDbPoint
 10
3057.34582833969
 20
-477.6288634999589
 30
0.0
  0
POINT
  5
6408B
330
16743
100
AcDbEntity
  8
Defpoints
 62
     0
100
AcDbPoint
 10
3087.34582833969
 20
-477.6288634999589
 30
0.0
  0
POINT
  5
6408C
330
16743
100
AcDbEntity
  8
Defpoints
 62
     0
100
AcDbPoint
 10
3087.34582833969
 20
-453.6288634999589
 30
0.0
  0
ENDBLK
  5
1674E
330
16743
100
AcDbEntity
  8
0
100
AcDbBlockEnd
  0
BLOCK
  5
16779
330
1676F
100
AcDbEntity
  8
0
100
AcDbBlockBegin
  2
*D188
 70
     1
 10
0.0
 20
0.0
 30
0.0
  3
*D188
  1

  0
LINE
  5
6408D
330
1676F
100
AcDbEntity
  8
AM_5
100
AcDbLine
 10
3063.34582833969
 20
-469.6288634999588
 30
0.0
 11
3039.34582833969
 21
-469.6288634999588
 31
0.0
  0
LINE
  5
6408E
330
1676F
100
AcDbEntity
  8
AM_5
100
AcDbLine
 10
3063.34582833969
 20
-589.6288634999589
 30
0.0
 11
3039.34582833969
 21
-589.6288634999589
 31
0.0
  0
LINE
  5
6408F
330
1676F
100
AcDbEntity
  8
AM_5
100
AcDbLine
 10
3041.34582833969
 20
-471.6288634999589
 30
0.0
 11
3041.34582833969
 21
-587.6288634999589
 31
0.0
  0
INSERT
  5
64090
330
1676F
100
AcDbEntity
  8
AM_5
100
AcDbBlockReference
  2
_Dot
 10
3041.34582833969
 20
-469.6288634999588
 30
0.0
 41
2.0
 42
2.0
 43
2.0
 50
90.0
  0
INSERT
  5
64091
330
1676F
100
AcDbEntity
  8
AM_5
100
AcDbBlockReference
  2
_Dot
 10
3041.34582833969
 20
-589.6288634999589
 30
0.0
 41
2.0
 42
2.0
 43
2.0
 50
270.0
  0
MTEXT
  5
64092
330
1676F
100
AcDbEntity
  8
AM_5
 62
     2
100
AcDbMText
 10
3036.14582833969
 20
-529.6288634999586
 30
0.0
 40
6.400000000000002
 41
0.0
 71
     5
 72
     1
  1
120
 11
0.0000000000000001
 21
1.0
 31
0.0
 73
     1
 44
1.0
1001
ACAD
1000
MTEXTBEGIN
1070
    73
1070
     1
1070
    44
1040
1.0
1070
    74
1070
     0
1000
MTEXTEND
  0
POINT
  5
64093
330
1676F
100
AcDbEntity
  8
Defpoints
 62
     0
100
AcDbPoint
 10
3065.345828339689
 20
-469.6288634999588
 30
0.0
  0
POINT
  5
64094
330
1676F
100
AcDbEntity
  8
Defpoints
 62
     0
100
AcDbPoint
 10
3065.345828339689
 20
-589.6288634999589
 30
0.0
  0
POINT
  5
64095
330
1676F
100
AcDbEntity
  8
Defpoints
 62
     0
100
AcDbPoint
 10
3041.34582833969
 20
-589.6288634999589
 30
0.0
  0
ENDBLK
  5
1677A
330
1676F
100
AcDbEntity
  8
0
100
AcDbBlockEnd
  0
BLOCK
  5
16825
330
1681B
100
AcDbEntity
  8
0
100
AcDbBlockBegin
  2
*D189
 70
     1
 10
0.0
 20
0.0
 30
0.0
  3
*D189
  1

  0
LINE
  5
1A28C
330
1681B
100
AcDbEntity
  8
AM_5
100
AcDbLine
 10
3670.926743836498
 20
-166.2847647700905
 30
0.0
 11
3670.926743836498
 21
-145.2847647700905
 31
0.0
  0
LINE
  5
1A28D
330
1681B
100
AcDbEntity
  8
AM_5
100
AcDbLine
 10
3694.926743836498
 20
-166.2847647700905
 30
0.0
 11
3694.926743836498
 21
-145.2847647700905
 31
0.0
  0
LINE
  5
1A28E
330
1681B
100
AcDbEntity
  8
AM_5
100
AcDbLine
 10
3672.926743836498
 20
-147.2847647700905
 30
0.0
 11
3692.926743836498
 21
-147.2847647700905
 31
0.0
  0
INSERT
  5
1A28F
330
1681B
100
AcDbEntity
  8
AM_5
100
AcDbBlockReference
  2
_Dot
 10
3670.926743836498
 20
-147.2847647700905
 30
0.0
 41
2.0
 42
2.0
 43
2.0
 50
180.0
  0
INSERT
  5
1A290
330
1681B
100
AcDbEntity
  8
AM_5
100
AcDbBlockReference
  2
_Dot
 10
3694.926743836498
 20
-147.2847647700905
 30
0.0
 41
2.0
 42
2.0
 43
2.0
  0
MTEXT
  5
1A291
330
1681B
100
AcDbEntity
  8
AM_5
 62
     2
100
AcDbMText
 10
3682.926743836498
 20
-142.0847647700905
 30
0.0
 40
6.400000000000002
 41
0.0
 71
     5
 72
     1
  1
24
 73
     1
 44
1.0
1001
ACAD
1000
MTEXTBEGIN
1070
    73
1070
     1
1070
    44
1040
1.0
1070
    74
1070
     0
1000
MTEXTEND
  0
POINT
  5
1A292
330
1681B
100
AcDbEntity
  8
Defpoints
 62
     0
100
AcDbPoint
 10
3670.926743836498
 20
-168.2847647700905
 30
0.0
  0
POINT
  5
1A293
330
1681B
100
AcDbEntity
  8
Defpoints
 62
     0
100
AcDbPoint
 10
3694.926743836498
 20
-168.2847647700905
 30
0.0
  0
POINT
  5
1A294
330
1681B
100
AcDbEntity
  8
Defpoints
 62
     0
100
AcDbPoint
 10
3694.926743836498
 20
-147.2847647700905
 30
0.0
  0
ENDBLK
  5
16826
330
1681B
100
AcDbEntity
  8
0
100
AcDbBlockEnd
  0
BLOCK
  5
1683B
330
16831
100
AcDbEntity
  8
0
100
AcDbBlockBegin
  2
*D190
 70
     1
 10
0.0
 20
0.0
 30
0.0
  3
*D190
  1

  0
LINE
  5
1A295
330
16831
100
AcDbEntity
  8
AM_5
100
AcDbLine
 10
3694.926743836498
 20
-166.2847647700905
 30
0.0
 11
3694.926743836498
 21
-145.2847647700905
 31
0.0
  0
LINE
  5
1A296
330
16831
100
AcDbEntity
  8
AM_5
100
AcDbLine
 10
3702.926743836498
 20
-280.2847647700905
 30
0.0
 11
3702.926743836498
 21
-145.2847647700905
 31
0.0
  0
LINE
  5
1A297
330
16831
100
AcDbEntity
  8
AM_5
100
AcDbLine
 10
3696.926743836498
 20
-147.2847647700905
 30
0.0
 11
3700.926743836498
 21
-147.2847647700905
 31
0.0
  0
INSERT
  5
1A298
330
16831
100
AcDbEntity
  8
AM_5
100
AcDbBlockReference
  2
_Dot
 10
3694.926743836498
 20
-147.2847647700905
 30
0.0
 41
2.0
 42
2.0
 43
2.0
 50
180.0
  0
INSERT
  5
1A299
330
16831
100
AcDbEntity
  8
AM_5
100
AcDbBlockReference
  2
_Dot
 10
3702.926743836498
 20
-147.2847647700905
 30
0.0
 41
2.0
 42
2.0
 43
2.0
  0
MTEXT
  5
1A29A
330
16831
100
AcDbEntity
  8
AM_5
 62
     2
100
AcDbMText
 10
3698.926743836498
 20
-142.0847647700905
 30
0.0
 40
6.400000000000002
 41
0.0
 71
     5
 72
     1
  1
8
 73
     1
 44
1.0
1001
ACAD
1000
MTEXTBEGIN
1070
    73
1070
     1
1070
    44
1040
1.0
1070
    74
1070
     0
1000
MTEXTEND
  0
POINT
  5
1A29B
330
16831
100
AcDbEntity
  8
Defpoints
 62
     0
100
AcDbPoint
 10
3694.926743836498
 20
-168.2847647700905
 30
0.0
  0
POINT
  5
1A29C
330
16831
100
AcDbEntity
  8
Defpoints
 62
     0
100
AcDbPoint
 10
3702.926743836498
 20
-282.2847647700905
 30
0.0
  0
POINT
  5
1A29D
330
16831
100
AcDbEntity
  8
Defpoints
 62
     0
100
AcDbPoint
 10
3702.926743836498
 20
-147.2847647700905
 30
0.0
  0
ENDBLK
  5
1683C
330
16831
100
AcDbEntity
  8
0
100
AcDbBlockEnd
  0
BLOCK
  5
16852
330
16847
100
AcDbEntity
  8
0
100
AcDbBlockBegin
  2
*D191
 70
     1
 10
0.0
 20
0.0
 30
0.0
  3
*D191
  1

  0
LINE
  5
1A29E
330
16847
100
AcDbEntity
  8
AM_5
100
AcDbLine
 10
3702.926743836498
 20
-280.2847647700905
 30
0.0
 11
3702.926743836498
 21
-145.2847647700905
 31
0.0
  0
LINE
  5
1A29F
330
16847
100
AcDbEntity
  8
AM_5
100
AcDbLine
 10
3710.426743836498
 20
-280.2847647700905
 30
0.0
 11
3710.426743836498
 21
-145.2847647700905
 31
0.0
  0
LINE
  5
1A2A0
330
16847
100
AcDbEntity
  8
AM_5
100
AcDbLine
 10
3700.926743836498
 20
-147.2847647700905
 30
0.0
 11
3698.926743836498
 21
-147.2847647700905
 31
0.0
  0
LINE
  5
1A2A1
330
16847
100
AcDbEntity
  8
AM_5
100
AcDbLine
 10
3712.426743836498
 20
-147.2847647700905
 30
0.0
 11
3727.813410503165
 21
-147.2847647700905
 31
0.0
  0
LINE
  5
1A2A2
330
16847
100
AcDbEntity
  8
AM_5
100
AcDbLine
 10
3702.926743836498
 20
-147.2847647700905
 30
0.0
 11
3710.426743836498
 21
-147.2847647700905
 31
0.0
  0
INSERT
  5
1A2A3
330
16847
100
AcDbEntity
  8
AM_5
100
AcDbBlockReference
  2
_Dot
 10
3702.926743836498
 20
-147.2847647700905
 30
0.0
 41
2.0
 42
2.0
 43
2.0
  0
INSERT
  5
1A2A4
330
16847
100
AcDbEntity
  8
AM_5
100
AcDbBlockReference
  2
_Dot
 10
3710.426743836498
 20
-147.2847647700905
 30
0.0
 41
2.0
 42
2.0
 43
2.0
 50
180.0
  0
MTEXT
  5
1A2A5
330
16847
100
AcDbEntity
  8
AM_5
 62
     2
100
AcDbMText
 10
3721.120077169832
 20
-142.0847647700905
 30
0.0
 40
6.400000000000002
 41
0.0
 71
     5
 72
     1
  1
7.5
 73
     1
 44
1.0
1001
ACAD
1000
MTEXTBEGIN
1070
    73
1070
     1
1070
    44
1040
1.0
1070
    74
1070
     0
1000
MTEXTEND
  0
POINT
  5
1A2A6
330
16847
100
AcDbEntity
  8
Defpoints
 62
     0
100
AcDbPoint
 10
3702.926743836498
 20
-282.2847647700905
 30
0.0
  0
POINT
  5
1A2A7
330
16847
100
AcDbEntity
  8
Defpoints
 62
     0
100
AcDbPoint
 10
3710.426743836498
 20
-282.2847647700905
 30
0.0
  0
POINT
  5
1A2A8
330
16847
100
AcDbEntity
  8
Defpoints
 62
     0
100
AcDbPoint
 10
3710.426743836498
 20
-147.2847647700905
 30
0.0
  0
ENDBLK
  5
16853
330
16847
100
AcDbEntity
  8
0
100
AcDbBlockEnd
  0
BLOCK
  5
168C3
330
168B9
100
AcDbEntity
  8
0
100
AcDbBlockBegin
  2
*D192
 70
     1
 10
0.0
 20
0.0
 30
0.0
  3
*D192
  1

  0
LINE
  5
1A2A9
330
168B9
100
AcDbEntity
  8
AM_5
100
AcDbLine
 10
3712.426743836498
 20
-402.2847647700905
 30
0.0
 11
3728.426743836498
 21
-402.2847647700905
 31
0.0
  0
LINE
  5
1A2AA
330
168B9
100
AcDbEntity
  8
AM_5
100
AcDbLine
 10
3691.926743836498
 20
-163.2847647700905
 30
0.0
 11
3728.426743836498
 21
-163.2847647700905
 31
0.0
  0
LINE
  5
1A2AB
330
168B9
100
AcDbEntity
  8
AM_5
100
AcDbLine
 10
3726.426743836498
 20
-400.2847647700906
 30
0.0
 11
3726.426743836498
 21
-165.2847647700905
 31
0.0
  0
INSERT
  5
1A2AC
330
168B9
100
AcDbEntity
  8
AM_5
100
AcDbBlockReference
  2
_Dot
 10
3726.426743836498
 20
-402.2847647700905
 30
0.0
 41
2.0
 42
2.0
 43
2.0
 50
270.0
  0
INSERT
  5
1A2AD
330
168B9
100
AcDbEntity
  8
AM_5
100
AcDbBlockReference
  2
_Dot
 10
3726.426743836498
 20
-163.2847647700905
 30
0.0
 41
2.0
 42
2.0
 43
2.0
 50
90.0
  0
MTEXT
  5
1A2AE
330
168B9
100
AcDbEntity
  8
AM_5
 62
     2
100
AcDbMText
 10
3721.226743836498
 20
-282.7847647700903
 30
0.0
 40
6.400000000000002
 41
0.0
 71
     5
 72
     1
  1
239
 11
0.0000000000000001
 21
1.0
 31
0.0
 73
     1
 44
1.0
1001
ACAD
1000
MTEXTBEGIN
1070
    73
1070
     1
1070
    44
1040
1.0
1070
    74
1070
     0
1000
MTEXTEND
  0
POINT
  5
1A2AF
330
168B9
100
AcDbEntity
  8
Defpoints
 62
     0
100
AcDbPoint
 10
3710.426743836498
 20
-402.2847647700904
 30
0.0
  0
POINT
  5
1A2B0
330
168B9
100
AcDbEntity
  8
Defpoints
 62
     0
100
AcDbPoint
 10
3689.926743836498
 20
-163.2847647700905
 30
0.0
  0
POINT
  5
1A2B1
330
168B9
100
AcDbEntity
  8
Defpoints
 62
     0
100
AcDbPoint
 10
3726.426743836498
 20
-163.2847647700905
 30
0.0
  0
ENDBLK
  5
168C4
330
168B9
100
AcDbEntity
  8
0
100
AcDbBlockEnd
  0
BLOCK
  5
168F3
330
168E9
100
AcDbEntity
  8
0
100
AcDbBlockBegin
  2
*D193
 70
     1
 10
0.0
 20
0.0
 30
0.0
  3
*D193
  1

  0
LINE
  5
1A2B2
330
168E9
100
AcDbEntity
  8
AM_5
100
AcDbLine
 10
3710.426743836498
 20
-404.2847647700905
 30
0.0
 11
3710.426743836498
 21
-436.2847647700905
 31
0.0
  0
LINE
  5
1A2B3
330
168E9
100
AcDbEntity
  8
AM_5
100
AcDbLine
 10
3498.926743836498
 20
-356.2847647700905
 30
0.0
 11
3498.926743836498
 21
-436.2847647700905
 31
0.0
  0
LINE
  5
1A2B4
330
168E9
100
AcDbEntity
  8
AM_5
100
AcDbLine
 10
3708.426743836497
 20
-434.2847647700905
 30
0.0
 11
3500.926743836498
 21
-434.2847647700905
 31
0.0
  0
INSERT
  5
1A2B5
330
168E9
100
AcDbEntity
  8
AM_5
100
AcDbBlockReference
  2
_Dot
 10
3710.426743836498
 20
-434.2847647700905
 30
0.0
 41
2.0
 42
2.0
 43
2.0
  0
INSERT
  5
1A2B6
330
168E9
100
AcDbEntity
  8
AM_5
100
AcDbBlockReference
  2
_Dot
 10
3498.926743836498
 20
-434.2847647700905
 30
0.0
 41
2.0
 42
2.0
 43
2.0
 50
180.0
  0
MTEXT
  5
1A2B7
330
168E9
100
AcDbEntity
  8
AM_5
 62
     2
100
AcDbMText
 10
3604.676743836498
 20
-429.0847647700905
 30
0.0
 40
6.400000000000002
 41
0.0
 71
     5
 72
     1
  1
211.5
 73
     1
 44
1.0
1001
ACAD
1000
MTEXTBEGIN
1070
    73
1070
     1
1070
    44
1040
1.0
1070
    74
1070
     0
1000
MTEXTEND
  0
POINT
  5
1A2B8
330
168E9
100
AcDbEntity
  8
Defpoints
 62
     0
100
AcDbPoint
 10
3710.426743836498
 20
-402.2847647700904
 30
0.0
  0
POINT
  5
1A2B9
330
168E9
100
AcDbEntity
  8
Defpoints
 62
     0
100
AcDbPoint
 10
3498.926743836498
 20
-354.2847647700905
 30
0.0
  0
POINT
  5
1A2BA
330
168E9
100
AcDbEntity
  8
Defpoints
 62
     0
100
AcDbPoint
 10
3498.926743836498
 20
-434.2847647700905
 30
0.0
  0
ENDBLK
  5
168F4
330
168E9
100
AcDbEntity
  8
0
100
AcDbBlockEnd
  0
BLOCK
  5
16C9E
330
16C96
100
AcDbEntity
  8
0
100
AcDbBlockBegin
  2
*D206
 70
     1
 10
0.0
 20
0.0
 30
0.0
  3
*D206
  1

  0
LINE
  5
1A32C
330
16C96
100
AcDbEntity
  8
AM_5
100
AcDbLine
 10
3158.810875085419
 20
-528.6288634999589
 30
0.0
 11
3160.551985385513
 21
-528.6288634999589
 31
0.0
  0
LINE
  5
1A32D
330
16C96
100
AcDbEntity
  8
AM_5
100
AcDbLine
 10
3157.213479133614
 20
-540.6288634999589
 30
0.0
 11
3160.551985385513
 21
-540.6288634999589
 31
0.0
  0
LINE
  5
1A32E
330
16C96
100
AcDbEntity
  8
AM_5
100
AcDbLine
 10
3158.551985385513
 20
-538.6288634999589
 30
0.0
 11
3158.551985385513
 21
-530.6288634999589
 31
0.0
  0
LINE
  5
1A32F
330
16C96
100
AcDbEntity
  8
AM_5
100
AcDbLine
 10
3158.551985385513
 20
-528.6288634999589
 30
0.0
 11
3158.551985385513
 21
-511.3221968332922
 31
0.0
  0
INSERT
  5
1A330
330
16C96
100
AcDbEntity
  8
AM_5
100
AcDbBlockReference
  2
_Dot
 10
3158.551985385513
 20
-540.6288634999589
 30
0.0
 41
2.0
 42
2.0
 43
2.0
 50
270.0
  0
INSERT
  5
1A331
330
16C96
100
AcDbEntity
  8
AM_5
100
AcDbBlockReference
  2
_Dot
 10
3158.551985385513
 20
-528.6288634999589
 30
0.0
 41
2.0
 42
2.0
 43
2.0
 50
90.0
  0
MTEXT
  5
1A332
330
16C96
100
AcDbEntity
  8
AM_5
 62
     2
100
AcDbMText
 10
3153.351985385513
 20
-518.9755301666251
 30
0.0
 40
6.400000000000002
 41
0.0
 71
     5
 72
     1
  1
%%c12
 11
0.0000000000000001
 21
1.0
 31
0.0
 73
     1
 44
1.0
1001
ACAD
1000
MTEXTBEGIN
1070
    73
1070
     1
1070
    44
1040
1.0
1070
    74
1070
     0
1000
MTEXTEND
  0
POINT
  5
1A333
330
16C96
100
AcDbEntity
  8
Defpoints
 62
     0
100
AcDbPoint
 10
3156.810875085419
 20
-528.6288634999589
 30
0.0
  0
POINT
  5
1A334
330
16C96
100
AcDbEntity
  8
Defpoints
 62
     0
100
AcDbPoint
 10
3155.213479133614
 20
-540.6288634999589
 30
0.0
  0
POINT
  5
1A335
330
16C96
100
AcDbEntity
  8
Defpoints
 62
     0
100
AcDbPoint
 10
3158.551985385513
 20
-540.6288634999589
 30
0.0
  0
ENDBLK
  5
16C9F
330
16C96
100
AcDbEntity
  8
0
100
AcDbBlockEnd
  0
BLOCK
  5
16D1E
330
16D14
100
AcDbEntity
  8
0
100
AcDbBlockBegin
  2
*D208
 70
     1
 10
0.0
 20
0.0
 30
0.0
  3
*D208
  1

  0
LINE
  5
1A340
330
16D14
100
AcDbEntity
  8
AM_5
100
AcDbLine
 10
3661.926743836498
 20
-381.2847647700905
 30
0.0
 11
3661.926743836498
 21
-420.2847647700902
 31
0.0
  0
LINE
  5
1A341
330
16D14
100
AcDbEntity
  8
AM_5
100
AcDbLine
 10
3710.426743836498
 20
-404.2847647700905
 30
0.0
 11
3710.426743836498
 21
-420.2847647700902
 31
0.0
  0
LINE
  5
1A342
330
16D14
100
AcDbEntity
  8
AM_5
100
AcDbLine
 10
3663.926743836498
 20
-418.2847647700903
 30
0.0
 11
3708.426743836497
 21
-418.2847647700903
 31
0.0
  0
INSERT
  5
1A343
330
16D14
100
AcDbEntity
  8
AM_5
100
AcDbBlockReference
  2
_Dot
 10
3661.926743836498
 20
-418.2847647700903
 30
0.0
 41
2.0
 42
2.0
 43
2.0
 50
180.0
  0
INSERT
  5
1A344
330
16D14
100
AcDbEntity
  8
AM_5
100
AcDbBlockReference
  2
_Dot
 10
3710.426743836498
 20
-418.2847647700903
 30
0.0
 41
2.0
 42
2.0
 43
2.0
  0
MTEXT
  5
1A345
330
16D14
100
AcDbEntity
  8
AM_5
 62
     2
100
AcDbMText
 10
3686.176743836498
 20
-413.0847647700902
 30
0.0
 40
6.400000000000002
 41
0.0
 71
     5
 72
     1
  1
48.5
 73
     1
 44
1.0
1001
ACAD
1000
MTEXTBEGIN
1070
    73
1070
     1
1070
    44
1040
1.0
1070
    74
1070
     0
1000
MTEXTEND
  0
POINT
  5
1A346
330
16D14
100
AcDbEntity
  8
Defpoints
 62
     0
100
AcDbPoint
 10
3661.926743836498
 20
-379.2847647700905
 30
0.0
  0
POINT
  5
1A347
330
16D14
100
AcDbEntity
  8
Defpoints
 62
     0
100
AcDbPoint
 10
3710.426743836498
 20
-402.2847647700904
 30
0.0
  0
POINT
  5
1A348
330
16D14
100
AcDbEntity
  8
Defpoints
 62
     0
100
AcDbPoint
 10
3710.426743836498
 20
-418.2847647700903
 30
0.0
  0
ENDBLK
  5
16D1F
330
16D14
100
AcDbEntity
  8
0
100
AcDbBlockEnd
  0
BLOCK
  5
18182
330
18178
100
AcDbEntity
  8
0
100
AcDbBlockBegin
  2
*D239
 70
     1
 10
0.0
 20
0.0
 30
0.0
  3
*D239
  1

  0
LINE
  5
1A47B
330
18178
100
AcDbEntity
  8
AM_5
100
AcDbLine
 10
3072.34582833969
 20
-155.2847647700903
 30
0.0
 11
3072.34582833969
 21
-129.2847647700905
 31
0.0
  0
LINE
  5
1A47C
330
18178
100
AcDbEntity
  8
AM_5
100
AcDbLine
 10
3422.34582833969
 20
-155.2847647700905
 30
0.0
 11
3422.34582833969
 21
-129.2847647700905
 31
0.0
  0
LINE
  5
1A47D
330
18178
100
AcDbEntity
  8
AM_5
100
AcDbLine
 10
3074.345828339689
 20
-131.2847647700905
 30
0.0
 11
3420.34582833969
 21
-131.2847647700905
 31
0.0
  0
INSERT
  5
1A47E
330
18178
100
AcDbEntity
  8
AM_5
100
AcDbBlockReference
  2
_Dot
 10
3072.34582833969
 20
-131.2847647700905
 30
0.0
 41
2.0
 42
2.0
 43
2.0
 50
180.0
  0
INSERT
  5
1A47F
330
18178
100
AcDbEntity
  8
AM_5
100
AcDbBlockReference
  2
_Dot
 10
3422.34582833969
 20
-131.2847647700905
 30
0.0
 41
2.0
 42
2.0
 43
2.0
  0
MTEXT
  5
1A480
330
18178
100
AcDbEntity
  8
AM_5
 62
     2
100
AcDbMText
 10
3247.345828339689
 20
-126.0847647700905
 30
0.0
 40
6.400000000000002
 41
0.0
 71
     5
 72
     1
  1
350
 73
     1
 44
1.0
1001
ACAD
1000
MTEXTBEGIN
1070
    73
1070
     1
1070
    44
1040
1.0
1070
    74
1070
     0
1000
MTEXTEND
  0
POINT
  5
1A481
330
18178
100
AcDbEntity
  8
Defpoints
 62
     0
100
AcDbPoint
 10
3072.34582833969
 20
-157.2847647700903
 30
0.0
  0
POINT
  5
1A482
330
18178
100
AcDbEntity
  8
Defpoints
 62
     0
100
AcDbPoint
 10
3422.34582833969
 20
-157.2847647700905
 30
0.0
  0
POINT
  5
1A483
330
18178
100
AcDbEntity
  8
Defpoints
 62
     0
100
AcDbPoint
 10
3422.34582833969
 20
-131.2847647700905
 30
0.0
  0
ENDBLK
  5
18183
330
18178
100
AcDbEntity
  8
0
100
AcDbBlockEnd
  0
BLOCK
  5
1818F
330
18184
100
AcDbEntity
  8
0
100
AcDbBlockBegin
  2
*D240
 70
     1
 10
0.0
 20
0.0
 30
0.0
  3
*D240
  1

  0
LINE
  5
1A484
330
18184
100
AcDbEntity
  8
AM_5
100
AcDbLine
 10
3415.34582833969
 20
-166.2847647700903
 30
0.0
 11
3415.34582833969
 21
-145.2847647700905
 31
0.0
  0
LINE
  5
1A485
330
18184
100
AcDbEntity
  8
AM_5
100
AcDbLine
 10
3429.34582833969
 20
-166.2847647700905
 30
0.0
 11
3429.34582833969
 21
-145.2847647700905
 31
0.0
  0
LINE
  5
1A486
330
18184
100
AcDbEntity
  8
AM_5
100
AcDbLine
 10
3417.34582833969
 20
-147.2847647700905
 30
0.0
 11
3427.34582833969
 21
-147.2847647700905
 31
0.0
  0
LINE
  5
1A487
330
18184
100
AcDbEntity
  8
AM_5
100
AcDbLine
 10
3429.34582833969
 20
-147.2847647700905
 30
0.0
 11
3442.172495006357
 21
-147.2847647700905
 31
0.0
  0
INSERT
  5
1A488
330
18184
100
AcDbEntity
  8
AM_5
100
AcDbBlockReference
  2
_Dot
 10
3415.34582833969
 20
-147.2847647700905
 30
0.0
 41
2.0
 42
2.0
 43
2.0
 50
180.0
  0
INSERT
  5
1A489
330
18184
100
AcDbEntity
  8
AM_5
100
AcDbBlockReference
  2
_Dot
 10
3429.34582833969
 20
-147.2847647700905
 30
0.0
 41
2.0
 42
2.0
 43
2.0
  0
MTEXT
  5
1A48A
330
18184
100
AcDbEntity
  8
AM_5
 62
     2
100
AcDbMText
 10
3436.759161673023
 20
-142.0847647700905
 30
0.0
 40
6.400000000000002
 41
0.0
 71
     5
 72
     1
  1
14
 73
     1
 44
1.0
1001
ACAD
1000
MTEXTBEGIN
1070
    73
1070
     1
1070
    44
1040
1.0
1070
    74
1070
     0
1000
MTEXTEND
  0
POINT
  5
1A48B
330
18184
100
AcDbEntity
  8
Defpoints
 62
     0
100
AcDbPoint
 10
3415.34582833969
 20
-168.2847647700903
 30
0.0
  0
POINT
  5
1A48C
330
18184
100
AcDbEntity
  8
Defpoints
 62
     0
100
AcDbPoint
 10
3429.34582833969
 20
-168.2847647700905
 30
0.0
  0
POINT
  5
1A48D
330
18184
100
AcDbEntity
  8
Defpoints
 62
     0
100
AcDbPoint
 10
3429.34582833969
 20
-147.2847647700905
 30
0.0
  0
ENDBLK
  5
18190
330
18184
100
AcDbEntity
  8
0
100
AcDbBlockEnd
  0
BLOCK
  5
3E2E1
330
3E2D5
100
AcDbEntity
  8
0
100
AcDbBlockBegin
  2
*D388
 70
     1
 10
0.0
 20
0.0
 30
0.0
  3
*D388
  1

  0
LINE
  5
64067
330
3E2D5
100
AcDbEntity
  8
AM_5
100
AcDbLine
 10
3431.34582833969
 20
-469.6288634999588
 30
0.0
 11
3455.34582833969
 21
-469.6288634999588
 31
0.0
  0
LINE
  5
64068
330
3E2D5
100
AcDbEntity
  8
AM_5
100
AcDbLine
 10
3431.34582833969
 20
-477.1288634999589
 30
0.0
 11
3455.34582833969
 21
-477.1288634999589
 31
0.0
  0
LINE
  5
64069
330
3E2D5
100
AcDbEntity
  8
AM_5
100
AcDbLine
 10
3453.34582833969
 20
-479.1288634999589
 30
0.0
 11
3453.34582833969
 21
-481.1288634999589
 31
0.0
  0
LINE
  5
6406A
330
3E2D5
100
AcDbEntity
  8
AM_5
100
AcDbLine
 10
3453.34582833969
 20
-467.6288634999589
 30
0.0
 11
3453.34582833969
 21
-452.2421968332922
 31
0.0
  0
LINE
  5
6406B
330
3E2D5
100
AcDbEntity
  8
AM_5
100
AcDbLine
 10
3453.34582833969
 20
-477.1288634999589
 30
0.0
 11
3453.34582833969
 21
-469.6288634999588
 31
0.0
  0
INSERT
  5
6406C
330
3E2D5
100
AcDbEntity
  8
AM_5
100
AcDbBlockReference
  2
_Dot
 10
3453.34582833969
 20
-477.1288634999589
 30
0.0
 41
2.0
 42
2.0
 43
2.0
 50
90.0
  0
INSERT
  5
6406D
330
3E2D5
100
AcDbEntity
  8
AM_5
100
AcDbBlockReference
  2
_Dot
 10
3453.34582833969
 20
-469.6288634999588
 30
0.0
 41
2.0
 42
2.0
 43
2.0
 50
270.0
  0
MTEXT
  5
6406E
330
3E2D5
100
AcDbEntity
  8
AM_5
 62
     2
100
AcDbMText
 10
3448.14582833969
 20
-458.9355301666251
 30
0.0
 40
6.400000000000002
 41
0.0
 71
     5
 72
     1
  1
7.5
 11
0.0000000000000001
 21
1.0
 31
0.0
 73
     1
 44
1.0
1001
ACAD
1000
MTEXTBEGIN
1070
    73
1070
     1
1070
    44
1040
1.0
1070
    74
1070
     0
1000
MTEXTEND
  0
POINT
  5
6406F
330
3E2D5
100
AcDbEntity
  8
Defpoints
 62
     0
100
AcDbPoint
 10
3429.34582833969
 20
-469.6288634999588
 30
0.0
  0
POINT
  5
64070
330
3E2D5
100
AcDbEntity
  8
Defpoints
 62
     0
100
AcDbPoint
 10
3429.34582833969
 20
-477.1288634999589
 30
0.0
  0
POINT
  5
64071
330
3E2D5
100
AcDbEntity
  8
Defpoints
 62
     0
100
AcDbPoint
 10
3453.34582833969
 20
-477.1288634999589
 30
0.0
  0
ENDBLK
  5
3E2E2
330
3E2D5
100
AcDbEntity
  8
0
100
AcDbBlockEnd
  0
BLOCK
  5
3E2ED
330
3E2E3
100
AcDbEntity
  8
0
100
AcDbBlockBegin
  2
*D389
 70
     1
 10
0.0
 20
0.0
 30
0.0
  3
*D389
  1

  0
LINE
  5
3E306
330
3E2E3
100
AcDbEntity
  8
AM_5
100
AcDbLine
 10
3431.34582833969
 20
-477.1288634999589
 30
0.0
 11
3455.34582833969
 21
-477.1288634999589
 31
0.0
  0
LINE
  5
3E307
330
3E2E3
100
AcDbEntity
  8
AM_5
100
AcDbLine
 10
3431.34582833969
 20
-509.1288634999589
 30
0.0
 11
3455.34582833969
 21
-509.1288634999589
 31
0.0
  0
LINE
  5
3E308
330
3E2E3
100
AcDbEntity
  8
AM_5
100
AcDbLine
 10
3453.34582833969
 20
-479.1288634999589
 30
0.0
 11
3453.34582833969
 21
-507.1288634999588
 31
0.0
  0
INSERT
  5
3E309
330
3E2E3
100
AcDbEntity
  8
AM_5
100
AcDbBlockReference
  2
_Dot
 10
3453.34582833969
 20
-477.1288634999589
 30
0.0
 41
2.0
 42
2.0
 43
2.0
 50
90.0
  0
INSERT
  5
3E30A
330
3E2E3
100
AcDbEntity
  8
AM_5
100
AcDbBlockReference
  2
_Dot
 10
3453.34582833969
 20
-509.1288634999589
 30
0.0
 41
2.0
 42
2.0
 43
2.0
 50
270.0
  0
MTEXT
  5
3E30B
330
3E2E3
100
AcDbEntity
  8
AM_5
 62
     2
100
AcDbMText
 10
3448.14582833969
 20
-493.1288634999584
 30
0.0
 40
6.400000000000002
 41
0.0
 71
     5
 72
     1
  1
32
 11
0.0000000000000001
 21
1.0
 31
0.0
 73
     1
 44
1.0
1001
ACAD
1000
MTEXTBEGIN
1070
    73
1070
     1
1070
    44
1040
1.0
1070
    74
1070
     0
1000
MTEXTEND
  0
POINT
  5
3E30C
330
3E2E3
100
AcDbEntity
  8
Defpoints
 62
     0
100
AcDbPoint
 10
3429.34582833969
 20
-477.1288634999589
 30
0.0
  0
POINT
  5
3E30D
330
3E2E3
100
AcDbEntity
  8
Defpoints
 62
     0
100
AcDbPoint
 10
3429.34582833969
 20
-509.1288634999589
 30
0.0
  0
POINT
  5
3E30E
330
3E2E3
100
AcDbEntity
  8
Defpoints
 62
     0
100
AcDbPoint
 10
3453.34582833969
 20
-509.1288634999589
 30
0.0
  0
ENDBLK
  5
3E2EE
330
3E2E3
100
AcDbEntity
  8
0
100
AcDbBlockEnd
  0
BLOCK
  5
3E2F9
330
3E2EF
100
AcDbEntity
  8
0
100
AcDbBlockBegin
  2
*D390
 70
     1
 10
0.0
 20
0.0
 30
0.0
  3
*D390
  1

  0
LINE
  5
3E30F
330
3E2EF
100
AcDbEntity
  8
AM_5
100
AcDbLine
 10
3431.34582833969
 20
-509.1288634999589
 30
0.0
 11
3455.34582833969
 21
-509.1288634999589
 31
0.0
  0
LINE
  5
3E310
330
3E2EF
100
AcDbEntity
  8
AM_5
100
AcDbLine
 10
3431.34582833969
 20
-582.1288634999591
 30
0.0
 11
3455.34582833969
 21
-582.1288634999591
 31
0.0
  0
LINE
  5
3E311
330
3E2EF
100
AcDbEntity
  8
AM_5
100
AcDbLine
 10
3453.34582833969
 20
-511.1288634999588
 30
0.0
 11
3453.34582833969
 21
-580.1288634999592
 31
0.0
  0
INSERT
  5
3E312
330
3E2EF
100
AcDbEntity
  8
AM_5
100
AcDbBlockReference
  2
_Dot
 10
3453.34582833969
 20
-509.1288634999589
 30
0.0
 41
2.0
 42
2.0
 43
2.0
 50
90.0
  0
INSERT
  5
3E313
330
3E2EF
100
AcDbEntity
  8
AM_5
100
AcDbBlockReference
  2
_Dot
 10
3453.34582833969
 20
-582.1288634999591
 30
0.0
 41
2.0
 42
2.0
 43
2.0
 50
270.0
  0
MTEXT
  5
3E314
330
3E2EF
100
AcDbEntity
  8
AM_5
 62
     2
100
AcDbMText
 10
3448.14582833969
 20
-545.6288634999586
 30
0.0
 40
6.400000000000002
 41
0.0
 71
     5
 72
     1
  1
73
 11
0.0000000000000001
 21
1.0
 31
0.0
 73
     1
 44
1.0
1001
ACAD
1000
MTEXTBEGIN
1070
    73
1070
     1
1070
    44
1040
1.0
1070
    74
1070
     0
1000
MTEXTEND
  0
POINT
  5
3E315
330
3E2EF
100
AcDbEntity
  8
Defpoints
 62
     0
100
AcDbPoint
 10
3429.34582833969
 20
-509.1288634999589
 30
0.0
  0
POINT
  5
3E316
330
3E2EF
100
AcDbEntity
  8
Defpoints
 62
     0
100
AcDbPoint
 10
3429.34582833969
 20
-582.1288634999591
 30
0.0
  0
POINT
  5
3E317
330
3E2EF
100
AcDbEntity
  8
Defpoints
 62
     0
100
AcDbPoint
 10
3453.34582833969
 20
-582.1288634999591
 30
0.0
  0
ENDBLK
  5
3E2FA
330
3E2EF
100
AcDbEntity
  8
0
100
AcDbBlockEnd
  0
BLOCK
  5
64541
330
6453A
100
AcDbEntity
  8
0
100
AcDbBlockBegin
  2
*S414
 70
     1
 10
0.0
 20
0.0
 30
0.0
  3
*S414
  1

  0
LINE
  5
6453B
330
6453A
100
AcDbEntity
  8
AM_5
 62
     3
100
AcDbLine
 10
3292.6175038449
 20
-560.6253197518551
 30
0.0
 11
3356.958837178233
 21
-560.6253197518551
 31
0.0
  0
LINE
  5
6453C
330
6453A
100
AcDbEntity
  8
AM_5
 62
     3
100
AcDbLine
 10
3356.958837178233
 20
-560.6253197518551
 30
0.0
 11
3377.432106442146
 21
-541.3693424186469
 31
0.0
  0
LINE
  5
6453D
330
6453A
100
AcDbEntity
  8
AM_5
  6
Continuous
 62
     3
100
AcDbLine
 10
3377.432106442146
 20
-541.3693424186469
 30
0.0
 11
3380.345828339689
 21
-538.6288634999589
 31
0.0
  0
LINE
  5
6453E
330
6453A
100
AcDbEntity
  8
AM_5
  6
Continuous
 62
     3
100
AcDbLine
 10
3378.166415548621
 20
-542.1500718409791
 30
0.0
 11
3380.345828339689
 21
-538.6288634999589
 31
0.0
  0
LINE
  5
6453F
330
6453A
100
AcDbEntity
  8
AM_5
  6
Continuous
 62
     3
100
AcDbLine
 10
3380.345828339689
 20
-538.6288634999589
 30
0.0
 11
3376.697797335671
 21
-540.5886129963148
 31
0.0
  0
MTEXT
  5
64540
330
6453A
100
AcDbEntity
  8
AM_5
 62
     2
100
AcDbMText
 10
3350.558837178233
 20
-557.4253197518553
 30
0.0
 40
6.4
 41
0.0
 71
     9
 72
     5
  1
注意、耐荷重シール貼付
 73
     1
 44
1.0
1001
ACAD
1000
MTEXTBEGIN
1070
    73
1070
     1
1070
    44
1040
1.0
1070
    74
1070
     0
1000
MTEXTEND
  0
ENDBLK
  5
64542
330
6453A
100
AcDbEntity
  8
0
100
AcDbBlockEnd
  0
ENDSEC
  0
SECTION
  2
ENTITIES
  0
TEXT
  5
C47E
330
1F
100
AcDbEntity
  8
AM_6
 60
     1
100
AcDbText
 10
3205.236059512639
 20
1844.02847902716
 30
0.0
 40
2.5
  1
!GENTITLE-INSERT
100
AcDbText
  0
TEXT
  5
C47F
330
1F
100
AcDbEntity
  8
AM_6
 60
     1
100
AcDbText
 10
3216.736059512638
 20
2045.52847902716
 30
0.0
 40
2.5
  1
!GENTITLE-MAX
100
AcDbText
  0
TEXT
  5
C480
330
1F
100
AcDbEntity
  8
AM_6
 60
     1
100
AcDbText
 10
3216.736059512638
 20
2045.52847902716
 30
0.0
 40
2.5
  1
!GENTITLE-RU
100
AcDbText
  0
TEXT
  5
C482
330
1F
100
AcDbEntity
  8
AM_6
 60
     1
100
AcDbText
 10
2919.736059512639
 20
1835.52847902716
 30
0.0
 40
2.5
  1
!GENTITLE-LL
100
AcDbText
  0
AMDTACMWBLOCKBOMENTITY
  5
13BB9
330
1F
100
AcDbEntity
  8
AM_5
 92
        8
310
0800000000000000
  0
AMDTACMWBLOCKBOMENTITY
  5
13BBB
330
1F
100
AcDbEntity
  8
AM_5
 92
        8
310
0800000000000000
  0
AMDTACMWBLOCKBOMENTITY
  5
13BBD
330
1F
100
AcDbEntity
  8
AM_5
 92
        8
310
0800000000000000
  0
AMDTACMWBLOCKBOMENTITY
  5
13BBF
330
1F
100
AcDbEntity
  8
AM_5
 92
        8
310
0800000000000000
  0
AMDTACMWBLOCKBOMENTITY
  5
13BC1
330
1F
100
AcDbEntity
  8
AM_5
 92
        8
310
0800000000000000
  0
AMDTACMWBLOCKBOMENTITY
  5
13BC3
330
1F
100
AcDbEntity
  8
AM_5
 92
        8
310
0800000000000000
  0
AMDTACMWBLOCKBOMENTITY
  5
13BC5
330
1F
100
AcDbEntity
  8
AM_5
 92
        8
310
0800000000000000
  0
AMDTACMWBLOCKBOMENTITY
  5
13BC8
330
1F
100
AcDbEntity
  8
AM_5
 92
        8
310
0800000000000000
  0
AMDTACMWBLOCKBOMENTITY
  5
13BCA
330
1F
100
AcDbEntity
  8
AM_5
 92
        8
310
0800000000000000
  0
AMDTACMWBLOCKBOMENTITY
  5
13BCC
330
1F
100
AcDbEntity
  8
AM_5
 92
        8
310
0800000000000000
  0
AMDTACMWBLOCKBOMENTITY
  5
13BCF
330
1F
100
AcDbEntity
  8
AM_6
 92
        8
310
0800000000000000
  0
AMDTACMWBLOCKBOMENTITY
  5
14686
330
1F
100
AcDbEntity
  8
AM_0
 92
        8
310
0800000000000000
  0
AMDTACMWBLOCKBOMENTITY
  5
1468B
330
1F
100
AcDbEntity
  8
AM_5
 92
        8
310
0800000000000000
  0
AMDTACMWBLOCKBOMENTITY
  5
146B9
330
1F
100
AcDbEntity
  8
AM_5
 92
        8
310
0800000000000000
  0
AMDTACMWBLOCKBOMENTITY
  5
146BA
330
1F
100
AcDbEntity
  8
AM_5
 92
        8
310
0800000000000000
  0
AMDTACMWBLOCKBOMENTITY
  5
14716
330
1F
100
AcDbEntity
  8
AM_5
 92
        8
310
0800000000000000
  0
AMDTACMWBLOCKBOMENTITY
  5
14717
330
1F
100
AcDbEntity
  8
AM_5
 92
        8
310
0800000000000000
  0
AMDTACMWBLOCKBOMENTITY
  5
14718
330
1F
100
AcDbEntity
  8
AM_5
 92
        8
310
0800000000000000
  0
AMDTACMWBLOCKBOMENTITY
  5
14719
330
1F
100
AcDbEntity
  8
AM_5
 92
        8
310
0800000000000000
  0
AMDTACMWBLOCKBOMENTITY
  5
1471A
330
1F
100
AcDbEntity
  8
AM_5
 92
        8
310
0800000000000000
  0
AMDTACMWBLOCKBOMENTITY
  5
1471B
330
1F
100
AcDbEntity
  8
AM_5
 92
        8
310
0800000000000000
  0
AMDTACMWBLOCKBOMENTITY
  5
1471C
330
1F
100
AcDbEntity
  8
AM_5
 92
        8
310
0800000000000000
  0
AMDTACMWBLOCKBOMENTITY
  5
14B7B
330
1F
100
AcDbEntity
  8
AM_0
 92
        8
310
0800000000000000
  0
AMDTACMWBLOCKBOMENTITY
  5
14B82
330
1F
100
AcDbEntity
  8
AM_5
 92
        8
310
0800000000000000
  0
AMDTACMWBLOCKBOMENTITY
  5
14BA1
330
1F
100
AcDbEntity
  8
AM_5
 92
        8
310
0800000000000000
  0
AMDTACMWBLOCKBOMENTITY
  5
14BDC
330
1F
100
AcDbEntity
  8
AM_5
 92
        8
310
0800000000000000
  0
AMDTACMWBLOCKBOMENTITY
  5
14BDD
330
1F
100
AcDbEntity
  8
AM_5
 92
        8
310
0800000000000000
  0
AMDTACMWBLOCKBOMENTITY
  5
14BDE
330
1F
100
AcDbEntity
  8
AM_5
 92
        8
310
0800000000000000
  0
AMDTACMWBLOCKBOMENTITY
  5
14BDF
330
1F
100
AcDbEntity
  8
AM_5
 92
        8
310
0800000000000000
  0
AMDTACMWBLOCKBOMENTITY
  5
14BE0
330
1F
100
AcDbEntity
  8
AM_5
 92
        8
310
0800000000000000
  0
AMDTACMWBLOCKBOMENTITY
  5
14BE1
330
1F
100
AcDbEntity
  8
AM_5
 92
        8
310
0800000000000000
  0
AMDTACMWBLOCKBOMENTITY
  5
14BEA
330
1F
100
AcDbEntity
  8
AM_5
 92
        8
310
0800000000000000
  0
AMDTACMWBLOCKBOMENTITY
  5
14BEB
330
1F
100
AcDbEntity
  8
AM_5
 92
        8
310
0800000000000000
  0
AMDTACMWBLOCKBOMENTITY
  5
14BEC
330
1F
100
AcDbEntity
  8
AM_5
 92
        8
310
0800000000000000
  0
AMDTACMWBLOCKBOMENTITY
  5
14BED
330
1F
100
AcDbEntity
  8
AM_5
 92
        8
310
0800000000000000
  0
AMDTACMWBLOCKBOMENTITY
  5
14FC4
330
1F
100
AcDbEntity
  8
AM_0
 92
        8
310
0800000000000000
  0
AMDTACMWBLOCKBOMENTITY
  5
14FD1
330
1F
100
AcDbEntity
  8
AM_5
 92
        8
310
0800000000000000
  0
AMDTACMWBLOCKBOMENTITY
  5
150AA
330
1F
100
AcDbEntity
  8
AM_5
 92
        8
310
0800000000000000
  0
AMDTACMWBLOCKBOMENTITY
  5
150AB
330
1F
100
AcDbEntity
  8
AM_5
 92
        8
310
0800000000000000
  0
AMDTACMWBLOCKBOMENTITY
  5
150AC
330
1F
100
AcDbEntity
  8
AM_5
 92
        8
310
0800000000000000
  0
AMDTACMWBLOCKBOMENTITY
  5
150AD
330
1F
100
AcDbEntity
  8
AM_5
 92
        8
310
0800000000000000
  0
AMDTACMWBLOCKBOMENTITY
  5
150AE
330
1F
100
AcDbEntity
  8
AM_5
 92
        8
310
0800000000000000
  0
AMDTACMWBLOCKBOMENTITY
  5
150AF
330
1F
100
AcDbEntity
  8
AM_5
 92
        8
310
0800000000000000
  0
AMDTACMWBLOCKBOMENTITY
  5
154F6
330
1F
100
AcDbEntity
  8
AM_0
 92
        8
310
0800000000000000
  0
AMDTACMWBLOCKBOMENTITY
  5
154FB
330
1F
100
AcDbEntity
  8
AM_5
 92
        8
310
0800000000000000
  0
AMDTACMWBLOCKBOMENTITY
  5
15529
330
1F
100
AcDbEntity
  8
AM_5
 92
        8
310
0800000000000000
  0
AMDTACMWBLOCKBOMENTITY
  5
1552A
330
1F
100
AcDbEntity
  8
AM_5
 92
        8
310
0800000000000000
  0
AMDTACMWBLOCKBOMENTITY
  5
15560
330
1F
100
AcDbEntity
  8
AM_5
 92
        8
310
0800000000000000
  0
AMDTACMWBLOCKBOMENTITY
  5
15561
330
1F
100
AcDbEntity
  8
AM_5
 92
        8
310
0800000000000000
  0
AMDTACMWBLOCKBOMENTITY
  5
15562
330
1F
100
AcDbEntity
  8
AM_5
 92
        8
310
0800000000000000
  0
AMDTACMWBLOCKBOMENTITY
  5
15563
330
1F
100
AcDbEntity
  8
AM_5
 92
        8
310
0800000000000000
  0
AMDTACMWBLOCKBOMENTITY
  5
15564
330
1F
100
AcDbEntity
  8
AM_5
 92
        8
310
0800000000000000
  0
AMDTACMWBLOCKBOMENTITY
  5
1557A
330
1F
100
AcDbEntity
  8
AM_5
 92
        8
310
0800000000000000
  0
AMDTACMWBLOCKBOMENTITY
  5
159E8
330
1F
100
AcDbEntity
  8
AM_0
 92
        8
310
0800000000000000
  0
AMDTACMWBLOCKBOMENTITY
  5
159EF
330
1F
100
AcDbEntity
  8
AM_5
 92
        8
310
0800000000000000
  0
AMDTACMWBLOCKBOMENTITY
  5
15A0E
330
1F
100
AcDbEntity
  8
AM_5
 92
        8
310
0800000000000000
  0
AMDTACMWBLOCKBOMENTITY
  5
15A3F
330
1F
100
AcDbEntity
  8
AM_5
 92
        8
310
0800000000000000
  0
AMDTACMWBLOCKBOMENTITY
  5
15A40
330
1F
100
AcDbEntity
  8
AM_5
 92
        8
310
0800000000000000
  0
AMDTACMWBLOCKBOMENTITY
  5
15A41
330
1F
100
AcDbEntity
  8
AM_5
 92
        8
310
0800000000000000
  0
AMDTACMWBLOCKBOMENTITY
  5
15A42
330
1F
100
AcDbEntity
  8
AM_5
 92
        8
310
0800000000000000
  0
AMDTACMWBLOCKBOMENTITY
  5
15A4B
330
1F
100
AcDbEntity
  8
AM_5
 92
        8
310
0800000000000000
  0
AMDTACMWBLOCKBOMENTITY
  5
15A52
330
1F
100
AcDbEntity
  8
AM_5
 92
        8
310
0800000000000000
  0
AMDTACMWBLOCKBOMENTITY
  5
15A53
330
1F
100
AcDbEntity
  8
AM_5
 92
        8
310
0800000000000000
  0
AMDTACMWBLOCKBOMENTITY
  5
15A54
330
1F
100
AcDbEntity
  8
AM_5
 92
        8
310
0800000000000000
  0
AMDTACMWBLOCKBOMENTITY
  5
15A55
330
1F
100
AcDbEntity
  8
AM_5
 92
        8
310
0800000000000000
  0
AMDTACMWBLOCKBOMENTITY
  5
15DD1
330
1F
100
AcDbEntity
  8
AM_0
 92
        8
310
0800000000000000
  0
AMDTACMWBLOCKBOMENTITY
  5
15E3E
330
1F
100
AcDbEntity
  8
AM_5
 92
        8
310
0800000000000000
  0
AMDTACMWBLOCKBOMENTITY
  5
15E3F
330
1F
100
AcDbEntity
  8
AM_5
 92
        8
310
0800000000000000
  0
AMDTACMWBLOCKBOMENTITY
  5
15E84
330
1F
100
AcDbEntity
  8
AM_5
 92
        8
310
0800000000000000
  0
AMDTACMWBLOCKBOMENTITY
  5
15E85
330
1F
100
AcDbEntity
  8
AM_5
 92
        8
310
0800000000000000
  0
AMDTACMWBLOCKBOMENTITY
  5
1613A
330
1F
100
AcDbEntity
  8
AM_0
 92
        8
310
0800000000000000
  0
AMDTACMWBLOCKBOMENTITY
  5
161D6
330
1F
100
AcDbEntity
  8
AM_5
 92
        8
310
0800000000000000
  0
AMDTACMWBLOCKBOMENTITY
  5
161D7
330
1F
100
AcDbEntity
  8
AM_5
 92
        8
310
0800000000000000
  0
AMDTACMWBLOCKBOMENTITY
  5
161D8
330
1F
100
AcDbEntity
  8
AM_5
 92
        8
310
0800000000000000
  0
AMDTACMWBLOCKBOMENTITY
  5
161D9
330
1F
100
AcDbEntity
  8
AM_5
 92
        8
310
0800000000000000
  0
AMDTACMWBLOCKBOMENTITY
  5
161DA
330
1F
100
AcDbEntity
  8
AM_5
 92
        8
310
0800000000000000
  0
AMDTACMWBLOCKBOMENTITY
  5
161DB
330
1F
100
AcDbEntity
  8
AM_5
 92
        8
310
0800000000000000
  0
TEXT
  5
163F0
330
1F
100
AcDbEntity
  8
AM_6
 60
     1
100
AcDbText
 10
2075.208288278955
 20
-1588.644382304855
 30
0.0
 40
5.0
  1
!GENTITLE-INSERT
100
AcDbText
  0
TEXT
  5
163F1
330
1F
100
AcDbEntity
  8
AM_6
 60
     1
100
AcDbText
 10
1258.208288278954
 20
-1605.644382304856
 30
0.0
 40
5.0
  1
!GENTITLE-LL
100
AcDbText
  0
TEXT
  5
163F2
330
1F
100
AcDbEntity
  8
AM_6
 60
     1
100
AcDbText
 10
2098.208288278955
 20
-1011.644382304855
 30
0.0
 40
5.0
  1
!GENTITLE-RU
100
AcDbText
  0
TEXT
  5
163F3
330
1F
100
AcDbEntity
  8
AM_6
 60
     1
100
AcDbText
 10
2098.208288278955
 20
-1011.644382304855
 30
0.0
 40
5.0
  1
!GENTITLE-MAX
100
AcDbText
  0
LINE
  5
163F5
330
1F
100
AcDbEntity
  8
size
100
AcDbLine
 10
3810.467048644276
 20
-667.5289419461714
 30
0.0
 11
3810.467048644276
 21
-73.52894194617147
 31
0.0
1001
GENIUS_GENREC_14
1002
{
1000
PYDIR
1011
2970.467048644275
1021
-73.52894194617147
1031
0.0
1002
}
1002
{
1000
PXDIR
1011
3810.467048644276
1021
-667.5289419461714
1031
0.0
1002
}
1002
{
1000
PORI
1011
2970.467048644275
1021
-667.5289419461714
1031
0.0
1002
}
1002
{
1000
PINS
1011
3390.467048644275
1021
-370.5289419461715
1031
0.0
1002
}
1002
{
1000
HVAL
1000
297
1002
}
1002
{
1000
H
1070
     2
1002
}
1002
{
1000
WVAL
1000
420
1002
}
1002
{
1000
W
1070
     2
1002
}
1002
{
1000
C
1070
     4
1002
}
1001
GENIUS_GENOBJ-N-REC_13
1002
{
1000
OWNER
1000
GEN
1002
}
1001
GENIUS_GENODEF_13
1002
{
1000
HIER
1070
     0
1002
}
1002
{
1000
MANEDIT
1070
     0
1002
}
1002
{
1000
NOSEL
1070
     0
1002
}
1002
{
1000
BEHIND
1070
     0
1002
}
1002
{
1000
OTHER
1070
     0
1002
}
1002
{
1000
REACTOR
1002
}
  0
LINE
  5
163F6
330
1F
100
AcDbEntity
  8
size
100
AcDbLine
 10
3810.467048644276
 20
-73.52894194617147
 30
0.0
 11
2970.467048644275
 21
-73.52894194617147
 31
0.0
1001
GENIUS_GENREC_14
1002
{
1000
PYDIR
1011
2970.467048644275
1021
-73.52894194617147
1031
0.0
1002
}
1002
{
1000
PXDIR
1011
3810.467048644276
1021
-667.5289419461714
1031
0.0
1002
}
1002
{
1000
PORI
1011
2970.467048644275
1021
-667.5289419461714
1031
0.0
1002
}
1002
{
1000
PINS
1011
3390.467048644275
1021
-370.5289419461715
1031
0.0
1002
}
1002
{
1000
HVAL
1000
297
1002
}
1002
{
1000
H
1070
     2
1002
}
1002
{
1000
WVAL
1000
420
1002
}
1002
{
1000
W
1070
     2
1002
}
1002
{
1000
C
1070
     4
1002
}
1001
GENIUS_GENOBJ-N-REC_13
1002
{
1000
OWNER
1000
GEN
1002
}
1001
GENIUS_GENODEF_13
1002
{
1000
HIER
1070
     0
1002
}
1002
{
1000
MANEDIT
1070
     0
1002
}
1002
{
1000
NOSEL
1070
     0
1002
}
1002
{
1000
BEHIND
1070
     0
1002
}
1002
{
1000
OTHER
1070
     0
1002
}
1002
{
1000
REACTOR
1002
}
  0
LINE
  5
163F7
330
1F
100
AcDbEntity
  8
size
100
AcDbLine
 10
2970.467048644275
 20
-73.52894194617147
 30
0.0
 11
2970.467048644275
 21
-667.5289419461714
 31
0.0
1001
GENIUS_GENREC_14
1002
{
1000
PYDIR
1011
2970.467048644275
1021
-73.52894194617147
1031
0.0
1002
}
1002
{
1000
PXDIR
1011
3810.467048644276
1021
-667.5289419461714
1031
0.0
1002
}
1002
{
1000
PORI
1011
2970.467048644275
1021
-667.5289419461714
1031
0.0
1002
}
1002
{
1000
PINS
1011
3390.467048644275
1021
-370.5289419461715
1031
0.0
1002
}
1002
{
1000
HVAL
1000
297
1002
}
1002
{
1000
H
1070
     2
1002
}
1002
{
1000
WVAL
1000
420
1002
}
1002
{
1000
W
1070
     2
1002
}
1002
{
1000
C
1070
     4
1002
}
1001
GENIUS_GENOBJ-N-REC_13
1002
{
1000
OWNER
1000
GEN
1002
}
1001
GENIUS_GENODEF_13
1002
{
1000
HIER
1070
     0
1002
}
1002
{
1000
MANEDIT
1070
     0
1002
}
1002
{
1000
NOSEL
1070
     0
1002
}
1002
{
1000
BEHIND
1070
     0
1002
}
1002
{
1000
OTHER
1070
     0
1002
}
1002
{
1000
REACTOR
1002
}
  0
LINE
  5
163F8
330
1F
100
AcDbEntity
  8
waku
100
AcDbLine
 10
3787.467048644276
 20
-650.5289419461714
 30
0.0
 11
3787.467048644276
 21
-90.52894194617147
 31
0.0
1001
GENIUS_GENREC_14
1002
{
1000
PYDIR
1011
2970.467048644275
1021
-73.52894194617147
1031
0.0
1002
}
1002
{
1000
PXDIR
1011
3810.467048644276
1021
-667.5289419461714
1031
0.0
1002
}
1002
{
1000
PORI
1011
2970.467048644275
1021
-667.5289419461714
1031
0.0
1002
}
1002
{
1000
PINS
1011
3390.467048644275
1021
-370.5289419461715
1031
0.0
1002
}
1002
{
1000
HVAL
1000
297
1002
}
1002
{
1000
H
1070
     2
1002
}
1002
{
1000
WVAL
1000
420
1002
}
1002
{
1000
W
1070
     2
1002
}
1002
{
1000
C
1070
     4
1002
}
1001
GENIUS_GENOBJ-N-REC_13
1002
{
1000
OWNER
1000
GEN
1002
}
1001
GENIUS_GENODEF_13
1002
{
1000
HIER
1070
     0
1002
}
1002
{
1000
MANEDIT
1070
     0
1002
}
1002
{
1000
NOSEL
1070
     0
1002
}
1002
{
1000
BEHIND
1070
     0
1002
}
1002
{
1000
OTHER
1070
     0
1002
}
1002
{
1000
REACTOR
1002
}
  0
LINE
  5
163F9
330
1F
100
AcDbEntity
  8
waku
100
AcDbLine
 10
2993.467048644276
 20
-90.52894194617147
 30
0.0
 11
2993.467048644276
 21
-650.5289419461714
 31
0.0
1001
GENIUS_GENREC_14
1002
{
1000
PYDIR
1011
2970.467048644275
1021
-73.52894194617147
1031
0.0
1002
}
1002
{
1000
PXDIR
1011
3810.467048644276
1021
-667.5289419461714
1031
0.0
1002
}
1002
{
1000
PORI
1011
2970.467048644275
1021
-667.5289419461714
1031
0.0
1002
}
1002
{
1000
PINS
1011
3390.467048644275
1021
-370.5289419461715
1031
0.0
1002
}
1002
{
1000
HVAL
1000
297
1002
}
1002
{
1000
H
1070
     2
1002
}
1002
{
1000
WVAL
1000
420
1002
}
1002
{
1000
W
1070
     2
1002
}
1002
{
1000
C
1070
     4
1002
}
1001
GENIUS_GENOBJ-N-REC_13
1002
{
1000
OWNER
1000
GEN
1002
}
1001
GENIUS_GENODEF_13
1002
{
1000
HIER
1070
     0
1002
}
1002
{
1000
MANEDIT
1070
     0
1002
}
1002
{
1000
NOSEL
1070
     0
1002
}
1002
{
1000
BEHIND
1070
     0
1002
}
1002
{
1000
OTHER
1070
     0
1002
}
1002
{
1000
REACTOR
1002
}
  0
LINE
  5
163FA
330
1F
100
AcDbEntity
  8
waku
100
AcDbLine
 10
3787.467048644276
 20
-90.52894194617147
 30
0.0
 11
2993.467048644276
 21
-90.52894194617147
 31
0.0
1001
GENIUS_GENREC_14
1002
{
1000
PYDIR
1011
2970.467048644275
1021
-73.52894194617147
1031
0.0
1002
}
1002
{
1000
PXDIR
1011
3810.467048644276
1021
-667.5289419461714
1031
0.0
1002
}
1002
{
1000
PORI
1011
2970.467048644275
1021
-667.5289419461714
1031
0.0
1002
}
1002
{
1000
PINS
1011
3390.467048644275
1021
-370.5289419461715
1031
0.0
1002
}
1002
{
1000
HVAL
1000
297
1002
}
1002
{
1000
H
1070
     2
1002
}
1002
{
1000
WVAL
1000
420
1002
}
1002
{
1000
W
1070
     2
1002
}
1002
{
1000
C
1070
     4
1002
}
1001
GENIUS_GENOBJ-N-REC_13
1002
{
1000
OWNER
1000
GEN
1002
}
1001
GENIUS_GENODEF_13
1002
{
1000
HIER
1070
     0
1002
}
1002
{
1000
MANEDIT
1070
     0
1002
}
1002
{
1000
NOSEL
1070
     0
1002
}
1002
{
1000
BEHIND
1070
     0
1002
}
1002
{
1000
OTHER
1070
     0
1002
}
1002
{
1000
REACTOR
1002
}
  0
TEXT
  5
163FB
330
1F
100
AcDbEntity
  8
AM_6
 60
     1
100
AcDbText
 10
1258.208288278954
 20
-1605.644382304856
 30
0.0
 40
5.0
  1
!GENTITLE-LL
100
AcDbText
  0
TEXT
  5
163FC
330
1F
100
AcDbEntity
  8
AM_6
 60
     1
100
AcDbText
 10
2075.208288278955
 20
-1028.644382304856
 30
0.0
 40
5.0
  1
!GENTITLE-RU
100
AcDbText
  0
TEXT
  5
163FD
330
1F
100
AcDbEntity
  8
AM_6
 60
     1
100
AcDbText
 10
2098.208288278955
 20
-1011.644382304855
 30
0.0
 40
5.0
  1
!GENTITLE-MAX
100
AcDbText
  0
TEXT
  5
163FE
330
1F
100
AcDbEntity
  8
AM_6
 60
     1
100
AcDbText
 10
2075.208288278955
 20
-1588.644382304855
 30
0.0
 40
5.0
  1
!GENTITLE-INSERT
100
AcDbText
  0
LINE
  5
163FF
330
1F
100
AcDbEntity
  8
waku
100
AcDbLine
 10
2993.467048644276
 20
-650.5289419461714
 30
0.0
 11
3787.467048644276
 21
-650.5289419461714
 31
0.0
  0
LINE
  5
16488
330
1F
100
AcDbEntity
  8
0部品18
100
AcDbLine
 10
3079.34582833969
 20
-257.7847647700906
 30
0.0
 11
3415.34582833969
 21
-257.7847647700906
 31
0.0
  0
LINE
  5
16489
330
1F
100
AcDbEntity
  8
0部品18
100
AcDbLine
 10
3079.34582833969
 20
-221.2847647700905
 30
0.0
 11
3415.34582833969
 21
-221.2847647700905
 31
0.0
  0
LINE
  5
1648A
330
1F
100
AcDbEntity
  8
0部品18
100
AcDbLine
 10
3079.34582833969
 20
-245.7847647700905
 30
0.0
 11
3415.34582833969
 21
-245.7847647700905
 31
0.0
  0
LINE
  5
1648B
330
1F
100
AcDbEntity
  8
0部品18
100
AcDbLine
 10
3079.34582833969
 20
-209.2847647700905
 30
0.0
 11
3415.34582833969
 21
-209.2847647700905
 31
0.0
  0
LINE
  5
1648C
330
1F
100
AcDbEntity
  8
0部品18
100
AcDbLine
 10
3079.34582833969
 20
-184.7847647700905
 30
0.0
 11
3415.34582833969
 21
-184.7847647700905
 31
0.0
  0
LINE
  5
1648D
330
1F
100
AcDbEntity
  8
0部品18
100
AcDbLine
 10
3079.34582833969
 20
-172.7847647700905
 30
0.0
 11
3415.34582833969
 21
-172.7847647700905
 31
0.0
  0
LINE
  5
1648E
330
1F
100
AcDbEntity
  8
0部品18
  6
中心線1
370
    13
100
AcDbLine
 10
3404.345828339689
 20
-347.2847647700906
 30
0.0
 11
3440.345828339689
 21
-347.2847647700906
 31
0.0
1001
GENIUS_GENOBJ-N-CEN_13
1002
{
1000
OWNER
1000
GEN
1002
}
1001
GENIUS_GENODEF_13
1002
{
1000
HIER
1070
     0
1002
}
1002
{
1000
MANEDIT
1070
     0
1002
}
1002
{
1000
NOSEL
1070
     0
1002
}
1002
{
1000
BEHIND
1070
     0
1002
}
1002
{
1000
OTHER
1070
     0
1002
}
1002
{
1000
REACTOR
1002
}
  0
ARC
  5
1648F
330
1F
100
AcDbEntity
  8
0部品18
100
AcDbCircle
 10
3422.34582833969
 20
-387.2847647700906
 30
0.0
 40
15.0
100
AcDbArc
 50
180.0
 51
0.0
1001
GENIUS_GENOBJ-N-FIL_13
1002
{
1000
OWNER
1000
GEN
1002
}
1001
GENIUS_GENODEF_13
1002
{
1000
HIER
1070
     0
1002
}
1002
{
1000
MANEDIT
1070
     0
1002
}
1002
{
1000
NOSEL
1070
     0
1002
}
1002
{
1000
BEHIND
1070
     0
1002
}
1002
{
1000
OTHER
1070
     0
1002
}
1002
{
1000
REACTOR
1002
}
  0
ARC
  5
16490
330
1F
100
AcDbEntity
  8
0部品18
100
AcDbCircle
 10
3422.34582833969
 20
-484.6288634999589
 30
0.0
 40
15.0
100
AcDbArc
 50
0.0
 51
180.0
1001
GENIUS_GENOBJ-N-FIL_13
1002
{
1000
OWNER
1000
GEN
1002
}
1001
GENIUS_GENODEF_13
1002
{
1000
HIER
1070
     0
1002
}
1002
{
1000
MANEDIT
1070
     0
1002
}
1002
{
1000
NOSEL
1070
     0
1002
}
1002
{
1000
BEHIND
1070
     0
1002
}
1002
{
1000
OTHER
1070
     0
1002
}
1002
{
1000
REACTOR
1002
}
  0
ARC
  5
16492
330
1F
100
AcDbEntity
  8
0部品18
100
AcDbCircle
 10
3422.34582833969
 20
-574.6288634999589
 30
0.0
 40
15.0
100
AcDbArc
 50
180.0
 51
0.0
1001
GENIUS_GENOBJ-N-FIL_13
1002
{
1000
OWNER
1000
GEN
1002
}
1001
GENIUS_GENODEF_13
1002
{
1000
HIER
1070
     0
1002
}
1002
{
1000
MANEDIT
1070
     0
1002
}
1002
{
1000
NOSEL
1070
     0
1002
}
1002
{
1000
BEHIND
1070
     0
1002
}
1002
{
1000
OTHER
1070
     0
1002
}
1002
{
1000
REACTOR
1002
}
  0
LINE
  5
16493
330
1F
100
AcDbEntity
  8
0部品18
100
AcDbLine
 10
3079.34582833969
 20
-330.7847647700906
 30
0.0
 11
3415.34582833969
 21
-330.7847647700906
 31
0.0
  0
LINE
  5
16494
330
1F
100
AcDbEntity
  8
0部品18
100
AcDbLine
 10
3079.34582833969
 20
-294.2847647700905
 30
0.0
 11
3415.34582833969
 21
-294.2847647700905
 31
0.0
  0
LINE
  5
16495
330
1F
100
AcDbEntity
  8
0部品18
100
AcDbLine
 10
3079.34582833969
 20
-318.7847647700905
 30
0.0
 11
3415.34582833969
 21
-318.7847647700905
 31
0.0
  0
LINE
  5
16496
330
1F
100
AcDbEntity
  8
0部品18
100
AcDbLine
 10
3079.34582833969
 20
-282.2847647700905
 30
0.0
 11
3415.34582833969
 21
-282.2847647700905
 31
0.0
  0
LINE
  5
16497
330
1F
100
AcDbEntity
  8
0部品18
100
AcDbLine
 10
3079.34582833969
 20
-528.6288634999589
 30
0.0
 11
3411.445828339689
 21
-528.6288634999589
 31
0.0
  0
LINE
  5
16498
330
1F
100
AcDbEntity
  8
0部品18
100
AcDbLine
 10
3415.34582833969
 20
-540.6288634999589
 30
0.0
 11
3079.34582833969
 21
-540.6288634999589
 31
0.0
  0
LINE
  5
16499
330
1F
100
AcDbEntity
  8
0部品18
100
AcDbLine
 10
3407.34582833969
 20
-330.7847647700906
 30
0.0
 11
3407.34582833969
 21
-387.2847647700906
 31
0.0
  0
LINE
  5
1649A
330
1F
100
AcDbEntity
  8
0部品18
100
AcDbLine
 10
3087.34582833969
 20
-330.7847647700906
 30
0.0
 11
3087.34582833969
 21
-387.2847647700906
 31
0.0
  0
LINE
  5
1649B
330
1F
100
AcDbEntity
  8
0部品18
100
AcDbLine
 10
3083.245828339689
 20
-335.2847647700905
 30
0.0
 11
3083.245828339689
 21
-383.2847647700905
 31
0.0
  0
LINE
  5
1649C
330
1F
100
AcDbEntity
  8
0部品18
100
AcDbLine
 10
3061.445828339689
 20
-335.2847647700905
 30
0.0
 11
3061.445828339689
 21
-383.2847647700905
 31
0.0
  0
LINE
  5
1649D
330
1F
100
AcDbEntity
  8
0部品18
100
AcDbLine
 10
3057.34582833969
 20
-297.2847647700906
 30
0.0
 11
3057.34582833969
 21
-387.2847647700906
 31
0.0
  0
LINE
  5
1649E
330
1F
100
AcDbEntity
  8
0部品18
100
AcDbLine
 10
3087.34582833969
 20
-484.6288634999589
 30
0.0
 11
3087.34582833969
 21
-528.6288634999589
 31
0.0
  0
LINE
  5
1649F
330
1F
100
AcDbEntity
  8
0部品18
  6
中心線1
370
    13
100
AcDbLine
 10
3072.34582833969
 20
-463.6288634999589
 30
0.0
 11
3072.34582833969
 21
-595.6288634999589
 31
0.0
1001
GENIUS_GENOBJ-N-CEN_13
1002
{
1000
OWNER
1000
GEN
1002
}
1001
GENIUS_GENODEF_13
1002
{
1000
HIER
1070
     0
1002
}
1002
{
1000
MANEDIT
1070
     0
1002
}
1002
{
1000
NOSEL
1070
     0
1002
}
1002
{
1000
BEHIND
1070
     0
1002
}
1002
{
1000
OTHER
1070
     0
1002
}
1002
{
1000
REACTOR
1002
}
  0
LINE
  5
164A0
330
1F
100
AcDbEntity
  8
0部品18
100
AcDbLine
 10
3057.34582833969
 20
-484.6288634999589
 30
0.0
 11
3057.34582833969
 21
-574.6288634999589
 31
0.0
  0
LINE
  5
164A1
330
1F
100
AcDbEntity
  8
0部品18
100
AcDbLine
 10
3065.345828339689
 20
-522.6288634999589
 30
0.0
 11
3079.34582833969
 21
-522.6288634999589
 31
0.0
  0
LINE
  5
164A2
330
1F
100
AcDbEntity
  8
0部品18
100
AcDbLine
 10
3061.445828339689
 20
-546.1288634999589
 30
0.0
 11
3083.245828339689
 21
-546.1288634999589
 31
0.0
  0
LINE
  5
164A3
330
1F
100
AcDbEntity
  8
0部品18
100
AcDbLine
 10
3063.44582833969
 20
-572.6288634999589
 30
0.0
 11
3081.245828339689
 21
-572.6288634999589
 31
0.0
  0
LINE
  5
164A4
330
1F
100
AcDbEntity
  8
0部品18
100
AcDbLine
 10
3061.445828339689
 20
-563.6288634999589
 30
0.0
 11
3083.245828339689
 21
-563.6288634999589
 31
0.0
  0
LINE
  5
164A5
330
1F
100
AcDbEntity
  8
0部品18
  6
中心線1
370
    13
100
AcDbLine
 10
3054.34582833969
 20
-534.6288634999589
 30
0.0
 11
3440.345828339689
 21
-534.6288634999589
 31
0.0
1001
GENIUS_GENOBJ-N-CEN_13
1002
{
1000
OWNER
1000
GEN
1002
}
1001
GENIUS_GENODEF_13
1002
{
1000
HIER
1070
     0
1002
}
1002
{
1000
MANEDIT
1070
     0
1002
}
1002
{
1000
NOSEL
1070
     0
1002
}
1002
{
1000
BEHIND
1070
     0
1002
}
1002
{
1000
OTHER
1070
     0
1002
}
1002
{
1000
REACTOR
1002
}
  0
ARC
  5
164A6
330
1F
100
AcDbEntity
  8
0部品18
100
AcDbCircle
 10
3072.34582833969
 20
-574.6288634999589
 30
0.0
 40
15.0
100
AcDbArc
 50
180.0
 51
0.0
1001
GENIUS_GENOBJ-N-FIL_13
1002
{
1000
OWNER
1000
GEN
1002
}
1001
GENIUS_GENODEF_13
1002
{
1000
HIER
1070
     0
1002
}
1002
{
1000
MANEDIT
1070
     0
1002
}
1002
{
1000
NOSEL
1070
     0
1002
}
1002
{
1000
BEHIND
1070
     0
1002
}
1002
{
1000
OTHER
1070
     0
1002
}
1002
{
1000
REACTOR
1002
}
  0
LINE
  5
164A7
330
1F
100
AcDbEntity
  8
0部品18
100
AcDbLine
 10
3061.445828339689
 20
-522.6288634999589
 30
0.0
 11
3061.445828339689
 21
-570.6288634999589
 31
0.0
  0
ARC
  5
164A8
330
1F
100
AcDbEntity
  8
0部品18
100
AcDbCircle
 10
3063.44582833969
 20
-570.6288634999589
 30
0.0
 40
2.0
100
AcDbArc
 50
180.0
 51
270.0
1001
GENIUS_GENOBJ-N-FIL_13
1002
{
1000
OWNER
1000
GEN
1002
}
1001
GENIUS_GENODEF_13
1002
{
1000
HIER
1070
     0
1002
}
1002
{
1000
MANEDIT
1070
     0
1002
}
1002
{
1000
NOSEL
1070
     0
1002
}
1002
{
1000
BEHIND
1070
     0
1002
}
1002
{
1000
OTHER
1070
     0
1002
}
1002
{
1000
REACTOR
1002
}
  0
LINE
  5
164AA
330
1F
100
AcDbEntity
  8
0部品18
100
AcDbLine
 10
3065.345828339689
 20
-522.6288634999589
 30
0.0
 11
3065.345828339689
 21
-546.1288634999589
 31
0.0
  0
LINE
  5
164AB
330
1F
100
AcDbEntity
  8
0部品18
100
AcDbLine
 10
3063.44582833969
 20
-546.1288634999589
 30
0.0
 11
3063.44582833969
 21
-522.6288634999589
 31
0.0
  0
LINE
  5
164AC
330
1F
100
AcDbEntity
  8
0部品18
100
AcDbLine
 10
3063.44582833969
 20
-540.6288634999589
 30
0.0
 11
3065.345828339689
 21
-540.6288634999589
 31
0.0
  0
LINE
  5
164AD
330
1F
100
AcDbEntity
  8
0部品18
100
AcDbLine
 10
3063.44582833969
 20
-522.6288634999589
 30
0.0
 11
3061.445828339689
 21
-522.6288634999589
 31
0.0
  0
LINE
  5
164AE
330
1F
100
AcDbEntity
  8
0部品18
100
AcDbLine
 10
3063.44582833969
 20
-528.6288634999589
 30
0.0
 11
3065.345828339689
 21
-528.6288634999589
 31
0.0
  0
LINE
  5
164AF
330
1F
100
AcDbEntity
  8
0部品18
100
AcDbLine
 10
3083.245828339689
 20
-540.6288634999589
 30
0.0
 11
3083.245828339689
 21
-570.6288634999589
 31
0.0
  0
ARC
  5
164B0
330
1F
100
AcDbEntity
  8
0部品18
100
AcDbCircle
 10
3081.245828339689
 20
-570.6288634999589
 30
0.0
 40
2.0
100
AcDbArc
 50
270.0
 51
0.0
1001
GENIUS_GENOBJ-N-FIL_13
1002
{
1000
OWNER
1000
GEN
1002
}
1001
GENIUS_GENODEF_13
1002
{
1000
HIER
1070
     0
1002
}
1002
{
1000
MANEDIT
1070
     0
1002
}
1002
{
1000
NOSEL
1070
     0
1002
}
1002
{
1000
BEHIND
1070
     0
1002
}
1002
{
1000
OTHER
1070
     0
1002
}
1002
{
1000
REACTOR
1002
}
  0
LINE
  5
164B1
330
1F
100
AcDbEntity
  8
0部品18
100
AcDbLine
 10
3081.245828339689
 20
-572.6288634999589
 30
0.0
 11
3081.245828339689
 21
-572.6288634999589
 31
0.0
  0
LINE
  5
164B2
330
1F
100
AcDbEntity
  8
0部品18
100
AcDbLine
 10
3079.34582833969
 20
-522.6288634999589
 30
0.0
 11
3079.34582833969
 21
-546.1288634999589
 31
0.0
  0
LINE
  5
164B3
330
1F
100
AcDbEntity
  8
0部品18
100
AcDbLine
 10
3081.245828339689
 20
-546.1288634999589
 30
0.0
 11
3081.245828339689
 21
-540.6288634999589
 31
0.0
  0
LINE
  5
164B5
330
1F
100
AcDbEntity
  8
0部品18
100
AcDbLine
 10
3081.245828339689
 20
-528.6288634999589
 30
0.0
 11
3081.245828339689
 21
-522.6288634999589
 31
0.0
  0
LINE
  5
164B6
330
1F
100
AcDbEntity
  8
0部品18
100
AcDbLine
 10
3083.245828339689
 20
-522.6288634999589
 30
0.0
 11
3083.245828339689
 21
-528.6288634999589
 31
0.0
  0
LINE
  5
164B8
330
1F
100
AcDbEntity
  8
0部品18
100
AcDbLine
 10
3081.245828339689
 20
-522.6288634999589
 30
0.0
 11
3083.245828339689
 21
-522.6288634999589
 31
0.0
  0
CIRCLE
  5
164B9
330
1F
100
AcDbEntity
  8
0部品18
100
AcDbCircle
 10
3072.34582833969
 20
-495.1288634999589
 30
0.0
 40
5.599999999999999
  0
LINE
  5
164BA
330
1F
100
AcDbEntity
  8
0部品18
100
AcDbLine
 10
3063.44582833969
 20
-385.2847647700905
 30
0.0
 11
3081.245828339689
 21
-385.2847647700905
 31
0.0
  0
LINE
  5
164BB
330
1F
100
AcDbEntity
  8
0部品18
100
AcDbLine
 10
3061.445828339689
 20
-376.2847647700905
 30
0.0
 11
3083.245828339689
 21
-376.2847647700905
 31
0.0
  0
ARC
  5
164BC
330
1F
100
AcDbEntity
  8
0部品18
100
AcDbCircle
 10
3072.34582833969
 20
-387.2847647700906
 30
0.0
 40
15.0
100
AcDbArc
 50
180.0
 51
0.0
1001
GENIUS_GENOBJ-N-FIL_13
1002
{
1000
OWNER
1000
GEN
1002
}
1001
GENIUS_GENODEF_13
1002
{
1000
HIER
1070
     0
1002
}
1002
{
1000
MANEDIT
1070
     0
1002
}
1002
{
1000
NOSEL
1070
     0
1002
}
1002
{
1000
BEHIND
1070
     0
1002
}
1002
{
1000
OTHER
1070
     0
1002
}
1002
{
1000
REACTOR
1002
}
  0
ARC
  5
164BD
330
1F
100
AcDbEntity
  8
0部品18
100
AcDbCircle
 10
3072.34582833969
 20
-484.6288634999589
 30
0.0
 40
15.0
100
AcDbArc
 50
0.0
 51
180.0
1001
GENIUS_GENOBJ-N-FIL_13
1002
{
1000
OWNER
1000
GEN
1002
}
1001
GENIUS_GENODEF_13
1002
{
1000
HIER
1070
     0
1002
}
1002
{
1000
MANEDIT
1070
     0
1002
}
1002
{
1000
NOSEL
1070
     0
1002
}
1002
{
1000
BEHIND
1070
     0
1002
}
1002
{
1000
OTHER
1070
     0
1002
}
1002
{
1000
REACTOR
1002
}
  0
ARC
  5
164BE
330
1F
100
AcDbEntity
  8
0部品18
100
AcDbCircle
 10
3063.44582833969
 20
-383.2847647700905
 30
0.0
 40
2.0
100
AcDbArc
 50
180.0
 51
270.0
1001
GENIUS_GENOBJ-N-FIL_13
1002
{
1000
OWNER
1000
GEN
1002
}
1001
GENIUS_GENODEF_13
1002
{
1000
HIER
1070
     0
1002
}
1002
{
1000
MANEDIT
1070
     0
1002
}
1002
{
1000
NOSEL
1070
     0
1002
}
1002
{
1000
BEHIND
1070
     0
1002
}
1002
{
1000
OTHER
1070
     0
1002
}
1002
{
1000
REACTOR
1002
}
  0
ARC
  5
164BF
330
1F
100
AcDbEntity
  8
0部品18
100
AcDbCircle
 10
3081.245828339689
 20
-383.2847647700905
 30
0.0
 40
2.0
100
AcDbArc
 50
270.0
 51
0.0
1001
GENIUS_GENOBJ-N-FIL_13
1002
{
1000
OWNER
1000
GEN
1002
}
1001
GENIUS_GENODEF_13
1002
{
1000
HIER
1070
     0
1002
}
1002
{
1000
MANEDIT
1070
     0
1002
}
1002
{
1000
NOSEL
1070
     0
1002
}
1002
{
1000
BEHIND
1070
     0
1002
}
1002
{
1000
OTHER
1070
     0
1002
}
1002
{
1000
REACTOR
1002
}
  0
LINE
  5
164C0
330
1F
100
AcDbEntity
  8
0部品18
100
AcDbLine
 10
3081.245828339689
 20
-385.2847647700905
 30
0.0
 11
3081.245828339689
 21
-385.2847647700905
 31
0.0
  0
LINE
  5
164C1
330
1F
100
AcDbEntity
  8
0部品18
100
AcDbLine
 10
3407.34582833969
 20
-484.6288634999589
 30
0.0
 11
3407.34582833969
 21
-528.6288634999589
 31
0.0
  0
LINE
  5
164C2
330
1F
100
AcDbEntity
  8
0部品18
100
AcDbLine
 10
3079.34582833969
 20
-168.2847647700905
 30
0.0
 11
3079.34582833969
 21
-358.7847647700908
 31
0.0
  0
LINE
  5
164C3
330
1F
100
AcDbEntity
  8
0部品18
100
AcDbLine
 10
3065.345828339689
 20
-358.7847647700908
 30
0.0
 11
3065.345828339689
 21
-168.2847647700905
 31
0.0
  0
LINE
  5
164C4
330
1F
100
AcDbEntity
  8
0部品18
100
AcDbLine
 10
3061.445828339689
 20
-358.7847647700905
 30
0.0
 11
3083.245828339689
 21
-358.7847647700905
 31
0.0
  0
LINE
  5
164C5
330
1F
100
AcDbEntity
  8
0部品18
  6
中心線1
370
    13
100
AcDbLine
 10
3054.34582833969
 20
-347.2847647700906
 30
0.0
 11
3090.345828339689
 21
-347.2847647700906
 31
0.0
1001
GENIUS_GENOBJ-N-CEN_13
1002
{
1000
OWNER
1000
GEN
1002
}
1001
GENIUS_GENODEF_13
1002
{
1000
HIER
1070
     0
1002
}
1002
{
1000
MANEDIT
1070
     0
1002
}
1002
{
1000
NOSEL
1070
     0
1002
}
1002
{
1000
BEHIND
1070
     0
1002
}
1002
{
1000
OTHER
1070
     0
1002
}
1002
{
1000
REACTOR
1002
}
  0
LINE
  5
164C7
330
1F
100
AcDbEntity
  8
0部品18
100
AcDbLine
 10
3063.44582833969
 20
-358.7847647700905
 30
0.0
 11
3063.44582833969
 21
-335.2847647700905
 31
0.0
  0
LINE
  5
164C8
330
1F
100
AcDbEntity
  8
0部品18
100
AcDbLine
 10
3063.44582833969
 20
-353.2847647700905
 30
0.0
 11
3065.345828339689
 21
-353.2847647700905
 31
0.0
  0
LINE
  5
164C9
330
1F
100
AcDbEntity
  8
0部品18
100
AcDbLine
 10
3063.44582833969
 20
-341.2847647700905
 30
0.0
 11
3065.345828339689
 21
-341.2847647700905
 31
0.0
  0
LINE
  5
164CA
330
1F
100
AcDbEntity
  8
0部品18
100
AcDbLine
 10
3063.44582833969
 20
-335.2847647700905
 30
0.0
 11
3061.445828339689
 21
-335.2847647700905
 31
0.0
  0
ARC
  5
164CB
330
1F
100
AcDbEntity
  8
0部品18
100
AcDbCircle
 10
3072.34582833969
 20
-297.2847647700906
 30
0.0
 40
15.0
100
AcDbArc
 50
117.8181392846552
 51
180.0
1001
GENIUS_GENOBJ-N-FIL_13
1002
{
1000
OWNER
1000
GEN
1002
}
1001
GENIUS_GENODEF_13
1002
{
1000
HIER
1070
     0
1002
}
1002
{
1000
MANEDIT
1070
     0
1002
}
1002
{
1000
NOSEL
1070
     0
1002
}
1002
{
1000
BEHIND
1070
     0
1002
}
1002
{
1000
OTHER
1070
     0
1002
}
1002
{
1000
REACTOR
1002
}
  0
LINE
  5
164CC
330
1F
100
AcDbEntity
  8
0部品18
100
AcDbLine
 10
3087.34582833969
 20
-297.2847647700906
 30
0.0
 11
3087.34582833969
 21
-318.7847647700905
 31
0.0
  0
LINE
  5
164CE
330
1F
100
AcDbEntity
  8
0部品18
100
AcDbLine
 10
3081.245828339689
 20
-358.7847647700905
 30
0.0
 11
3081.245828339689
 21
-335.2847647700905
 31
0.0
  0
LINE
  5
164D3
330
1F
100
AcDbEntity
  8
0部品18
100
AcDbLine
 10
3079.34582833969
 20
-353.2847647700905
 30
0.0
 11
3081.295828339689
 21
-353.2847647700905
 31
0.0
  0
LINE
  5
164D4
330
1F
100
AcDbEntity
  8
0部品18
100
AcDbLine
 10
3079.34582833969
 20
-341.2847647700905
 30
0.0
 11
3081.245828339689
 21
-341.2847647700905
 31
0.0
  0
LINE
  5
164D5
330
1F
100
AcDbEntity
  8
0部品18
100
AcDbLine
 10
3081.245828339689
 20
-335.2847647700905
 30
0.0
 11
3083.245828339689
 21
-335.2847647700905
 31
0.0
  0
ARC
  5
164D6
330
1F
100
AcDbEntity
  8
0部品18
100
AcDbCircle
 10
3072.34582833969
 20
-297.2847647700906
 30
0.0
 40
15.0
100
AcDbArc
 50
0.0
 51
11.53695903281813
1001
GENIUS_GENOBJ-N-FIL_13
1002
{
1000
OWNER
1000
GEN
1002
}
1001
GENIUS_GENODEF_13
1002
{
1000
HIER
1070
     0
1002
}
1002
{
1000
MANEDIT
1070
     0
1002
}
1002
{
1000
NOSEL
1070
     0
1002
}
1002
{
1000
BEHIND
1070
     0
1002
}
1002
{
1000
OTHER
1070
     0
1002
}
1002
{
1000
REACTOR
1002
}
  0
ARC
  5
164D7
330
1F
100
AcDbEntity
  8
0部品18
100
AcDbCircle
 10
3074.345828339689
 20
-168.2847647700905
 30
0.0
 40
5.0
100
AcDbArc
 50
0.0
 51
90.0
1001
GENIUS_GENODEF_13
1002
{
1000
HIER
1070
     0
1002
}
1002
{
1000
MANEDIT
1070
     0
1002
}
1002
{
1000
NOSEL
1070
     0
1002
}
1002
{
1000
BEHIND
1070
     0
1002
}
1002
{
1000
OTHER
1070
     0
1002
}
1002
{
1000
REACTOR
1002
}
1001
GENIUS_GENOBJ-N-FIL_13
1002
{
1000
OWNER
1000
GEN
1002
}
  0
LINE
  5
164D8
330
1F
100
AcDbEntity
  8
0部品18
100
AcDbLine
 10
3065.345828339689
 20
-168.2847647700905
 30
0.0
 11
3079.34582833969
 21
-168.2847647700905
 31
0.0
  0
ARC
  5
164DA
330
1F
100
AcDbEntity
  8
0部品18
100
AcDbCircle
 10
3070.34582833969
 20
-168.2847647700907
 30
0.0
 40
5.0
100
AcDbArc
 50
90.0
 51
180.0
1001
GENIUS_GENOBJ-N-FIL_13
1002
{
1000
OWNER
1000
GEN
1002
}
1001
GENIUS_GENODEF_13
1002
{
1000
HIER
1070
     0
1002
}
1002
{
1000
MANEDIT
1070
     0
1002
}
1002
{
1000
NOSEL
1070
     0
1002
}
1002
{
1000
BEHIND
1070
     0
1002
}
1002
{
1000
OTHER
1070
     0
1002
}
1002
{
1000
REACTOR
1002
}
  0
LINE
  5
164DB
330
1F
100
AcDbEntity
  8
0部品18
100
AcDbLine
 10
3065.345828339689
 20
-168.2847647700905
 30
0.0
 11
3065.345828339689
 21
-168.2847647700907
 31
0.0
  0
LINE
  5
164DC
330
1F
100
AcDbEntity
  8
0部品18
100
AcDbLine
 10
3070.34582833969
 20
-163.2847647700907
 30
0.0
 11
3074.345828339689
 21
-163.2847647700905
 31
0.0
  0
LINE
  5
164DD
330
1F
100
AcDbEntity
  8
0部品18
100
AcDbLine
 10
3079.34582833969
 20
-168.2847647700905
 30
0.0
 11
3079.34582833969
 21
-168.2847647700905
 31
0.0
  0
LINE
  5
164DE
330
1F
100
AcDbEntity
  8
0部品18
100
AcDbLine
 10
3407.34582833969
 20
-297.2847647700906
 30
0.0
 11
3407.34582833969
 21
-318.7847647700905
 31
0.0
  0
ARC
  5
164DF
330
1F
100
AcDbEntity
  8
0部品18
100
AcDbCircle
 10
3422.34582833969
 20
-297.2847647700906
 30
0.0
 40
15.0
100
AcDbArc
 50
168.4630409671818
 51
180.0
1001
GENIUS_GENOBJ-N-FIL_13
1002
{
1000
OWNER
1000
GEN
1002
}
1001
GENIUS_GENODEF_13
1002
{
1000
HIER
1070
     0
1002
}
1002
{
1000
MANEDIT
1070
     0
1002
}
1002
{
1000
NOSEL
1070
     0
1002
}
1002
{
1000
BEHIND
1070
     0
1002
}
1002
{
1000
OTHER
1070
     0
1002
}
1002
{
1000
REACTOR
1002
}
  0
LINE
  5
164E0
330
1F
100
AcDbEntity
  8
0部品18
100
AcDbLine
 10
3702.926743836498
 20
-282.2847647700905
 30
0.0
 11
3702.926743836498
 21
-402.2847647700904
 31
0.0
  0
LINE
  5
164E1
330
1F
100
AcDbEntity
  8
0部品18
100
AcDbLine
 10
3661.926743836498
 20
-376.2847647700905
 30
0.0
 11
3661.926743836498
 21
-358.7847647700905
 31
0.0
  0
LINE
  5
164E2
330
1F
100
AcDbEntity
  8
0部品18
100
AcDbLine
 10
3433.245828339689
 20
-335.2847647700905
 30
0.0
 11
3433.245828339689
 21
-383.2847647700905
 31
0.0
  0
LINE
  5
164E3
330
1F
100
AcDbEntity
  8
0部品18
100
AcDbLine
 10
3437.345828339689
 20
-297.2847647700906
 30
0.0
 11
3437.345828339689
 21
-387.2847647700906
 31
0.0
  0
LINE
  5
164E4
330
1F
100
AcDbEntity
  8
0部品18
100
AcDbLine
 10
3411.445828339689
 20
-335.2847647700905
 30
0.0
 11
3411.445828339689
 21
-383.2847647700905
 31
0.0
  0
LINE
  5
164E5
330
1F
100
AcDbEntity
  8
0部品18
100
AcDbLine
 10
3437.345828339689
 20
-484.6288634999589
 30
0.0
 11
3437.345828339689
 21
-574.6288634999589
 31
0.0
  0
LINE
  5
164E6
330
1F
100
AcDbEntity
  8
0部品18
  6
中心線1
370
    13
100
AcDbLine
 10
3422.34582833969
 20
-462.6740716006959
 30
0.0
 11
3422.34582833969
 21
-592.9656771112513
 31
0.0
1001
GENIUS_GENODEF_13
1002
{
1000
HIER
1070
     0
1002
}
1002
{
1000
MANEDIT
1070
     0
1002
}
1002
{
1000
NOSEL
1070
     0
1002
}
1002
{
1000
BEHIND
1070
     0
1002
}
1002
{
1000
OTHER
1070
     0
1002
}
1002
{
1000
REACTOR
1002
}
1001
GENIUS_GENOBJ-N-CEN_13
1002
{
1000
OWNER
1000
GEN
1002
}
  0
LINE
  5
164E7
330
1F
100
AcDbEntity
  8
0部品18
100
AcDbLine
 10
3433.245828339689
 20
-522.6288634999589
 30
0.0
 11
3433.245828339689
 21
-570.6288634999589
 31
0.0
  0
LINE
  5
164E8
330
1F
100
AcDbEntity
  8
0部品18
100
AcDbLine
 10
3411.445828339689
 20
-540.6288634999589
 30
0.0
 11
3411.445828339689
 21
-570.6288634999589
 31
0.0
  0
LINE
  5
164E9
330
1F
100
AcDbEntity
  8
0部品18
100
AcDbLine
 10
3413.44582833969
 20
-572.6288634999589
 30
0.0
 11
3431.245828339689
 21
-572.6288634999589
 31
0.0
  0
LINE
  5
164EA
330
1F
100
AcDbEntity
  8
0部品18
100
AcDbLine
 10
3413.44582833969
 20
-572.6288634999589
 30
0.0
 11
3413.44582833969
 21
-572.6288634999589
 31
0.0
  0
ARC
  5
164EB
330
1F
100
AcDbEntity
  8
0部品18
100
AcDbCircle
 10
3413.44582833969
 20
-570.6288634999589
 30
0.0
 40
2.0
100
AcDbArc
 50
180.0
 51
270.0
1001
GENIUS_GENODEF_13
1002
{
1000
HIER
1070
     0
1002
}
1002
{
1000
MANEDIT
1070
     0
1002
}
1002
{
1000
NOSEL
1070
     0
1002
}
1002
{
1000
BEHIND
1070
     0
1002
}
1002
{
1000
OTHER
1070
     0
1002
}
1002
{
1000
REACTOR
1002
}
1001
GENIUS_GENOBJ-N-FIL_13
1002
{
1000
OWNER
1000
GEN
1002
}
  0
LINE
  5
164EC
330
1F
100
AcDbEntity
  8
0部品18
100
AcDbLine
 10
3431.245828339689
 20
-572.6288634999589
 30
0.0
 11
3431.245828339689
 21
-572.6288634999589
 31
0.0
  0
ARC
  5
164ED
330
1F
100
AcDbEntity
  8
0部品18
100
AcDbCircle
 10
3431.245828339689
 20
-570.6288634999589
 30
0.0
 40
2.0
100
AcDbArc
 50
270.0
 51
0.0
1001
GENIUS_GENODEF_13
1002
{
1000
HIER
1070
     0
1002
}
1002
{
1000
MANEDIT
1070
     0
1002
}
1002
{
1000
NOSEL
1070
     0
1002
}
1002
{
1000
BEHIND
1070
     0
1002
}
1002
{
1000
OTHER
1070
     0
1002
}
1002
{
1000
REACTOR
1002
}
1001
GENIUS_GENOBJ-N-FIL_13
1002
{
1000
OWNER
1000
GEN
1002
}
  0
LINE
  5
164EE
330
1F
100
AcDbEntity
  8
0部品18
100
AcDbLine
 10
3411.445828339689
 20
-563.6288634999589
 30
0.0
 11
3433.245828339689
 21
-563.6288634999589
 31
0.0
  0
LINE
  5
164EF
330
1F
100
AcDbEntity
  8
0部品18
100
AcDbLine
 10
3429.34582833969
 20
-522.6288634999589
 30
0.0
 11
3429.34582833969
 21
-546.1288634999589
 31
0.0
  0
LINE
  5
164F0
330
1F
100
AcDbEntity
  8
0部品18
100
AcDbLine
 10
3431.245828339689
 20
-546.1288634999589
 30
0.0
 11
3431.245828339689
 21
-522.6288634999589
 31
0.0
  0
LINE
  5
164F1
330
1F
100
AcDbEntity
  8
0部品18
100
AcDbLine
 10
3415.34582833969
 20
-546.1288634999589
 30
0.0
 11
3415.34582833969
 21
-522.6288634999589
 31
0.0
  0
LINE
  5
164F2
330
1F
100
AcDbEntity
  8
0部品18
100
AcDbLine
 10
3411.445828339689
 20
-546.1288634999589
 30
0.0
 11
3433.245828339689
 21
-546.1288634999589
 31
0.0
  0
LINE
  5
164F3
330
1F
100
AcDbEntity
  8
0部品18
100
AcDbLine
 10
3413.44582833969
 20
-546.1288634999589
 30
0.0
 11
3413.44582833969
 21
-540.6288634999589
 31
0.0
  0
LINE
  5
164F5
330
1F
100
AcDbEntity
  8
0部品18
100
AcDbLine
 10
3429.34582833969
 20
-540.6288634999589
 30
0.0
 11
3431.245828339689
 21
-540.6288634999589
 31
0.0
  0
LINE
  5
164F6
330
1F
100
AcDbEntity
  8
0部品18
100
AcDbLine
 10
3415.34582833969
 20
-522.6288634999589
 30
0.0
 11
3429.34582833969
 21
-522.6288634999589
 31
0.0
  0
LINE
  5
164F7
330
1F
100
AcDbEntity
  8
0部品18
100
AcDbLine
 10
3413.44582833969
 20
-528.6288634999589
 30
0.0
 11
3413.44582833969
 21
-522.6288634999589
 31
0.0
  0
LINE
  5
164F8
330
1F
100
AcDbEntity
  8
0部品18
100
AcDbLine
 10
3411.445828339689
 20
-522.6288634999589
 30
0.0
 11
3411.445828339689
 21
-528.6288634999589
 31
0.0
  0
LINE
  5
164F9
330
1F
100
AcDbEntity
  8
0部品18
100
AcDbLine
 10
3411.445828339689
 20
-528.6288634999589
 30
0.0
 11
3415.34582833969
 21
-528.6288634999589
 31
0.0
  0
LINE
  5
164FA
330
1F
100
AcDbEntity
  8
0部品18
100
AcDbLine
 10
3413.44582833969
 20
-522.6288634999589
 30
0.0
 11
3411.445828339689
 21
-522.6288634999589
 31
0.0
  0
LINE
  5
164FB
330
1F
100
AcDbEntity
  8
0部品18
100
AcDbLine
 10
3429.34582833969
 20
-528.6288634999589
 30
0.0
 11
3431.245828339689
 21
-528.6288634999589
 31
0.0
  0
LINE
  5
164FC
330
1F
100
AcDbEntity
  8
0部品18
100
AcDbLine
 10
3431.245828339689
 20
-522.6288634999589
 30
0.0
 11
3433.245828339689
 21
-522.6288634999589
 31
0.0
  0
CIRCLE
  5
164FD
330
1F
100
AcDbEntity
  8
0部品18
100
AcDbCircle
 10
3422.34582833969
 20
-495.1288634999589
 30
0.0
 40
5.599999999999999
  0
ARC
  5
164FE
330
1F
100
AcDbEntity
  8
0部品18
100
AcDbCircle
 10
3431.245828339689
 20
-383.2847647700905
 30
0.0
 40
2.0
100
AcDbArc
 50
270.0
 51
0.0
1001
GENIUS_GENOBJ-N-FIL_13
1002
{
1000
OWNER
1000
GEN
1002
}
1001
GENIUS_GENODEF_13
1002
{
1000
HIER
1070
     0
1002
}
1002
{
1000
MANEDIT
1070
     0
1002
}
1002
{
1000
NOSEL
1070
     0
1002
}
1002
{
1000
BEHIND
1070
     0
1002
}
1002
{
1000
OTHER
1070
     0
1002
}
1002
{
1000
REACTOR
1002
}
  0
ARC
  5
164FF
330
1F
100
AcDbEntity
  8
0部品18
100
AcDbCircle
 10
3413.44582833969
 20
-383.2847647700905
 30
0.0
 40
2.0
100
AcDbArc
 50
180.0
 51
270.0
1001
GENIUS_GENOBJ-N-FIL_13
1002
{
1000
OWNER
1000
GEN
1002
}
1001
GENIUS_GENODEF_13
1002
{
1000
HIER
1070
     0
1002
}
1002
{
1000
MANEDIT
1070
     0
1002
}
1002
{
1000
NOSEL
1070
     0
1002
}
1002
{
1000
BEHIND
1070
     0
1002
}
1002
{
1000
OTHER
1070
     0
1002
}
1002
{
1000
REACTOR
1002
}
  0
LINE
  5
16500
330
1F
100
AcDbEntity
  8
0部品18
100
AcDbLine
 10
3413.44582833969
 20
-385.2847647700905
 30
0.0
 11
3431.245828339689
 21
-385.2847647700905
 31
0.0
  0
LINE
  5
16501
330
1F
100
AcDbEntity
  8
0部品18
100
AcDbLine
 10
3411.445828339689
 20
-376.2847647700905
 30
0.0
 11
3433.245828339689
 21
-376.2847647700905
 31
0.0
  0
LINE
  5
16502
330
1F
100
AcDbEntity
  8
0部品18
100
AcDbLine
 10
3413.44582833969
 20
-385.2847647700905
 30
0.0
 11
3413.44582833969
 21
-385.2847647700905
 31
0.0
  0
LINE
  5
16503
330
1F
100
AcDbEntity
  8
0部品18
100
AcDbLine
 10
3431.245828339689
 20
-385.2847647700905
 30
0.0
 11
3431.245828339689
 21
-385.2847647700905
 31
0.0
  0
LINE
  5
16504
330
1F
100
AcDbEntity
  8
0部品18
100
AcDbLine
 10
3702.926743836498
 20
-402.2847647700904
 30
0.0
 11
3710.426743836498
 21
-402.2847647700904
 31
0.0
  0
LINE
  5
16505
330
1F
100
AcDbEntity
  8
0部品18
100
AcDbLine
 10
3661.926743836498
 20
-379.2847647700905
 30
0.0
 11
3702.926743836498
 21
-388.2847647700905
 31
0.0
  0
LINE
  5
16506
330
1F
100
AcDbEntity
  8
0部品18
100
AcDbLine
 10
3702.926743836498
 20
-385.2847647700905
 30
0.0
 11
3661.926743836498
 21
-376.2847647700905
 31
0.0
  0
LINE
  5
16507
330
1F
100
AcDbEntity
  8
0部品18
100
AcDbLine
 10
3661.926743836498
 20
-376.2847647700905
 30
0.0
 11
3661.926743836498
 21
-379.2847647700905
 31
0.0
  0
LINE
  5
16509
330
1F
100
AcDbEntity
  8
0部品18
  6
細線
 48
0.3
370
    13
100
AcDbLine
 10
3590.926743836498
 20
-329.2847647700905
 30
0.0
 11
3593.926743836498
 21
-329.2847647700905
 31
0.0
  0
LINE
  5
1650A
330
1F
100
AcDbEntity
  8
0部品18
  6
細線
 48
0.3
370
    13
100
AcDbLine
 10
3596.926743836498
 20
-335.2847647700905
 30
0.0
 11
3590.926743836498
 21
-329.2847647700905
 31
0.0
  0
LINE
  5
1650B
330
1F
100
AcDbEntity
  8
0部品18
  6
細線
 48
0.3
370
    13
100
AcDbLine
 10
3591.926743836498
 20
-330.2847647700905
 30
0.0
 11
3596.926743836498
 21
-335.2847647700905
 31
0.0
  0
LINE
  5
1650C
330
1F
100
AcDbEntity
  8
0部品18
  6
想像線1
370
    13
100
AcDbLine
 10
3661.926743836498
 20
-359.2847647700905
 30
0.0
 11
3503.926743836498
 21
-359.2847647700905
 31
0.0
  0
LINE
  5
1650D
330
1F
100
AcDbEntity
  8
0部品18
  6
想像線1
370
    13
100
AcDbLine
 10
3503.926743836498
 20
-335.2847647700905
 30
0.0
 11
3689.926743836498
 21
-335.2847647700905
 31
0.0
  0
LINE
  5
1650E
330
1F
100
AcDbEntity
  8
0部品18
100
AcDbLine
 10
3429.34582833969
 20
-168.2847647700905
 30
0.0
 11
3429.34582833969
 21
-358.7847647700908
 31
0.0
  0
LINE
  5
1650F
330
1F
100
AcDbEntity
  8
0部品18
100
AcDbLine
 10
3415.34582833969
 20
-358.7847647700908
 30
0.0
 11
3415.34582833969
 21
-168.2847647700905
 31
0.0
  0
LINE
  5
16510
330
1F
100
AcDbEntity
  8
0部品18
100
AcDbLine
 10
3431.245828339689
 20
-358.7847647700905
 30
0.0
 11
3431.245828339689
 21
-335.2847647700905
 31
0.0
  0
LINE
  5
16512
330
1F
100
AcDbEntity
  8
0部品18
100
AcDbLine
 10
3413.44582833969
 20
-358.7847647700905
 30
0.0
 11
3413.44582833969
 21
-335.2847647700905
 31
0.0
  0
LINE
  5
16517
330
1F
100
AcDbEntity
  8
0部品18
100
AcDbLine
 10
3411.445828339689
 20
-358.7847647700905
 30
0.0
 11
3433.245828339689
 21
-358.7847647700905
 31
0.0
  0
LINE
  5
16518
330
1F
100
AcDbEntity
  8
0部品18
100
AcDbLine
 10
3413.44582833969
 20
-353.2847647700905
 30
0.0
 11
3415.34582833969
 21
-353.2847647700905
 31
0.0
  0
LINE
  5
1651A
330
1F
100
AcDbEntity
  8
0部品18
100
AcDbLine
 10
3429.34582833969
 20
-353.2847647700905
 30
0.0
 11
3431.245828339689
 21
-353.2847647700905
 31
0.0
  0
LINE
  5
1651B
330
1F
100
AcDbEntity
  8
0部品18
100
AcDbLine
 10
3413.44582833969
 20
-341.2847647700905
 30
0.0
 11
3415.34582833969
 21
-341.2847647700905
 31
0.0
  0
LINE
  5
1651C
330
1F
100
AcDbEntity
  8
0部品18
100
AcDbLine
 10
3429.34582833969
 20
-341.2847647700905
 30
0.0
 11
3431.245828339689
 21
-341.2847647700905
 31
0.0
  0
LINE
  5
1651D
330
1F
100
AcDbEntity
  8
0部品18
100
AcDbLine
 10
3413.44582833969
 20
-335.2847647700905
 30
0.0
 11
3411.445828339689
 21
-335.2847647700905
 31
0.0
  0
LINE
  5
1651E
330
1F
100
AcDbEntity
  8
0部品18
100
AcDbLine
 10
3431.245828339689
 20
-335.2847647700905
 30
0.0
 11
3433.245828339689
 21
-335.2847647700905
 31
0.0
  0
ARC
  5
1651F
330
1F
100
AcDbEntity
  8
0部品18
100
AcDbCircle
 10
3422.34582833969
 20
-297.2847647700906
 30
0.0
 40
15.0
100
AcDbArc
 50
0.0
 51
62.18186071534478
1001
GENIUS_GENOBJ-N-FIL_13
1002
{
1000
OWNER
1000
GEN
1002
}
1001
GENIUS_GENODEF_13
1002
{
1000
HIER
1070
     0
1002
}
1002
{
1000
MANEDIT
1070
     0
1002
}
1002
{
1000
NOSEL
1070
     0
1002
}
1002
{
1000
BEHIND
1070
     0
1002
}
1002
{
1000
OTHER
1070
     0
1002
}
1002
{
1000
REACTOR
1002
}
  0
LINE
  5
16520
330
1F
100
AcDbEntity
  8
0部品18
  6
想像線1
370
    13
100
AcDbLine
 10
3503.926743836498
 20
-335.2847647700905
 30
0.0
 11
3503.926743836498
 21
-359.2847647700905
 31
0.0
  0
ARC
  5
16521
330
1F
100
AcDbEntity
  8
0部品18
  6
想像線1
370
    13
100
AcDbCircle
 10
3503.926743836498
 20
-340.2847647700905
 30
0.0
 40
5.0
100
AcDbArc
 50
90.0
 51
180.0
1001
GENIUS_GENODEF_13
1002
{
1000
HIER
1070
     0
1002
}
1002
{
1000
MANEDIT
1070
     0
1002
}
1002
{
1000
NOSEL
1070
     0
1002
}
1002
{
1000
BEHIND
1070
     0
1002
}
1002
{
1000
OTHER
1070
     0
1002
}
1002
{
1000
REACTOR
1002
}
1001
GENIUS_GENOBJ-N-FIL_13
1002
{
1000
OWNER
1000
GEN
1002
}
  0
LINE
  5
16522
330
1F
100
AcDbEntity
  8
0部品18
  6
想像線1
370
    13
100
AcDbLine
 10
3498.926743836498
 20
-354.2847647700905
 30
0.0
 11
3498.926743836498
 21
-340.2847647700905
 31
0.0
  0
ARC
  5
16523
330
1F
100
AcDbEntity
  8
0部品18
  6
想像線1
370
    13
100
AcDbCircle
 10
3503.926743836498
 20
-354.2847647700905
 30
0.0
 40
5.0
100
AcDbArc
 50
180.0
 51
270.0
1001
GENIUS_GENODEF_13
1002
{
1000
HIER
1070
     0
1002
}
1002
{
1000
MANEDIT
1070
     0
1002
}
1002
{
1000
NOSEL
1070
     0
1002
}
1002
{
1000
BEHIND
1070
     0
1002
}
1002
{
1000
OTHER
1070
     0
1002
}
1002
{
1000
REACTOR
1002
}
1001
GENIUS_GENOBJ-N-FIL_13
1002
{
1000
OWNER
1000
GEN
1002
}
  0
LINE
  5
16526
330
1F
100
AcDbEntity
  8
0部品18
  6
細線
370
    13
100
AcDbLine
 10
3541.788882263654
 20
-335.284761795833
 30
0.0
 11
3541.788882263654
 21
-335.284761795833
 31
0.0
  0
LINE
  5
16527
330
1F
100
AcDbEntity
  8
0部品18
  6
細線
370
    13
100
AcDbLine
 10
3541.788882010774
 20
-335.284764770091
 30
0.0
 11
3541.788882263654
 21
-335.284761795833
 31
0.0
  0
LINE
  5
16528
330
1F
100
AcDbEntity
  8
0部品18
  6
細線
370
    13
100
AcDbLine
 10
3541.788882010774
 20
-335.2847647700905
 30
0.0
 11
3541.788882368401
 21
-335.2847605638547
 31
0.0
  0
LINE
  5
16529
330
1F
100
AcDbEntity
  8
0部品18
100
AcDbLine
 10
3420.34582833969
 20
-163.2847647700905
 30
0.0
 11
3424.34582833969
 21
-163.2847647700905
 31
0.0
  0
LINE
  5
1652A
330
1F
100
AcDbEntity
  8
0部品18
100
AcDbLine
 10
3415.34582833969
 20
-168.2847647700905
 30
0.0
 11
3429.34582833969
 21
-168.2847647700905
 31
0.0
  0
ARC
  5
1652B
330
1F
100
AcDbEntity
  8
0部品18
100
AcDbCircle
 10
3420.34582833969
 20
-168.2847647700905
 30
0.0
 40
5.0
100
AcDbArc
 50
90.0
 51
180.0
1001
GENIUS_GENOBJ-N-FIL_13
1002
{
1000
OWNER
1000
GEN
1002
}
1001
GENIUS_GENODEF_13
1002
{
1000
HIER
1070
     0
1002
}
1002
{
1000
MANEDIT
1070
     0
1002
}
1002
{
1000
NOSEL
1070
     0
1002
}
1002
{
1000
BEHIND
1070
     0
1002
}
1002
{
1000
OTHER
1070
     0
1002
}
1002
{
1000
REACTOR
1002
}
  0
ARC
  5
1652C
330
1F
100
AcDbEntity
  8
0部品18
100
AcDbCircle
 10
3424.34582833969
 20
-168.2847647700905
 30
0.0
 40
5.0
100
AcDbArc
 50
0.0
 51
90.0
1001
GENIUS_GENODEF_13
1002
{
1000
HIER
1070
     0
1002
}
1002
{
1000
MANEDIT
1070
     0
1002
}
1002
{
1000
NOSEL
1070
     0
1002
}
1002
{
1000
BEHIND
1070
     0
1002
}
1002
{
1000
OTHER
1070
     0
1002
}
1002
{
1000
REACTOR
1002
}
1001
GENIUS_GENOBJ-N-FIL_13
1002
{
1000
OWNER
1000
GEN
1002
}
  0
LINE
  5
1652D
330
1F
100
AcDbEntity
  8
0部品18
100
AcDbLine
 10
3694.926743836498
 20
-335.2847647700905
 30
0.0
 11
3694.926743836498
 21
-168.2847647700905
 31
0.0
  0
LINE
  5
1652E
330
1F
100
AcDbEntity
  8
0部品18
100
AcDbLine
 10
3670.926743836498
 20
-168.2847647700905
 30
0.0
 11
3670.926743836498
 21
-349.0397667716923
 31
0.0
  0
LINE
  5
1652F
330
1F
100
AcDbEntity
  8
0部品18
100
AcDbLine
 10
3710.426743836498
 20
-282.2847647700905
 30
0.0
 11
3702.926743836498
 21
-282.2847647700905
 31
0.0
  0
ARC
  5
16530
330
1F
100
AcDbEntity
  8
0部品18
100
AcDbCircle
 10
3700.526743836498
 20
-307.7847647700906
 30
0.0
 40
5.599999999999999
100
AcDbArc
 50
90.0
 51
270.0
  0
LINE
  5
16531
330
1F
100
AcDbEntity
  8
0部品18
  6
細線
 48
0.3
370
    13
100
AcDbLine
 10
3599.926743836498
 20
-315.2847647700905
 30
0.0
 11
3599.926743836498
 21
-320.2847647700906
 31
0.0
  0
LINE
  5
16532
330
1F
100
AcDbEntity
  8
0部品18
  6
細線
 48
0.3
370
    13
100
AcDbLine
 10
3593.926743836498
 20
-320.2847647700906
 30
0.0
 11
3593.926743836498
 21
-315.2847647700905
 31
0.0
  0
LINE
  5
16533
330
1F
100
AcDbEntity
  8
0部品18
  6
細線
 48
0.3
370
    13
100
AcDbLine
 10
3593.926743836498
 20
-320.2847647700906
 30
0.0
 11
3593.926743836498
 21
-329.2847647700905
 31
0.0
  0
LINE
  5
16534
330
1F
100
AcDbEntity
  8
0部品18
  6
細線
 48
0.3
370
    13
100
AcDbLine
 10
3599.926743836498
 20
-329.2847647700905
 30
0.0
 11
3599.926743836498
 21
-320.2847647700906
 31
0.0
  0
LINE
  5
16535
330
1F
100
AcDbEntity
  8
0部品18
  6
細線
 48
0.3
370
    13
100
AcDbLine
 10
3596.926743836498
 20
-335.2847647700905
 30
0.0
 11
3601.926743836498
 21
-330.2847647700905
 31
0.0
  0
LINE
  5
16536
330
1F
100
AcDbEntity
  8
0部品18
  6
細線
 48
0.3
370
    13
100
AcDbLine
 10
3593.926743836498
 20
-330.2521605224911
 30
0.0
 11
3593.926743836498
 21
-330.2847647700905
 31
0.0
  0
LINE
  5
16537
330
1F
100
AcDbEntity
  8
0部品18
  6
細線
 48
0.3
370
    13
100
AcDbLine
 10
3602.926743836498
 20
-329.2847647700905
 30
0.0
 11
3601.926743836498
 21
-330.2847647700905
 31
0.0
  0
LINE
  5
16538
330
1F
100
AcDbEntity
  8
0部品18
  6
細線
 48
0.3
370
    13
100
AcDbLine
 10
3599.926743836498
 20
-329.2847647700905
 30
0.0
 11
3602.926743836498
 21
-329.2847647700905
 31
0.0
  0
LINE
  5
16539
330
1F
100
AcDbEntity
  8
0部品18
  6
細線
 48
0.3
370
    13
100
AcDbLine
 10
3593.926743836498
 20
-315.2847647700905
 30
0.0
 11
3599.926743836498
 21
-315.2847647700905
 31
0.0
  0
LINE
  5
1653A
330
1F
100
AcDbEntity
  8
0部品18
  6
中心線1
 48
0.5
370
    13
100
AcDbLine
 10
3682.926743836498
 20
-353.2847647700905
 30
0.0
 11
3682.926743836498
 21
-341.2847647700905
 31
0.0
1001
GENIUS_GENOREF_13
1005
165D9
  0
ARC
  5
1653B
330
1F
100
AcDbEntity
  8
0部品18
100
AcDbCircle
 10
3689.926743836498
 20
-355.2847647700905
 30
0.0
 40
20.0
100
AcDbArc
 50
90.0
 51
180.0
  0
LINE
  5
1653C
330
1F
100
AcDbEntity
  8
0部品18
  6
中心線1
 48
0.5
370
    13
100
AcDbLine
 10
3688.926743836498
 20
-347.2847647700906
 30
0.0
 11
3676.926743836498
 21
-347.2847647700906
 31
0.0
1001
GENIUS_GENOREF_13
1005
165D9
  0
LINE
  5
1653D
330
1F
100
AcDbEntity
  8
0部品18
100
AcDbLine
 10
3661.926743836498
 20
-358.7847647700905
 30
0.0
 11
3666.426743836498
 21
-358.7847647700905
 31
0.0
  0
ARC
  5
1653E
330
1F
100
AcDbEntity
  8
0部品18
100
AcDbCircle
 10
3666.426743836498
 20
-355.2847647700905
 30
0.0
 40
3.5
100
AcDbArc
 50
270.0
 51
0.0
1001
GENIUS_GENOBJ-N-FIL_13
1002
{
1000
OWNER
1000
GEN
1002
}
1001
GENIUS_GENODEF_13
1002
{
1000
HIER
1070
     0
1002
}
1002
{
1000
MANEDIT
1070
     0
1002
}
1002
{
1000
NOSEL
1070
     0
1002
}
1002
{
1000
BEHIND
1070
     0
1002
}
1002
{
1000
OTHER
1070
     0
1002
}
1002
{
1000
REACTOR
1002
}
  0
LINE
  5
1653F
330
1F
100
AcDbEntity
  8
0部品18
100
AcDbLine
 10
3669.926743836498
 20
-355.2847647700905
 30
0.0
 11
3669.926743836498
 21
-355.2847647700905
 31
0.0
  0
CIRCLE
  5
16542
330
1F
100
AcDbEntity
  8
0部品18
100
AcDbCircle
 10
3682.926743836498
 20
-347.2847647700906
 30
0.0
 40
3.0
  0
LINE
  5
16543
330
1F
100
AcDbEntity
  8
0部品18
100
AcDbLine
 10
3689.926743836498
 20
-335.2847647700905
 30
0.0
 11
3702.926743836498
 21
-335.2847647700905
 31
0.0
  0
LINE
  5
16544
330
1F
100
AcDbEntity
  8
0部品18
100
AcDbLine
 10
3700.526743836498
 20
-313.3847647700907
 30
0.0
 11
3702.926743836498
 21
-313.3847647700907
 31
0.0
  0
LINE
  5
16545
330
1F
100
AcDbEntity
  8
0部品18
100
AcDbLine
 10
3700.526743836498
 20
-302.1847647700906
 30
0.0
 11
3702.926743836498
 21
-302.1847647700906
 31
0.0
  0
LINE
  5
1654A
330
1F
100
AcDbEntity
  8
0部品18
100
AcDbLine
 10
3689.926743836498
 20
-163.2847647700905
 30
0.0
 11
3675.926743836498
 21
-163.2847647700905
 31
0.0
  0
LINE
  5
1654B
330
1F
100
AcDbEntity
  8
0部品18
100
AcDbLine
 10
3670.926743836498
 20
-168.2847647700905
 30
0.0
 11
3694.926743836498
 21
-168.2847647700905
 31
0.0
  0
ARC
  5
1654C
330
1F
100
AcDbEntity
  8
0部品18
100
AcDbCircle
 10
3675.926743836498
 20
-168.2847647700905
 30
0.0
 40
5.0
100
AcDbArc
 50
90.0
 51
180.0
1001
GENIUS_GENOBJ-N-FIL_13
1002
{
1000
OWNER
1000
GEN
1002
}
1001
GENIUS_GENODEF_13
1002
{
1000
HIER
1070
     0
1002
}
1002
{
1000
MANEDIT
1070
     0
1002
}
1002
{
1000
NOSEL
1070
     0
1002
}
1002
{
1000
BEHIND
1070
     0
1002
}
1002
{
1000
OTHER
1070
     0
1002
}
1002
{
1000
REACTOR
1002
}
  0
ARC
  5
1654D
330
1F
100
AcDbEntity
  8
0部品18
100
AcDbCircle
 10
3689.926743836498
 20
-168.2847647700905
 30
0.0
 40
5.0
100
AcDbArc
 50
0.0
 51
90.0
1001
GENIUS_GENOBJ-N-FIL_13
1002
{
1000
OWNER
1000
GEN
1002
}
1001
GENIUS_GENODEF_13
1002
{
1000
HIER
1070
     0
1002
}
1002
{
1000
MANEDIT
1070
     0
1002
}
1002
{
1000
NOSEL
1070
     0
1002
}
1002
{
1000
BEHIND
1070
     0
1002
}
1002
{
1000
OTHER
1070
     0
1002
}
1002
{
1000
REACTOR
1002
}
  0
LINE
  5
16557
330
1F
100
AcDbEntity
  8
0部品18
  6
中心線1
370
    13
100
AcDbLine
 10
3072.34582833969
 20
-408.2847647700905
 30
0.0
 11
3072.34582833969
 21
-157.2847647700907
 31
0.0
1001
GENIUS_GENOBJ-N-CEN_13
1002
{
1000
OWNER
1000
GEN
1002
}
1001
GENIUS_GENODEF_13
1002
{
1000
HIER
1070
     0
1002
}
1002
{
1000
MANEDIT
1070
     0
1002
}
1002
{
1000
NOSEL
1070
     0
1002
}
1002
{
1000
BEHIND
1070
     0
1002
}
1002
{
1000
OTHER
1070
     0
1002
}
1002
{
1000
REACTOR
1002
}
  0
LINE
  5
16558
330
1F
100
AcDbEntity
  8
0部品18
  6
中心線1
370
    13
100
AcDbLine
 10
3422.34582833969
 20
-408.2847647700905
 30
0.0
 11
3422.34582833969
 21
-157.2847647700905
 31
0.0
1001
GENIUS_GENODEF_13
1002
{
1000
HIER
1070
     0
1002
}
1002
{
1000
MANEDIT
1070
     0
1002
}
1002
{
1000
NOSEL
1070
     0
1002
}
1002
{
1000
BEHIND
1070
     0
1002
}
1002
{
1000
OTHER
1070
     0
1002
}
1002
{
1000
REACTOR
1002
}
1001
GENIUS_GENOBJ-N-CEN_13
1002
{
1000
OWNER
1000
GEN
1002
}
  0
LINE
  5
16559
330
1F
100
AcDbEntity
  8
0部品18
  6
中心線1
370
    13
100
AcDbLine
 10
3076.34582833969
 20
-178.7847647700905
 30
0.0
 11
3418.34582833969
 21
-178.7847647700905
 31
0.0
1001
GENIUS_GENODEF_13
1002
{
1000
HIER
1070
     0
1002
}
1002
{
1000
MANEDIT
1070
     0
1002
}
1002
{
1000
NOSEL
1070
     0
1002
}
1002
{
1000
BEHIND
1070
     0
1002
}
1002
{
1000
OTHER
1070
     0
1002
}
1002
{
1000
REACTOR
1002
}
1001
GENIUS_GENOBJ-N-CEN_13
1002
{
1000
OWNER
1000
GEN
1002
}
  0
LINE
  5
1655A
330
1F
100
AcDbEntity
  8
0部品18
  6
中心線1
370
    13
100
AcDbLine
 10
3076.34582833969
 20
-215.2847647700905
 30
0.0
 11
3418.34582833969
 21
-215.2847647700905
 31
0.0
1001
GENIUS_GENODEF_13
1002
{
1000
HIER
1070
     0
1002
}
1002
{
1000
MANEDIT
1070
     0
1002
}
1002
{
1000
NOSEL
1070
     0
1002
}
1002
{
1000
BEHIND
1070
     0
1002
}
1002
{
1000
OTHER
1070
     0
1002
}
1002
{
1000
REACTOR
1002
}
1001
GENIUS_GENOBJ-N-CEN_13
1002
{
1000
OWNER
1000
GEN
1002
}
  0
LINE
  5
16564
330
1F
100
AcDbEntity
  8
0部品18
  6
中心線1
 48
0.5
370
    13
100
AcDbLine
 10
3063.745828339689
 20
-495.1288634999589
 30
0.0
 11
3080.945828339689
 21
-495.1288634999589
 31
0.0
1001
GENIUS_GENOREF_13
1005
165D8
  0
LINE
  5
1656E
330
1F
100
AcDbEntity
  8
0部品18
100
AcDbLine
 10
3407.34582833969
 20
-540.6288634999589
 30
0.0
 11
3407.34582833969
 21
-574.6288634999589
 31
0.0
  0
POLYLINE
  5
1656F
330
1F
100
AcDbEntity
  8
0部品18
  6
想像線1
370
    13
100
AcDb2dPolyline
 66
     1
 10
0.0
 20
0.0
 30
0.0
 70
     1
1001
GENIUS_GENREC_14
1002
{
1000
PYDIR
1011
3355.345828339689
1021
-530.6288634999589
1031
0.0
1002
}
1002
{
1000
PXDIR
1011
3405.345828339689
1021
-538.6288634999589
1031
0.0
1002
}
1002
{
1000
PORI
1011
3355.345828339689
1021
-538.6288634999589
1031
0.0
1002
}
1002
{
1000
PINS
1011
3355.345828339689
1021
-538.6288634999589
1031
0.0
1002
}
1002
{
1000
PINS2
1011
3405.345828339689
1021
-530.6288634999589
1031
0.0
1002
}
1002
{
1000
C
1070
     1
1002
}
1001
GENIUS_GENOBJ-N-REC_13
1002
{
1000
OWNER
1000
GEN
1002
}
1001
GENIUS_GENODEF_13
1002
{
1000
HIER
1070
     0
1002
}
1002
{
1000
MANEDIT
1070
     0
1002
}
1002
{
1000
NOSEL
1070
     0
1002
}
1002
{
1000
BEHIND
1070
     0
1002
}
1002
{
1000
OTHER
1070
     0
1002
}
1002
{
1000
REACTOR
1002
}
  0
VERTEX
  5
16570
330
1656F
100
AcDbEntity
  8
0部品18
  6
想像線1
370
    13
100
AcDbVertex
100
AcDb2dVertex
 10
3355.345828339689
 20
-538.6288634999589
 30
0.0
  0
VERTEX
  5
16571
330
1656F
100
AcDbEntity
  8
0部品18
  6
想像線1
370
    13
100
AcDbVertex
100
AcDb2dVertex
 10
3405.345828339689
 20
-538.6288634999589
 30
0.0
  0
VERTEX
  5
16572
330
1656F
100
AcDbEntity
  8
0部品18
  6
想像線1
370
    13
100
AcDbVertex
100
AcDb2dVertex
 10
3405.345828339689
 20
-530.6288634999589
 30
0.0
  0
VERTEX
  5
16573
330
1656F
100
AcDbEntity
  8
0部品18
  6
想像線1
370
    13
100
AcDbVertex
100
AcDb2dVertex
 10
3355.345828339689
 20
-530.6288634999589
 30
0.0
  0
SEQEND
  5
16574
330
1656F
100
AcDbEntity
  8
0部品18
  6
想像線1
370
    13
  0
LINE
  5
16579
330
1F
100
AcDbEntity
  8
0部品18
100
AcDbLine
 10
3087.34582833969
 20
-540.6288634999589
 30
0.0
 11
3087.34582833969
 21
-574.6288634999589
 31
0.0
  0
CIRCLE
  5
16581
330
1F
100
AcDbEntity
  8
0部品18
100
AcDbCircle
 10
3072.34582833969
 20
-477.1288634999589
 30
0.0
 40
2.5
  0
CIRCLE
  5
16582
330
1F
100
AcDbEntity
  8
0部品18
100
AcDbCircle
 10
3072.34582833969
 20
-509.1288634999589
 30
0.0
 40
2.5
  0
CIRCLE
  5
16583
330
1F
100
AcDbEntity
  8
0部品18
100
AcDbCircle
 10
3072.34582833969
 20
-582.1288634999588
 30
0.0
 40
2.5
  0
CIRCLE
  5
16584
330
1F
100
AcDbEntity
  8
0部品18
100
AcDbCircle
 10
3072.34582833969
 20
-582.1288634999588
 30
0.0
 40
4.0
  0
CIRCLE
  5
16585
330
1F
100
AcDbEntity
  8
0部品18
100
AcDbCircle
 10
3072.34582833969
 20
-509.1288634999589
 30
0.0
 40
4.0
  0
CIRCLE
  5
16586
330
1F
100
AcDbEntity
  8
0部品18
100
AcDbCircle
 10
3072.34582833969
 20
-477.1288634999589
 30
0.0
 40
4.0
  0
CIRCLE
  5
16587
330
1F
100
AcDbEntity
  8
0部品18
100
AcDbCircle
 10
3422.34582833969
 20
-477.1288634999589
 30
0.0
 40
4.0
  0
CIRCLE
  5
16588
330
1F
100
AcDbEntity
  8
0部品18
100
AcDbCircle
 10
3422.34582833969
 20
-509.1288634999589
 30
0.0
 40
4.0
  0
CIRCLE
  5
16589
330
1F
100
AcDbEntity
  8
0部品18
100
AcDbCircle
 10
3422.34582833969
 20
-582.1288634999588
 30
0.0
 40
4.0
  0
CIRCLE
  5
1658A
330
1F
100
AcDbEntity
  8
0部品18
100
AcDbCircle
 10
3422.34582833969
 20
-582.1288634999588
 30
0.0
 40
2.5
  0
CIRCLE
  5
1658B
330
1F
100
AcDbEntity
  8
0部品18
100
AcDbCircle
 10
3422.34582833969
 20
-509.1288634999589
 30
0.0
 40
2.5
  0
CIRCLE
  5
1658C
330
1F
100
AcDbEntity
  8
0部品18
100
AcDbCircle
 10
3422.34582833969
 20
-477.1288634999589
 30
0.0
 40
2.5
  0
LINE
  5
16599
330
1F
100
AcDbEntity
  8
0部品18
  6
中心線1
 48
0.5
370
    13
100
AcDbLine
 10
3065.345828339689
 20
-477.1288634999589
 30
0.0
 11
3079.34582833969
 21
-477.1288634999589
 31
0.0
1001
GENIUS_GENOREF_13
1005
165D4
  0
LINE
  5
1659D
330
1F
100
AcDbEntity
  8
0部品18
  6
中心線1
 48
0.5
370
    13
100
AcDbLine
 10
3065.345828339689
 20
-509.1288634999589
 30
0.0
 11
3079.34582833969
 21
-509.1288634999589
 31
0.0
1001
GENIUS_GENOREF_13
1005
165D3
  0
LINE
  5
165A1
330
1F
100
AcDbEntity
  8
0部品18
  6
中心線1
 48
0.5
370
    13
100
AcDbLine
 10
3065.345828339689
 20
-582.1288634999588
 30
0.0
 11
3079.34582833969
 21
-582.1288634999588
 31
0.0
1001
GENIUS_GENOREF_13
1005
165D2
  0
LINE
  5
165A5
330
1F
100
AcDbEntity
  8
0部品18
  6
中心線1
 48
0.5
370
    13
100
AcDbLine
 10
3065.345828339689
 20
-394.7847647700905
 30
0.0
 11
3079.34582833969
 21
-394.7847647700905
 31
0.0
1001
GENIUS_GENOREF_13
1005
165D1
  0
CIRCLE
  5
165A9
330
1F
100
AcDbEntity
  8
0部品18
100
AcDbCircle
 10
3072.34582833969
 20
-394.7847647700905
 30
0.0
 40
2.5
  0
CIRCLE
  5
165AA
330
1F
100
AcDbEntity
  8
0部品18
100
AcDbCircle
 10
3072.34582833969
 20
-394.7847647700905
 30
0.0
 40
4.0
  0
CIRCLE
  5
165AF
330
1F
100
AcDbEntity
  8
0部品18
100
AcDbCircle
 10
3422.34582833969
 20
-394.7847647700905
 30
0.0
 40
2.5
  0
CIRCLE
  5
165B0
330
1F
100
AcDbEntity
  8
0部品18
100
AcDbCircle
 10
3422.34582833969
 20
-394.7847647700905
 30
0.0
 40
4.0
  0
LINE
  5
165B1
330
1F
100
AcDbEntity
  8
0部品18
100
AcDbLine
 10
3710.426743836498
 20
-282.2847647700905
 30
0.0
 11
3710.426743836498
 21
-402.2847647700904
 31
0.0
  0
POINT
  5
165D1
330
1F
100
AcDbEntity
  8
0
 60
     1
100
AcDbPoint
 10
269.8140647101511
 20
-1548.316329259265
 30
0.0
1001
GENIUS_GENOBJ-N-CRS_13
1002
{
1000
OWNER
1000
GEN
1002
}
1001
GENIUS_GENOLIS_13
1002
{
1000
ENT
1005
165A8
1005
165A7
1005
165A6
1005
165A5
1002
}
1001
GENIUS_GENOENT_13
1002
{
1000
MYREF
1005
165D1
1002
}
1002
{
1000
GRP
1005
0
1002
}
1001
GENIUS_GENODEF_13
1002
{
1000
HIER
1070
    10
1002
}
1002
{
1000
MANEDIT
1070
     1
1002
}
1002
{
1000
NOSEL
1070
     0
1002
}
1002
{
1000
BEHIND
1070
     0
1002
}
1002
{
1000
OTHER
1070
     0
1002
}
1002
{
1000
REACTOR
1002
}
  0
POINT
  5
165D2
330
1F
100
AcDbEntity
  8
0
 60
     1
100
AcDbPoint
 10
269.8140647101511
 20
-1548.316329259265
 30
0.0
1001
GENIUS_GENOENT_13
1002
{
1000
MYREF
1005
165D2
1002
}
1002
{
1000
GRP
1005
0
1002
}
1001
GENIUS_GENOBJ-N-CRS_13
1002
{
1000
OWNER
1000
GEN
1002
}
1001
GENIUS_GENOLIS_13
1002
{
1000
ENT
1005
165A4
1005
165A3
1005
165A2
1005
165A1
1002
}
1001
GENIUS_GENODEF_13
1002
{
1000
HIER
1070
    10
1002
}
1002
{
1000
MANEDIT
1070
     1
1002
}
1002
{
1000
NOSEL
1070
     0
1002
}
1002
{
1000
BEHIND
1070
     0
1002
}
1002
{
1000
OTHER
1070
     0
1002
}
1002
{
1000
REACTOR
1002
}
  0
POINT
  5
165D3
330
1F
100
AcDbEntity
  8
0
 60
     1
100
AcDbPoint
 10
269.8140647101511
 20
-1548.316329259265
 30
0.0
1001
GENIUS_GENOBJ-N-CRS_13
1002
{
1000
OWNER
1000
GEN
1002
}
1001
GENIUS_GENOLIS_13
1002
{
1000
ENT
1005
165A0
1005
1659F
1005
1659E
1005
1659D
1002
}
1001
GENIUS_GENOENT_13
1002
{
1000
MYREF
1005
165D3
1002
}
1002
{
1000
GRP
1005
0
1002
}
1001
GENIUS_GENODEF_13
1002
{
1000
HIER
1070
    10
1002
}
1002
{
1000
MANEDIT
1070
     1
1002
}
1002
{
1000
NOSEL
1070
     0
1002
}
1002
{
1000
BEHIND
1070
     0
1002
}
1002
{
1000
OTHER
1070
     0
1002
}
1002
{
1000
REACTOR
1002
}
  0
POINT
  5
165D4
330
1F
100
AcDbEntity
  8
0
 60
     1
100
AcDbPoint
 10
269.8140647101511
 20
-1548.316329259265
 30
0.0
1001
GENIUS_GENOBJ-N-CRS_13
1002
{
1000
OWNER
1000
GEN
1002
}
1001
GENIUS_GENOLIS_13
1002
{
1000
ENT
1005
1659C
1005
1659B
1005
1659A
1005
16599
1002
}
1001
GENIUS_GENOENT_13
1002
{
1000
MYREF
1005
165D4
1002
}
1002
{
1000
GRP
1005
0
1002
}
1001
GENIUS_GENODEF_13
1002
{
1000
HIER
1070
    10
1002
}
1002
{
1000
MANEDIT
1070
     1
1002
}
1002
{
1000
NOSEL
1070
     0
1002
}
1002
{
1000
BEHIND
1070
     0
1002
}
1002
{
1000
OTHER
1070
     0
1002
}
1002
{
1000
REACTOR
1002
}
  0
POINT
  5
165D8
330
1F
100
AcDbEntity
  8
0
 60
     1
100
AcDbPoint
 10
269.8140647101511
 20
-1548.316329259265
 30
0.0
1001
GENIUS_GENOLIS_13
1002
{
1000
ENT
1005
16567
1005
16566
1005
16565
1005
16564
1002
}
1001
GENIUS_GENOENT_13
1002
{
1000
MYREF
1005
165D8
1002
}
1002
{
1000
GRP
1005
0
1002
}
1001
GENIUS_GENOBJ-N-CRS_13
1002
{
1000
OWNER
1000
GEN
1002
}
1001
GENIUS_GENODEF_13
1002
{
1000
HIER
1070
    10
1002
}
1002
{
1000
MANEDIT
1070
     1
1002
}
1002
{
1000
NOSEL
1070
     0
1002
}
1002
{
1000
BEHIND
1070
     0
1002
}
1002
{
1000
OTHER
1070
     0
1002
}
1002
{
1000
REACTOR
1002
}
  0
POINT
  5
165D9
330
1F
100
AcDbEntity
  8
0
 60
     1
100
AcDbPoint
 10
1249.170516927713
 20
-1538.316329259265
 30
0.0
1001
GENIUS_GENOLIS_13
1002
{
1000
ENT
1005
16540
1005
1653C
1005
1653A
1005
16541
1002
}
1001
GENIUS_GENOENT_13
1002
{
1000
MYREF
1005
165D9
1002
}
1002
{
1000
GRP
1005
0
1002
}
1001
GENIUS_GENOBJ-N-CRS_13
1002
{
1000
OWNER
1000
GEN
1002
}
1001
GENIUS_GENODEF_13
1002
{
1000
HIER
1070
    10
1002
}
1002
{
1000
MANEDIT
1070
     1
1002
}
1002
{
1000
NOSEL
1070
     0
1002
}
1002
{
1000
BEHIND
1070
     0
1002
}
1002
{
1000
OTHER
1070
     0
1002
}
1002
{
1000
REACTOR
1002
}
  0
LINE
  5
16673
330
1F
100
AcDbEntity
  8
0部品18
  6
中心線1
370
    13
100
AcDbLine
 10
3076.34582833969
 20
-251.7847647700905
 30
0.0
 11
3418.34582833969
 21
-251.7847647700905
 31
0.0
1001
GENIUS_GENODEF_13
1002
{
1000
HIER
1070
     0
1002
}
1002
{
1000
MANEDIT
1070
     0
1002
}
1002
{
1000
NOSEL
1070
     0
1002
}
1002
{
1000
BEHIND
1070
     0
1002
}
1002
{
1000
OTHER
1070
     0
1002
}
1002
{
1000
REACTOR
1002
}
1001
GENIUS_GENOBJ-N-CEN_13
1002
{
1000
OWNER
1000
GEN
1002
}
  0
LINE
  5
16674
330
1F
100
AcDbEntity
  8
0部品18
  6
中心線1
370
    13
100
AcDbLine
 10
3076.34582833969
 20
-288.2847647700905
 30
0.0
 11
3418.34582833969
 21
-288.2847647700905
 31
0.0
1001
GENIUS_GENODEF_13
1002
{
1000
HIER
1070
     0
1002
}
1002
{
1000
MANEDIT
1070
     0
1002
}
1002
{
1000
NOSEL
1070
     0
1002
}
1002
{
1000
BEHIND
1070
     0
1002
}
1002
{
1000
OTHER
1070
     0
1002
}
1002
{
1000
REACTOR
1002
}
1001
GENIUS_GENOBJ-N-CEN_13
1002
{
1000
OWNER
1000
GEN
1002
}
  0
LINE
  5
16675
330
1F
100
AcDbEntity
  8
0部品18
  6
中心線1
370
    13
100
AcDbLine
 10
3076.34582833969
 20
-324.7847647700905
 30
0.0
 11
3418.34582833969
 21
-324.7847647700905
 31
0.0
1001
GENIUS_GENODEF_13
1002
{
1000
HIER
1070
     0
1002
}
1002
{
1000
MANEDIT
1070
     0
1002
}
1002
{
1000
NOSEL
1070
     0
1002
}
1002
{
1000
BEHIND
1070
     0
1002
}
1002
{
1000
OTHER
1070
     0
1002
}
1002
{
1000
REACTOR
1002
}
1001
GENIUS_GENOBJ-N-CEN_13
1002
{
1000
OWNER
1000
GEN
1002
}
  0
LINE
  5
1668B
330
1F
100
AcDbEntity
  8
0部品18
  6
中心線1
 48
0.5
370
    13
100
AcDbLine
 10
3415.34582833969
 20
-394.7847647700905
 30
0.0
 11
3429.34582833969
 21
-394.7847647700905
 31
0.0
1001
GENIUS_GENOREF_13
1005
1668C
  0
POINT
  5
1668C
330
1F
100
AcDbEntity
  8
0
 60
     1
100
AcDbPoint
 10
619.8140647101511
 20
-1548.316329259265
 30
0.0
1001
GENIUS_GENOBJ-N-CRS_13
1002
{
1000
OWNER
1000
GEN
1002
}
1001
GENIUS_GENOLIS_13
1002
{
1000
ENT
1005
165A8
1005
165A7
1005
165A6
1005
1668B
1002
}
1001
GENIUS_GENOENT_13
1002
{
1000
MYREF
1005
1668C
1002
}
1002
{
1000
GRP
1005
0
1002
}
1001
GENIUS_GENODEF_13
1002
{
1000
HIER
1070
    10
1002
}
1002
{
1000
MANEDIT
1070
     1
1002
}
1002
{
1000
NOSEL
1070
     0
1002
}
1002
{
1000
BEHIND
1070
     0
1002
}
1002
{
1000
OTHER
1070
     0
1002
}
1002
{
1000
REACTOR
1002
}
  0
LINE
  5
16691
330
1F
100
AcDbEntity
  8
0部品18
  6
中心線1
 48
0.5
370
    13
100
AcDbLine
 10
3430.94582833969
 20
-495.1288634999589
 30
0.0
 11
3413.745828339689
 21
-495.1288634999589
 31
0.0
1001
GENIUS_GENOREF_13
1005
16698
  0
LINE
  5
16692
330
1F
100
AcDbEntity
  8
0部品18
  6
中心線1
 48
0.5
370
    13
100
AcDbLine
 10
3429.34582833969
 20
-477.1288634999589
 30
0.0
 11
3415.34582833969
 21
-477.1288634999589
 31
0.0
1001
GENIUS_GENOREF_13
1005
16697
  0
LINE
  5
16693
330
1F
100
AcDbEntity
  8
0部品18
  6
中心線1
 48
0.5
370
    13
100
AcDbLine
 10
3429.34582833969
 20
-509.1288634999589
 30
0.0
 11
3415.34582833969
 21
-509.1288634999589
 31
0.0
1001
GENIUS_GENOREF_13
1005
16696
  0
LINE
  5
16694
330
1F
100
AcDbEntity
  8
0部品18
  6
中心線1
 48
0.5
370
    13
100
AcDbLine
 10
3429.34582833969
 20
-582.1288634999588
 30
0.0
 11
3415.34582833969
 21
-582.1288634999588
 31
0.0
1001
GENIUS_GENOREF_13
1005
16695
  0
POINT
  5
16695
330
1F
100
AcDbEntity
  8
0
 60
     1
100
AcDbPoint
 10
2712.743386360773
 20
-1548.316329259265
 30
0.0
 50
180.0
1001
GENIUS_GENOENT_13
1002
{
1000
MYREF
1005
16695
1002
}
1002
{
1000
GRP
1005
0
1002
}
1001
GENIUS_GENOBJ-N-CRS_13
1002
{
1000
OWNER
1000
GEN
1002
}
1001
GENIUS_GENOLIS_13
1002
{
1000
ENT
1005
165A4
1005
165A3
1005
165A2
1005
16694
1002
}
1001
GENIUS_GENODEF_13
1002
{
1000
HIER
1070
    10
1002
}
1002
{
1000
MANEDIT
1070
     1
1002
}
1002
{
1000
NOSEL
1070
     0
1002
}
1002
{
1000
BEHIND
1070
     0
1002
}
1002
{
1000
OTHER
1070
     0
1002
}
1002
{
1000
REACTOR
1002
}
  0
POINT
  5
16696
330
1F
100
AcDbEntity
  8
0
 60
     1
100
AcDbPoint
 10
2712.743386360773
 20
-1548.316329259265
 30
0.0
 50
180.0
1001
GENIUS_GENOBJ-N-CRS_13
1002
{
1000
OWNER
1000
GEN
1002
}
1001
GENIUS_GENOLIS_13
1002
{
1000
ENT
1005
165A0
1005
1659F
1005
1659E
1005
16693
1002
}
1001
GENIUS_GENOENT_13
1002
{
1000
MYREF
1005
16696
1002
}
1002
{
1000
GRP
1005
0
1002
}
1001
GENIUS_GENODEF_13
1002
{
1000
HIER
1070
    10
1002
}
1002
{
1000
MANEDIT
1070
     1
1002
}
1002
{
1000
NOSEL
1070
     0
1002
}
1002
{
1000
BEHIND
1070
     0
1002
}
1002
{
1000
OTHER
1070
     0
1002
}
1002
{
1000
REACTOR
1002
}
  0
POINT
  5
16697
330
1F
100
AcDbEntity
  8
0
 60
     1
100
AcDbPoint
 10
2712.743386360773
 20
-1548.316329259265
 30
0.0
 50
180.0
1001
GENIUS_GENOBJ-N-CRS_13
1002
{
1000
OWNER
1000
GEN
1002
}
1001
GENIUS_GENOLIS_13
1002
{
1000
ENT
1005
1659C
1005
1659B
1005
1659A
1005
16692
1002
}
1001
GENIUS_GENOENT_13
1002
{
1000
MYREF
1005
16697
1002
}
1002
{
1000
GRP
1005
0
1002
}
1001
GENIUS_GENODEF_13
1002
{
1000
HIER
1070
    10
1002
}
1002
{
1000
MANEDIT
1070
     1
1002
}
1002
{
1000
NOSEL
1070
     0
1002
}
1002
{
1000
BEHIND
1070
     0
1002
}
1002
{
1000
OTHER
1070
     0
1002
}
1002
{
1000
REACTOR
1002
}
  0
POINT
  5
16698
330
1F
100
AcDbEntity
  8
0
 60
     1
100
AcDbPoint
 10
2712.743386360773
 20
-1548.316329259265
 30
0.0
 50
180.0
1001
GENIUS_GENOLIS_13
1002
{
1000
ENT
1005
16567
1005
16566
1005
16565
1005
16691
1002
}
1001
GENIUS_GENOENT_13
1002
{
1000
MYREF
1005
16698
1002
}
1002
{
1000
GRP
1005
0
1002
}
1001
GENIUS_GENOBJ-N-CRS_13
1002
{
1000
OWNER
1000
GEN
1002
}
1001
GENIUS_GENODEF_13
1002
{
1000
HIER
1070
    10
1002
}
1002
{
1000
MANEDIT
1070
     1
1002
}
1002
{
1000
NOSEL
1070
     0
1002
}
1002
{
1000
BEHIND
1070
     0
1002
}
1002
{
1000
OTHER
1070
     0
1002
}
1002
{
1000
REACTOR
1002
}
  0
MTEXT
  5
1669A
330
1F
100
AcDbEntity
  8
AM_6
100
AcDbMText
 10
3578.655024794049
 20
-300.3210609124271
 30
0.0
 40
6.4
 41
66.8186012041333
 71
     1
 72
     5
  1
耐荷重　10kg
 73
     1
 44
1.0
1001
ACAD
1000
MTEXTBEGIN
1070
    73
1070
     1
1070
    44
1040
1.0
1070
    74
1070
     0
1000
MTEXTEND
  0
DIMENSION
  5
1669B
330
1F
100
AcDbEntity
  8
AM_5
100
AcDbDimension
  2
*D185
 10
3445.34582833969
 20
-178.7847647700905
 30
0.0
 11
3445.34582833969
 21
-171.0347647700899
 31
0.0
 70
   160
 71
     5
 42
15.5
  3
SYS$0
100
AcDbAlignedDimension
 13
3424.34582833969
 23
-163.2847647700905
 33
0.0
 14
3418.34582833969
 24
-178.7847647700905
 34
0.0
 50
90.0
100
AcDbRotatedDimension
1001
ACAD
1000
DSTYLE
1002
{
1070
    40
1040
2.0
1002
}
  0
DIMENSION
  5
166D7
330
1F
100
AcDbEntity
  8
AM_5
100
AcDbDimension
  2
*D186
 10
3445.34582833969
 20
-215.2847647700905
 30
0.0
 11
3445.34582833969
 21
-243.3274314367568
 31
0.0
 70
   160
  1
パイプピッチ:<>
 71
     5
 42
36.5
  3
SYS$0
100
AcDbAlignedDimension
 13
3418.34582833969
 23
-178.7847647700905
 33
0.0
 14
3418.34582833969
 24
-215.2847647700905
 34
0.0
 50
90.0
100
AcDbRotatedDimension
1001
ACAD
1000
DSTYLE
1002
{
1070
    40
1040
2.0
1002
}
  0
DIMENSION
  5
16742
330
1F
100
AcDbEntity
  8
AM_5
100
AcDbDimension
  2
*D187
 10
3087.34582833969
 20
-453.6288634999589
 30
0.0
 11
3072.34582833969
 21
-453.6288634999589
 31
0.0
 70
   160
 71
     5
 42
30.0
  3
SYS$0
100
AcDbAlignedDimension
 13
3057.34582833969
 23
-477.6288634999589
 33
0.0
 14
3087.34582833969
 24
-477.6288634999589
 34
0.0
100
AcDbRotatedDimension
1001
ACAD
1000
DSTYLE
1002
{
1070
    40
1040
2.0
1002
}
  0
DIMENSION
  5
1676E
330
1F
100
AcDbEntity
  8
AM_5
100
AcDbDimension
  2
*D188
 10
3041.34582833969
 20
-589.6288634999589
 30
0.0
 11
3041.34582833969
 21
-529.6288634999586
 31
0.0
 70
   160
 71
     5
 42
120.0
  3
SYS$0
100
AcDbAlignedDimension
 13
3065.345828339689
 23
-469.6288634999588
 33
0.0
 14
3065.345828339689
 24
-589.6288634999589
 34
0.0
 50
90.0
100
AcDbRotatedDimension
1001
ACAD
1000
DSTYLE
1002
{
1070
    40
1040
2.0
1002
}
  0
DIMENSION
  5
1681A
330
1F
100
AcDbEntity
  8
AM_5
100
AcDbDimension
  2
*D189
 10
3694.926743836498
 20
-147.2847647700905
 30
0.0
 11
3682.926743836498
 21
-147.2847647700905
 31
0.0
 70
   160
 71
     5
 42
24.0
  3
SYS$0
100
AcDbAlignedDimension
 13
3670.926743836498
 23
-168.2847647700905
 33
0.0
 14
3694.926743836498
 24
-168.2847647700905
 34
0.0
100
AcDbRotatedDimension
1001
ACAD
1000
DSTYLE
1002
{
1070
    40
1040
2.0
1002
}
  0
DIMENSION
  5
16830
330
1F
100
AcDbEntity
  8
AM_5
100
AcDbDimension
  2
*D190
 10
3702.926743836498
 20
-147.2847647700905
 30
0.0
 11
3698.926743836498
 21
-147.2847647700905
 31
0.0
 70
   160
 71
     5
 42
8.0
  3
SYS$0
100
AcDbAlignedDimension
 13
3694.926743836498
 23
-168.2847647700905
 33
0.0
 14
3702.926743836498
 24
-282.2847647700905
 34
0.0
100
AcDbRotatedDimension
1001
ACAD
1000
DSTYLE
1002
{
1070
    40
1040
2.0
1002
}
  0
DIMENSION
  5
16846
330
1F
100
AcDbEntity
  8
AM_5
100
AcDbDimension
  2
*D191
 10
3710.426743836498
 20
-147.2847647700905
 30
0.0
 11
3721.120077169832
 21
-147.2847647700905
 31
0.0
 70
   160
 71
     5
 42
7.5
  3
SYS$0
100
AcDbAlignedDimension
 13
3702.926743836498
 23
-282.2847647700905
 33
0.0
 14
3710.426743836498
 24
-282.2847647700905
 34
0.0
100
AcDbRotatedDimension
1001
ACAD
1000
DSTYLE
1002
{
1070
    40
1040
2.0
1002
}
  0
DIMENSION
  5
168B8
330
1F
100
AcDbEntity
  8
AM_5
100
AcDbDimension
  2
*D192
 10
3726.426743836498
 20
-163.2847647700905
 30
0.0
 11
3726.426743836498
 21
-282.7847647700903
 31
0.0
 70
   160
 71
     5
 42
239.0
  3
SYS$0
100
AcDbAlignedDimension
 13
3710.426743836498
 23
-402.2847647700904
 33
0.0
 14
3689.926743836498
 24
-163.2847647700905
 34
0.0
 50
90.0
100
AcDbRotatedDimension
1001
ACAD
1000
DSTYLE
1002
{
1070
    40
1040
2.0
1002
}
  0
DIMENSION
  5
168E8
330
1F
100
AcDbEntity
  8
AM_5
100
AcDbDimension
  2
*D193
 10
3498.926743836498
 20
-434.2847647700905
 30
0.0
 11
3604.676743836498
 21
-434.2847647700905
 31
0.0
 70
   160
 71
     5
 42
211.5
  3
SYS$0
100
AcDbAlignedDimension
 13
3710.426743836498
 23
-402.2847647700904
 33
0.0
 14
3498.926743836498
 24
-354.2847647700905
 34
0.0
100
AcDbRotatedDimension
1001
ACAD
1000
DSTYLE
1002
{
1070
    40
1040
2.0
1002
}
  0
ARC
  5
16918
330
1F
100
AcDbEntity
  8
0部品18
  6
細線
370
    13
100
AcDbCircle
 10
3682.926743836498
 20
-347.2847647700906
 30
0.0
 40
150.0
100
AcDbArc
 50
94.58856573578191
 51
175.4114342642116
  0
LINE
  5
1691B
330
1F
100
AcDbEntity
  8
0部品18
  6
細線
370
    13
100
AcDbLine
 10
3670.92674383648
 20
-197.7655352375666
 30
0.0
 11
3661.69323293644
 21
-196.7565960896488
 31
0.0
  0
LINE
  5
1691C
330
1F
100
AcDbEntity
  8
0部品18
  6
細線
370
    13
100
AcDbLine
 10
3670.92674383648
 20
-197.7655352375668
 30
0.0
 11
3663.111811603166
 21
-201.4549426679887
 31
0.0
  0
LINE
  5
1691D
330
1F
100
AcDbEntity
  8
0部品18
  6
細線
370
    13
100
AcDbLine
 10
3533.4075146616
 20
-335.2847605638544
 30
0.0
 11
3537.755683902595
 21
-326.1510957906103
 31
0.0
  0
LINE
  5
1691E
330
1F
100
AcDbEntity
  8
0部品18
  6
細線
370
    13
100
AcDbLine
 10
3533.407514303973
 20
-335.2847647700905
 30
0.0
 11
3530.930316877228
 21
-325.2460145611403
 31
0.0
  0
LINE
  5
1691F
330
1F
100
AcDbEntity
  8
0部品18
  6
細線
370
    13
100
AcDbLine
 10
3533.407514556853
 20
-335.284761795833
 30
0.0
 11
3533.407514556853
 21
-335.284761795833
 31
0.0
  0
LINE
  5
16920
330
1F
100
AcDbEntity
  8
0部品18
  6
細線
370
    13
100
AcDbLine
 10
3533.407514303973
 20
-335.284764770091
 30
0.0
 11
3533.407514556853
 21
-335.284761795833
 31
0.0
  0
LINE
  5
16921
330
1F
100
AcDbEntity
  8
0部品18
  6
細線
370
    13
100
AcDbLine
 10
3533.407514303973
 20
-335.2847647700905
 30
0.0
 11
3533.4075146616
 21
-335.2847605638544
 31
0.0
  0
MTEXT
  5
16922
330
1F
100
AcDbEntity
  8
AM_6
100
AcDbMText
 10
3535.175769592012
 20
-232.8242841495121
 30
0.0
 40
6.4
 41
66.8186012041333
 71
     1
 72
     5
  1
バネ自動復帰式
 73
     1
 44
1.0
1001
ACAD
1000
MTEXTBEGIN
1070
    73
1070
     1
1070
    44
1040
1.0
1070
    74
1070
     0
1000
MTEXTEND
  0
LINE
  5
169CF
330
1F
100
AcDbEntity
  8
AM_0
100
AcDbLine
 10
3591.467049520351
 20
-538.5289419461714
 30
0.0
 11
3591.467049520351
 21
-650.5289419461714
 31
0.0
  0
LINE
  5
169D0
330
1F
100
AcDbEntity
  8
AM_0
100
AcDbLine
 10
3551.467049520351
 20
-554.5289419461714
 30
0.0
 11
3787.467048644275
 21
-554.5289419461714
 31
0.0
  0
LINE
  5
169D1
330
1F
100
AcDbEntity
  8
AM_0
100
AcDbLine
 10
3551.467049520351
 20
-570.5289419461714
 30
0.0
 11
3787.467048644275
 21
-570.5289419461714
 31
0.0
  0
LINE
  5
169D2
330
1F
100
AcDbEntity
  8
AM_0
100
AcDbLine
 10
3551.467049520351
 20
-586.5289419461714
 30
0.0
 11
3787.467048644275
 21
-586.5289419461714
 31
0.0
  0
LINE
  5
169D3
330
1F
100
AcDbEntity
  8
AM_0
100
AcDbLine
 10
3591.467049520351
 20
-634.5289419461714
 30
0.0
 11
3787.467048644275
 21
-634.5289419461714
 31
0.0
  0
LINE
  5
169D4
330
1F
100
AcDbEntity
  8
AM_0
100
AcDbLine
 10
3551.467049520351
 20
-650.5289419461714
 30
0.0
 11
3787.467048644275
 21
-650.5289419461714
 31
0.0
  0
LINE
  5
169D5
330
1F
100
AcDbEntity
  8
AM_0
100
AcDbLine
 10
3551.467049520351
 20
-538.5289419461714
 30
0.0
 11
3551.467049520351
 21
-650.5289419461714
 31
0.0
  0
LINE
  5
169D6
330
1F
100
AcDbEntity
  8
AM_0
100
AcDbLine
 10
3551.467049520351
 20
-538.5289419461714
 30
0.0
 11
3787.467048644275
 21
-538.5289419461714
 31
0.0
  0
LINE
  5
169D7
330
1F
100
AcDbEntity
  8
AM_0
100
AcDbLine
 10
3787.467048644275
 20
-538.5289419461714
 30
0.0
 11
3787.467048644276
 21
-650.5289419461714
 31
0.0
  0
LINE
  5
169D8
330
1F
100
AcDbEntity
  8
AM_0
100
AcDbLine
 10
3551.467049520351
 20
-602.5289419461715
 30
0.0
 11
3787.467048644275
 21
-602.5289419461715
 31
0.0
  0
LINE
  5
169D9
330
1F
100
AcDbEntity
  8
AM_0
100
AcDbLine
 10
3551.467049520351
 20
-618.5289419461715
 30
0.0
 11
3787.467048644275
 21
-618.5289419461715
 31
0.0
  0
LINE
  5
169DA
330
1F
100
AcDbEntity
  8
AM_0
100
AcDbLine
 10
3591.467049520351
 20
-634.5289419461714
 30
0.0
 11
3787.467048644275
 21
-634.5289419461714
 31
0.0
  0
TEXT
  5
169DB
330
1F
100
AcDbEntity
  8
AM_6
100
AcDbText
 10
3562.781049520352
 20
-549.7289419461712
 30
0.0
 40
6.4
  1
品　名
 41
0.85537027
100
AcDbText
  0
TEXT
  5
169DC
330
1F
100
AcDbEntity
  8
AM_6
100
AcDbText
 10
3562.781049520352
 20
-565.7289419461712
 30
0.0
 40
6.4
  1
品　番
 41
0.85537027
100
AcDbText
  0
TEXT
  5
169DD
330
1F
100
AcDbEntity
  8
AM_6
100
AcDbText
 10
3562.781049520352
 20
-581.7289419461713
 30
0.0
 40
6.4
  1
材　質
 41
0.85537027
100
AcDbText
  0
TEXT
  5
169DE
330
1F
100
AcDbEntity
  8
AM_6
100
AcDbText
 10
3562.781049520352
 20
-597.7289419461713
 30
0.0
 40
6.4
  1
仕上げ
 41
0.85537027
100
AcDbText
  0
TEXT
  5
169DF
330
1F
100
AcDbEntity
  8
AM_6
100
AcDbText
 10
3556.38104952035
 20
-629.7289419461712
 30
0.0
 40
6.4
  1
セットビス
 41
0.84892707
100
AcDbText
  0
TEXT
  5
169E0
330
1F
100
AcDbEntity
  8
AM_6
100
AcDbText
 10
3559.581049520352
 20
-613.7289419461713
 30
0.0
 40
6.4
  1
左右勝手
 41
0.8512700499999999
100
AcDbText
  0
MTEXT
  5
169E1
330
1F
100
AcDbEntity
  8
AM_6
100
AcDbMText
 10
3591.467049520351
 20
-546.5289419461714
 30
0.0
 40
6.4
 41
180.0
 71
     4
 72
     5
  1
  棚（バネ式）ビス止め
 73
     1
 44
1.0
1001
ACAD
1000
MTEXTBEGIN
1070
    73
1070
     1
1070
    44
1040
1.0
1070
    74
1070
     0
1000
MTEXTEND
  0
MTEXT
  5
169E2
330
1F
100
AcDbEntity
  8
AM_6
100
AcDbMText
 10
3591.467049520351
 20
-562.5289419461714
 30
0.0
 40
6.4
 41
180.0
 71
     4
 72
     5
  1
  LA-10-S
 73
     1
 44
1.0
1001
ACAD
1000
MTEXTBEGIN
1070
    73
1070
     1
1070
    44
1040
1.0
1070
    74
1070
     0
1000
MTEXTEND
  0
MTEXT
  5
169E3
330
1F
100
AcDbEntity
  8
AM_6
100
AcDbMText
 10
3591.467049520351
 20
-578.5289419461714
 30
0.0
 40
6.4
 41
180.0
 71
     4
 72
     5
  1
  ステンレス
 73
     1
 44
1.0
1001
ACAD
1000
MTEXTBEGIN
1070
    73
1070
     1
1070
    44
1040
1.0
1070
    74
1070
     0
1000
MTEXTEND
  0
MTEXT
  5
169E4
330
1F
100
AcDbEntity
  8
AM_6
100
AcDbMText
 10
3591.467049520351
 20
-594.5289419461714
 30
0.0
 40
6.4
 41
180.0
 71
     4
 72
     5
  1
  HL
 73
     1
 44
1.0
1001
ACAD
1000
MTEXTBEGIN
1070
    73
1070
     1
1070
    44
1040
1.0
1070
    74
1070
     0
1000
MTEXTEND
  0
MTEXT
  5
169E5
330
1F
100
AcDbEntity
  8
AM_6
100
AcDbMText
 10
3591.467049520351
 20
-610.5289419461715
 30
0.0
 40
6.4
 41
180.0
 71
     4
 72
     5
  1
  無し
 73
     1
 44
1.0
1001
ACAD
1000
MTEXTBEGIN
1070
    73
1070
     1
1070
    44
1040
1.0
1070
    74
1070
     0
1000
MTEXTEND
  0
MTEXT
  5
169E6
330
1F
100
AcDbEntity
  8
AM_6
100
AcDbMText
 10
3591.467049520351
 20
-626.5289419461715
 30
0.0
 40
6.4
 41
195.9999991239238
 71
     4
 72
     5
  1
  呼び4×30サラタッピンネジ + SUS : 6本
 73
     1
 44
1.0
1001
ACAD
1000
MTEXTBEGIN
1070
    73
1070
     1
1070
    44
1040
1.0
1070
    74
1070
     0
1000
MTEXTEND
  0
MTEXT
  5
169E7
330
1F
100
AcDbEntity
  8
AM_6
100
AcDbMText
 10
3591.467049520351
 20
-642.5289419461714
 30
0.0
 40
6.4
 41
195.9999991239238
 71
     4
 72
     5
  1
  8×25カールプラグ : 6本
 73
     1
 44
1.0
1001
ACAD
1000
MTEXTBEGIN
1070
    73
1070
     1
1070
    44
1040
1.0
1070
    74
1070
     0
1000
MTEXTEND
  0
CIRCLE
  5
169E9
330
1F
100
AcDbEntity
  8
AM_2
100
AcDbCircle
 10
3674.388171369797
 20
-626.9862605725011
 30
0.0
 40
4.0
  0
LINE
  5
16C79
330
1F
100
AcDbEntity
  8
0部品18
  6
中心線1
370
    13
100
AcDbLine
 10
3247.345828339689
 20
-169.7847647700905
 30
0.0
 11
3247.345828339689
 21
-333.7847647700905
 31
0.0
1001
GENIUS_GENOBJ-N-CEN_13
1002
{
1000
OWNER
1000
GEN
1002
}
1001
GENIUS_GENODEF_13
1002
{
1000
HIER
1070
     0
1002
}
1002
{
1000
MANEDIT
1070
     0
1002
}
1002
{
1000
NOSEL
1070
     0
1002
}
1002
{
1000
BEHIND
1070
     0
1002
}
1002
{
1000
OTHER
1070
     0
1002
}
1002
{
1000
REACTOR
1002
}
1001
GENIUS_GENCEN_19
1002
{
1040
3.0
1002
}
  0
LINE
  5
16C7B
330
1F
100
AcDbEntity
  8
0部品18
  6
中心線1
370
    13
100
AcDbLine
 10
3247.345828339689
 20
-543.6288634999589
 30
0.0
 11
3247.345828339689
 21
-525.6288634999589
 31
0.0
1001
GENIUS_GENODEF_13
1002
{
1000
HIER
1070
     0
1002
}
1002
{
1000
MANEDIT
1070
     0
1002
}
1002
{
1000
NOSEL
1070
     0
1002
}
1002
{
1000
BEHIND
1070
     0
1002
}
1002
{
1000
OTHER
1070
     0
1002
}
1002
{
1000
REACTOR
1002
}
1001
GENIUS_GENOBJ-N-CEN_13
1002
{
1000
OWNER
1000
GEN
1002
}
1001
GENIUS_GENCEN_19
1002
{
1040
3.0
1002
}
  0
DIMENSION
  5
16C95
330
1F
100
AcDbEntity
  8
AM_5
100
AcDbDimension
  2
*D206
 10
3158.551985385513
 20
-540.6288634999589
 30
0.0
 11
3158.551985385513
 21
-518.9755301666251
 31
0.0
 70
   160
  1
%%c<>
 71
     5
 42
12.0
  3
SYS$0
100
AcDbAlignedDimension
 13
3156.810875085419
 23
-528.6288634999589
 33
0.0
 14
3155.213479133614
 24
-540.6288634999589
 34
0.0
 50
90.0
100
AcDbRotatedDimension
1001
ACAD
1000
DSTYLE
1002
{
1070
    40
1040
2.0
1002
}
  0
INSERT
  5
16CFC
330
1F
100
AcDbEntity
  8
AM_5
100
AcDbBlockReference
  2
*S414
 10
0.0
 20
0.0
 30
0.0
  0
DIMENSION
  5
16D13
330
1F
100
AcDbEntity
  8
AM_5
100
AcDbDimension
  2
*D208
 10
3710.426743836498
 20
-418.2847647700903
 30
0.0
 11
3686.176743836498
 21
-418.2847647700903
 31
0.0
 70
   160
 71
     5
 42
48.5
  3
SYS$0
100
AcDbAlignedDimension
 13
3661.926743836498
 23
-379.2847647700905
 33
0.0
 14
3710.426743836498
 24
-402.2847647700904
 34
0.0
100
AcDbRotatedDimension
1001
ACAD
1000
DSTYLE
1002
{
1070
    40
1040
2.0
1002
}
  0
DIMENSION
  5
18176
330
1F
100
AcDbEntity
  8
AM_5
100
AcDbDimension
  2
*D239
 10
3422.34582833969
 20
-131.2847647700905
 30
0.0
 11
3247.345828339689
 21
-131.2847647700905
 31
0.0
 70
   160
 71
     5
 42
350.0
  3
SYS$0
100
AcDbAlignedDimension
 13
3072.34582833969
 23
-157.2847647700903
 33
0.0
 14
3422.34582833969
 24
-157.2847647700905
 34
0.0
100
AcDbRotatedDimension
1001
ACAD
1000
DSTYLE
1002
{
1070
    40
1040
2.0
1002
}
  0
DIMENSION
  5
18177
330
1F
100
AcDbEntity
  8
AM_5
100
AcDbDimension
  2
*D240
 10
3429.34582833969
 20
-147.2847647700905
 30
0.0
 11
3436.759161673023
 21
-147.2847647700905
 31
0.0
 70
   160
 71
     5
 42
14.0
  3
SYS$0
100
AcDbAlignedDimension
 13
3415.34582833969
 23
-168.2847647700903
 33
0.0
 14
3429.34582833969
 24
-168.2847647700905
 34
0.0
100
AcDbRotatedDimension
1001
ACAD
1000
DSTYLE
1002
{
1070
    40
1040
2.0
1002
}
  0
TEXT
  5
22E96
330
1F
100
AcDbEntity
  8
AM_6
 60
     1
100
AcDbText
 10
4165.291423649353
 20
-2483.844094493894
 30
0.0
 40
2.5
  1
!GENTITLE-INSERT
100
AcDbText
  0
TEXT
  5
22E97
330
1F
100
AcDbEntity
  8
AM_6
 60
     1
100
AcDbText
 10
4176.791423649353
 20
-2072.344094493894
 30
0.0
 40
2.5
  1
!GENTITLE-MAX
100
AcDbText
  0
TEXT
  5
22E98
330
1F
100
AcDbEntity
  8
AM_6
 60
     1
100
AcDbText
 10
4176.791423649353
 20
-2072.344094493894
 30
0.0
 40
2.5
  1
!GENTITLE-RU
100
AcDbText
  0
TEXT
  5
22E99
330
1F
100
AcDbEntity
  8
AM_6
 60
     1
100
AcDbText
 10
3582.791423649354
 20
-2492.344094493894
 30
0.0
 40
2.5
  1
!GENTITLE-LL
100
AcDbText
  0
TEXT
  5
260FA
330
1F
100
AcDbEntity
  8
AM_6
 60
     1
100
AcDbText
 10
4025.957725063388
 20
-2973.503134541669
 30
0.0
 40
2.5
  1
!GENTITLE-INSERT
100
AcDbText
  0
TEXT
  5
260FB
330
1F
100
AcDbEntity
  8
AM_6
 60
     1
100
AcDbText
 10
3617.457725063388
 20
-2982.003134541669
 30
0.0
 40
2.5
  1
!GENTITLE-LL
100
AcDbText
  0
TEXT
  5
260FC
330
1F
100
AcDbEntity
  8
AM_6
 60
     1
100
AcDbText
 10
4037.457725063388
 20
-2685.003134541669
 30
0.0
 40
2.5
  1
!GENTITLE-RU
100
AcDbText
  0
TEXT
  5
260FD
330
1F
100
AcDbEntity
  8
AM_6
 60
     1
100
AcDbText
 10
4037.457725063388
 20
-2685.003134541669
 30
0.0
 40
2.5
  1
!GENTITLE-MAX
100
AcDbText
  0
TEXT
  5
26105
330
1F
100
AcDbEntity
  8
AM_6
 60
     1
100
AcDbText
 10
3617.457725063388
 20
-2982.003134541669
 30
0.0
 40
2.5
  1
!GENTITLE-LL
100
AcDbText
  0
TEXT
  5
26106
330
1F
100
AcDbEntity
  8
AM_6
 60
     1
100
AcDbText
 10
4025.957725063388
 20
-2693.50313454167
 30
0.0
 40
2.5
  1
!GENTITLE-RU
100
AcDbText
  0
TEXT
  5
26107
330
1F
100
AcDbEntity
  8
AM_6
 60
     1
100
AcDbText
 10
4037.457725063388
 20
-2685.003134541669
 30
0.0
 40
2.5
  1
!GENTITLE-MAX
100
AcDbText
  0
TEXT
  5
26108
330
1F
100
AcDbEntity
  8
AM_6
 60
     1
100
AcDbText
 10
4025.957725063388
 20
-2973.503134541669
 30
0.0
 40
2.5
  1
!GENTITLE-INSERT
100
AcDbText
  0
DIMENSION
  5
3E2D2
330
1F
100
AcDbEntity
  8
AM_5
100
AcDbDimension
  2
*D388
 10
3453.34582833969
 20
-477.1288634999589
 30
0.0
 11
3453.34582833969
 21
-458.9355301666251
 31
0.0
 70
   160
 71
     5
 42
7.5
  3
SYS$0
100
AcDbAlignedDimension
 13
3429.34582833969
 23
-469.6288634999588
 33
0.0
 14
3429.34582833969
 24
-477.1288634999589
 34
0.0
 50
90.0
100
AcDbRotatedDimension
1001
ACAD
1000
DSTYLE
1002
{
1070
    40
1040
2.0
1002
}
  0
DIMENSION
  5
3E2D3
330
1F
100
AcDbEntity
  8
AM_5
100
AcDbDimension
  2
*D389
 10
3453.34582833969
 20
-509.1288634999589
 30
0.0
 11
3453.34582833969
 21
-493.1288634999584
 31
0.0
 70
   160
 71
     5
 42
32.0
  3
SYS$0
100
AcDbAlignedDimension
 13
3429.34582833969
 23
-477.1288634999589
 33
0.0
 14
3429.34582833969
 24
-509.1288634999589
 34
0.0
 50
90.0
100
AcDbRotatedDimension
1001
ACAD
1000
DSTYLE
1002
{
1070
    40
1040
2.0
1002
}
  0
DIMENSION
  5
3E2D4
330
1F
100
AcDbEntity
  8
AM_5
100
AcDbDimension
  2
*D390
 10
3453.34582833969
 20
-582.1288634999591
 30
0.0
 11
3453.34582833969
 21
-545.6288634999586
 31
0.0
 70
   160
 71
     5
 42
73.00000000000017
  3
SYS$0
100
AcDbAlignedDimension
 13
3429.34582833969
 23
-509.1288634999589
 33
0.0
 14
3429.34582833969
 24
-582.1288634999591
 34
0.0
 50
90.0
100
AcDbRotatedDimension
1001
ACAD
1000
DSTYLE
1002
{
1070
    40
1040
2.0
1002
}
  0
TEXT
  5
54131
330
1F
100
AcDbEntity
  8
AM_6
 60
     1
100
AcDbText
 10
4161.51691678317
 20
-6160.084771212655
 30
0.0
 40
5.0
  1
!GENTITLE-INSERT
100
AcDbText
  0
TEXT
  5
54132
330
1F
100
AcDbEntity
  8
AM_6
 60
     1
100
AcDbText
 10
4184.516916783169
 20
-5337.084771212656
 30
0.0
 40
5.0
  1
!GENTITLE-MAX
100
AcDbText
  0
TEXT
  5
54133
330
1F
100
AcDbEntity
  8
AM_6
 60
     1
100
AcDbText
 10
4184.516916783169
 20
-5337.084771212656
 30
0.0
 40
5.0
  1
!GENTITLE-RU
100
AcDbText
  0
TEXT
  5
54134
330
1F
100
AcDbEntity
  8
AM_6
 60
     1
100
AcDbText
 10
2996.51691678317
 20
-6177.084771212656
 30
0.0
 40
5.0
  1
!GENTITLE-LL
100
AcDbText
  0
TEXT
  5
54198
330
1F
100
AcDbEntity
  8
AM_6
 60
     1
100
AcDbText
 10
4161.51691678317
 20
-5182.731160501375
 30
0.0
 40
5.0
  1
!GENTITLE-INSERT
100
AcDbText
  0
TEXT
  5
54199
330
1F
100
AcDbEntity
  8
AM_6
 60
     1
100
AcDbText
 10
4184.516916783169
 20
-4359.731160501374
 30
0.0
 40
5.0
  1
!GENTITLE-MAX
100
AcDbText
  0
TEXT
  5
5419A
330
1F
100
AcDbEntity
  8
AM_6
 60
     1
100
AcDbText
 10
4184.516916783169
 20
-4359.731160501374
 30
0.0
 40
5.0
  1
!GENTITLE-RU
100
AcDbText
  0
TEXT
  5
5419B
330
1F
100
AcDbEntity
  8
AM_6
 60
     1
100
AcDbText
 10
2996.51691678317
 20
-5199.731160501375
 30
0.0
 40
5.0
  1
!GENTITLE-LL
100
AcDbText
  0
TEXT
  5
5E473
330
1F
100
AcDbEntity
  8
AM_6
 60
     1
100
AcDbText
 10
6404.525406902962
 20
-18334.41148846286
 30
0.0
 40
2.5
  1
!GENTITLE-INSERT
100
AcDbText
  0
TEXT
  5
5E474
330
1F
100
AcDbEntity
  8
AM_6
 60
     1
100
AcDbText
 10
6416.025406902962
 20
-17922.91148846286
 30
0.0
 40
2.5
  1
!GENTITLE-MAX
100
AcDbText
  0
TEXT
  5
5E475
330
1F
100
AcDbEntity
  8
AM_6
 60
     1
100
AcDbText
 10
6416.025406902962
 20
-17922.91148846286
 30
0.0
 40
2.5
  1
!GENTITLE-RU
100
AcDbText
  0
TEXT
  5
5E476
330
1F
100
AcDbEntity
  8
AM_6
 60
     1
100
AcDbText
 10
5822.025406902962
 20
-18342.91148846286
 30
0.0
 40
2.5
  1
!GENTITLE-LL
100
AcDbText
  0
LINE
  5
64539
330
1F
100
AcDbEntity
  8
size
100
AcDbLine
 10
3810.467048644276
 20
-667.5289419461714
 30
0.0
 11
2970.467048644275
 21
-667.5289419461714
 31
0.0
1001
GENIUS_GENREC_14
1002
{
1000
PYDIR
1011
2970.467048644275
1021
-667.5289419461714
1031
0.0
1002
}
1002
{
1000
PXDIR
1011
3810.467048644276
1021
-1261.528941946171
1031
0.0
1002
}
1002
{
1000
PORI
1011
2970.467048644275
1021
-1261.528941946171
1031
0.0
1002
}
1002
{
1000
PINS
1011
3390.467048644275
1021
-964.5289419461715
1031
0.0
1002
}
1002
{
1000
HVAL
1000
297
1002
}
1002
{
1000
H
1070
     2
1002
}
1002
{
1000
WVAL
1000
420
1002
}
1002
{
1000
W
1070
     2
1002
}
1002
{
1000
C
1070
     4
1002
}
1001
GENIUS_GENOBJ-N-REC_13
1002
{
1000
OWNER
1000
GEN
1002
}
1001
GENIUS_GENODEF_13
1002
{
1000
HIER
1070
     0
1002
}
1002
{
1000
MANEDIT
1070
     0
1002
}
1002
{
1000
NOSEL
1070
     0
1002
}
1002
{
1000
BEHIND
1070
     0
1002
}
1002
{
1000
OTHER
1070
     0
1002
}
1002
{
1000
REACTOR
1002
}
  0
ENDSEC
  0
SECTION
  2
OBJECTS
  0
DICTIONARY
  5
C
330
0
100
AcDbDictionary
281
     1
  3
ACAD_2007HEADERVARS_RT
350
64545
  3
ACAD_BGPLOT_KEY
350
AB06
  3
ACAD_COLOR
350
A91D
  3
ACAD_GROUP
350
D
  3
ACAD_LAYOUT
350
1A
  3
ACAD_MATERIAL
350
A91C
  3
ACAD_MLINESTYLE
350
17
  3
ACAD_PLOTSETTINGS
350
19
  3
ACAD_PLOTSTYLENAME
350
E
  3
ACAD_TABLESTYLE
350
AAB9
  3
ACAD_VISUALSTYLE
350
B0F1
  3
AcAsAppObject
350
3DA1
  3
ACASGREF_MASTER
350
3DE9
  3
AcDbVariableDictionary
350
34
  3
AcmDictionary
350
47
  3
AD_GREF_MODULE
350
3DEA
  3
AD_MAPI_MODULE
350
3E06
  3
AMG
350
2B
  3
AMGSNAPSETTINGS
350
7D
  3
ASE_INDEX_DICTIONARY
350
B331
  3
DWGPROPS
350
64544
  3
MAPISURF_MODULE
350
3DEB
  0
DICTIONARY
  5
3F95
330
2
100
AcDbDictionary
280
     1
281
     1
  3
ACAD_LAYERFILTERS
360
B466
  3
ACAD_LAYERSTATES
360
3F96
  3
ACLYDICTIONARY
360
B465
  3
AMLAYER_GROUPCOLORS
360
AAB4
  0
DICTIONARY
  5
8A
330
1F
100
AcDbDictionary
280
     1
281
     1
  3
ACAD_SORTENTS
360
B1BA
  0
DICTIONARY
  5
64545
102
{ACAD_REACTORS
330
C
102
}
330
C
100
AcDbDictionary
281
     1
  3
DIMARCSYM
350
64546
  0
DICTIONARY
  5
AB06
102
{ACAD_REACTORS
330
C
102
}
330
C
100
AcDbDictionary
280
     1
281
     1
  0
DICTIONARY
  5
A91D
102
{ACAD_REACTORS
330
C
102
}
330
C
100
AcDbDictionary
281
     1
  0
DICTIONARY
  5
D
102
{ACAD_REACTORS
330
C
102
}
330
C
100
AcDbDictionary
281
     1
  0
DICTIONARY
  5
1A
102
{ACAD_REACTORS
330
C
102
}
330
C
100
AcDbDictionary
281
     1
  3
Model
350
22
  3
ﾚｲｱｳﾄ1
350
1E
  3
ﾚｲｱｳﾄ2
350
26
  0
DICTIONARY
  5
A91C
102
{ACAD_REACTORS
330
C
102
}
330
C
100
AcDbDictionary
281
     1
  3
ByBlock
350
B0EF
  3
ByLayer
350
B0EE
  3
Global
350
B0F0
  0
DICTIONARY
  5
17
102
{ACAD_REACTORS
330
C
102
}
330
C
100
AcDbDictionary
281
     1
  3
Standard
350
18
  0
DICTIONARY
  5
19
102
{ACAD_REACTORS
330
C
102
}
330
C
100
AcDbDictionary
281
     1
  0
ACDBDICTIONARYWDFLT
  5
E
102
{ACAD_REACTORS
330
C
102
}
330
C
100
AcDbDictionary
281
     1
  3
Normal
350
F
100
AcDbDictionaryWithDefault
340
F
  0
DICTIONARY
  5
AAB9
102
{ACAD_REACTORS
330
C
102
}
330
C
100
AcDbDictionary
281
     1
  3
Standard
350
AABA
  0
DICTIONARY
  5
B0F1
102
{ACAD_REACTORS
330
C
102
}
330
C
100
AcDbDictionary
281
     1
  3
2dWireframe
350
B0F7
  3
3D Hidden
350
B0F9
  3
3dWireframe
350
B0F8
  3
Basic
350
B0F6
  3
Brighten
350
B0FD
  3
ColorChange
350
B101
  3
Conceptual
350
B0FA
  3
Dim
350
B0FC
  3
Facepattern
350
B100
  3
Flat
350
B0F2
  3
FlatWithEdges
350
B0F3
  3
Gouraud
350
B0F4
  3
GouraudWithEdges
350
B0F5
  3
Linepattern
350
B0FF
  3
Realistic
350
B0FB
  3
Thicken
350
B0FE
  0
ACAD_PROXY_OBJECT
  5
3DA1
102
{ACAD_REACTORS
330
C
102
}
330
C
100
AcDbProxyObject
 90
      499
 91
      576
 95
   917527
 70
     0
 93
       10
310
407F
 94
        0
1001
ACAD
1000
AcRTDxfName
1000
ASAPP
  0
ACAD_PROXY_OBJECT
  5
3DE9
102
{ACAD_REACTORS
330
C
102
}
330
C
100
AcDbProxyObject
 90
      499
 91
      581
 95
   917527
 70
     0
 93
       34
310
010000407F
 94
        0
1001
ACAD
1000
AcRTDxfName
1000
ACASGREFMASTER
  0
DICTIONARY
  5
34
102
{ACAD_REACTORS
330
C
102
}
330
C
100
AcDbDictionary
281
     1
  3
CTABLESTYLE
350
AAF3
  3
DIMASSOC
350
A10C
  3
FIELDEVAL
350
AB07
  3
INDEXCTL
350
35
  3
SORTENTS
350
194C
  0
DICTIONARY
  5
47
102
{ACAD_REACTORS
330
C
102
}
330
C
100
AcDbDictionary
281
     1
  3
AcmBOM
350
7E8
  3
AcmStdDictionary
350
4C
  3
AMDTSECTSYM_ARROWCOLOR
350
A929
  0
ACAD_PROXY_OBJECT
  5
3DEA
102
{ACAD_REACTORS
330
C
102
}
330
C
100
AcDbProxyObject
 90
      499
 91
      582
 95
   917527
 70
     0
 93
      114
310
00000043800000000000000000003F
 94
        0
1001
ACAD
1000
AcRTDxfName
1000
ACADGREFMODULE
  0
ACAD_PROXY_OBJECT
  5
3E06
102
{ACAD_REACTORS
330
C
102
}
330
C
100
AcDbProxyObject
 90
      499
 91
      594
 95
   917527
 70
     0
 93
       34
310
05000044FF
 94
        0
1001
ACAD
1000
AcRTDxfName
1000
MAPIADMODULE
  0
DICTIONARY
  5
2B
102
{ACAD_REACTORS
330
C
102
}
330
C
100
AcDbDictionary
281
     1
  0
DICTIONARY
  5
7D
102
{ACAD_REACTORS
330
C
102
}
330
C
100
AcDbDictionary
281
     1
  0
DICTIONARY
  5
B331
102
{ACAD_REACTORS
330
C
102
}
330
C
100
AcDbDictionary
281
     1
  3
ASEBlockHierarchyIndexRecord
350
B332
1001
DCO15
1040
1594111214.218
  0
XRECORD
  5
64544
102
{ACAD_REACTORS
330
C
102
}
330
C
100
AcDbXrecord
280
     1
  1
DWGPROPS COOKIE
  2

  3

  4

  6

  7

  8
Administrator
  9

300
AmdtFileType=84
301
=
302
=
303
=
304
=
305
=
306
=
307
=
308
=
309
=
 40
4.734850254629629
 41
2455567.680725081
 42
2455629.684214815
  1

 90
        1
  0
ACAD_PROXY_OBJECT
  5
3DEB
102
{ACAD_REACTORS
330
C
102
}
330
C
100
AcDbProxyObject
 90
      499
 91
      583
 95
   917527
 70
     0
 93
        8
310
0475
 94
        0
1001
ACAD
1000
AcRTDxfName
1000
AMDTMAPISURFMOUDULE
  0
DICTIONARY
  5
B466
102
{ACAD_REACTORS
330
3F95
102
}
330
3F95
100
AcDbDictionary
281
     1
  0
DICTIONARY
  5
3F96
102
{ACAD_REACTORS
330
3F95
102
}
330
3F95
100
AcDbDictionary
281
     1
  3
20011210
350
3FB7
  0
DICTIONARY
  5
B465
102
{ACAD_REACTORS
330
3F95
102
}
330
3F95
100
AcDbDictionary
281
     1
1001
ACAD
1000
<All
  0
DICTIONARY
  5
AAB4
102
{ACAD_REACTORS
330
3F95
102
}
330
3F95
100
AcDbDictionary
280
     1
281
     1
  0
SORTENTSTABLE
  5
B1BA
102
{ACAD_REACTORS
330
8A
102
}
330
8A
100
AcDbSortentsTable
330
1F
331
16505
  5
1650E
331
16500
  5
16509
331
164FB
  5
16503
331
15A53
  5
15A53
331
5E476
  5
5E475
331
16599
  5
16679
331
164F6
  5
164FE
331
163FE
  5
163FB
331
164F1
  5
164FA
331
163F9
  5
163F6
331
164EC
  5
164F5
331
1658C
  5
16675
331
164E7
  5
164EF
331
C47E
  5
C47E
331
54132
  5
5415D
331
16587
  5
165A3
331
164E2
  5
164EA
331
16582
  5
1658C
331
164DD
  5
164E5
331
164D8
  5
164E0
331
150AD
  5
150AD
331
169E3
  5
169E3
331
164D3
  5
164DB
331
164CE
  5
164DA
331
1656E
  5
16588
331
164C9
  5
164D5
331
161D9
  5
161D9
331
164C4
  5
164CC
331
16564
  5
16587
331
164BF
  5
164C7
331
169DC
  5
169DC
331
164BA
  5
164BF
331
169D7
  5
169D7
331
1655A
  5
16586
331
169D2
  5
169D2
331
164B3
  5
164B8
331
1654B
  5
16566
331
164AE
  5
164B1
331
1691E
  5
1691E
331
164A4
  5
164A6
331
1653C
  5
1654B
331
16537
  5
16540
331
13BBF
  5
13BBF
331
14BDF
  5
14BDF
331
16532
  5
1653B
331
1649F
  5
164A1
331
16692
  5
16693
331
1649A
  5
1649C
331
1557A
  5
1557A
331
16495
  5
16497
331
15E85
  5
15E85
331
16490
  5
16492
331
15560
  5
15560
331
1471B
  5
1471B
331
26108
  5
26108
331
1648B
  5
1648B
331
1652B
  5
16534
331
16673
  5
1668E
331
16526
  5
1652E
331
14716
  5
14716
331
16521
  5
1652B
331
1651C
  5
16526
331
15DD1
  5
15DD1
331
16517
  5
16520
331
22E97
  5
22E97
331
16512
  5
1651F
331
1650D
  5
1651B
331
16830
  5
16830
331
16503
  5
1650C
331
164FE
  5
16506
331
164F9
  5
16501
331
165A1
  5
16686
331
3E2D4
  5
3E5C3
331
5E474
  5
5E473
331
163FC
  5
163F9
331
164EF
  5
164F8
331
5419A
  5
540C5
331
163F7
  5
163F4
331
164EA
  5
164F2
331
15A42
  5
15A42
331
1658A
  5
165AF
331
163F2
  5
163E0
331
164E5
  5
164ED
331
16585
  5
16597
331
164E0
  5
164E8
331
164DB
  5
164E2
331
16D13
  5
16D13
331
150AB
  5
150AB
331
1676E
  5
1676E
331
169E6
  5
169E6
331
164D6
  5
164DE
331
15A0E
  5
15A0E
331
169E1
  5
169E1
331
14BA1
  5
14BA1
331
14FD1
  5
14FD1
331
164CC
  5
164D8
331
16CFC
  5
16CFC
331
164C7
  5
164D3
331
14FC4
  5
14FC4
331
161D7
  5
161D7
331
164C2
  5
164CA
331
169DF
  5
169DF
331
164BD
  5
164C4
331
16742
  5
16742
331
169DA
  5
169DA
331
164B8
  5
164BB
331
169D5
  5
169D5
331
16558
  5
16584
331
169D0
  5
169D0
331
164B6
  5
164BA
331
164B1
  5
164B5
331
164AC
  5
164AF
331
16921
  5
16921
331
16544
  5
1655A
331
13BCC
  5
13BCC
331
164A7
  5
164AB
331
1691C
  5
1691C
331
14BEC
  5
14BEC
331
1653F
  5
16550
331
164A2
  5
164A4
331
1653A
  5
16545
331
1669A
  5
1669A
331
16535
  5
1653E
331
13BBD
  5
13BBD
331
14BDD
  5
14BDD
331
16530
  5
16539
331
1649D
  5
1649F
331
168E8
  5
168E8
331
16498
  5
1649A
331
1668B
  5
16691
331
16493
  5
16495
331
15563
  5
15563
331
1648E
  5
1648E
331
14719
  5
14719
331
1652E
  5
16537
331
15E3E
  5
15E3E
331
26106
  5
26106
331
16489
  5
16489
331
16529
  5
16532
331
260FC
  5
260FC
331
15529
  5
15529
331
1651F
  5
16529
331
1651A
  5
16522
331
146BA
  5
146BA
331
165B0
  5
1668B
331
16510
  5
1651E
331
1650B
  5
16518
331
16506
  5
1650F
331
16501
  5
1650A
331
165A9
  5
16688
331
164FC
  5
16504
331
15A54
  5
15A54
331
164F7
  5
164FF
331
3E2D2
  5
3E5C1
331
163FF
  5
163FC
331
164F2
  5
164FB
331
163FA
  5
163F7
331
164ED
  5
164F6
331
54198
  5
540B4
331
163F5
  5
163F2
331
164E8
  5
164F0
331
15A40
  5
15A40
331
C47F
  5
C47F
331
54133
  5
5415E
331
16588
  5
165AA
331
163F0
  5
163BE
331
164E3
  5
164EB
331
16583
  5
1658D
331
164DE
  5
164E6
331
150AE
  5
150AE
331
16579
  5
1658A
331
169E9
  5
169E9
331
169E4
  5
169E4
331
164D4
  5
164DC
331
159EF
  5
159EF
331
14B82
  5
14B82
331
1656F
  5
16589
331
164CA
  5
164D6
331
161DA
  5
161DA
331
164C5
  5
164CE
331
164C0
  5
164C8
331
169DD
  5
169DD
331
164BB
  5
164C0
331
169D8
  5
169D8
331
169D3
  5
169D3
331
1654C
  5
16579
331
164AF
  5
164B2
331
13BCF
  5
13BCF
331
164AA
  5
164AD
331
1691F
  5
1691F
331
16542
  5
16557
331
13BCA
  5
13BCA
331
164A5
  5
164A7
331
14BEA
  5
14BEA
331
1653D
  5
1654C
331
13BC5
  5
13BC5
331
164A0
  5
164A2
331
16538
  5
16541
331
14BE0
  5
14BE0
331
16533
  5
1653C
331
13BBB
  5
13BBB
331
16693
  5
16694
331
1649B
  5
1649D
331
16496
  5
16498
331
15561
  5
15561
331
1471C
  5
1471C
331
1648C
  5
1648C
331
1652C
  5
16535
331
16674
  5
1668F
331
16527
  5
1652F
331
14717
  5
14717
331
16522
  5
1652C
331
260FA
  5
260FA
331
1651D
  5
16527
331
16518
  5
16521
331
1468B
  5
1468B
331
22E98
  5
22E98
331
14686
  5
14686
331
18176
  5
1838E
331
1650E
  5
1651C
331
16509
  5
16512
331
16504
  5
1650D
331
164FF
  5
16507
331
164FA
  5
16502
331
1681A
  5
1681A
331
1659D
  5
16685
331
15A52
  5
15A52
331
5E475
  5
5E474
331
164F5
  5
164FD
331
163FD
  5
163FA
331
164F0
  5
164F9
331
5419B
  5
540C6
331
163F8
  5
163F5
331
164EB
  5
164F3
331
C482
  5
C482
331
1658B
  5
165B0
331
163F3
  5
163F0
331
164E6
  5
164EE
331
54131
  5
5415C
331
16586
  5
1659F
331
164E1
  5
164E9
331
16581
  5
1658B
331
164DC
  5
164E4
331
150AC
  5
150AC
331
169E7
  5
169E7
331
164D7
  5
164DF
331
169E2
  5
169E2
331
164C8
  5
164D4
331
159E8
  5
159E8
331
14B7B
  5
14B7B
331
161D8
  5
161D8
331
164C3
  5
164CB
331
164BE
  5
164C5
331
169DB
  5
169DB
331
164B9
  5
164BC
331
169D6
  5
169D6
331
16559
  5
16585
331
169D1
  5
169D1
331
166D7
  5
166D7
331
164B2
  5
164B6
331
1654A
  5
16565
331
164AD
  5
164B0
331
16922
  5
16922
331
16545
  5
16564
331
16C95
  5
16C95
331
164A8
  5
164AC
331
1691D
  5
1691D
331
14BED
  5
14BED
331
13BC8
  5
13BC8
331
164A3
  5
164A5
331
16918
  5
16918
331
1653B
  5
1654A
331
16C7B
  5
16C7B
331
13BC3
  5
13BC3
331
1669B
  5
1669B
331
16536
  5
1653F
331
14BDE
  5
14BDE
331
16531
  5
1653A
331
13BB9
  5
13BB9
331
1649E
  5
164A0
331
16691
  5
16692
331
16499
  5
1649B
331
16494
  5
16496
331
15564
  5
15564
331
15E84
  5
15E84
331
1648F
  5
1648F
331
1471A
  5
1471A
331
1652F
  5
16538
331
15E3F
  5
15E3F
331
26107
  5
26107
331
1648A
  5
1648A
331
1652A
  5
16533
331
260FD
  5
260FD
331
1552A
  5
1552A
331
16520
  5
1652A
331
1651B
  5
16523
331
165B1
  5
1668D
331
22E96
  5
22E96
331
1650C
  5
1651A
331
16507
  5
16510
331
165AF
  5
1668A
331
16502
  5
1650B
331
165AA
  5
16689
331
164FD
  5
16505
331
165A5
  5
16687
331
164F8
  5
16500
331
15A55
  5
15A55
331
3E2D3
  5
3E5C2
331
5E473
  5
5E463
331
164F3
  5
164FC
331
15A4B
  5
15A4B
331
163FB
  5
163F8
331
164EE
  5
164F7
331
54199
  5
540C4
331
163F6
  5
163F3
331
164E9
  5
164F1
331
15A41
  5
15A41
331
C480
  5
C480
331
54134
  5
5415F
331
16589
  5
165AB
331
163F1
  5
163DF
331
164E4
  5
164EC
331
16584
  5
1658F
331
164DF
  5
164E7
331
164DA
  5
164E1
331
150AF
  5
150AF
331
15A3F
  5
15A3F
331
150AA
  5
150AA
331
169E5
  5
169E5
331
164D5
  5
164DD
331
169E0
  5
169E0
331
164CB
  5
164D7
331
161DB
  5
161DB
331
161D6
  5
161D6
331
164C1
  5
164C9
331
169DE
  5
169DE
331
164BC
  5
164C2
331
169D9
  5
169D9
331
169D4
  5
169D4
331
16557
  5
16583
331
169CF
  5
169CF
331
1613A
  5
1613A
331
164B5
  5
164B9
331
1654D
  5
16581
331
164B0
  5
164B3
331
164AB
  5
164AE
331
16920
  5
16920
331
16543
  5
16559
331
164A6
  5
164A8
331
1691B
  5
1691B
331
14BEB
  5
14BEB
331
1653E
  5
1654D
331
164A1
  5
164A3
331
16539
  5
16544
331
16C79
  5
16C79
331
13BC1
  5
13BC1
331
14BE1
  5
14BE1
331
16534
  5
1653D
331
16694
  5
16699
331
14BDC
  5
14BDC
331
1649C
  5
1649E
331
16497
  5
16499
331
16492
  5
16494
331
15562
  5
15562
331
1648D
  5
1648D
331
14718
  5
14718
331
1652D
  5
16536
331
26105
  5
26105
331
16488
  5
16488
331
16675
  5
16690
331
16528
  5
16530
331
168B8
  5
168B8
331
16523
  5
1652D
331
260FB
  5
260FB
331
1651E
  5
16528
331
154FB
  5
154FB
331
16846
  5
16846
331
154F6
  5
154F6
331
146B9
  5
146B9
331
22E99
  5
22E99
331
18177
  5
1838F
331
1650F
  5
1651D
331
1650A
  5
16517
  0
XRECORD
  5
64546
102
{ACAD_REACTORS
330
64545
102
}
330
64545
100
AcDbXrecord
280
     1
 70
     1
  0
LAYOUT
  5
22
102
{ACAD_XDICTIONARY
360
64549
102
}
102
{ACAD_REACTORS
330
1A
102
}
330
1A
100
AcDbPlotSettings
  1

  2
FX DocuWide 2050/2051
  4
A3
  6
AM_VIEW1
 40
3.174999952316284
 41
3.174999952316284
 42
3.17498779296875
 43
3.17498779296875
 44
296.989501953125
 45
419.9889831542968
 46
0.0
 47
1.295841228961961
 48
214.3704939521119
 49
367.5855324241176
140
275.6727856380065
141
407.629191407817
142
1.0
143
0.7225445603030646
 70
  3764
 72
     1
 73
     1
 74
     2
  7
monochrome.ctb
 75
     0
147
1.383997686703999
148
-1700.85588156276
149
-1647.985052086429
100
AcDbLayout
  1
Model
 70
     1
 71
     0
 10
0.0
 20
0.0
 11
12.0
 21
9.0
 12
0.0
 22
0.0
 32
0.0
 14
0.0
 24
0.0
 34
0.0
 15
0.0
 25
0.0
 35
0.0
146
0.0
 13
0.0
 23
0.0
 33
0.0
 16
1.0
 26
0.0
 36
0.0
 17
0.0
 27
1.0
 37
0.0
 76
     0
330
1F
331
B0EC
1001
ACAD_PSEXT
1000
FX DocuWide 2050/2051
1000
FX DocuWide 2050/2051
1000
IP_192.200.15.252
1000

1070
     0
  0
LAYOUT
  5
1E
102
{ACAD_XDICTIONARY
360
64547
102
}
102
{ACAD_REACTORS
330
1A
102
}
330
1A
100
AcDbPlotSettings
  1

  2
\\ML370\XEROX
  4
A4
  6

 40
3.174999952316284
 41
3.174999952316284
 42
3.175003051757812
 43
3.17498779296875
 44
209.8674926757813
 45
296.6719970703125
 46
0.0
 47
0.0
 48
0.0
 49
0.0
140
0.0
141
0.0
142
1.0
143
1.0
 70
   688
 72
     1
 73
     1
 74
     5
  7
monochrome.ctb
 75
    16
147
1.0
148
0.0
149
0.0
100
AcDbLayout
  1
ﾚｲｱｳﾄ1
 70
     1
 71
     1
 10
-3.17498779296875
 20
-3.174999952316284
 11
293.4970092773438
 21
206.692492723465
 12
0.0
 22
0.0
 32
0.0
 14
1.000000000000000E+20
 24
1.000000000000000E+20
 34
1.000000000000000E+20
 15
-1.000000000000000E+20
 25
-1.000000000000000E+20
 35
-1.000000000000000E+20
146
0.0
 13
0.0
 23
0.0
 33
0.0
 16
1.0
 26
0.0
 36
0.0
 17
0.0
 27
1.0
 37
0.0
 76
     0
330
1B
  0
LAYOUT
  5
26
102
{ACAD_XDICTIONARY
360
6454B
102
}
102
{ACAD_REACTORS
330
1A
102
}
330
1A
100
AcDbPlotSettings
  1

  2
\\ML370\XEROX
  4

  6

 40
0.0
 41
0.0
 42
0.0
 43
0.0
 44
0.0
 45
0.0
 46
0.0
 47
0.0
 48
0.0
 49
0.0
140
0.0
141
0.0
142
1.0
143
1.0
 70
   688
 72
     0
 73
     0
 74
     5
  7
monochrome.ctb
 75
    16
147
1.0
148
0.0
149
0.0
100
AcDbLayout
  1
ﾚｲｱｳﾄ2
 70
     1
 71
     2
 10
0.0
 20
0.0
 11
12.0
 21
9.0
 12
0.0
 22
0.0
 32
0.0
 14
0.0
 24
0.0
 34
0.0
 15
0.0
 25
0.0
 35
0.0
146
0.0
 13
0.0
 23
0.0
 33
0.0
 16
1.0
 26
0.0
 36
0.0
 17
0.0
 27
1.0
 37
0.0
 76
     0
330
23
  0
MATERIAL
  5
B0EF
102
{ACAD_XDICTIONARY
360
64551
102
}
102
{ACAD_REACTORS
330
A91C
102
}
330
A91C
100
AcDbMaterial
  1
ByBlock
  0
MATERIAL
  5
B0EE
102
{ACAD_XDICTIONARY
360
6454F
102
}
102
{ACAD_REACTORS
330
A91C
102
}
330
A91C
100
AcDbMaterial
  1
ByLayer
  0
MATERIAL
  5
B0F0
102
{ACAD_XDICTIONARY
360
64553
102
}
102
{ACAD_REACTORS
330
A91C
102
}
330
A91C
100
AcDbMaterial
  1
Global
  0
MLINESTYLE
  5
18
102
{ACAD_REACTORS
330
17
102
}
330
17
100
AcDbMlineStyle
  2
STANDARD
 70
     0
  3

 62
   256
 51
90.0
 52
90.0
 71
     2
 49
0.5
 62
   256
  6
BYLAYER
 49
-0.5
 62
   256
  6
BYLAYER
  0
ACDBPLACEHOLDER
  5
F
102
{ACAD_REACTORS
330
E
102
}
330
E
  0
TABLESTYLE
  5
AABA
102
{ACAD_XDICTIONARY
360
6454D
102
}
102
{ACAD_REACTORS
330
AAB9
102
}
330
AAB9
100
AcDbTableStyle
  3
Standard
 70
     0
 71
     0
 40
1.5
 41
1.5
280
     0
281
     0
  7
STANDARD
140
4.5
170
     2
 62
     0
 63
     7
283
     0
274
    -2
284
     1
 64
     0
275
    -2
285
     1
 65
     0
276
    -2
286
     1
 66
     0
277
    -2
287
     1
 67
     0
278
    -2
288
     1
 68
     0
279
    -2
289
     1
 69
     0
  7
STANDARD
140
6.0
170
     5
 62
     0
 63
     7
283
     0
274
    -2
284
     1
 64
     0
275
    -2
285
     1
 65
     0
276
    -2
286
     1
 66
     0
277
    -2
287
     1
 67
     0
278
    -2
288
     1
 68
     0
279
    -2
289
     1
 69
     0
  7
STANDARD
140
4.5
170
     5
 62
     0
 63
     7
283
     0
274
    -2
284
     1
 64
     0
275
    -2
285
     1
 65
     0
276
    -2
286
     1
 66
     0
277
    -2
287
     1
 67
     0
278
    -2
288
     1
 68
     0
279
    -2
289
     1
 69
     0
  0
VISUALSTYLE
  5
B0F7
102
{ACAD_REACTORS
330
B0F1
102
}
330
B0F1
100
AcDbVisualStyle
  2
2dWireframe
 70
     4
 71
     0
 72
     2
 73
     0
 90
        0
 40
-0.6
 41
-30.0
 62
     5
 63
     7
 74
     1
 91
        4
 64
     7
 65
   257
 75
     1
175
     1
 42
1.0
 92
        0
 66
   257
 43
1.0
 76
     1
 77
     6
 78
     2
 67
     7
 79
     5
170
     0
171
     0
290
     0
174
     0
 93
        1
 44
0.0
173
     0
291
     0
 45
0.0
1001
ACAD
1000
AcDbSavedByObjectVersion
1070
     0
  0
VISUALSTYLE
  5
B0F9
102
{ACAD_REACTORS
330
B0F1
102
}
330
B0F1
100
AcDbVisualStyle
  2
3D Hidden
 70
     6
 71
     1
 72
     2
 73
     2
 90
        0
 40
-0.6
 41
-30.0
 62
     5
 63
     7
 74
     2
 91
        2
 64
     7
 65
   257
 75
     2
175
     1
 42
40.0
 92
        0
 66
   257
 43
1.0
 76
     1
 77
     6
 78
     2
 67
     7
 79
     3
170
     0
171
     0
290
     0
174
     0
 93
        1
 44
0.0
173
     0
291
     0
 45
0.0
1001
ACAD
1000
AcDbSavedByObjectVersion
1070
     0
  0
VISUALSTYLE
  5
B0F8
102
{ACAD_REACTORS
330
B0F1
102
}
330
B0F1
100
AcDbVisualStyle
  2
3dWireframe
 70
     5
 71
     0
 72
     2
 73
     0
 90
        0
 40
-0.6
 41
-30.0
 62
     5
 63
     7
 74
     1
 91
        4
 64
     7
 65
   257
 75
     1
175
     1
 42
1.0
 92
        0
 66
   257
 43
1.0
 76
     1
 77
     6
 78
     2
 67
     7
 79
     5
170
     0
171
     0
290
     0
174
     0
 93
        1
 44
0.0
173
     0
291
     0
 45
0.0
1001
ACAD
1000
AcDbSavedByObjectVersion
1070
     0
  0
VISUALSTYLE
  5
B0F6
102
{ACAD_REACTORS
330
B0F1
102
}
330
B0F1
100
AcDbVisualStyle
  2
Basic
 70
     7
 71
     1
 72
     0
 73
     1
 90
        0
 40
-0.6
 41
-30.0
 62
     5
 63
     7
 74
     0
 91
        4
 64
     7
 65
   257
 75
     1
175
     1
 42
1.0
 92
        8
 66
     7
 43
1.0
 76
     1
 77
     6
 78
     2
 67
     7
 79
     5
170
     0
171
     0
290
     0
174
     0
 93
        1
 44
0.0
173
     0
291
     1
 45
0.0
1001
ACAD
1000
AcDbSavedByObjectVersion
1070
     0
  0
VISUALSTYLE
  5
B0FD
102
{ACAD_REACTORS
330
B0F1
102
}
330
B0F1
100
AcDbVisualStyle
  2
Brighten
 70
    12
 71
     2
 72
     2
 73
     0
 90
        0
 40
-0.6
 41
-30.0
 62
     5
 63
     7
 74
     1
 91
        4
 64
     7
 65
   257
 75
     1
175
     1
 42
1.0
 92
        8
 66
     7
 43
1.0
 76
     1
 77
     6
 78
     2
 67
     7
 79
     5
170
     0
171
     0
290
     0
174
     0
 93
        1
 44
50.0
173
     0
291
     1
 45
0.0
1001
ACAD
1000
AcDbSavedByObjectVersion
1070
     0
  0
VISUALSTYLE
  5
B101
102
{ACAD_REACTORS
330
B0F1
102
}
330
B0F1
100
AcDbVisualStyle
  2
ColorChange
 70
    16
 71
     2
 72
     2
 73
     3
 90
        0
 40
-0.6
 41
-30.0
 62
     5
 63
     8
 74
     1
 91
        4
 64
     7
 65
   257
 75
     1
175
     1
 42
1.0
 92
        8
 66
     8
 43
1.0
 76
     1
 77
     6
 78
     2
 67
     7
 79
     5
170
     0
171
     0
290
     0
174
     0
 93
        1
 44
0.0
173
     0
291
     1
 45
0.0
1001
ACAD
1000
AcDbSavedByObjectVersion
1070
     0
  0
VISUALSTYLE
  5
B0FA
102
{ACAD_REACTORS
330
B0F1
102
}
330
B0F1
100
AcDbVisualStyle
  2
Conceptual
 70
     9
 71
     3
 72
     2
 73
     0
 90
        0
 40
-0.6
 41
-30.0
 62
     5
 63
     7
 74
     2
 91
        2
 64
     7
 65
   257
 75
     1
175
     1
 42
40.0
 92
        8
 66
     7
 43
1.0
 76
     1
 77
     6
 78
     2
 67
     7
 79
     3
170
     0
171
     0
290
     0
174
     0
 93
        1
 44
0.0
173
     0
291
     0
 45
0.0
1001
ACAD
1000
AcDbSavedByObjectVersion
1070
     0
  0
VISUALSTYLE
  5
B0FC
102
{ACAD_REACTORS
330
B0F1
102
}
330
B0F1
100
AcDbVisualStyle
  2
Dim
 70
    11
 71
     2
 72
     2
 73
     0
 90
        0
 40
-0.6
 41
-30.0
 62
     5
 63
     7
 74
     1
 91
        4
 64
     7
 65
   257
 75
     1
175
     1
 42
1.0
 92
        8
 66
     7
 43
1.0
 76
     1
 77
     6
 78
     2
 67
     7
 79
     5
170
     0
171
     0
290
     0
174
     0
 93
        1
 44
-50.0
173
     0
291
     1
 45
0.0
1001
ACAD
1000
AcDbSavedByObjectVersion
1070
     0
  0
VISUALSTYLE
  5
B100
102
{ACAD_REACTORS
330
B0F1
102
}
330
B0F1
100
AcDbVisualStyle
  2
Facepattern
 70
    15
 71
     2
 72
     2
 73
     0
 90
        0
 40
-0.6
 41
-30.0
 62
     5
 63
     7
 74
     1
 91
        4
 64
     7
 65
   257
 75
     1
175
     1
 42
1.0
 92
        8
 66
     7
 43
1.0
 76
     1
 77
     6
 78
     2
 67
     7
 79
     5
170
     0
171
     0
290
     0
174
     0
 93
        1
 44
0.0
173
     0
291
     1
 45
0.0
1001
ACAD
1000
AcDbSavedByObjectVersion
1070
     0
  0
VISUALSTYLE
  5
B0F2
102
{ACAD_REACTORS
330
B0F1
102
}
330
B0F1
100
AcDbVisualStyle
  2
Flat
 70
     0
 71
     2
 72
     1
 73
     1
 90
        2
 40
-0.6
 41
30.0
 62
     5
 63
     7
 74
     0
 91
        4
 64
     7
 65
   257
 75
     1
175
     1
 42
1.0
 92
        8
 66
     7
 43
1.0
 76
     1
 77
     6
 78
     2
 67
     7
 79
     5
170
     0
171
     0
290
     0
174
     0
 93
       13
 44
0.0
173
     0
291
     1
 45
0.0
1001
ACAD
1000
AcDbSavedByObjectVersion
1070
     0
  0
VISUALSTYLE
  5
B0F3
102
{ACAD_REACTORS
330
B0F1
102
}
330
B0F1
100
AcDbVisualStyle
  2
FlatWithEdges
 70
     1
 71
     2
 72
     1
 73
     1
 90
        2
 40
-0.6
 41
30.0
 62
     5
 63
     7
 74
     1
 91
        4
 64
     7
 65
   257
 75
     1
175
     1
 42
1.0
 92
        0
 66
   257
 43
1.0
 76
     1
 77
     6
 78
     2
 67
     7
 79
     5
170
     0
171
     0
290
     0
174
     0
 93
       13
 44
0.0
173
     0
291
     1
 45
0.0
1001
ACAD
1000
AcDbSavedByObjectVersion
1070
     0
  0
VISUALSTYLE
  5
B0F4
102
{ACAD_REACTORS
330
B0F1
102
}
330
B0F1
100
AcDbVisualStyle
  2
Gouraud
 70
     2
 71
     2
 72
     2
 73
     1
 90
        2
 40
-0.6
 41
30.0
 62
     5
 63
     7
 74
     0
 91
        4
 64
     7
 65
   257
 75
     1
175
     1
 42
1.0
 92
        0
 66
     7
 43
1.0
 76
     1
 77
     6
 78
     2
 67
     7
 79
     5
170
     0
171
     0
290
     0
174
     0
 93
       13
 44
0.0
173
     0
291
     1
 45
0.0
1001
ACAD
1000
AcDbSavedByObjectVersion
1070
     0
  0
VISUALSTYLE
  5
B0F5
102
{ACAD_REACTORS
330
B0F1
102
}
330
B0F1
100
AcDbVisualStyle
  2
GouraudWithEdges
 70
     3
 71
     2
 72
     2
 73
     1
 90
        2
 40
-0.6
 41
30.0
 62
     5
 63
     7
 74
     1
 91
        4
 64
     7
 65
   257
 75
     1
175
     1
 42
1.0
 92
        0
 66
   257
 43
1.0
 76
     1
 77
     6
 78
     2
 67
     7
 79
     5
170
     0
171
     0
290
     0
174
     0
 93
       13
 44
0.0
173
     0
291
     1
 45
0.0
1001
ACAD
1000
AcDbSavedByObjectVersion
1070
     0
  0
VISUALSTYLE
  5
B0FF
102
{ACAD_REACTORS
330
B0F1
102
}
330
B0F1
100
AcDbVisualStyle
  2
Linepattern
 70
    14
 71
     2
 72
     2
 73
     0
 90
        0
 40
-0.6
 41
-30.0
 62
     5
 63
     7
 74
     1
 91
        4
 64
     7
 65
   257
 75
     7
175
     7
 42
1.0
 92
        8
 66
     7
 43
1.0
 76
     1
 77
     6
 78
     2
 67
     7
 79
     5
170
     0
171
     0
290
     0
174
     0
 93
        1
 44
0.0
173
     0
291
     1
 45
0.0
1001
ACAD
1000
AcDbSavedByObjectVersion
1070
     0
  0
VISUALSTYLE
  5
B0FB
102
{ACAD_REACTORS
330
B0F1
102
}
330
B0F1
100
AcDbVisualStyle
  2
Realistic
 70
     8
 71
     2
 72
     2
 73
     0
 90
        0
 40
-0.6
 41
-30.0
 62
     5
 63
     7
 74
     1
 91
        0
 64
     7
 65
   257
 75
     1
175
     1
 42
1.0
 92
        8
 66
     8
 43
1.0
 76
     1
 77
     6
 78
     2
 67
     7
 79
     5
170
     0
171
     0
290
     0
174
     0
 93
       13
 44
0.0
173
     0
291
     0
 45
0.0
1001
ACAD
1000
AcDbSavedByObjectVersion
1070
     0
  0
VISUALSTYLE
  5
B0FE
102
{ACAD_REACTORS
330
B0F1
102
}
330
B0F1
100
AcDbVisualStyle
  2
Thicken
 70
    13
 71
     2
 72
     2
 73
     0
 90
        0
 40
-0.6
 41
-30.0
 62
     5
 63
     7
 74
     1
 91
        4
 64
     7
 65
   257
 75
     1
175
     1
 42
1.0
 92
       12
 66
     7
 43
1.0
 76
     1
 77
     6
 78
     2
 67
     7
 79
     5
170
     0
171
     0
290
     0
174
     0
 93
        1
 44
0.0
173
     0
291
     1
 45
0.0
1001
ACAD
1000
AcDbSavedByObjectVersion
1070
     0
  0
DICTIONARYVAR
  5
AAF3
102
{ACAD_REACTORS
330
34
102
}
330
34
100
DictionaryVariables
280
     0
  1
STANDARD
  0
DICTIONARYVAR
  5
A10C
102
{ACAD_REACTORS
330
34
102
}
330
34
100
DictionaryVariables
280
     0
  1
1
  0
DICTIONARYVAR
  5
AB07
102
{ACAD_REACTORS
330
34
102
}
330
34
100
DictionaryVariables
280
     0
  1
4
  0
DICTIONARYVAR
  5
35
102
{ACAD_REACTORS
330
34
102
}
330
34
100
DictionaryVariables
280
     0
  1
0
  0
DICTIONARYVAR
  5
194C
102
{ACAD_REACTORS
330
34
102
}
330
34
100
DictionaryVariables
280
     0
  1
96
  0
DICTIONARY
  5
7E8
102
{ACAD_REACTORS
330
47
102
}
330
47
100
AcDbDictionary
281
     1
  0
DICTIONARY
  5
4C
102
{ACAD_REACTORS
330
47
102
}
330
47
100
AcDbDictionary
281
     1
  0
XRECORD
  5
A929
102
{ACAD_REACTORS
330
47
102
}
330
47
100
AcDbXrecord
280
     1
 90
-1023410169
  0
XRECORD
  5
B332
102
{ACAD_REACTORS
330
B331
102
}
330
B331
100
AcDbXrecord
280
     1
  0
XRECORD
  5
3FB7
102
{ACAD_REACTORS
330
3F96
102
}
330
3F96
100
AcDbXrecord
280
     1
 91
        3
330
0
 90
        8
 62
     7
370
    40
331
16
  1
Color_7
330
0
 90
        0
 62
    14
370
    -3
331
16
  1
Color_14
330
0
 90
        8
 62
     7
370
    20
331
16
  1
Color_7
330
6D1
 90
        0
 62
     7
370
    -3
331
16
  1
Color_7
330
0
 90
        8
 62
     7
370
    50
331
16
  1
Color_7
330
0
 90
        8
 62
     2
370
    35
331
16
  1
Color_2
330
0
 90
        8
 62
     7
370
    -3
331
16
  1
Color_7
330
10
 90
        8
 62
     7
370
    -3
331
16
  1
Color_7
  0
DICTIONARY
  5
64549
330
22
100
AcDbDictionary
280
     1
281
     1
  3
ACAD_XREC_ROUNDTRIP
360
6454A
  0
DICTIONARY
  5
64547
330
1E
100
AcDbDictionary
280
     1
281
     1
  3
ACAD_XREC_ROUNDTRIP
360
64548
  0
DICTIONARY
  5
6454B
330
26
100
AcDbDictionary
280
     1
281
     1
  3
ACAD_XREC_ROUNDTRIP
360
6454C
  0
DICTIONARY
  5
64551
330
B0EF
100
AcDbDictionary
280
     1
281
     1
  3
ACAD_XREC_ROUNDTRIP
360
64552
  0
DICTIONARY
  5
6454F
330
B0EE
100
AcDbDictionary
280
     1
281
     1
  3
ACAD_XREC_ROUNDTRIP
360
64550
  0
DICTIONARY
  5
64553
330
B0F0
100
AcDbDictionary
280
     1
281
     1
  3
ACAD_XREC_ROUNDTRIP
360
64554
  0
DICTIONARY
  5
6454D
330
AABA
100
AcDbDictionary
280
     1
281
     1
  3
ACAD_XREC_ROUNDTRIP
360
6454E
  0
XRECORD
  5
6454A
102
{ACAD_REACTORS
330
64549
102
}
330
64549
100
AcDbXrecord
280
     1
102
SHADEPLOT
 70
     0
102
SHADEPLOTRESLEVEL
 70
     2
102
SHADEPLOTCUSTOMDPI
 70
   200
  0
XRECORD
  5
64548
102
{ACAD_REACTORS
330
64547
102
}
330
64547
100
AcDbXrecord
280
     1
102
SHADEPLOT
 70
     0
102
SHADEPLOTRESLEVEL
 70
     2
102
SHADEPLOTCUSTOMDPI
 70
   300
  0
XRECORD
  5
6454C
102
{ACAD_REACTORS
330
6454B
102
}
330
6454B
100
AcDbXrecord
280
     1
102
SHADEPLOT
 70
     0
102
SHADEPLOTRESLEVEL
 70
     2
102
SHADEPLOTCUSTOMDPI
 70
   300
  0
XRECORD
  5
64552
102
{ACAD_REACTORS
330
64551
102
}
330
64551
100
AcDbXrecord
280
     1
102
MATERIAL
148
0.0
149
0.0
149
0.0
 93
        0
 94
       63
282
     0
 72
     1
 77
     1
171
     1
175
     1
179
     1
273
     0
  0
XRECORD
  5
64550
102
{ACAD_REACTORS
330
6454F
102
}
330
6454F
100
AcDbXrecord
280
     1
102
MATERIAL
148
0.0
149
0.0
149
0.0
 93
        0
 94
       63
282
     0
 72
     1
 77
     1
171
     1
175
     1
179
     1
273
     0
  0
XRECORD
  5
64554
102
{ACAD_REACTORS
330
64553
102
}
330
64553
100
AcDbXrecord
280
     1
102
MATERIAL
148
0.0
149
0.0
149
0.0
 93
        0
 94
       63
282
     0
 72
     1
 77
     1
171
     1
175
     1
179
     1
273
     0
  0
XRECORD
  5
6454E
102
{ACAD_REACTORS
330
6454D
102
}
330
6454D
100
AcDbXrecord
280
     1
102
ACAD_ROUNDTRIP_PRE2007_TABLESTYLE
 90
        4
 91
        0
  1

 92
        4
 93
        0
  2

 94
        4
 95
        0
  3

  0
ENDSEC
  0
EOF
