  0
SECTION
  2
HEADER
  9
$ACADVER
  1
AC1015
  9
$ACADMAINTVER
 70
    20
  9
$DWGCODEPAGE
  3
ANSI_932
  9
$INSBASE
 10
0.0
 20
0.0
 30
0.0
  9
$EXTMIN
 10
-0.0128164049386896
 20
-0.0090630292066862
 30
-0.0015258207003583
  9
$EXTMAX
 10
420.0128183607161
 20
297.0090644122207
 30
0.0000000349246037
  9
$LIMMIN
 10
0.0
 20
0.0
  9
$LIMMAX
 10
420.0
 20
297.0
  9
$ORTHOMODE
 70
     0
  9
$REGENMODE
 70
     1
  9
$FILLMODE
 70
     1
  9
$QTEXTMODE
 70
     0
  9
$MIRRTEXT
 70
     0
  9
$LTSCALE
 40
1.0
  9
$ATTMODE
 70
     1
  9
$TEXTSIZE
 40
3.2
  9
$TRACEWID
 40
1.0
  9
$TEXTSTYLE
  7
STANDARD
  9
$CLAYER
  8
フロントプレート-AM_0
  9
$CELTYPE
  6
ByLayer
  9
$CECOLOR
 62
   256
  9
$CELTSCALE
 40
1.0
  9
$DISPSILH
 70
     0
  9
$DIMSCALE
 40
1.0
  9
$DIMASZ
 40
1.0
  9
$DIMEXO
 40
1.0
  9
$DIMDLI
 40
10.0
  9
$DIMRND
 40
0.0
  9
$DIMDLE
 40
0.0
  9
$DIMEXE
 40
1.0
  9
$DIMTP
 40
0.15
  9
$DIMTM
 40
0.15
  9
$DIMTXT
 40
3.5
  9
$DIMCEN
 40
0.0
  9
$DIMTSZ
 40
0.0
  9
$DIMTOL
 70
     0
  9
$DIMLIM
 70
     0
  9
$DIMTIH
 70
     0
  9
$DIMTOH
 70
     0
  9
$DIMSE1
 70
     0
  9
$DIMSE2
 70
     0
  9
$DIMTAD
 70
     1
  9
$DIMZIN
 70
     8
  9
$DIMBLK
  1

  9
$DIMASO
 70
     1
  9
$DIMSHO
 70
     1
  9
$DIMPOST
  1

  9
$DIMAPOST
  1
"
  9
$DIMALT
 70
     0
  9
$DIMALTD
 70
     2
  9
$DIMALTF
 40
0.0393701
  9
$DIMLFAC
 40
1.0
  9
$DIMTOFL
 70
     1
  9
$DIMTVP
 40
0.0
  9
$DIMTIX
 70
     0
  9
$DIMSOXD
 70
     0
  9
$DIMSAH
 70
     0
  9
$DIMBLK1
  1

  9
$DIMBLK2
  1

  9
$DIMSTYLE
  2
SYS
  9
$DIMCLRD
 70
   256
  9
$DIMCLRE
 70
   256
  9
$DIMCLRT
 70
     7
  9
$DIMTFAC
 40
0.71
  9
$DIMGAP
 40
1.5
  9
$DIMJUST
 70
     0
  9
$DIMSD1
 70
     0
  9
$DIMSD2
 70
     0
  9
$DIMTOLJ
 70
     0
  9
$DIMTZIN
 70
     8
  9
$DIMALTZ
 70
     0
  9
$DIMALTTZ
 70
     0
  9
$DIMUPT
 70
     0
  9
$DIMDEC
 70
     2
  9
$DIMTDEC
 70
     2
  9
$DIMALTU
 70
     2
  9
$DIMALTTD
 70
     2
  9
$DIMTXSTY
  7
STANDARD
  9
$DIMAUNIT
 70
     0
  9
$DIMADEC
 70
     0
  9
$DIMALTRND
 40
0.0
  9
$DIMAZIN
 70
     2
  9
$DIMDSEP
 70
    46
  9
$DIMATFIT
 70
     3
  9
$DIMFRAC
 70
     0
  9
$DIMLDRBLK
  1

  9
$DIMLUNIT
 70
     2
  9
$DIMLWD
 70
    -1
  9
$DIMLWE
 70
    -1
  9
$DIMTMOVE
 70
     0
  9
$LUNITS
 70
     2
  9
$LUPREC
 70
     2
  9
$SKETCHINC
 40
1.0
  9
$FILLETRAD
 40
2.0
  9
$AUNITS
 70
     0
  9
$AUPREC
 70
     0
  9
$MENU
  1
.
  9
$ELEVATION
 40
0.0
  9
$PELEVATION
 40
0.0
  9
$THICKNESS
 40
0.0
  9
$LIMCHECK
 70
     0
  9
$CHAMFERA
 40
0.5
  9
$CHAMFERB
 40
0.5
  9
$CHAMFERC
 40
20.0
  9
$CHAMFERD
 40
0.0
  9
$SKPOLY
 70
     0
  9
$TDCREATE
 40
2455329.614664885
  9
$TDUCREATE
 40
2455329.239664885
  9
$TDUPDATE
 40
2455401.645315069
  9
$TDUUPDATE
 40
2455401.270315069
  9
$TDINDWG
 40
5.1020544097
  9
$TDUSRTIMER
 40
5.1020542361
  9
$USRTIMER
 70
     1
  9
$ANGBASE
 50
0.0
  9
$ANGDIR
 70
     0
  9
$PDMODE
 70
     0
  9
$PDSIZE
 40
-3.0
  9
$PLINEWID
 40
0.0
  9
$SPLFRAME
 70
     0
  9
$SPLINETYPE
 70
     6
  9
$SPLINESEGS
 70
     8
  9
$HANDSEED
  5
70E78
  9
$SURFTAB1
 70
     6
  9
$SURFTAB2
 70
     6
  9
$SURFTYPE
 70
     6
  9
$SURFU
 70
     6
  9
$SURFV
 70
     6
  9
$UCSBASE
  2

  9
$UCSNAME
  2

  9
$UCSORG
 10
0.0
 20
0.0
 30
0.0
  9
$UCSXDIR
 10
1.0
 20
0.0
 30
0.0
  9
$UCSYDIR
 10
0.0
 20
1.0
 30
0.0
  9
$UCSORTHOREF
  2

  9
$UCSORTHOVIEW
 70
     0
  9
$UCSORGTOP
 10
0.0
 20
0.0
 30
0.0
  9
$UCSORGBOTTOM
 10
0.0
 20
0.0
 30
0.0
  9
$UCSORGLEFT
 10
0.0
 20
0.0
 30
0.0
  9
$UCSORGRIGHT
 10
0.0
 20
0.0
 30
0.0
  9
$UCSORGFRONT
 10
0.0
 20
0.0
 30
0.0
  9
$UCSORGBACK
 10
0.0
 20
0.0
 30
0.0
  9
$PUCSBASE
  2

  9
$PUCSNAME
  2

  9
$PUCSORG
 10
0.0
 20
0.0
 30
0.0
  9
$PUCSXDIR
 10
1.0
 20
0.0
 30
0.0
  9
$PUCSYDIR
 10
0.0
 20
1.0
 30
0.0
  9
$PUCSORTHOREF
  2

  9
$PUCSORTHOVIEW
 70
     0
  9
$PUCSORGTOP
 10
0.0
 20
0.0
 30
0.0
  9
$PUCSORGBOTTOM
 10
0.0
 20
0.0
 30
0.0
  9
$PUCSORGLEFT
 10
0.0
 20
0.0
 30
0.0
  9
$PUCSORGRIGHT
 10
0.0
 20
0.0
 30
0.0
  9
$PUCSORGFRONT
 10
0.0
 20
0.0
 30
0.0
  9
$PUCSORGBACK
 10
0.0
 20
0.0
 30
0.0
  9
$USERI1
 70
     0
  9
$USERI2
 70
     0
  9
$USERI3
 70
     0
  9
$USERI4
 70
     0
  9
$USERI5
 70
     0
  9
$USERR1
 40
0.0
  9
$USERR2
 40
0.0
  9
$USERR3
 40
0.0
  9
$USERR4
 40
0.0
  9
$USERR5
 40
0.0
  9
$WORLDVIEW
 70
     1
  9
$SHADEDGE
 70
     3
  9
$SHADEDIF
 70
    70
  9
$TILEMODE
 70
     1
  9
$MAXACTVP
 70
    64
  9
$PINSBASE
 10
0.0
 20
0.0
 30
0.0
  9
$PLIMCHECK
 70
     0
  9
$PEXTMIN
 10
1.000000000000000E+20
 20
1.000000000000000E+20
 30
1.000000000000000E+20
  9
$PEXTMAX
 10
-1.000000000000000E+20
 20
-1.000000000000000E+20
 30
-1.000000000000000E+20
  9
$PLIMMIN
 10
-3.17498779296875
 20
-3.174999952316284
  9
$PLIMMAX
 10
293.4970092773438
 20
206.692492723465
  9
$UNITMODE
 70
     0
  9
$VISRETAIN
 70
     1
  9
$PLINEGEN
 70
     0
  9
$PSLTSCALE
 70
     1
  9
$TREEDEPTH
 70
  3020
  9
$CMLSTYLE
  2
Standard
  9
$CMLJUST
 70
     0
  9
$CMLSCALE
 40
20.0
  9
$PROXYGRAPHICS
 70
     1
  9
$MEASUREMENT
 70
     1
  9
$CELWEIGHT
370
    -1
  9
$ENDCAPS
280
     0
  9
$JOINSTYLE
280
     0
  9
$LWDISPLAY
290
     1
  9
$INSUNITS
 70
     4
  9
$HYPERLINKBASE
  1

  9
$STYLESHEET
  1
monochrome.ctb
  9
$XEDIT
290
     1
  9
$CEPSNTYPE
380
     0
  9
$PSTYLEMODE
290
     1
  9
$FINGERPRINTGUID
  2
{3F49516D-9124-43FF-AC61-04A4A3E97316}
  9
$VERSIONGUID
  2
{107349AC-8390-41BF-A744-2E8DE3EA28C4}
  9
$EXTNAMES
290
     1
  9
$PSVPSCALE
 40
0.0
  9
$OLESTARTUP
290
     0
  0
ENDSEC
  0
SECTION
  2
CLASSES
  0
CLASS
  1
ACDBDICTIONARYWDFLT
  2
AcDbDictionaryWithDefault
  3
ObjectDBX Classes
 90
        0
280
     0
281
     0
  0
CLASS
  1
ACDBPLACEHOLDER
  2
AcDbPlaceHolder
  3
ObjectDBX Classes
 90
        0
280
     0
281
     0
  0
CLASS
  1
LAYOUT
  2
AcDbLayout
  3
ObjectDBX Classes
 90
        0
280
     0
281
     0
  0
CLASS
  1
AMGSETTINGSOBJ
  2
AmgSettingsObj
  3
"AcadM|Product Description: AutoCAD Mechanical|Company: Autodesk, Inc."
 90
     1024
280
     0
281
     0
  0
CLASS
  1
ACME_DOCUMENT
  2
AcMeDbDoc
  3
AcMeServices
 90
     1024
280
     0
281
     0
  0
CLASS
  1
ACMESCOPE
  2
AcMeScope
  3
AcMeServices
 90
     1024
280
     0
281
     0
  0
CLASS
  1
ACMECOMMANDHISTORY
  2
AcMeCommandHistory
  3
AcMeServices
 90
     1024
280
     0
281
     0
  0
CLASS
  1
DICTIONARYVAR
  2
AcDbDictionaryVar
  3
ObjectDBX Classes
 90
        0
280
     0
281
     0
  0
CLASS
  1
ACIMSYSVARMAN
  2
AcImSysVarManager
  3
AcMeServices
 90
     1024
280
     0
281
     0
  0
CLASS
  1
ACIMREALSYSVAR
  2
AcImRealSysVar
  3
AcMeServices
 90
     1024
280
     0
281
     0
  0
CLASS
  1
ACIMINTSYSVAR
  2
AcImIntSysVar
  3
AcMeServices
 90
     1024
280
     0
281
     0
  0
CLASS
  1
ACMEDRAWINGMAN
  2
AcMeDrawingMan
  3
AcMeServices
 90
     1024
280
     0
281
     0
  0
CLASS
  1
ACMEVIEW
  2
AcMeView
  3
AcMeServices
 90
     1024
280
     0
281
     0
  0
CLASS
  1
ACDBENTITYCACHE
  2
AcMeEntityCache
  3
AcMeServices
 90
     1024
280
     0
281
     0
  0
CLASS
  1
GSMANAGER
  2
AcMeGSManager
  3
AcMeServices
 90
     1024
280
     0
281
     0
  0
CLASS
  1
AMDTINTERNALREACTOR
  2
AmdtInternalReactor
  3
AcMeServices
 90
     1024
280
     0
281
     0
  0
CLASS
  1
ACMESTATEMGR
  2
AcMeStateMgr
  3
AcMeServices
 90
     1024
280
     0
281
     0
  0
CLASS
  1
ACGREFMASTER
  2
AcGrefMaster
  3
AcAttribServices
 90
     1024
280
     0
281
     0
  0
CLASS
  1
ACME_DATABASE
  2
AcMeDbDatabase
  3
AcMeServices
 90
     1024
280
     0
281
     0
  0
CLASS
  1
ACRFINSADJUSTERMGR
  2
AcRfInsAdjusterMgr
  3
AcMeServices
 90
     1024
280
     0
281
     0
  0
CLASS
  1
ACGREFACADMASTER
  2
AcGrefacadMaster
  3
AcGrefServices
 90
     1024
280
     0
281
     0
  0
CLASS
  1
AMIMASTER
  2
AmiMaster
  3
AmiServices
 90
     1024
280
     0
281
     0
  0
CLASS
  1
ACMDATADICTIONARY
  2
AcmDataDictionary
  3
"AcmSymBB|Product Description: AutoCAD Mechanical|Company: Autodesk, Inc."
 90
     1024
280
     0
281
     0
  0
CLASS
  1
ACMDATAENTRYBLOCK
  2
AcmDataEntryBlock
  3
AcmSymBB|Product Description: AutoCAD Mechanical|Company: Autodesk, Inc.
 90
     1024
280
     0
281
     0
  0
CLASS
  1
ACIMSTRSYSVAR
  2
AcImStrSysVar
  3
AcMeServices
 90
     1024
280
     0
281
     0
  0
CLASS
  1
ACMSTANDARDISO
  2
AcmStandardISO
  3
"Amdt_StdImp|Product Description: AutoCAD Mechanical|Company: Autodesk, Inc."
 90
     1024
280
     0
281
     0
  0
CLASS
  1
AMGOBJPROPCFG
  2
AmgObjPropCfg
  3
"AmgLay|Product Description: AutoCAD Mechanical|Company: Autodesk, Inc."
 90
     1025
280
     0
281
     0
  0
CLASS
  1
AMDTEDGESTANDARDISO
  2
AmdtEdgeStdISO
  3
"Amdt_StdImp|Product Description: AutoCAD Mechanical|Company: Autodesk, Inc."
 90
     1024
280
     0
281
     0
  0
CLASS
  1
ACMSURFSTANDARDISO
  2
AcmSurfTextStdISO
  3
"Amdt_StdImp|Product Description: AutoCAD Mechanical|Company: Autodesk, Inc."
 90
     1024
280
     0
281
     0
  0
CLASS
  1
ACMFCFSTANDARDISO
  2
AcmFCFStdISO
  3
"Amdt_StdImp|Product Description: AutoCAD Mechanical|Company: Autodesk, Inc."
 90
     1024
280
     0
281
     0
  0
CLASS
  1
ACMWELDSTANDARDISO
  2
AcmWeldingStdISO
  3
"Amdt_StdImp|Product Description: AutoCAD Mechanical|Company: Autodesk, Inc."
 90
     1024
280
     0
281
     0
  0
CLASS
  1
ACMIDSTANDARDISO
  2
AcmIdStdISO
  3
"Amdt_StdImp|Product Description: AutoCAD Mechanical|Company: Autodesk, Inc."
 90
     1024
280
     0
281
     0
  0
CLASS
  1
ACMDATUMSTANDARDISO
  2
AcmDatumStdISO
  3
"Amdt_StdImp|Product Description: AutoCAD Mechanical|Company: Autodesk, Inc."
 90
     1024
280
     0
281
     0
  0
CLASS
  1
ACMBOMSTANDARDISO
  2
AcmBOMStdISO
  3
"Amdt_StdImp|Product Description: AutoCAD Mechanical|Company: Autodesk, Inc."
 90
     1024
280
     0
281
     0
  0
CLASS
  1
ACMDETAILSTANDARDISO
  2
AmdtDetailSymStdISO
  3
"Amdt_StdImp|Product Description: AutoCAD Mechanical|Company: Autodesk, Inc."
 90
     1024
280
     0
281
     0
  0
CLASS
  1
ACMSECTIONSTANDARDISO
  2
AmdtSectionSymStdISO
  3
"Amdt_StdImp|Product Description: AutoCAD Mechanical|Company: Autodesk, Inc."
 90
     1024
280
     0
281
     0
  0
CLASS
  1
ACMCENTERLINESTANDARDISO
  2
AmdtCenterLineStdISO
  3
"Amdt_StdImp|Product Description: AutoCAD Mechanical|Company: Autodesk, Inc."
 90
     1024
280
     0
281
     0
  0
CLASS
  1
ACAMGLAYSTD
  2
AcAmgLayStd
  3
"AmgLay|Product Description: AutoCAD Mechanical|Company: Autodesk, Inc."
 90
     1024
280
     0
281
     0
  0
CLASS
  1
ACAMGDIMSTD
  2
AcAmgDimStd
  3
"AmgDim|Product Description: AutoCAD Mechanical|Company: Autodesk, Inc."
 90
     1024
280
     0
281
     0
  0
CLASS
  1
ACAMGTITLESTD
  2
AcAmgTitleStd
  3
"AmgTitle|Product Description: AutoCAD Mechanical|Company: Autodesk, Inc."
 90
     4095
280
     0
281
     0
  0
CLASS
  1
ACAMGFILTERDAT
  2
AcAmgFilterDat
  3
"AcadM|Product Description: AutoCAD Mechanical|Company: Autodesk, Inc."
 90
     1024
280
     0
281
     0
  0
CLASS
  1
LAYER_INDEX
  2
AcDbLayerIndex
  3
ObjectDBX Classes
 90
    32768
280
     0
281
     0
  0
CLASS
  1
IDBUFFER
  2
AcDbIdBuffer
  3
ObjectDBX Classes
 90
    32768
280
     0
281
     0
  0
CLASS
  1
PLOTSETTINGS
  2
AcDbPlotSettings
  3
ObjectDBX Classes
 90
        0
280
     0
281
     0
  0
CLASS
  1
AMDTFORMULAUPDATEDISPATCHER
  2
AmdtFormulaUpdateDispatcher
  3
AcMeServices
 90
     1024
280
     0
281
     0
  0
CLASS
  1
ACMSTANDARDANSI
  2
AcmStandardANSI
  3
"Amdt_StdImp|Product Description: AutoCAD Mechanical|Company: Autodesk, Inc."
 90
     1024
280
     0
281
     0
  0
CLASS
  1
ACMSURFSTANDARDANSI
  2
AcmSurfTextStdANSI
  3
"Amdt_StdImp|Product Description: AutoCAD Mechanical|Company: Autodesk, Inc."
 90
     1024
280
     0
281
     0
  0
CLASS
  1
ACMFCFSTANDARDANSI
  2
AcmFCFStdANSI
  3
"Amdt_StdImp|Product Description: AutoCAD Mechanical|Company: Autodesk, Inc."
 90
     1024
280
     0
281
     0
  0
CLASS
  1
ACMWELDSTANDARDANSI
  2
AcmWeldingStdANSI
  3
"Amdt_StdImp|Product Description: AutoCAD Mechanical|Company: Autodesk, Inc."
 90
     1024
280
     0
281
     0
  0
CLASS
  1
ACMIDSTANDARDANSI
  2
AcmIdStdANSI
  3
"Amdt_StdImp|Product Description: AutoCAD Mechanical|Company: Autodesk, Inc."
 90
     1024
280
     0
281
     0
  0
CLASS
  1
ACMDATUMSTANDARDANSI
  2
AcmDatumStdANSI
  3
"Amdt_StdImp|Product Description: AutoCAD Mechanical|Company: Autodesk, Inc."
 90
     1024
280
     0
281
     0
  0
CLASS
  1
ACMBOMSTANDARDANSI
  2
AcmBOMStdANSI
  3
"Amdt_StdImp|Product Description: AutoCAD Mechanical|Company: Autodesk, Inc."
 90
     1024
280
     0
281
     0
  0
CLASS
  1
ACMDETAILSTANDARDANSI
  2
AmdtDetailSymStdANSI
  3
"Amdt_StdImp|Product Description: AutoCAD Mechanical|Company: Autodesk, Inc."
 90
     1024
280
     0
281
     0
  0
CLASS
  1
ACMSECTIONSTANDARDANSI
  2
AmdtSectionSymStdANSI
  3
"Amdt_StdImp|Product Description: AutoCAD Mechanical|Company: Autodesk, Inc."
 90
     1024
280
     0
281
     0
  0
CLASS
  1
ACMCENTERLINESTANDARDANSI
  2
AmdtCenterLineStdANSI
  3
"Amdt_StdImp|Product Description: AutoCAD Mechanical|Company: Autodesk, Inc."
 90
     1024
280
     0
281
     0
  0
CLASS
  1
ACMBOM
  2
AcmBom
  3
"AcmSymBB|Product Description: AutoCAD Mechanical|Company: Autodesk, Inc."
 90
     1024
280
     0
281
     0
  0
CLASS
  1
ACMDATAENTRYPART
  2
AcmDataEntryPart
  3
AcmSymBB|Product Description: AutoCAD Mechanical|Company: Autodesk, Inc.
 90
    33792
280
     0
281
     0
  0
CLASS
  1
ACMPARTREF
  2
AcmPartRef
  3
"AcmSymBB|Product Description: AutoCAD Mechanical|Company: Autodesk, Inc."
 90
    36863
280
     0
281
     1
  0
CLASS
  1
ACDBCIRCARCRES
  2
AcDbCircArcRes
  3
AcGrefServices
 90
     1024
280
     0
281
     0
  0
CLASS
  1
ACMBOMROW
  2
AcmBomRow
  3
"AcmSymBB|Product Description: AutoCAD Mechanical|Company: Autodesk, Inc."
 90
    33792
280
     0
281
     0
  0
CLASS
  1
ACMBALLOON
  2
AcmBalloon
  3
"AcmSymBB|Product Description: AutoCAD Mechanical|Company: Autodesk, Inc."
 90
    36863
280
     0
281
     1
  0
CLASS
  1
AMDTNOTE
  2
AmdtNote
  3
"AcmSymBB|Product Description: AutoCAD Mechanical|Company: Autodesk, Inc."
 90
    36863
280
     0
281
     1
  0
CLASS
  1
STDPART2D
  2
AmgStdPart
  3
AmgStdPart|Product Description: AutoCAD Mechanical|Company: Autodesk, Inc.
 90
    36863
280
     0
281
     1
  0
CLASS
  1
ACDBSTDPARTRES_LINE
  2
AcDbStdPartRes_Line
  3
AmgStdPart|Product Description: AutoCAD Mechanical|Company: Autodesk, Inc.
 90
    33792
280
     0
281
     0
  0
CLASS
  1
ACMDATAENTRY
  2
AcmDataEntry
  3
AcmSymBB|Product Description: AutoCAD Mechanical|Company: Autodesk, Inc.
 90
     1024
280
     0
281
     0
  0
CLASS
  1
ACDBOPPOLYLINERES
  2
AcDbOpPolylineRes
  3
AcGrefServices
 90
     1024
280
     0
281
     0
  0
CLASS
  1
ACMPARTLIST
  2
AcmPartList
  3
"AcmSymBB|Product Description: AutoCAD Mechanical|Company: Autodesk, Inc."
 90
    36863
280
     0
281
     1
  0
CLASS
  1
ACDBLINERES
  2
AcDbLineRes
  3
AcGrefServices
 90
     1024
280
     0
281
     0
  0
CLASS
  1
ACRFINSADJ
  2
AcRfInsAdjuster
  3
AcMeServices
 90
    33792
280
     0
281
     0
  0
CLASS
  1
AM_DRAWING_MGR
  2
AcDmDwgMgr
  3
AcMechDwgViewMgmt
 90
     1024
280
     0
281
     0
  0
CLASS
  1
AM_DWG_DOCUMENT
  2
AcDmDwgDocument
  3
AcMechDwgViewMgmt
 90
     1024
280
     0
281
     0
  0
CLASS
  1
AM_DWG_SHEET
  2
AcDmSheet
  3
AcMechDwgViewMgmt
 90
     1024
280
     0
281
     0
  0
CLASS
  1
AM_VIEWDIMPARMAP
  2
AcDmViewDimParMap
  3
AcMechDwgViewMgmt
 90
     1024
280
     0
281
     0
  0
CLASS
  1
AM_DWGMGR_NAME
  2
AcDmDwgMgrName
  3
AcMechDwgViewMgmt
 90
     1024
280
     0
281
     0
  0
CLASS
  1
AMDTMENUSTATEMGR
  2
AmdtMenuStateMgr
  3
McadcomServices
 90
     1024
280
     0
281
     0
  0
CLASS
  1
AMDTMCOMMENUSTATE
  2
AmdtMcomMenuState
  3
McadcomServices
 90
     1024
280
     0
281
     0
  0
CLASS
  1
ASAPP
  2
AcAsAppObject
  3
AutoSurfServices
 90
        0
280
     0
281
     0
  0
CLASS
  1
IM_STATIC_MAN
  2
AcImStaticVarManager
  3
AcMeServices
 90
     1024
280
     0
281
     0
  0
CLASS
  1
ACIMDBLSTATICVAR
  2
AcImDblStaticVar
  3
AcMeServices
 90
     1024
280
     0
281
     0
  0
CLASS
  1
ACIMSTRSTATICVAR
  2
AcImStrStaticVar
  3
AcMeServices
 90
     1024
280
     0
281
     0
  0
CLASS
  1
ACIMINTSTATICVAR
  2
AcImIntStaticVar
  3
AcMeServices
 90
     1024
280
     0
281
     0
  0
CLASS
  1
ACASGREFMASTER
  2
AcAsGrefMaster
  3
AutoSurfResolverServices
 90
        0
280
     0
281
     0
  0
CLASS
  1
ACADGREFMODULE
  2
AcAdGrefModule
  3
AdGrefServices
 90
        0
280
     0
281
     0
  0
CLASS
  1
AMDTMAPISURFMOUDULE
  2
AmdtMApiSurfModule
  3
MApiSurfServices
 90
        0
280
     0
281
     0
  0
CLASS
  1
MAPIAMMOUDLE
  2
MApiAmModule
  3
MApiAmServices
 90
     1024
280
     0
281
     0
  0
CLASS
  1
AMDTADMENUSTATE
  2
AmdtAdMenuState
  3
DesignerServices
 90
     1024
280
     0
281
     0
  0
CLASS
  1
ADAPPL
  2
AcAdAppl
  3
DesignerServices
 90
     1024
280
     0
281
     0
  0
CLASS
  1
DEPMGR
  2
AcAdDepMgr
  3
DesignerServices
 90
     1024
280
     0
281
     0
  0
CLASS
  1
PARAMMGR
  2
AcAdParamMgr
  3
DesignerServices
 90
     1024
280
     0
281
     0
  0
CLASS
  1
PARAMSCOPE
  2
AcAdParamScope
  3
DesignerServices
 90
     1024
280
     0
281
     0
  0
CLASS
  1
NAMEDAPPL
  2
AcAdNamedAppl
  3
DesignerServices
 90
     1024
280
     0
281
     0
  0
CLASS
  1
ADHNTMPLT
  2
AdHoleNoteTemplateMgr
  3
DesignerServices
 90
    33792
280
     0
281
     0
  0
CLASS
  1
AM_HNTEMPLATE_MGR_NAME
  2
AdHoleNoteTemplateMgrName
  3
DesignerServices
 90
    33792
280
     0
281
     0
  0
CLASS
  1
AMDTDMMENUSTATE
  2
AmdtDmMenuState
  3
AcMechDwgViewMgmt
 90
     1024
280
     0
281
     0
  0
CLASS
  1
MAPIADMODULE
  2
MApiAdModule
  3
MApiAdServices
 90
        0
280
     0
281
     0
  0
CLASS
  1
AMDTAMMENUSTATE
  2
AmdtAmMenuState
  3
DesignerAssemblies
 90
     1024
280
     0
281
     0
  0
CLASS
  1
ACAMPROJECT
  2
AcAmProject
  3
DesignerAssemblies
 90
     1024
280
     0
281
     0
  0
CLASS
  1
ACAMGRCOMPDEF
  2
AcAmGrCompDef
  3
DesignerAssemblies
 90
     1024
280
     0
281
     0
  0
CLASS
  1
ACCMCONTEXT
  2
AcCmContext
  3
DesignerAssemblies
 90
     1024
280
     0
281
     0
  0
CLASS
  1
ACAMCOMPDEF
  2
AcAmCompDef
  3
DesignerAssemblies
 90
     1024
280
     0
281
     0
  0
CLASS
  1
ACAMCOMPDEFMGR
  2
AcAmCompDefMgr
  3
DesignerAssemblies
 90
     1024
280
     0
281
     0
  0
CLASS
  1
AMCONTEXTMGR
  2
AcAmContextMgr
  3
DesignerAssemblies
 90
     1024
280
     0
281
     0
  0
CLASS
  1
ACAMCONTEXTMODELER
  2
AcAmContextModeler
  3
DesignerAssemblies
 90
     1024
280
     0
281
     0
  0
CLASS
  1
CATALOGSTATE
  2
AcAmCatalogState
  3
DesignerAssemblies
 90
     1024
280
     0
281
     0
  0
CLASS
  1
ACAMGRCOMPDEFSET
  2
AcAmGrCompDefSet
  3
DesignerAssemblies
 90
     1024
280
     0
281
     0
  0
CLASS
  1
AMDTBROWSERDBTAB
  2
AmdtBrowserDbTab
  3
McadcomServices
 90
     1024
280
     0
281
     0
  0
CLASS
  1
CBROWSERAPPOBJECT
  2
CBrowserAppObject
  3
McadcomServices
 90
     1024
280
     0
281
     0
  0
CLASS
  1
DM_PLACEHOLDER
  2
AcDmSelsetPlaceholder
  3
AcMechDwgViewMgmt
 90
     1024
280
     0
281
     0
  0
CLASS
  1
ACMPICKOBJ
  2
AcmPickEnt
  3
"AcmSymBB|Product Description: AutoCAD Mechanical|Company: Autodesk, Inc."
 90
    33792
280
     0
281
     1
  0
CLASS
  1
ACMNOTESTANDARDISO
  2
AmdtNoteStdISO
  3
"Amdt_StdImp|Product Description: AutoCAD Mechanical|Company: Autodesk, Inc."
 90
     1024
280
     0
281
     0
  0
CLASS
  1
ACMNOTESTANDARDANSI
  2
AmdtNoteStdANSI
  3
"Amdt_StdImp|Product Description: AutoCAD Mechanical|Company: Autodesk, Inc."
 90
     1024
280
     0
281
     0
  0
CLASS
  1
ACMTHREADLINESTANDARDISO
  2
AmdtThreadLineStdISO
  3
"Amdt_StdImp|Product Description: AutoCAD Mechanical|Company: Autodesk, Inc."
 90
     1024
280
     0
281
     0
  0
CLASS
  1
ACMTHREADLINESTANDARDANSI
  2
AmdtThreadLineStdANSI
  3
"Amdt_StdImp|Product Description: AutoCAD Mechanical|Company: Autodesk, Inc."
 90
     1024
280
     0
281
     0
  0
CLASS
  1
TABLESTYLE
  2
AcDbTableStyle
  3
ObjectDBX Classes
 90
     4095
280
     0
281
     0
  0
CLASS
  1
SORTENTSTABLE
  2
AcDbSortentsTable
  3
ObjectDBX Classes
 90
        0
280
     0
281
     0
  0
CLASS
  1
MATERIAL
  2
AcDbMaterial
  3
ObjectDBX Classes
 90
     1153
280
     0
281
     0
  0
CLASS
  1
VISUALSTYLE
  2
AcDbVisualStyle
  3
ObjectDBX Classes
 90
     4095
280
     0
281
     0
  0
CLASS
  1
ACRFATTGENMGR
  2
AcRfAttGeneralMgr
  3
AcAttribServices
 90
     1024
280
     0
281
     0
  0
CLASS
  1
ACRFOBJATTMGR
  2
AcRfObjAttGroupMgr
  3
AcAttribServices
 90
     1024
280
     0
281
     0
  0
CLASS
  1
ACRFMCADAPIATTHOLDER
  2
AcRfMCADAPIAttHolder
  3
AcAttribServices
 90
     1024
280
     0
281
     0
  0
CLASS
  1
AMDTSYSATTR
  2
AmdtSystemAttribute
  3
AcAttribServices
 90
     1024
280
     0
281
     0
  0
CLASS
  1
ACMTAPERSTANDARDISO
  2
AcmTaperStdISO
  3
"Amdt_StdImp|Product Description: AutoCAD Mechanical|Company: Autodesk, Inc."
 90
     1024
280
     0
281
     0
  0
CLASS
  1
CAMSSTRUCTBTNSTATE
  2
StructBtnState
  3
DesignerAssemblies
 90
     1024
280
     0
281
     0
  0
CLASS
  1
DIMASSOC
  2
AcDbDimAssoc
  3
"AcDbDimAssoc|Product Desc:     AcDim ARX App For Dimension|Company:          Autodesk, Inc.|WEB Address:      www.autodesk.com"
 90
    32768
280
     0
281
     0
  0
CLASS
  1
SCALE
  2
AcDbScale
  3
ObjectDBX Classes
 90
     1153
280
     0
281
     0
  0
CLASS
  1
MLEADERSTYLE
  2
AcDbMLeaderStyle
  3
ACDB_MLEADERSTYLE_CLASS
 90
     4095
280
     0
281
     0
  0
CLASS
  1
ACMANOOTATIONVIEWSTANDARDISO
  2
AmdtAnViewStdISO
  3
"Amdt_StdImp|Product Description: AutoCAD Mechanical|Company: Autodesk, Inc."
 90
     1024
280
     0
281
     0
  0
CLASS
  1
CELLSTYLEMAP
  2
AcDbCellStyleMap
  3
ObjectDBX Classes
 90
     1152
280
     0
281
     0
  0
CLASS
  1
AMDTNOTETEMPLATEDB
  2
AmdtNoteTemplateDB
  3
AcmSymBB|Product Description: AutoCAD Mechanical|Company: Autodesk, Inc.
 90
     1024
280
     0
281
     0
  0
CLASS
  1
AMDTEDGESTANDARDISO13715
  2
AmdtEdgeStdISO13715
  3
"Amdt_StdImp|Product Description: AutoCAD Mechanical|Company: Autodesk, Inc."
 90
     1024
280
     0
281
     0
  0
CLASS
  1
ACAMGHOLECHARTSTDISO
  2
AcAmgHoleChartStdISO
  3
AmgDim|Product Description: AutoCAD Mechanical|Company: Autodesk, Inc.
 90
     1024
280
     0
281
     0
  0
CLASS
  1
ACMTAPERSTANDARDANSI
  2
AcmTaperStdANSI
  3
"Amdt_StdImp|Product Description: AutoCAD Mechanical|Company: Autodesk, Inc."
 90
     1024
280
     0
281
     0
  0
CLASS
  1
ACMANOOTATIONVIEWSTANDARDANSI
  2
AmdtAnViewStdANSI
  3
"Amdt_StdImp|Product Description: AutoCAD Mechanical|Company: Autodesk, Inc."
 90
     1024
280
     0
281
     0
  0
CLASS
  1
ACDBPOLYLINERES
  2
AcDbPolylineRes
  3
AcGrefServices
 90
    33792
280
     0
281
     0
  0
CLASS
  1
AMDTDETAILSYM
  2
AmdtDetailSym
  3
"AcmSymBB|Product Description: AutoCAD Mechanical|Company: Autodesk, Inc."
 90
    36863
280
     0
281
     1
  0
CLASS
  1
AMDTDETAILSYMLABEL
  2
AmdtDetailSymLabel
  3
"AcmSymBB|Product Description: AutoCAD Mechanical|Company: Autodesk, Inc."
 90
    36863
280
     0
281
     1
  0
ENDSEC
  0
SECTION
  2
TABLES
  0
TABLE
  2
VPORT
  5
8
330
0
100
AcDbSymbolTable
 70
     1
  0
VPORT
  5
B0EC
330
8
100
AcDbSymbolTableRecord
100
AcDbViewportTableRecord
  2
*Active
 70
     0
 10
0.0
 20
0.0
 11
1.0
 21
1.0
 12
210.0000009778888
 22
148.500000691507
 13
0.0
 23
0.0
 14
2.5
 24
2.5
 15
10.0
 25
10.0
 16
0.0
 26
0.0
 36
1.0
 17
0.0
 27
0.0
 37
0.0
 40
298.9721940693315
 41
1.687156970362239
 42
50.0
 43
-1370.695619172058
 44
-1370.695619172058
 50
0.0
 51
0.0
 71
     0
 72
   100
 73
     1
 74
     3
 75
     0
 76
     0
 77
     0
 78
     0
281
     0
 65
     0
110
0.0
120
0.0
130
0.0
111
1.0
121
0.0
131
0.0
112
0.0
122
1.0
132
0.0
 79
     0
146
0.0
  0
ENDTAB
  0
TABLE
  2
LTYPE
  5
5
330
0
100
AcDbSymbolTable
 70
    35
  0
LTYPE
  5
14
330
5
100
AcDbSymbolTableRecord
100
AcDbLinetypeTableRecord
  2
ByBlock
 70
     0
  3

 72
    65
 73
     0
 40
0.0
  0
LTYPE
  5
15
330
5
100
AcDbSymbolTableRecord
100
AcDbLinetypeTableRecord
  2
ByLayer
 70
     0
  3

 72
    65
 73
     0
 40
0.0
  0
LTYPE
  5
16
330
5
100
AcDbSymbolTableRecord
100
AcDbLinetypeTableRecord
  2
Continuous
 70
     0
  3
Solid line
 72
    65
 73
     0
 40
0.0
  0
LTYPE
  5
4F
330
5
100
AcDbSymbolTableRecord
100
AcDbLinetypeTableRecord
  2
AM_ISO02W050
 70
     0
  3
__ __ __ __ __ __ __ __ __ __ __ __ __ __ __
 72
    65
 73
     2
 40
7.5
 49
6.0
 74
     0
 49
-1.5
 74
     0
  0
LTYPE
  5
52
330
5
100
AcDbSymbolTableRecord
100
AcDbLinetypeTableRecord
  2
Amconstr
 70
     0
  3
_______________________
 72
    65
 73
     2
 40
9999.0
 49
9999.0
 74
     0
 49
0.0
 74
     0
  0
LTYPE
  5
64
330
5
100
AcDbSymbolTableRecord
100
AcDbLinetypeTableRecord
  2
ACISOWELD
 70
     0
  3
_ _ _ _ _
 72
    65
 73
     2
 40
2.0
 49
2.0
 74
     0
 49
-1.0
 74
     0
  0
LTYPE
  5
65
330
5
100
AcDbSymbolTableRecord
100
AcDbLinetypeTableRecord
  2
ACISOTGB
 70
     0
  3
__ . . __ . .
 72
    65
 73
     6
 40
9.0
 49
4.0
 74
     0
 49
-1.0
 74
     0
 49
1.0
 74
     0
 49
-1.0
 74
     0
 49
1.0
 74
     0
 49
-1.0
 74
     0
  0
LTYPE
  5
66
330
5
100
AcDbSymbolTableRecord
100
AcDbLinetypeTableRecord
  2
ACISOTGL
 70
     0
  3
_ _ _ _ _
 72
    65
 73
     2
 40
3.0
 49
2.0
 74
     0
 49
-1.0
 74
     0
  0
LTYPE
  5
69
330
5
100
AcDbSymbolTableRecord
100
AcDbLinetypeTableRecord
  2
CENTER
 70
     0
  3
__ . __
 72
    65
 73
     4
 40
7.0
 49
4.0
 74
     0
 49
-1.0
 74
     0
 49
1.0
 74
     0
 49
-1.0
 74
     0
  0
LTYPE
  5
A6E
330
5
100
AcDbSymbolTableRecord
100
AcDbLinetypeTableRecord
  2
PHANTOM2
 70
     0
  3
Phantom (.5x) ___ _ _ ___ _ _ ___ _ _ ___ _ _
 72
    65
 73
     6
 40
31.75
 49
15.875
 74
     0
 49
-3.174999999999999
 74
     0
 49
3.174999999999999
 74
     0
 49
-3.174999999999999
 74
     0
 49
3.174999999999999
 74
     0
 49
-3.174999999999999
 74
     0
  0
LTYPE
  5
4DED
330
5
100
AcDbSymbolTableRecord
100
AcDbLinetypeTableRecord
  2
中線
 70
     0
  3
___________________
 72
    65
 73
     2
 40
2.0
 49
1.0
 74
     0
 49
1.0
 74
     0
  0
LTYPE
  5
4DF6
330
5
100
AcDbSymbolTableRecord
100
AcDbLinetypeTableRecord
  2
細線
 70
     0
  3
___________________
 72
    65
 73
     2
 40
2.0
 49
1.0
 74
     0
 49
1.0
 74
     0
  0
LTYPE
  5
4DF7
330
5
100
AcDbSymbolTableRecord
100
AcDbLinetypeTableRecord
  2
太線
 70
     0
  3
___________________
 72
    65
 73
     2
 40
2.0
 49
1.0
 74
     0
 49
1.0
 74
     0
  0
LTYPE
  5
4EA7
330
5
100
AcDbSymbolTableRecord
100
AcDbLinetypeTableRecord
  2
文字
 70
     0
  3
_________________
 72
    65
 73
     2
 40
2.0
 49
1.0
 74
     0
 49
1.0
 74
     0
  0
LTYPE
  5
4EA9
330
5
100
AcDbSymbolTableRecord
100
AcDbLinetypeTableRecord
  2
寸法線
 70
     0
  3
________________
 72
    65
 73
     2
 40
2.0
 49
1.0
 74
     0
 49
1.0
 74
     0
  0
LTYPE
  5
4F12
330
5
100
AcDbSymbolTableRecord
100
AcDbLinetypeTableRecord
  2
ハッチング
 70
     0
  3
_________________
 72
    65
 73
     2
 40
2.0
 49
1.0
 74
     0
 49
1.0
 74
     0
  0
LTYPE
  5
5180
330
5
100
AcDbSymbolTableRecord
100
AcDbLinetypeTableRecord
  2
陰線1
 70
     0
  3
__ __ __ __
 72
    65
 73
     2
 40
4.0
 49
2.2
 74
     0
 49
-1.8
 74
     0
  0
LTYPE
  5
5182
330
5
100
AcDbSymbolTableRecord
100
AcDbLinetypeTableRecord
  2
切断線
 70
     0
  3
/\/-/\/-/\/-/\/-/\/-/\/
 72
    65
 73
     2
 40
11.0001
 49
0.0001
 74
     4
 75
   135
340
56
 46
0.04
 50
0.0
 44
0.0
 45
0.0
 49
-11.0
 74
     0
  0
LTYPE
  5
5183
330
5
100
AcDbSymbolTableRecord
100
AcDbLinetypeTableRecord
  2
想像線1
 70
     0
  3
__ __ __ _____ __ __ ____
 72
    65
 73
     6
 40
14.5
 49
6.0
 74
     0
 49
-1.5
 74
     0
 49
2.0
 74
     0
 49
-1.5
 74
     0
 49
2.0
 74
     0
 49
-1.5
 74
     0
  0
LTYPE
  5
5185
330
5
100
AcDbSymbolTableRecord
100
AcDbLinetypeTableRecord
  2
中心線1
 70
     0
  3
___ _ ___ _ ___
 72
    65
 73
     4
 40
18.0
 49
12.0
 74
     0
 49
-2.0
 74
     0
 49
2.0
 74
     0
 49
-2.0
 74
     0
  0
LTYPE
  5
5188
330
5
100
AcDbSymbolTableRecord
100
AcDbLinetypeTableRecord
  2
補助線
 70
     0
  3
______________
 72
    65
 73
     2
 40
2.0
 49
1.0
 74
     0
 49
1.0
 74
     0
  0
LTYPE
  5
6427
330
5
100
AcDbSymbolTableRecord
100
AcDbLinetypeTableRecord
  2
HIDDEN
 70
     0
  3
Hidden __ __ __ __ __ __ __ __ __ __ __ __ __ _
 72
    65
 73
     2
 40
0.375
 49
0.25
 74
     0
 49
-0.125
 74
     0
  0
LTYPE
  5
AC81
330
5
100
AcDbSymbolTableRecord
100
AcDbLinetypeTableRecord
  2
破断線
 70
     0
  3
/\/-/\/-/\/-/\/-/\/-/\/
 72
    65
 73
     2
 40
0.4401
 49
0.0001
 74
     4
 75
   136
340
AC80
 46
0.0016
 50
0.0
 44
0.0
 45
0.0
 49
-0.4400000000000001
 74
     0
  0
LTYPE
  5
AC9E
330
5
100
AcDbSymbolTableRecord
100
AcDbLinetypeTableRecord
  2
Amzigzag
 70
     0
  3
/\/-/\/-/\/-/\/-/\/-/\/
 72
    65
 73
     2
 40
11.0001
 49
0.0001
 74
     4
 75
   135
340
56
 46
0.04
 50
0.0
 44
0.0
 45
0.0
 49
-11.0
 74
     0
  0
LTYPE
  5
AF0F
330
5
100
AcDbSymbolTableRecord
100
AcDbLinetypeTableRecord
  2
genzigzag
 70
     0
  3
/\/-/\/-/\/-/\/-/\/-/\/
 72
    65
 73
     2
 40
12.0001
 49
0.0001
 74
     4
 75
   135
340
AC80
 46
2.0
 50
0.0
 44
0.0
 45
0.0
 49
-12.0
 74
     0
  0
LTYPE
  5
AF95
330
5
100
AcDbSymbolTableRecord
100
AcDbLinetypeTableRecord
  2
AM_ISO08W050
 70
     0
  3
____ . ____ . ____ . ____ . ____ . ____ . ____
 72
    65
 73
     4
 40
18.0
 49
12.0
 74
     0
 49
-1.5
 74
     0
 49
3.0
 74
     0
 49
-1.5
 74
     0
  0
LTYPE
  5
AF96
330
5
100
AcDbSymbolTableRecord
100
AcDbLinetypeTableRecord
  2
AM_ISO09W050
 70
     0
  3
_____ . . _____ . . _____ . . ____ .. ____
 72
    65
 73
     6
 40
22.5
 49
12.0
 74
     0
 49
-1.5
 74
     0
 49
3.0
 74
     0
 49
-1.5
 74
     0
 49
3.0
 74
     0
 49
-1.5
 74
     0
  0
LTYPE
  5
AF97
330
5
100
AcDbSymbolTableRecord
100
AcDbLinetypeTableRecord
  2
AM_ISO08W050x2
 70
     0
  3
__ . __ . __ . __ . __ . __
 72
    65
 73
     4
 40
9.0
 49
6.0
 74
     0
 49
-0.75
 74
     0
 49
1.5
 74
     0
 49
-0.75
 74
     0
  0
LTYPE
  5
AF98
330
5
100
AcDbSymbolTableRecord
100
AcDbLinetypeTableRecord
  2
AM_ISO02W050x2
 70
     0
  3
 _ _ _ _ _ _ _ _ _ _ _ _
 72
    65
 73
     2
 40
3.75
 49
3.0
 74
     0
 49
-0.75
 74
     0
  0
LTYPE
  5
201F6
330
5
100
AcDbSymbolTableRecord
100
AcDbLinetypeTableRecord
  2
CENTER2
 70
     0
  3
Center (.5x) ___ _ ___ _ ___ _ ___ _ ___ _ ___
 72
    65
 73
     4
 40
28.575
 49
19.05
 74
     0
 49
-3.174999999999999
 74
     0
 49
3.174999999999999
 74
     0
 49
-3.174999999999999
 74
     0
  0
LTYPE
  5
201F7
330
5
100
AcDbSymbolTableRecord
100
AcDbLinetypeTableRecord
  2
PHANTOM
 70
     0
  3
Phantom ______  __  __  ______  __  __  ______
 72
    65
 73
     6
 40
63.5
 49
31.75
 74
     0
 49
-6.349999999999999
 74
     0
 49
6.349999999999999
 74
     0
 49
-6.349999999999999
 74
     0
 49
6.349999999999999
 74
     0
 49
-6.349999999999999
 74
     0
  0
LTYPE
  5
201F8
330
5
100
AcDbSymbolTableRecord
100
AcDbLinetypeTableRecord
  2
DASHED
 70
     0
  3
Dashed __ __ __ __ __ __ __ __ __ __ __ __ __ _
 72
    65
 73
     2
 40
19.05
 49
12.7
 74
     0
 49
-6.349999999999999
 74
     0
  0
LTYPE
  5
201F9
330
5
100
AcDbSymbolTableRecord
100
AcDbLinetypeTableRecord
  2
DASHED2
 70
     0
  3
Dashed (.5x) _ _ _ _ _ _ _ _ _ _ _ _ _ _ _ _ _
 72
    65
 73
     2
 40
9.524999999999998
 49
6.349999999999999
 74
     0
 49
-3.174999999999999
 74
     0
  0
LTYPE
  5
201FA
330
5
100
AcDbSymbolTableRecord
100
AcDbLinetypeTableRecord
  2
HIDDEN2
 70
     0
  3
Hidden (.5x) _ _ _ _ _ _ _ _ _ _ _ _ _ _ _ _ _
 72
    65
 73
     2
 40
0.1875
 49
0.125
 74
     0
 49
-0.0625
 74
     0
  0
LTYPE
  5
201FB
330
5
100
AcDbSymbolTableRecord
100
AcDbLinetypeTableRecord
  2
Amzigzag2
 70
     0
  3
/\/-/\/-/\/-/\/-/\/-/\/
 72
    65
 73
     2
 40
0.4401
 49
0.0001
 74
     4
 75
   135
340
56
 46
0.0016
 50
0.0
 44
0.0
 45
0.0
 49
-0.4400000000000001
 74
     0
  0
LTYPE
  5
201FC
330
5
100
AcDbSymbolTableRecord
100
AcDbLinetypeTableRecord
  2
ACANSTGB
 70
     0
  3
__ . . __ . .
 72
    65
 73
     6
 40
0.35433070866
 49
0.15748031496
 74
     0
 49
-0.03937007874
 74
     0
 49
0.03937007874
 74
     0
 49
-0.03937007874
 74
     0
 49
0.03937007874
 74
     0
 49
-0.03937007874
 74
     0
  0
LTYPE
  5
201FD
330
5
100
AcDbSymbolTableRecord
100
AcDbLinetypeTableRecord
  2
ACANSTGL
 70
     0
  3
_ _ _ _ _
 72
    65
 73
     2
 40
0.11811023622
 49
0.07874015748
 74
     0
 49
-0.03937007874
 74
     0
  0
ENDTAB
  0
TABLE
  2
LAYER
  5
2
102
{ACAD_XDICTIONARY
360
3F95
102
}
330
0
100
AcDbSymbolTable
 70
    65
  0
LAYER
  5
10
102
{ACAD_XDICTIONARY
360
EB1B
102
}
330
2
100
AcDbSymbolTableRecord
100
AcDbLayerTableRecord
  2
0
 70
     0
 62
     7
  6
Continuous
370
    -3
390
F
  0
LAYER
  5
6D1
330
2
100
AcDbSymbolTableRecord
100
AcDbLayerTableRecord
  2
Defpoints
 70
     0
 62
     7
  6
Continuous
290
     0
370
    -3
390
F
  0
LAYER
  5
5F85
102
{ACAD_XDICTIONARY
360
EB1D
102
}
330
2
100
AcDbSymbolTableRecord
100
AcDbLayerTableRecord
  2
AM_0
 70
     0
 62
     7
  6
中線
370
    25
390
F
1001
AcAecLayerStandard
1000

1000

  0
LAYER
  5
AC9F
102
{ACAD_XDICTIONARY
360
EB1F
102
}
330
2
100
AcDbSymbolTableRecord
100
AcDbLayerTableRecord
  2
size
 70
     0
 62
     5
  6
Continuous
290
     0
370
    25
390
F
  0
LAYER
  5
ACA0
102
{ACAD_XDICTIONARY
360
EB21
102
}
330
2
100
AcDbSymbolTableRecord
100
AcDbLayerTableRecord
  2
waku
 70
     0
 62
     7
  6
Continuous
370
    35
390
F
  0
LAYER
  5
ACA1
102
{ACAD_XDICTIONARY
360
EB23
102
}
330
2
100
AcDbSymbolTableRecord
100
AcDbLayerTableRecord
  2
AM_6
 70
     0
 62
     2
  6
文字
370
    15
390
F
1001
AcAecLayerStandard
1000

1000

  0
LAYER
  5
ACC8
102
{ACAD_XDICTIONARY
360
EB25
102
}
330
2
100
AcDbSymbolTableRecord
100
AcDbLayerTableRecord
  2
hyomoji
 70
     0
 62
     2
  6
Continuous
370
    15
390
F
  0
LAYER
  5
ACC9
102
{ACAD_XDICTIONARY
360
EB27
102
}
330
2
100
AcDbSymbolTableRecord
100
AcDbLayerTableRecord
  2
hyosen1
 70
     0
 62
     1
  6
Continuous
370
    25
390
F
  0
LAYER
  5
ACCA
102
{ACAD_XDICTIONARY
360
EB29
102
}
330
2
100
AcDbSymbolTableRecord
100
AcDbLayerTableRecord
  2
hyosen2
 70
     0
 62
     1
  6
Continuous
370
    15
390
F
  0
LAYER
  5
AD60
102
{ACAD_XDICTIONARY
360
EB2B
102
}
330
2
100
AcDbSymbolTableRecord
100
AcDbLayerTableRecord
  2
AM_1
 70
     0
 62
    30
  6
太線
370
    25
390
F
1001
AcAecLayerStandard
1000

1000

  0
LAYER
  5
AD64
102
{ACAD_XDICTIONARY
360
EB2D
102
}
330
2
100
AcDbSymbolTableRecord
100
AcDbLayerTableRecord
  2
AM_2
 70
     0
 62
     1
  6
細線
370
    15
390
F
1001
AcAecLayerStandard
1000

1000

  0
LAYER
  5
AD67
102
{ACAD_XDICTIONARY
360
EB2F
102
}
330
2
100
AcDbSymbolTableRecord
100
AcDbLayerTableRecord
  2
AM_3
 70
     0
 62
     6
  6
陰線1
370
    15
390
F
1001
AcAecLayerStandard
1000

1000

  0
LAYER
  5
AD68
102
{ACAD_XDICTIONARY
360
EB31
102
}
330
2
100
AcDbSymbolTableRecord
100
AcDbLayerTableRecord
  2
AM_5
 70
     0
 62
     3
  6
寸法線
370
    15
390
F
1001
AcAecLayerStandard
1000

1000

  0
LAYER
  5
AD69
102
{ACAD_XDICTIONARY
360
EB33
102
}
330
2
100
AcDbSymbolTableRecord
100
AcDbLayerTableRecord
  2
AM_7
 70
     0
 62
     4
  6
中心線1
370
    15
390
F
1001
AcAecLayerStandard
1000

1000

  0
LAYER
  5
AD6A
102
{ACAD_XDICTIONARY
360
EB35
102
}
330
2
100
AcDbSymbolTableRecord
100
AcDbLayerTableRecord
  2
AM_8
 70
     0
 62
     1
  6
ハッチング
370
    15
390
F
1001
AcAecLayerStandard
1000

1000

  0
LAYER
  5
AD6E
102
{ACAD_XDICTIONARY
360
EB37
102
}
330
2
100
AcDbSymbolTableRecord
100
AcDbLayerTableRecord
  2
AM_10
 70
     0
 62
     7
  6
切断線
370
    25
390
F
1001
AcAecLayerStandard
1000

1000

  0
LAYER
  5
AD6F
102
{ACAD_XDICTIONARY
360
EB39
102
}
330
2
100
AcDbSymbolTableRecord
100
AcDbLayerTableRecord
  2
AM_11
 70
     0
 62
     2
  6
想像線1
370
    15
390
F
1001
AcAecLayerStandard
1000

1000

  0
LAYER
  5
B1B6
102
{ACAD_XDICTIONARY
360
EB3B
102
}
330
2
100
AcDbSymbolTableRecord
100
AcDbLayerTableRecord
  2
AM_CL
 70
     0
 62
     1
  6
Amconstr
370
    15
390
F
1001
AcAecLayerStandard
1000

1000

  0
LAYER
  5
B2EB
102
{ACAD_XDICTIONARY
360
EB3D
102
}
330
2
100
AcDbSymbolTableRecord
100
AcDbLayerTableRecord
  2
AM_14
 70
     0
 62
     5
  6
細線
370
     9
390
F
1001
AcAecLayerStandard
1000

1000

  0
LAYER
  5
B2EC
102
{ACAD_XDICTIONARY
360
EB3F
102
}
330
2
100
AcDbSymbolTableRecord
100
AcDbLayerTableRecord
  2
AM_15
 70
     0
 62
     6
  6
陰線1
370
     9
390
F
1001
AcAecLayerStandard
1000

1000

  0
LAYER
  5
C00B
102
{ACAD_XDICTIONARY
360
C00C
102
}
330
2
100
AcDbSymbolTableRecord
100
AcDbLayerTableRecord
  2
AM_12
 70
     0
 62
     7
  6
Continuous
290
     0
370
    15
390
F
  0
LAYER
  5
C00D
102
{ACAD_XDICTIONARY
360
C00E
102
}
330
2
100
AcDbSymbolTableRecord
100
AcDbLayerTableRecord
  2
AM_PAREF
 70
     0
 62
     4
  6
Continuous
290
     0
370
    15
390
F
  0
LAYER
  5
C00F
102
{ACAD_XDICTIONARY
360
EB43
102
}
330
2
100
AcDbSymbolTableRecord
100
AcDbLayerTableRecord
  2
フロントプレート-AM_0
 70
     0
 62
     7
  6
中線
370
    25
390
F
  0
LAYER
  5
C010
102
{ACAD_XDICTIONARY
360
EB45
102
}
330
2
100
AcDbSymbolTableRecord
100
AcDbLayerTableRecord
  2
フロントプレート-AM_7
 70
     0
 62
     4
  6
中心線1
370
    15
390
F
  0
LAYER
  5
C011
102
{ACAD_XDICTIONARY
360
EB47
102
}
330
2
100
AcDbSymbolTableRecord
100
AcDbLayerTableRecord
  2
切欠き-AM_2
 70
     0
 62
     1
  6
細線
370
    15
390
F
  0
LAYER
  5
C012
102
{ACAD_XDICTIONARY
360
EB49
102
}
330
2
100
AcDbSymbolTableRecord
100
AcDbLayerTableRecord
  2
カム-AM_0
 70
     0
 62
     7
  6
中線
370
    25
390
F
  0
LAYER
  5
C013
102
{ACAD_XDICTIONARY
360
EB4B
102
}
330
2
100
AcDbSymbolTableRecord
100
AcDbLayerTableRecord
  2
摺動ボックス-AM_5
 70
     0
 62
     3
  6
寸法線
370
    15
390
F
  0
LAYER
  5
C014
102
{ACAD_XDICTIONARY
360
EB4D
102
}
330
2
100
AcDbSymbolTableRecord
100
AcDbLayerTableRecord
  2
トロカバー-AM_7
 70
     0
 62
     4
  6
中心線1
370
    15
390
F
  0
LAYER
  5
C015
102
{ACAD_XDICTIONARY
360
EB4F
102
}
330
2
100
AcDbSymbolTableRecord
100
AcDbLayerTableRecord
  2
摺動ボックス-AM_0
 70
     0
 62
     7
  6
中線
370
    25
390
F
  0
LAYER
  5
C016
102
{ACAD_XDICTIONARY
360
EB51
102
}
330
2
100
AcDbSymbolTableRecord
100
AcDbLayerTableRecord
  2
摺動ボックス-AM_2
 70
     0
 62
     1
  6
細線
370
    15
390
F
  0
LAYER
  5
C017
102
{ACAD_XDICTIONARY
360
EB53
102
}
330
2
100
AcDbSymbolTableRecord
100
AcDbLayerTableRecord
  2
カム-AM_5
 70
     0
 62
     3
  6
寸法線
370
    15
390
F
  0
LAYER
  5
C018
102
{ACAD_XDICTIONARY
360
EB55
102
}
330
2
100
AcDbSymbolTableRecord
100
AcDbLayerTableRecord
  2
カム-AM_7
 70
     0
 62
     4
  6
中心線1
370
    15
390
F
  0
LAYER
  5
C019
102
{ACAD_XDICTIONARY
360
EB57
102
}
330
2
100
AcDbSymbolTableRecord
100
AcDbLayerTableRecord
  2
摺動ボックス-AM_7
 70
     0
 62
     4
  6
中心線1
370
    15
390
F
  0
LAYER
  5
C01A
102
{ACAD_XDICTIONARY
360
EB59
102
}
330
2
100
AcDbSymbolTableRecord
100
AcDbLayerTableRecord
  2
フロントプレート-AM_5
 70
     0
 62
     3
  6
寸法線
370
    15
390
F
  0
LAYER
  5
C01B
102
{ACAD_XDICTIONARY
360
EB5B
102
}
330
2
100
AcDbSymbolTableRecord
100
AcDbLayerTableRecord
  2
トロカバー-AM_3
 70
     0
 62
     6
  6
陰線1
370
    15
390
F
  0
LAYER
  5
C01C
102
{ACAD_XDICTIONARY
360
EB5D
102
}
330
2
100
AcDbSymbolTableRecord
100
AcDbLayerTableRecord
  2
フロントプレート-AM_11
 70
     0
 62
     2
  6
想像線1
370
    15
390
F
  0
LAYER
  5
C01D
102
{ACAD_XDICTIONARY
360
EB5F
102
}
330
2
100
AcDbSymbolTableRecord
100
AcDbLayerTableRecord
  2
フロントプレート-AM_3
 70
     0
 62
     6
  6
陰線1
370
    15
390
F
  0
LAYER
  5
C01E
102
{ACAD_XDICTIONARY
360
EB61
102
}
330
2
100
AcDbSymbolTableRecord
100
AcDbLayerTableRecord
  2
トロカバー-AM_5
 70
     0
 62
     3
  6
寸法線
370
    15
390
F
  0
LAYER
  5
C01F
102
{ACAD_XDICTIONARY
360
EB63
102
}
330
2
100
AcDbSymbolTableRecord
100
AcDbLayerTableRecord
  2
トロカバー-AM_0
 70
     0
 62
     7
  6
中線
370
    25
390
F
  0
LAYER
  5
C020
102
{ACAD_XDICTIONARY
360
EB65
102
}
330
2
100
AcDbSymbolTableRecord
100
AcDbLayerTableRecord
  2
摺動ボックス-AM_4
 70
     0
 62
     3
  6
補助線
370
    15
390
F
  0
LAYER
  5
C021
102
{ACAD_XDICTIONARY
360
EB67
102
}
330
2
100
AcDbSymbolTableRecord
100
AcDbLayerTableRecord
  2
摺動ボックス-AM_6
 70
     0
 62
     2
  6
文字
370
    15
390
F
  0
LAYER
  5
E574
102
{ACAD_XDICTIONARY
360
E575
102
}
330
2
100
AcDbSymbolTableRecord
100
AcDbLayerTableRecord
  2
0ラッチボルト
 70
     0
 62
    82
  6
中線
370
    30
390
F
1001
AcAecLayerStandard
1000

1000

  0
LAYER
  5
E576
102
{ACAD_XDICTIONARY
360
E577
102
}
330
2
100
AcDbSymbolTableRecord
100
AcDbLayerTableRecord
  2
0ラッチ
 70
     0
 62
    41
  6
中線
370
    30
390
F
1001
AcAecLayerStandard
1000

1000

  0
LAYER
  5
EB95
330
2
100
AcDbSymbolTableRecord
100
AcDbLayerTableRecord
  2
0フロントプレート
 70
     0
 62
   101
  6
中線
370
    30
390
F
1001
AcAecLayerStandard
1000

1000

  0
LAYER
  5
EB9C
330
2
100
AcDbSymbolTableRecord
100
AcDbLayerTableRecord
  2
0トロカバー
 70
     0
 62
    40
  6
中線
370
    30
390
F
1001
AcAecLayerStandard
1000

1000

  0
LAYER
  5
EB9D
330
2
100
AcDbSymbolTableRecord
100
AcDbLayerTableRecord
  2
0摺動ボックス
 70
     0
 62
   171
  6
中線
370
    30
390
F
1001
AcAecLayerStandard
1000

1000

  0
LAYER
  5
EBA1
330
2
100
AcDbSymbolTableRecord
100
AcDbLayerTableRecord
  2
0カム
 70
     0
 62
   221
  6
中線
370
    30
390
F
1001
AcAecLayerStandard
1000

1000

  0
LAYER
  5
FB3B
330
2
100
AcDbSymbolTableRecord
100
AcDbLayerTableRecord
  2
01
 70
     0
 62
     1
  6
Continuous
370
    -3
390
F
  0
LAYER
  5
16A6E
330
2
100
AcDbSymbolTableRecord
100
AcDbLayerTableRecord
  2
フロントプレート-AM_4
 70
     0
 62
     3
  6
補助線
370
    15
390
F
1001
AcAecLayerStandard
1000

1000

  0
LAYER
  5
16A70
330
2
100
AcDbSymbolTableRecord
100
AcDbLayerTableRecord
  2
フロントプレート-AM_8
 70
     0
 62
     1
  6
ハッチング
370
    15
390
F
1001
AcAecLayerStandard
1000

1000

  0
LAYER
  5
17887
330
2
100
AcDbSymbolTableRecord
100
AcDbLayerTableRecord
  2
0木ネジ
 70
     0
 62
   241
  6
中線
370
    30
390
F
1001
AcAecLayerStandard
1000

1000

  0
LAYER
  5
181B0
330
2
100
AcDbSymbolTableRecord
100
AcDbLayerTableRecord
  2
AM_4
 70
     0
 62
     3
  6
補助線
370
    15
390
F
1001
AcAecLayerStandard
1000

1000

  0
LAYER
  5
1B676
330
2
100
AcDbSymbolTableRecord
100
AcDbLayerTableRecord
  2
0×
 70
     0
 62
   244
  6
中線
370
    30
390
F
1001
AcAecLayerStandard
1000

1000

  0
LAYER
  5
201FE
330
2
100
AcDbSymbolTableRecord
100
AcDbLayerTableRecord
  2
AM_FEA-AM_1
 70
     0
 62
    30
  6
太線
370
    25
390
F
  0
LAYER
  5
201FF
330
2
100
AcDbSymbolTableRecord
100
AcDbLayerTableRecord
  2
AM_FEA-AM_6
 70
     0
 62
     2
  6
文字
370
    15
390
F
  0
LAYER
  5
20200
330
2
100
AcDbSymbolTableRecord
100
AcDbLayerTableRecord
  2
PV0001_1
 70
     0
 62
     7
  6
Continuous
370
    -3
390
F
  0
LAYER
  5
20201
330
2
100
AcDbSymbolTableRecord
100
AcDbLayerTableRecord
  2
IS0001D5_1
 70
     0
 62
     7
  6
Continuous
370
    -3
390
F
  0
LAYER
  5
20202
330
2
100
AcDbSymbolTableRecord
100
AcDbLayerTableRecord
  2
SS0001D22475_1
 70
     0
 62
     7
  6
Continuous
370
    -3
390
F
  0
LAYER
  5
20203
330
2
100
AcDbSymbolTableRecord
100
AcDbLayerTableRecord
  2
1
 70
     0
 62
     7
  6
Continuous
370
    -3
390
F
  0
LAYER
  5
20204
330
2
100
AcDbSymbolTableRecord
100
AcDbLayerTableRecord
  2
AM_BOR
 70
     0
 62
     7
  6
Continuous
370
    15
390
F
  0
LAYER
  5
20205
330
2
100
AcDbSymbolTableRecord
100
AcDbLayerTableRecord
  2
hutoisenn
 70
     0
 62
     7
  6
Continuous
370
    -3
390
F
  0
LAYER
  5
20206
330
2
100
AcDbSymbolTableRecord
100
AcDbLayerTableRecord
  2
hutoisen
 70
     0
 62
     4
  6
Continuous
370
    -3
390
F
  0
LAYER
  5
20207
330
2
100
AcDbSymbolTableRecord
100
AcDbLayerTableRecord
  2
AMI-1
 70
     0
 62
   160
  6
Continuous
370
    -3
390
F
  0
LAYER
  5
20208
330
2
100
AcDbSymbolTableRecord
100
AcDbLayerTableRecord
  2
AMI_$0-2
 70
     0
 62
    41
  6
Continuous
370
    -3
390
F
  0
LAYER
  5
6DD1A
330
2
100
AcDbSymbolTableRecord
100
AcDbLayerTableRecord
  2
AM_VIEWS
 70
     0
 62
     1
  6
Continuous
290
     0
370
    15
390
F
1001
AcAecLayerStandard
1000

1000

  0
ENDTAB
  0
TABLE
  2
STYLE
  5
3
330
0
100
AcDbSymbolTable
 70
    12
  0
STYLE
  5
11
330
3
100
AcDbSymbolTableRecord
100
AcDbTextStyleTableRecord
  2
STANDARD
 70
     0
 40
0.0
 41
0.7
 50
0.0
 71
     0
 42
3.2
  3
romans.shx
  4
extfont.shx
  0
STYLE
  5
56
330
3
100
AcDbSymbolTableRecord
100
AcDbTextStyleTableRecord
  2

 70
     1
 40
0.0
 41
1.0
 50
0.0
 71
     0
 42
2.5
  3
ltypeshp.shx
  4

  0
STYLE
  5
58
330
3
100
AcDbSymbolTableRecord
100
AcDbTextStyleTableRecord
  2
ACISOTS
 70
     0
 40
1.0
 41
1.0
 50
0.0
 71
     0
 42
2.5
  3
isocp.shx
  4
extfont.shx
  0
STYLE
  5
63
330
3
100
AcDbSymbolTableRecord
100
AcDbTextStyleTableRecord
  2
ACISOGDT
 70
     0
 40
0.0
 41
1.0
 50
0.0
 71
     0
 42
2.5
  3
amgdt.shx
  4

  0
STYLE
  5
A74
330
3
100
AcDbSymbolTableRecord
100
AcDbTextStyleTableRecord
  2
DIM
 70
     0
 40
0.0
 41
1.0
 50
0.0
 71
     0
 42
2.5
  3
monotxt.shx
  4
extfont.shx
  0
STYLE
  5
AC80
330
3
100
AcDbSymbolTableRecord
100
AcDbTextStyleTableRecord
  2

 70
     1
 40
0.0
 41
1.0
 50
0.0
 71
     0
 42
3.2
  3
genltshp.shx
  4

  0
STYLE
  5
20209
330
3
100
AcDbSymbolTableRecord
100
AcDbTextStyleTableRecord
  2
USER1
 70
     0
 40
3.2
 41
1.0
 50
0.0
 71
     0
 42
2.5
  3
MS Gothic.ttf
  4

1001
ACAD
1000
MS Gothic
1071
    32817
  0
STYLE
  5
2020A
330
3
100
AcDbSymbolTableRecord
100
AcDbTextStyleTableRecord
  2
USER2
 70
     0
 40
0.0
 41
1.0
 50
0.0
 71
     0
 42
2.5
  3
SIMPLEX.SHX
  4

  0
STYLE
  5
2020B
330
3
100
AcDbSymbolTableRecord
100
AcDbTextStyleTableRecord
  2
USER3
 70
     0
 40
0.0
 41
1.0
 50
0.0
 71
     0
 42
2.5
  3
ITALIC.SHX
  4

  0
STYLE
  5
2020C
330
3
100
AcDbSymbolTableRecord
100
AcDbTextStyleTableRecord
  2
CONVERT
 70
     0
 40
0.0
 41
1.0
 50
0.0
 71
     0
 42
3.2
  3
monotxt.shx
  4
extfont.shx
  0
STYLE
  5
2020D
330
3
100
AcDbSymbolTableRecord
100
AcDbTextStyleTableRecord
  2
ACANSTS
 70
     0
 40
1.0
 41
1.0
 50
0.0
 71
     0
 42
0.2
  3
romans.shx
  4
extfont.shx
  0
STYLE
  5
2020E
330
3
100
AcDbSymbolTableRecord
100
AcDbTextStyleTableRecord
  2
ACANSGDT
 70
     0
 40
0.0
 41
1.0
 50
0.0
 71
     0
 42
0.2
  3
amgdtans.shx
  4

  0
ENDTAB
  0
TABLE
  2
VIEW
  5
6
330
0
100
AcDbSymbolTable
 70
     6
  0
VIEW
  5
AE1
330
6
100
AcDbSymbolTableRecord
100
AcDbViewTableRecord
  2
AM_VIEW1
 70
     0
 40
148.5
 10
121.8421330517423
 20
222.75
 41
243.6842661034847
 11
0.0
 21
0.0
 31
1.0
 12
0.0
 22
0.0
 32
0.0
 42
50.0
 43
-1370.695619172058
 44
-1370.695619172058
 50
0.0
 71
     0
281
     0
 72
     0
  0
VIEW
  5
AE2
330
6
100
AcDbSymbolTableRecord
100
AcDbViewTableRecord
  2
AM_VIEW2
 70
     0
 40
148.5
 10
298.1578669482577
 20
222.75
 41
243.6842661034847
 11
0.0
 21
0.0
 31
1.0
 12
0.0
 22
0.0
 32
0.0
 42
50.0
 43
-1370.695619172058
 44
-1370.695619172058
 50
0.0
 71
     0
281
     0
 72
     0
  0
VIEW
  5
AE3
330
6
100
AcDbSymbolTableRecord
100
AcDbViewTableRecord
  2
AM_VIEW3
 70
     0
 40
148.5
 10
121.8421330517423
 20
74.25
 41
243.6842661034847
 11
0.0
 21
0.0
 31
1.0
 12
0.0
 22
0.0
 32
0.0
 42
50.0
 43
-1370.695619172058
 44
-1370.695619172058
 50
0.0
 71
     0
281
     0
 72
     0
  0
VIEW
  5
AE4
330
6
100
AcDbSymbolTableRecord
100
AcDbViewTableRecord
  2
AM_VIEW4
 70
     0
 40
148.5
 10
298.1578669482577
 20
74.25
 41
243.6842661034847
 11
0.0
 21
0.0
 31
1.0
 12
0.0
 22
0.0
 32
0.0
 42
50.0
 43
-1370.695619172058
 44
-1370.695619172058
 50
0.0
 71
     0
281
     0
 72
     0
  0
VIEW
  5
AE5
330
6
100
AcDbSymbolTableRecord
100
AcDbViewTableRecord
  2
AM_VIEW5
 70
     0
 40
148.5
 10
210.0
 20
148.5
 41
243.6842661034847
 11
0.0
 21
0.0
 31
1.0
 12
0.0
 22
0.0
 32
0.0
 42
50.0
 43
-1370.695619172058
 44
-1370.695619172058
 50
0.0
 71
     0
281
     0
 72
     0
  0
VIEW
  5
AE6
330
6
100
AcDbSymbolTableRecord
100
AcDbViewTableRecord
  2
AM_VIEW6
 70
     0
 40
296.99703
 10
210.0
 20
148.5
 41
487.3636585216472
 11
0.0
 21
0.0
 31
1.0
 12
0.0
 22
0.0
 32
0.0
 42
50.0
 43
-1370.695619172058
 44
-1370.695619172058
 50
0.0
 71
     0
281
     0
 72
     0
  0
ENDTAB
  0
TABLE
  2
UCS
  5
7
330
0
100
AcDbSymbolTable
 70
     0
  0
ENDTAB
  0
TABLE
  2
APPID
  5
9
330
0
100
AcDbSymbolTable
 70
    66
  0
APPID
  5
12
330
9
100
AcDbSymbolTableRecord
100
AcDbRegAppTableRecord
  2
ACAD
 70
     0
  0
APPID
  5
30
330
9
100
AcDbSymbolTableRecord
100
AcDbRegAppTableRecord
  2
MCAD_NO_VIS
 70
     0
  0
APPID
  5
31
330
9
100
AcDbSymbolTableRecord
100
AcDbRegAppTableRecord
  2
ACAD_TEMP_GRAPHIC
 70
     0
  0
APPID
  5
44
330
9
100
AcDbSymbolTableRecord
100
AcDbRegAppTableRecord
  2
ACATTRIBSERVICES
 70
     0
  0
APPID
  5
7A1
330
9
100
AcDbSymbolTableRecord
100
AcDbRegAppTableRecord
  2
GENIUS_GENDIMSH_14
 70
     0
  0
APPID
  5
A49
330
9
100
AcDbSymbolTableRecord
100
AcDbRegAppTableRecord
  2
GENIUS_GENREC_14
 70
     0
  0
APPID
  5
A4A
330
9
100
AcDbSymbolTableRecord
100
AcDbRegAppTableRecord
  2
GENIUS_GENOBJ-N-REC_13
 70
     0
  0
APPID
  5
A4B
330
9
100
AcDbSymbolTableRecord
100
AcDbRegAppTableRecord
  2
GENIUS_GENODEF_13
 70
     0
  0
APPID
  5
A4C
330
9
100
AcDbSymbolTableRecord
100
AcDbRegAppTableRecord
  2
DCO15
 70
     0
  0
APPID
  5
ADC
330
9
100
AcDbSymbolTableRecord
100
AcDbRegAppTableRecord
  2
GENIUS_GENOLIS_13
 70
     0
  0
APPID
  5
ADD
330
9
100
AcDbSymbolTableRecord
100
AcDbRegAppTableRecord
  2
GENIUS_GENOENT_13
 70
     0
  0
APPID
  5
ADE
330
9
100
AcDbSymbolTableRecord
100
AcDbRegAppTableRecord
  2
GENIUS_GENOBJ-N-TIT_13
 70
     0
  0
APPID
  5
ADF
330
9
100
AcDbSymbolTableRecord
100
AcDbRegAppTableRecord
  2
GENIUS_GENTITLE_13
 70
     0
  0
APPID
  5
AE0
330
9
100
AcDbSymbolTableRecord
100
AcDbRegAppTableRecord
  2
GENIUS_GENOREF_13
 70
     0
  0
APPID
  5
AE7
330
9
100
AcDbSymbolTableRecord
100
AcDbRegAppTableRecord
  2
GENIUS_GENSCREG_15
 70
     0
  0
APPID
  5
AE8
330
9
100
AcDbSymbolTableRecord
100
AcDbRegAppTableRecord
  2
GENIUS_GENOBJ-N-SDF_13
 70
     0
  0
APPID
  5
FAF
330
9
100
AcDbSymbolTableRecord
100
AcDbRegAppTableRecord
  2
GENIUS_GENBLLY_14
 70
     0
  0
APPID
  5
FB0
330
9
100
AcDbSymbolTableRecord
100
AcDbRegAppTableRecord
  2
GENIUS_GENTRA_14
 70
     0
  0
APPID
  5
1285
330
9
100
AcDbSymbolTableRecord
100
AcDbRegAppTableRecord
  2
GENIUS_GENDTOL_13
 70
     0
  0
APPID
  5
142D
330
9
100
AcDbSymbolTableRecord
100
AcDbRegAppTableRecord
  2
GENIUS_GENOBJ-N-CEN_13
 70
     0
  0
APPID
  5
1AB5
330
9
100
AcDbSymbolTableRecord
100
AcDbRegAppTableRecord
  2
GENIUS_GENOBJ-N-CRS_13
 70
     0
  0
APPID
  5
1B36
330
9
100
AcDbSymbolTableRecord
100
AcDbRegAppTableRecord
  2
GENIUS_GENOBJ-N-HTC_13
 70
     0
  0
APPID
  5
1B37
330
9
100
AcDbSymbolTableRecord
100
AcDbRegAppTableRecord
  2
GENIUS_GENHATCH_13
 70
     0
  0
APPID
  5
216D
330
9
100
AcDbSymbolTableRecord
100
AcDbRegAppTableRecord
  2
GENIUS_GENOBJ-N-FIL_13
 70
     0
  0
APPID
  5
2356
330
9
100
AcDbSymbolTableRecord
100
AcDbRegAppTableRecord
  2
GEVID990412420
 70
     0
  0
APPID
  5
2357
330
9
100
AcDbSymbolTableRecord
100
AcDbRegAppTableRecord
  2
GEVDC
 70
     0
  0
APPID
  5
2358
330
9
100
AcDbSymbolTableRecord
100
AcDbRegAppTableRecord
  2
GEVCON
 70
     0
  0
APPID
  5
235B
330
9
100
AcDbSymbolTableRecord
100
AcDbRegAppTableRecord
  2
GEVRADREF
 70
     0
  0
APPID
  5
2360
330
9
100
AcDbSymbolTableRecord
100
AcDbRegAppTableRecord
  2
GENIUS_GENBH_13
 70
     0
  0
APPID
  5
2362
330
9
100
AcDbSymbolTableRecord
100
AcDbRegAppTableRecord
  2
GENIUS_GENOBJ-NBEHI-BHF_13
 70
     0
  0
APPID
  5
2364
330
9
100
AcDbSymbolTableRecord
100
AcDbRegAppTableRecord
  2
GENIUS_GENOBJ-NBEHI-BHB_13
 70
     0
  0
APPID
  5
2379
330
9
100
AcDbSymbolTableRecord
100
AcDbRegAppTableRecord
  2
GENIUS_GENOBJ-F-SCPASSM_13
 70
     0
  0
APPID
  5
3D74
330
9
100
AcDbSymbolTableRecord
100
AcDbRegAppTableRecord
  2
GENIUS_GENDIM_13
 70
     0
  0
APPID
  5
3D76
330
9
100
AcDbSymbolTableRecord
100
AcDbRegAppTableRecord
  2
GENIUS_GE3DTOL_13
 70
     0
  0
APPID
  5
3D9C
330
9
100
AcDbSymbolTableRecord
100
AcDbRegAppTableRecord
  2
AD_DRAW
 70
     0
  0
APPID
  5
3DE8
330
9
100
AcDbSymbolTableRecord
100
AcDbRegAppTableRecord
  2
ASURF_PCURVE_APPNAME
 70
     0
  0
APPID
  5
3DED
330
9
100
AcDbSymbolTableRecord
100
AcDbRegAppTableRecord
  2
AMG_3D2D_5.0
 70
     0
  0
APPID
  5
3E1B
330
9
100
AcDbSymbolTableRecord
100
AcDbRegAppTableRecord
  2
DESIGNERASSEMBLIES
 70
     0
  0
APPID
  5
3E20
330
9
100
AcDbSymbolTableRecord
100
AcDbRegAppTableRecord
  2
ACADM_DIM_EDIT
 70
     0
  0
APPID
  5
3E21
330
9
100
AcDbSymbolTableRecord
100
AcDbRegAppTableRecord
  2
AMDT_DM_ADJ
 70
     0
  0
APPID
  5
4143
330
9
100
AcDbSymbolTableRecord
100
AcDbRegAppTableRecord
  2
GENIUS_GENFIL_13
 70
     0
  0
APPID
  5
4144
330
9
100
AcDbSymbolTableRecord
100
AcDbRegAppTableRecord
  2
GENIUS_GENOBJ-N-CHA_13
 70
     0
  0
APPID
  5
4E17
330
9
100
AcDbSymbolTableRecord
100
AcDbRegAppTableRecord
  2
GEVID1008153417
 70
     0
  0
APPID
  5
4E58
330
9
100
AcDbSymbolTableRecord
100
AcDbRegAppTableRecord
  2
GEVID1008153418
 70
     0
  0
APPID
  5
4E5E
330
9
100
AcDbSymbolTableRecord
100
AcDbRegAppTableRecord
  2
GEVID1008153419
 70
     0
  0
APPID
  5
4E64
330
9
100
AcDbSymbolTableRecord
100
AcDbRegAppTableRecord
  2
GEVID1008153420
 70
     0
  0
APPID
  5
4E75
330
9
100
AcDbSymbolTableRecord
100
AcDbRegAppTableRecord
  2
GEVID1008153421
 70
     0
  0
APPID
  5
4EB7
330
9
100
AcDbSymbolTableRecord
100
AcDbRegAppTableRecord
  2
GENIUS_AMGTXT_16
 70
     0
  0
APPID
  5
7645
330
9
100
AcDbSymbolTableRecord
100
AcDbRegAppTableRecord
  2
GENIUS_GENOBJ-N-DIM_13
 70
     0
  0
APPID
  5
AAD0
330
9
100
AcDbSymbolTableRecord
100
AcDbRegAppTableRecord
  2
ACAD_DSTYLE_DIMARC_LENGTH_SYMBOL
 70
     0
  0
APPID
  5
AAD1
330
9
100
AcDbSymbolTableRecord
100
AcDbRegAppTableRecord
  2
ACAD_DSTYLE_DIMJOGGED_JOGANGLE_SYMBOL
 70
     0
  0
APPID
  5
AAFD
330
9
100
AcDbSymbolTableRecord
100
AcDbRegAppTableRecord
  2
ACAD_PSEXT
 70
     0
  0
APPID
  5
AD61
330
9
100
AcDbSymbolTableRecord
100
AcDbRegAppTableRecord
  2
AcAecLayerStandard
 70
     0
  0
APPID
  5
AEE3
330
9
100
AcDbSymbolTableRecord
100
AcDbRegAppTableRecord
  2
ACAD_EXEMPT_FROM_CAD_STANDARDS
 70
     0
  0
APPID
  5
B1BE
330
9
100
AcDbSymbolTableRecord
100
AcDbRegAppTableRecord
  2
GENIUS_GENCEN_19
 70
     0
  0
APPID
  5
B3AF
330
9
100
AcDbSymbolTableRecord
100
AcDbRegAppTableRecord
  2
ACAD_MLEADERVER
 70
     0
  0
APPID
  5
C022
330
9
100
AcDbSymbolTableRecord
100
AcDbRegAppTableRecord
  2
GENIUS_GENOBJ-N-ZOO_13
 70
     0
  0
APPID
  5
E578
330
9
100
AcDbSymbolTableRecord
100
AcDbRegAppTableRecord
  2
ACAD_DSTYLE_DIMINSPECT
 70
     0
  0
APPID
  5
F210
330
9
100
AcDbSymbolTableRecord
100
AcDbRegAppTableRecord
  2
ACAD_DSTYLE_DIMRADIAL_EXTENSION
 70
     0
  0
APPID
  5
1F75E
330
9
100
AcDbSymbolTableRecord
100
AcDbRegAppTableRecord
  2
ACAD_DSTYLE_DIMEXT_LENGTH
 70
     0
  0
APPID
  5
1F75F
330
9
100
AcDbSymbolTableRecord
100
AcDbRegAppTableRecord
  2
ACAD_DSTYLE_DIMEXT_ENABLED
 70
     0
  0
APPID
  5
1F760
330
9
100
AcDbSymbolTableRecord
100
AcDbRegAppTableRecord
  2
ACAUTHENVIRON
 70
     0
  0
APPID
  5
1F761
330
9
100
AcDbSymbolTableRecord
100
AcDbRegAppTableRecord
  2
AcDbDynamicBlockTrueName
 70
     0
  0
APPID
  5
1F762
330
9
100
AcDbSymbolTableRecord
100
AcDbRegAppTableRecord
  2
AcDbDynamicBlockGUID
 70
     0
  0
APPID
  5
1F763
330
9
100
AcDbSymbolTableRecord
100
AcDbRegAppTableRecord
  2
ACDBBLOCKREPETAG
 70
     0
  0
APPID
  5
66497
330
9
100
AcDbSymbolTableRecord
100
AcDbRegAppTableRecord
  2
GENIUS_GENZOO_17
 70
     0
  0
ENDTAB
  0
TABLE
  2
DIMSTYLE
  5
A
330
0
100
AcDbSymbolTable
 70
    26
100
AcDbDimStyleTable
 71
     1
340
2515
  0
DIMSTYLE
105
A76
330
A
100
AcDbSymbolTableRecord
100
AcDbDimStyleTableRecord
  2
STANDARD
 70
     0
 41
3.0
 42
1.0
 43
7.0
 44
2.0
 73
     0
 74
     0
 77
     1
140
2.799999999999999
141
0.0
143
0.0394
147
0.7
171
     4
172
     1
173
     1
176
     3
177
     3
178
     2
271
     3
272
     3
273
     8
274
     4
289
     0
340
A74
341
A66
343
A66
344
A66
  0
DIMSTYLE
105
2515
330
A
100
AcDbSymbolTableRecord
100
AcDbDimStyleTableRecord
  2
SYS
 70
     0
  4
"
 41
1.0
 42
1.0
 43
10.0
 44
1.0
 47
0.1
 48
0.1
 73
     0
 74
     0
 77
     1
 78
     8
 79
     2
140
3.5
141
0.0
143
0.0393701
146
0.71
147
1.5
172
     1
176
   256
177
   256
178
     7
271
     2
272
     2
283
     0
284
     8
340
11
371
    -1
372
    -1
1001
ACAD_DSTYLE_DIMJOGGED_JOGANGLE_SYMBOL
1070
   384
1040
0.7853981633974483
1001
ACAD_DSTYLE_DIMARC_LENGTH_SYMBOL
1070
   379
1070
     1
  0
DIMSTYLE
105
2516
102
{ACAD_REACTORS
330
11191
102
}
330
A
100
AcDbSymbolTableRecord
100
AcDbDimStyleTableRecord
  2
SYS$3
 70
     0
  4
"
 41
2.0
 42
1.0
 43
10.0
 44
1.0
 47
0.1
 48
0.1
 73
     0
 77
     1
 78
     8
 79
     2
140
3.200000000000001
141
0.0
143
0.0393701
146
0.71
147
1.5
176
   256
177
   256
178
     2
271
     2
272
     2
283
     0
284
     8
288
     1
340
11
342
A66
371
    -1
372
    -1
1001
ACAD_DSTYLE_DIMJOGGED_JOGANGLE_SYMBOL
1070
   384
1040
0.7853981633974483
1001
ACAD_DSTYLE_DIMARC_LENGTH_SYMBOL
1070
   379
1070
     1
  0
DIMSTYLE
105
2517
102
{ACAD_REACTORS
330
118B9
330
118BA
330
70C6D
102
}
330
A
100
AcDbSymbolTableRecord
100
AcDbDimStyleTableRecord
  2
SYS$4
 70
     0
  4
"
 41
2.0
 42
1.0
 43
10.0
 44
1.0
 47
0.1
 48
0.1
 73
     0
 77
     1
 78
     8
 79
     2
140
3.200000000000001
141
0.0
143
0.0393701
146
0.71
147
1.5
173
     1
176
   256
177
   256
178
     2
271
     2
272
     2
283
     0
284
     8
288
     1
340
11
344
A66
371
    -1
372
    -1
1001
ACAD_DSTYLE_DIMJOGGED_JOGANGLE_SYMBOL
1070
   384
1040
0.7853981633974483
1001
ACAD_DSTYLE_DIMARC_LENGTH_SYMBOL
1070
   379
1070
     1
  0
DIMSTYLE
105
2518
330
A
100
AcDbSymbolTableRecord
100
AcDbDimStyleTableRecord
  2
SYS$6
 70
     0
  4
"
 41
2.0
 42
1.0
 43
10.0
 44
1.0
 47
0.1
 48
0.1
 73
     0
 74
     0
 78
     8
 79
     2
140
3.200000000000001
141
0.0
143
0.0393701
146
0.71
147
1.5
172
     1
176
   256
177
   256
178
     2
271
     2
272
     2
283
     0
284
     8
340
11
341
A66
371
    -1
372
    -1
1001
ACAD_DSTYLE_DIMJOGGED_JOGANGLE_SYMBOL
1070
   384
1040
0.7853981633974483
1001
ACAD_DSTYLE_DIMARC_LENGTH_SYMBOL
1070
   379
1070
     1
  0
DIMSTYLE
105
2519
330
A
100
AcDbSymbolTableRecord
100
AcDbDimStyleTableRecord
  2
SYS$7
 70
     0
  4
"
 41
2.0
 42
1.0
 43
10.0
 44
1.0
 47
0.1
 48
0.1
 73
     0
 74
     0
 77
     1
 78
     8
 79
     2
140
5.0
141
0.0
143
0.0393701
146
0.71
147
1.5
172
     1
176
   256
177
   256
178
     2
271
     2
272
     2
283
     0
284
     8
340
11
341
A66
342
A66
371
    -1
372
    -1
1001
ACAD_DSTYLE_DIMJOGGED_JOGANGLE_SYMBOL
1070
   384
1040
0.7853981633974483
1001
ACAD_DSTYLE_DIMARC_LENGTH_SYMBOL
1070
   379
1070
     1
  0
DIMSTYLE
105
251A
330
A
100
AcDbSymbolTableRecord
100
AcDbDimStyleTableRecord
  2
SYS$SF
 70
     0
  4
"
 41
2.5
 42
1.0
 43
10.0
 44
1.0
 47
0.1
 48
0.1
 73
     0
 74
     0
 75
     1
 76
     1
 77
     1
 78
     8
 79
     2
140
3.5
141
0.0
143
0.0393701
146
0.71
147
1.5
172
     1
176
   256
177
   256
178
     2
271
     2
272
     3
283
     0
284
     8
340
11
341
6C4
342
6C4
371
    -1
372
    -1
1001
ACAD_DSTYLE_DIMJOGGED_JOGANGLE_SYMBOL
1070
   384
1040
0.7853981633974483
1001
ACAD_DSTYLE_DIMARC_LENGTH_SYMBOL
1070
   379
1070
     1
  0
DIMSTYLE
105
251B
330
A
100
AcDbSymbolTableRecord
100
AcDbDimStyleTableRecord
  2
SYS$SH
 70
     0
  4
"
 41
2.5
 42
1.0
 43
10.0
 44
1.0
 47
0.1
 48
0.1
 73
     0
 74
     0
 75
     1
 76
     1
 77
     1
 78
     8
 79
     2
140
3.5
141
0.0
143
0.0393701
144
2.0
146
0.71
147
1.5
172
     1
173
     1
176
   256
177
   256
178
     2
271
     2
272
     3
283
     0
284
     8
340
11
341
6C4
343
72
344
6C4
371
    -1
372
    -1
1001
ACAD_DSTYLE_DIMJOGGED_JOGANGLE_SYMBOL
1070
   384
1040
0.7853981633974483
1001
ACAD_DSTYLE_DIMARC_LENGTH_SYMBOL
1070
   379
1070
     1
  0
DIMSTYLE
105
2A59
330
A
100
AcDbSymbolTableRecord
100
AcDbDimStyleTableRecord
  2
SYS$2
 70
     0
  4
"
 41
1.0
 42
1.0
 43
10.0
 44
1.0
 47
0.1
 48
0.1
 73
     0
 74
     0
 77
     1
 78
     8
 79
     2
140
3.200000000000001
141
0.0
143
0.0393701
146
0.71
147
1.5
172
     1
176
   256
177
   256
178
     2
271
     2
272
     2
283
     0
284
     8
340
11
342
6C4
371
    -1
372
    -1
1001
ACAD_DSTYLE_DIMJOGGED_JOGANGLE_SYMBOL
1070
   384
1040
0.7853981633974483
1001
ACAD_DSTYLE_DIMARC_LENGTH_SYMBOL
1070
   379
1070
     1
  0
DIMSTYLE
105
2AAB
102
{ACAD_REACTORS
330
1114F
330
11150
330
11157
330
11160
330
118BD
330
118BE
330
118AA
330
118AB
330
118AC
330
118AD
330
118B3
330
118BB
330
12547
330
12617
330
12667
330
13B5C
330
153D2
330
153FA
330
1673D
330
4FDA1
330
5822F
330
6C2B9
330
6C300
102
}
330
A
100
AcDbSymbolTableRecord
100
AcDbDimStyleTableRecord
  2
SYS$0
 70
     0
  4
"
 41
1.0
 42
1.0
 43
10.0
 44
1.0
 47
0.1
 48
0.1
 73
     0
 74
     0
 77
     1
 78
     8
 79
     2
140
3.200000000000001
141
0.0
143
0.0393701
146
0.71
147
1.5
172
     1
176
   256
177
   256
178
     2
271
     2
272
     2
283
     0
284
     8
340
11
341
A66
342
6C4
371
    -1
372
    -1
1001
ACAD_DSTYLE_DIMJOGGED_JOGANGLE_SYMBOL
1070
   384
1040
0.7853981633974483
1001
ACAD_DSTYLE_DIMARC_LENGTH_SYMBOL
1070
   379
1070
     1
  0
DIMSTYLE
105
AF99
330
A
100
AcDbSymbolTableRecord
100
AcDbDimStyleTableRecord
  2
AM_ISO
 70
     0
  4
"
 41
2.5
 42
1.0
 43
10.0
 44
1.0
 47
0.1
 48
0.1
 73
     0
 74
     0
 77
     1
 78
     8
 79
     2
140
3.5
141
0.0
143
0.0393701
146
0.71
147
1.5
172
     1
176
   256
177
   256
178
     2
271
     2
272
     3
274
     4
283
     0
284
     8
340
11
371
    -1
372
    -1
  0
DIMSTYLE
105
AF9A
330
A
100
AcDbSymbolTableRecord
100
AcDbDimStyleTableRecord
  2
AM_ISO$3
 70
     0
  4
"
 41
2.5
 42
1.0
 43
10.0
 44
1.0
 47
0.1
 48
0.1
 73
     0
 77
     1
 78
     8
 79
     2
140
3.5
141
0.0
143
0.0393701
146
0.71
147
1.5
176
   256
177
   256
178
     2
271
     2
272
     3
274
     4
283
     0
284
     8
288
     1
289
     0
340
11
371
    -1
372
    -1
  0
DIMSTYLE
105
AF9B
330
A
100
AcDbSymbolTableRecord
100
AcDbDimStyleTableRecord
  2
AM_ISO$4
 70
     0
  4
"
 41
2.5
 42
1.0
 43
10.0
 44
1.0
 47
0.1
 48
0.1
 73
     0
 77
     1
 78
     8
 79
     2
140
3.5
141
0.0
143
0.0393701
146
0.71
147
1.5
176
   256
177
   256
178
     2
271
     2
272
     3
274
     4
283
     0
284
     8
288
     1
289
     0
340
11
371
    -1
372
    -1
  0
DIMSTYLE
105
AF9C
330
A
100
AcDbSymbolTableRecord
100
AcDbDimStyleTableRecord
  2
AM_ISO$6
 70
     0
  4
"
 41
2.5
 42
1.0
 43
10.0
 44
1.0
 47
0.1
 48
0.1
 73
     0
 74
     0
 78
     8
 79
     2
140
3.5
141
0.0
143
0.0393701
146
0.71
147
1.5
172
     1
176
   256
177
   256
178
     2
271
     2
272
     3
274
     4
283
     0
284
     8
340
11
371
    -1
372
    -1
  0
DIMSTYLE
105
AF9D
330
A
100
AcDbSymbolTableRecord
100
AcDbDimStyleTableRecord
  2
AM_ISO$7
 70
     0
  4
"
 41
2.5
 42
1.0
 43
10.0
 44
1.0
 47
0.1
 48
0.1
 73
     0
 74
     0
 77
     1
 78
     8
 79
     2
140
5.0
141
0.0
143
0.0393701
146
0.71
147
1.5
172
     1
176
   256
177
   256
178
     2
271
     2
272
     3
274
     4
283
     0
284
     8
340
11
371
    -1
372
    -1
  0
DIMSTYLE
105
AF9E
330
A
100
AcDbSymbolTableRecord
100
AcDbDimStyleTableRecord
  2
AM_ISO$SF
 70
     0
  4
"
 41
2.5
 42
1.0
 43
10.0
 44
1.0
 47
0.1
 48
0.1
 73
     0
 74
     0
 75
     1
 76
     1
 77
     1
 78
     8
 79
     2
140
3.5
141
0.0
143
0.0393701
146
0.71
147
1.5
172
     1
176
   256
177
   256
178
     2
271
     2
272
     3
274
     4
283
     0
284
     8
340
11
371
    -1
372
    -1
  0
DIMSTYLE
105
AF9F
330
A
100
AcDbSymbolTableRecord
100
AcDbDimStyleTableRecord
  2
AM_ISO$SH
 70
     0
  4
"
 41
2.5
 42
1.0
 43
10.0
 44
1.0
 47
0.1
 48
0.1
 73
     0
 74
     0
 75
     1
 76
     1
 77
     1
 78
     8
 79
     2
140
3.5
141
0.0
143
0.0393701
144
2.0
146
0.71
147
1.5
172
     1
173
     1
176
   256
177
   256
178
     2
271
     2
272
     3
274
     4
283
     0
284
     8
340
11
343
72
371
    -1
372
    -1
  0
DIMSTYLE
105
181B1
330
A
100
AcDbSymbolTableRecord
100
AcDbDimStyleTableRecord
  2
AM_ANSI
 70
     0
  4
mm
 41
0.1
 42
0.05
 43
0.5
 44
0.1
 47
0.1
 48
0.1
 78
     7
 79
     2
140
0.12
141
0.0
146
0.71
147
0.06
176
   256
177
   256
178
     2
274
     4
284
     7
340
11
371
    -1
372
    -1
1001
ACAD_DSTYLE_DIMJOGGED_JOGANGLE_SYMBOL
1070
   384
1040
0.7853981633974483
1001
ACAD_DSTYLE_DIMARC_LENGTH_SYMBOL
1070
   379
1070
     1
  0
DIMSTYLE
105
1F75C
330
A
100
AcDbSymbolTableRecord
100
AcDbDimStyleTableRecord
  2
AM_ISO$0
 70
     0
  4
"
 41
0.8
 42
1.0
 43
10.0
 44
1.0
 47
0.1
 48
0.1
 73
     0
 74
     0
 77
     1
 78
     8
 79
     2
140
3.2
141
0.0
143
0.0393701
146
0.71
147
0.9999999999999996
172
     1
176
   256
177
   256
178
     2
271
     2
272
     2
283
     0
284
     8
340
11
341
6C4
342
6C4
371
    -1
372
    -1
1001
ACAD_DSTYLE_DIMJOGGED_JOGANGLE_SYMBOL
1070
   384
1040
0.7853981633974483
1001
ACAD_DSTYLE_DIMARC_LENGTH_SYMBOL
1070
   379
1070
     1
  0
DIMSTYLE
105
1F75D
330
A
100
AcDbSymbolTableRecord
100
AcDbDimStyleTableRecord
  2
AM_ISO$2
 70
     0
  4
"
 41
0.8
 42
1.0
 43
10.0
 44
1.0
 47
0.1
 48
0.1
 73
     0
 74
     0
 77
     3
 78
     8
 79
     2
140
3.200000000000001
141
0.0
143
0.0393701
146
0.71
147
0.9999999999999996
172
     1
176
   256
177
   256
178
     2
271
     2
272
     2
283
     0
284
     8
340
11
342
6C4
371
    -1
372
    -1
1001
ACAD_DSTYLE_DIMJOGGED_JOGANGLE_SYMBOL
1070
   384
1040
0.7853981633974483
1001
ACAD_DSTYLE_DIMARC_LENGTH_SYMBOL
1070
   379
1070
     1
  0
DIMSTYLE
105
2020F
330
A
100
AcDbSymbolTableRecord
100
AcDbDimStyleTableRecord
  2
ISO-25
 70
     0
 41
2.5
 42
0.625
 43
3.75
 44
1.25
 73
     0
 74
     0
 77
     1
 78
     8
140
2.5
141
2.5
143
0.03937007874016
147
0.625
171
     3
172
     1
271
     2
272
     2
274
     3
283
     0
284
     8
340
11
  0
DIMSTYLE
105
20210
330
A
100
AcDbSymbolTableRecord
100
AcDbDimStyleTableRecord
  2
AM_ANSI$3
 70
     0
  4
mm
 41
0.1
 42
0.05
 43
0.5
 44
0.1
 47
0.1
 48
0.1
 78
     7
 79
     2
140
0.12
141
0.0
146
0.71
147
0.06
176
   256
177
   256
178
     2
274
     4
284
     7
288
     1
289
     0
340
11
371
    -1
372
    -1
1001
ACAD_DSTYLE_DIMJOGGED_JOGANGLE_SYMBOL
1070
   384
1040
0.7853981633974483
1001
ACAD_DSTYLE_DIMARC_LENGTH_SYMBOL
1070
   379
1070
     1
  0
DIMSTYLE
105
20211
330
A
100
AcDbSymbolTableRecord
100
AcDbDimStyleTableRecord
  2
AM_ANSI$4
 70
     0
  4
mm
 41
0.1
 42
0.05
 43
0.5
 44
0.1
 47
0.1
 48
0.1
 78
     7
 79
     2
140
0.12
141
0.0
146
0.71
147
0.06
176
   256
177
   256
178
     2
274
     4
284
     7
288
     1
289
     0
340
11
371
    -1
372
    -1
1001
ACAD_DSTYLE_DIMJOGGED_JOGANGLE_SYMBOL
1070
   384
1040
0.7853981633974483
1001
ACAD_DSTYLE_DIMARC_LENGTH_SYMBOL
1070
   379
1070
     1
  0
DIMSTYLE
105
20212
330
A
100
AcDbSymbolTableRecord
100
AcDbDimStyleTableRecord
  2
AM_ANSI$7
 70
     0
  4
mm
 41
0.1
 42
0.05
 43
0.5
 44
0.1
 47
0.1
 48
0.1
 78
     7
 79
     2
140
0.24
141
0.0
146
0.71
147
0.06
176
   256
177
   256
178
     2
274
     4
284
     7
340
11
371
    -1
372
    -1
1001
ACAD_DSTYLE_DIMJOGGED_JOGANGLE_SYMBOL
1070
   384
1040
0.7853981633974483
1001
ACAD_DSTYLE_DIMARC_LENGTH_SYMBOL
1070
   379
1070
     1
  0
DIMSTYLE
105
20213
330
A
100
AcDbSymbolTableRecord
100
AcDbDimStyleTableRecord
  2
AM_ANSI$SF
 70
     0
  4
mm
 41
0.1
 42
0.05
 43
0.5
 44
0.1
 47
0.1
 48
0.1
 75
     1
 76
     1
 78
     7
 79
     2
140
0.12
141
0.0
146
0.71
147
0.06
176
   256
177
   256
178
     2
274
     4
284
     7
340
11
371
    -1
372
    -1
1001
ACAD_DSTYLE_DIMJOGGED_JOGANGLE_SYMBOL
1070
   384
1040
0.7853981633974483
1001
ACAD_DSTYLE_DIMARC_LENGTH_SYMBOL
1070
   379
1070
     1
  0
DIMSTYLE
105
20214
330
A
100
AcDbSymbolTableRecord
100
AcDbDimStyleTableRecord
  2
AM_ANSI$SH
 70
     0
  4
mm
 41
0.1
 42
0.05
 43
0.5
 44
0.1
 47
0.1
 48
0.1
 75
     1
 76
     1
 78
     7
 79
     2
140
0.12
141
0.0
146
0.71
147
0.06
173
     1
176
   256
177
   256
178
     2
274
     4
284
     7
340
11
343
72
371
    -1
372
    -1
1001
ACAD_DSTYLE_DIMJOGGED_JOGANGLE_SYMBOL
1070
   384
1040
0.7853981633974483
1001
ACAD_DSTYLE_DIMARC_LENGTH_SYMBOL
1070
   379
1070
     1
  0
ENDTAB
  0
TABLE
  2
BLOCK_RECORD
  5
1
330
0
100
AcDbSymbolTable
 70
    35
  0
BLOCK_RECORD
  5
1F
102
{ACAD_XDICTIONARY
360
8A
102
}
330
1
100
AcDbSymbolTableRecord
100
AcDbBlockTableRecord
  2
*Model_Space
340
22
  0
BLOCK_RECORD
  5
1B
330
1
100
AcDbSymbolTableRecord
100
AcDbBlockTableRecord
  2
*Paper_Space
340
1E
  0
BLOCK_RECORD
  5
23
330
1
100
AcDbSymbolTableRecord
100
AcDbBlockTableRecord
  2
*Paper_Space0
340
26
  0
BLOCK_RECORD
  5
72
330
1
100
AcDbSymbolTableRecord
100
AcDbBlockTableRecord
  2
GENAXEH
340
0
  0
BLOCK_RECORD
  5
6C4
330
1
100
AcDbSymbolTableRecord
100
AcDbBlockTableRecord
  2
_Dot
340
0
102
{BLKREFS
331
70AE3
331
70AE4
331
70AEC
331
70AED
331
70AF7
331
70AF8
331
70B00
331
70B01
331
70B09
331
70B0A
331
70B1E
331
70B1F
331
70B27
331
70B28
331
70B30
331
70B31
331
70B92
331
70B93
331
70DC2
331
70DC3
331
70DCB
331
70DCC
331
70DD6
331
70DD7
331
70DDF
331
70DE0
331
70DF0
331
70DF1
331
70DF9
331
70DFA
331
70E02
331
70E03
331
70E0B
331
70E0C
331
70E16
331
70E17
331
70E20
331
70E21
331
70E29
331
70E2A
331
70E32
331
70E33
331
70E3D
331
70E3E
331
70E46
331
70E47
102
}
  0
BLOCK_RECORD
  5
A66
330
1
100
AcDbSymbolTableRecord
100
AcDbBlockTableRecord
  2
_OPEN30
340
0
102
{BLKREFS
331
70B12
331
70B18
331
70B55
331
70B8A
331
70B9A
331
70DE8
331
70E4F
102
}
  0
BLOCK_RECORD
  5
11194
330
1
100
AcDbSymbolTableRecord
100
AcDbBlockTableRecord
  2
*D5
340
0
  0
BLOCK_RECORD
  5
111A0
330
1
100
AcDbSymbolTableRecord
100
AcDbBlockTableRecord
  2
*D6
340
0
  0
BLOCK_RECORD
  5
111B8
330
1
100
AcDbSymbolTableRecord
100
AcDbBlockTableRecord
  2
*D7
340
0
  0
BLOCK_RECORD
  5
111EC
330
1
100
AcDbSymbolTableRecord
100
AcDbBlockTableRecord
  2
*D8
340
0
  0
BLOCK_RECORD
  5
1124A
330
1
100
AcDbSymbolTableRecord
100
AcDbBlockTableRecord
  2
*D9
340
0
  0
BLOCK_RECORD
  5
118CB
330
1
100
AcDbSymbolTableRecord
100
AcDbBlockTableRecord
  2
*D10
340
0
  0
BLOCK_RECORD
  5
118D7
330
1
100
AcDbSymbolTableRecord
100
AcDbBlockTableRecord
  2
*D11
340
0
  0
BLOCK_RECORD
  5
118E3
330
1
100
AcDbSymbolTableRecord
100
AcDbBlockTableRecord
  2
*D12
340
0
  0
BLOCK_RECORD
  5
118EF
330
1
100
AcDbSymbolTableRecord
100
AcDbBlockTableRecord
  2
*D13
340
0
  0
BLOCK_RECORD
  5
118FB
330
1
100
AcDbSymbolTableRecord
100
AcDbBlockTableRecord
  2
*D14
340
0
  0
BLOCK_RECORD
  5
11909
330
1
100
AcDbSymbolTableRecord
100
AcDbBlockTableRecord
  2
*D15
340
0
  0
BLOCK_RECORD
  5
11915
330
1
100
AcDbSymbolTableRecord
100
AcDbBlockTableRecord
  2
*D16
340
0
  0
BLOCK_RECORD
  5
11921
330
1
100
AcDbSymbolTableRecord
100
AcDbBlockTableRecord
  2
*D17
340
0
  0
BLOCK_RECORD
  5
1192A
330
1
100
AcDbSymbolTableRecord
100
AcDbBlockTableRecord
  2
*D18
340
0
  0
BLOCK_RECORD
  5
11933
330
1
100
AcDbSymbolTableRecord
100
AcDbBlockTableRecord
  2
*D19
340
0
  0
BLOCK_RECORD
  5
12548
330
1
100
AcDbSymbolTableRecord
100
AcDbBlockTableRecord
  2
*D20
340
0
  0
BLOCK_RECORD
  5
12618
330
1
100
AcDbSymbolTableRecord
100
AcDbBlockTableRecord
  2
*D21
340
0
  0
BLOCK_RECORD
  5
12668
330
1
100
AcDbSymbolTableRecord
100
AcDbBlockTableRecord
  2
*D22
340
0
  0
BLOCK_RECORD
  5
12704
330
1
100
AcDbSymbolTableRecord
100
AcDbBlockTableRecord
  2
*D23
340
0
  0
BLOCK_RECORD
  5
13B5D
330
1
100
AcDbSymbolTableRecord
100
AcDbBlockTableRecord
  2
*D24
340
0
  0
BLOCK_RECORD
  5
153D3
330
1
100
AcDbSymbolTableRecord
100
AcDbBlockTableRecord
  2
*D25
340
0
  0
BLOCK_RECORD
  5
153FB
330
1
100
AcDbSymbolTableRecord
100
AcDbBlockTableRecord
  2
*D26
340
0
  0
BLOCK_RECORD
  5
1673E
330
1
100
AcDbSymbolTableRecord
100
AcDbBlockTableRecord
  2
*D27
340
0
  0
BLOCK_RECORD
  5
4FDA2
330
1
100
AcDbSymbolTableRecord
100
AcDbBlockTableRecord
  2
*D28
340
0
  0
BLOCK_RECORD
  5
57F27
330
1
100
AcDbSymbolTableRecord
100
AcDbBlockTableRecord
  2
*D29
340
0
  0
BLOCK_RECORD
  5
58230
330
1
100
AcDbSymbolTableRecord
100
AcDbBlockTableRecord
  2
*D30
340
0
  0
BLOCK_RECORD
  5
67D43
330
1
100
AcDbSymbolTableRecord
100
AcDbBlockTableRecord
  2
*D31
340
0
  0
BLOCK_RECORD
  5
6C2BA
330
1
100
AcDbSymbolTableRecord
100
AcDbBlockTableRecord
  2
*D32
340
0
  0
BLOCK_RECORD
  5
6C301
330
1
100
AcDbSymbolTableRecord
100
AcDbBlockTableRecord
  2
*D33
340
0
  0
BLOCK_RECORD
  5
70C6E
330
1
100
AcDbSymbolTableRecord
100
AcDbBlockTableRecord
  2
*D34
340
0
  0
ENDTAB
  0
ENDSEC
  0
SECTION
  2
BLOCKS
  0
BLOCK
  5
20
330
1F
100
AcDbEntity
  8
0
100
AcDbBlockBegin
  2
*Model_Space
 70
     0
 10
0.0
 20
0.0
 30
0.0
  3
*Model_Space
  1

  0
ENDBLK
  5
21
330
1F
100
AcDbEntity
  8
0
100
AcDbBlockEnd
  0
BLOCK
  5
1C
330
1B
100
AcDbEntity
 67
     1
  8
0
100
AcDbBlockBegin
  2
*Paper_Space
 70
     0
 10
0.0
 20
0.0
 30
0.0
  3
*Paper_Space
  1

  0
ENDBLK
  5
1D
330
1B
100
AcDbEntity
 67
     1
  8
0
100
AcDbBlockEnd
  0
BLOCK
  5
24
330
23
100
AcDbEntity
 67
     1
  8
0
100
AcDbBlockBegin
  2
*Paper_Space0
 70
     0
 10
0.0
 20
0.0
 30
0.0
  3
*Paper_Space0
  1

  0
ENDBLK
  5
25
330
23
100
AcDbEntity
 67
     1
  8
0
100
AcDbBlockEnd
  0
BLOCK
  5
74
330
72
100
AcDbEntity
  8
0
100
AcDbBlockBegin
  2
GENAXEH
 70
     0
 10
0.0
 20
0.0
 30
0.0
  3
GENAXEH
  1

  0
LINE
  5
73
330
72
100
AcDbEntity
  8
0
100
AcDbLine
 10
-1.0
 20
0.0
 30
0.0
 11
1.0
 21
0.0
 31
0.0
  0
ENDBLK
  5
75
330
72
100
AcDbEntity
  8
0
100
AcDbBlockEnd
  0
BLOCK
  5
6C7
330
6C4
100
AcDbEntity
  8
0
100
AcDbBlockBegin
  2
_Dot
 70
     0
 10
0.0
 20
0.0
 30
0.0
  3
_Dot
  1

  0
LWPOLYLINE
  5
6C5
330
6C4
100
AcDbEntity
  8
0
  6
ByBlock
 62
     0
100
AcDbPolyline
 90
        2
 70
     1
 43
0.5
 10
-0.25
 20
0.0
 42
1.0
 10
0.25
 20
0.0
 42
1.0
  0
LINE
  5
6C6
330
6C4
100
AcDbEntity
  8
0
  6
ByBlock
 62
     0
370
    -2
100
AcDbLine
 10
-0.5
 20
0.0
 30
0.0
 11
-1.0
 21
0.0
 31
0.0
  0
ENDBLK
  5
6C8
330
6C4
100
AcDbEntity
  8
0
100
AcDbBlockEnd
  0
BLOCK
  5
A6A
330
A66
100
AcDbEntity
  8
0
100
AcDbBlockBegin
  2
_OPEN30
 70
     0
 10
0.0
 20
0.0
 30
0.0
  3
_OPEN30
  1

  0
LINE
  5
A67
330
A66
100
AcDbEntity
  8
0
  6
ByBlock
 62
     0
100
AcDbLine
 10
-1.0
 20
0.26794919
 30
0.0
 11
0.0
 21
0.0
 31
0.0
  0
LINE
  5
A68
330
A66
100
AcDbEntity
  8
0
  6
ByBlock
 62
     0
100
AcDbLine
 10
0.0
 20
0.0
 30
0.0
 11
-1.0
 21
-0.26794919
 31
0.0
  0
LINE
  5
A69
330
A66
100
AcDbEntity
  8
0
  6
ByBlock
 62
     0
100
AcDbLine
 10
0.0
 20
0.0
 30
0.0
 11
-1.0
 21
0.0
 31
0.0
  0
ENDBLK
  5
A6B
330
A66
100
AcDbEntity
  8
0
100
AcDbBlockEnd
  0
BLOCK
  5
11195
330
11194
100
AcDbEntity
  8
0
100
AcDbBlockBegin
  2
*D5
 70
     1
 10
0.0
 20
0.0
 30
0.0
  3
*D5
  1

  0
LINE
  5
70DBF
330
11194
100
AcDbEntity
  8
AM_5
 48
1.01
100
AcDbLine
 10
167.1019253843265
 20
95.89834098575792
 30
0.0
 11
189.3769253604931
 21
95.89834098575792
 31
0.0
  0
LINE
  5
70DC0
330
11194
100
AcDbEntity
  8
AM_5
 48
1.01
100
AcDbLine
 10
167.1019253843265
 20
149.8983104681775
 30
0.0
 11
189.3769253604931
 21
149.8983104681775
 31
0.0
  0
LINE
  5
70DC1
330
11194
100
AcDbEntity
  8
AM_5
 48
1.01
100
AcDbLine
 10
188.3769253604931
 20
96.89834098575794
 30
0.0
 11
188.3769253604931
 21
148.8983104681775
 31
0.0
  0
INSERT
  5
70DC2
330
11194
100
AcDbEntity
  8
AM_5
 48
1.01
100
AcDbBlockReference
  2
_Dot
 10
188.3769253604931
 20
95.89834098575792
 30
0.0
 50
270.0
  0
INSERT
  5
70DC3
330
11194
100
AcDbEntity
  8
AM_5
 48
1.01
100
AcDbBlockReference
  2
_Dot
 10
188.3769253604931
 20
149.8983104681775
 30
0.0
 50
90.0
  0
MTEXT
  5
70DC4
330
11194
100
AcDbEntity
  8
AM_5
 62
     2
 48
1.01
100
AcDbMText
 10
185.276925360493
 20
122.8983257269677
 30
0.0
 40
3.200000000000001
 41
0.0
 71
     5
 72
     1
  1
54
 11
0.0000000000000001
 21
1.0
 31
0.0
 73
     1
 44
1.0
1001
ACAD
1000
MTEXTBEGIN
1070
    73
1070
     1
1070
    44
1040
1.0
1070
    74
1070
     0
1000
MTEXTEND
  0
POINT
  5
70DC5
330
11194
100
AcDbEntity
  8
Defpoints
 62
     0
 48
1.01
100
AcDbPoint
 10
166.1019253843265
 20
95.89834098575792
 30
0.0
  0
POINT
  5
70DC6
330
11194
100
AcDbEntity
  8
Defpoints
 62
     0
 48
1.01
100
AcDbPoint
 10
166.1019253843265
 20
149.8983104681775
 30
0.0
  0
POINT
  5
70DC7
330
11194
100
AcDbEntity
  8
Defpoints
 62
     0
 48
1.01
100
AcDbPoint
 10
188.3769253604931
 20
149.8983104681775
 30
0.0
  0
ENDBLK
  5
11196
330
11194
100
AcDbEntity
  8
0
100
AcDbBlockEnd
  0
BLOCK
  5
111A1
330
111A0
100
AcDbEntity
  8
0
100
AcDbBlockBegin
  2
*D6
 70
     1
 10
0.0
 20
0.0
 30
0.0
  3
*D6
  1

  0
LINE
  5
70DC8
330
111A0
100
AcDbEntity
  8
AM_5
 48
1.01
100
AcDbLine
 10
168.3769253604847
 20
87.89831046817935
 30
0.0
 11
199.3769253605119
 21
87.89831046817935
 31
0.0
  0
LINE
  5
70DC9
330
111A0
100
AcDbEntity
  8
AM_5
 48
1.01
100
AcDbLine
 10
168.3769253604847
 20
157.8983104681798
 30
0.0
 11
199.3769253605119
 21
157.8983104681797
 31
0.0
  0
LINE
  5
70DCA
330
111A0
100
AcDbEntity
  8
AM_5
 48
1.01
100
AcDbLine
 10
198.3769253605119
 20
88.89831046817935
 30
0.0
 11
198.3769253605119
 21
156.8983104681797
 31
0.0
  0
INSERT
  5
70DCB
330
111A0
100
AcDbEntity
  8
AM_5
 48
1.01
100
AcDbBlockReference
  2
_Dot
 10
198.3769253605119
 20
87.89831046817935
 30
0.0
 50
270.0
  0
INSERT
  5
70DCC
330
111A0
100
AcDbEntity
  8
AM_5
 48
1.01
100
AcDbBlockReference
  2
_Dot
 10
198.3769253605119
 20
157.8983104681797
 30
0.0
 50
90.0
  0
MTEXT
  5
70DCD
330
111A0
100
AcDbEntity
  8
AM_5
 62
     2
 48
1.01
100
AcDbMText
 10
195.2769253605119
 20
122.8983104681796
 30
0.0
 40
3.200000000000001
 41
0.0
 71
     5
 72
     1
  1
70
 11
0.0000000000000001
 21
1.0
 31
0.0
 73
     1
 44
1.0
1001
ACAD
1000
MTEXTBEGIN
1070
    73
1070
     1
1070
    44
1040
1.0
1070
    74
1070
     0
1000
MTEXTEND
  0
POINT
  5
70DCE
330
111A0
100
AcDbEntity
  8
Defpoints
 62
     0
 48
1.01
100
AcDbPoint
 10
167.3769253604846
 20
87.89831046817935
 30
0.0
  0
POINT
  5
70DCF
330
111A0
100
AcDbEntity
  8
Defpoints
 62
     0
 48
1.01
100
AcDbPoint
 10
167.3769253604846
 20
157.8983104681798
 30
0.0
  0
POINT
  5
70DD0
330
111A0
100
AcDbEntity
  8
Defpoints
 62
     0
 48
1.01
100
AcDbPoint
 10
198.3769253605119
 20
157.8983104681797
 30
0.0
  0
ENDBLK
  5
111A2
330
111A0
100
AcDbEntity
  8
0
100
AcDbBlockEnd
  0
BLOCK
  5
111B9
330
111B8
100
AcDbEntity
  8
0
100
AcDbBlockBegin
  2
*D7
 70
     1
 10
0.0
 20
0.0
 30
0.0
  3
*D7
  1

  0
LINE
  5
70DD1
330
111B8
100
AcDbEntity
  8
AM_5
 48
1.01
100
AcDbLine
 10
132.7769877261391
 20
217.4361254573807
 30
0.0
 11
121.8769253604839
 21
217.4361254573807
 31
0.0
  0
LINE
  5
70DD2
330
111B8
100
AcDbEntity
  8
AM_5
 48
1.01
100
AcDbLine
 10
132.8769253604837
 20
214.454066914606
 30
0.0
 11
121.8769253604839
 21
214.454066914606
 31
0.0
  0
LINE
  5
70DD3
330
111B8
100
AcDbEntity
  8
AM_5
 48
1.01
100
AcDbLine
 10
122.8769253604839
 20
213.4540669146059
 30
0.0
 11
122.8769253604839
 21
212.4540669146059
 31
0.0
  0
LINE
  5
70DD4
330
111B8
100
AcDbEntity
  8
AM_5
 48
1.01
100
AcDbLine
 10
122.8769253604839
 20
218.4361254573806
 30
0.0
 11
122.8769253604839
 21
223.929458790714
 31
0.0
  0
LINE
  5
70DD5
330
111B8
100
AcDbEntity
  8
AM_5
 48
1.01
100
AcDbLine
 10
122.8769253604839
 20
214.454066914606
 30
0.0
 11
122.8769253604839
 21
217.4361254573807
 31
0.0
  0
INSERT
  5
70DD6
330
111B8
100
AcDbEntity
  8
AM_5
 48
1.01
100
AcDbBlockReference
  2
_Dot
 10
122.8769253604839
 20
214.454066914606
 30
0.0
 50
90.0
  0
INSERT
  5
70DD7
330
111B8
100
AcDbEntity
  8
AM_5
 48
1.01
100
AcDbBlockReference
  2
_Dot
 10
122.8769253604839
 20
217.4361254573807
 30
0.0
 50
270.0
  0
MTEXT
  5
70DD8
330
111B8
100
AcDbEntity
  8
AM_5
 62
     2
 48
1.01
100
AcDbMText
 10
119.7769253604838
 20
221.6827921240474
 30
0.0
 40
3.200000000000001
 41
0.0
 71
     5
 72
     1
  1
3
 11
0.0000000000000001
 21
1.0
 31
0.0
 73
     1
 44
1.0
1001
ACAD
1000
MTEXTBEGIN
1070
    73
1070
     1
1070
    44
1040
1.0
1070
    74
1070
     0
1000
MTEXTEND
  0
POINT
  5
70DD9
330
111B8
100
AcDbEntity
  8
Defpoints
 62
     0
 48
1.01
100
AcDbPoint
 10
133.7769877261391
 20
217.4361254573807
 30
0.0
  0
POINT
  5
70DDA
330
111B8
100
AcDbEntity
  8
Defpoints
 62
     0
 48
1.01
100
AcDbPoint
 10
133.8769253604837
 20
214.454066914606
 30
0.0
  0
POINT
  5
70DDB
330
111B8
100
AcDbEntity
  8
Defpoints
 62
     0
 48
1.01
100
AcDbPoint
 10
122.8769253604839
 20
214.454066914606
 30
0.0
  0
ENDBLK
  5
111BA
330
111B8
100
AcDbEntity
  8
0
100
AcDbBlockEnd
  0
BLOCK
  5
111ED
330
111EC
100
AcDbEntity
  8
0
100
AcDbBlockBegin
  2
*D8
 70
     1
 10
0.0
 20
0.0
 30
0.0
  3
*D8
  1

  0
LINE
  5
70DDC
330
111EC
100
AcDbEntity
  8
AM_5
 48
1.01
100
AcDbLine
 10
173.3769253604847
 20
91.89831046817934
 30
0.0
 11
173.3769253604847
 21
64.8983104681794
 31
0.0
  0
LINE
  5
70DDD
330
111EC
100
AcDbEntity
  8
AM_5
 48
1.01
100
AcDbLine
 10
132.8769253604846
 20
86.89831046817934
 30
0.0
 11
132.8769253604846
 21
64.8983104681794
 31
0.0
  0
LINE
  5
70DDE
330
111EC
100
AcDbEntity
  8
AM_5
 48
1.01
100
AcDbLine
 10
172.3769253604847
 20
65.8983104681794
 30
0.0
 11
133.8769253604846
 21
65.8983104681794
 31
0.0
  0
INSERT
  5
70DDF
330
111EC
100
AcDbEntity
  8
AM_5
 48
1.01
100
AcDbBlockReference
  2
_Dot
 10
173.3769253604847
 20
65.8983104681794
 30
0.0
  0
INSERT
  5
70DE0
330
111EC
100
AcDbEntity
  8
AM_5
 48
1.01
100
AcDbBlockReference
  2
_Dot
 10
132.8769253604846
 20
65.8983104681794
 30
0.0
 50
180.0
  0
MTEXT
  5
70DE1
330
111EC
100
AcDbEntity
  8
AM_5
 62
     2
 48
1.01
100
AcDbMText
 10
153.1269253604847
 20
68.9983104681794
 30
0.0
 40
3.200000000000001
 41
0.0
 71
     5
 72
     1
  1
40.5
 73
     1
 44
1.0
1001
ACAD
1000
MTEXTBEGIN
1070
    73
1070
     1
1070
    44
1040
1.0
1070
    74
1070
     0
1000
MTEXTEND
  0
POINT
  5
70DE2
330
111EC
100
AcDbEntity
  8
Defpoints
 62
     0
 48
1.01
100
AcDbPoint
 10
173.3769253604847
 20
92.89831046817935
 30
0.0
  0
POINT
  5
70DE3
330
111EC
100
AcDbEntity
  8
Defpoints
 62
     0
 48
1.01
100
AcDbPoint
 10
132.8769253604846
 20
87.89831046817935
 30
0.0
  0
POINT
  5
70DE4
330
111EC
100
AcDbEntity
  8
Defpoints
 62
     0
 48
1.01
100
AcDbPoint
 10
132.8769253604846
 20
65.8983104681794
 30
0.0
  0
ENDBLK
  5
111EE
330
111EC
100
AcDbEntity
  8
0
100
AcDbBlockEnd
  0
BLOCK
  5
1124B
330
1124A
100
AcDbEntity
  8
0
100
AcDbBlockBegin
  2
*D9
 70
     1
 10
0.0
 20
0.0
 30
0.0
  3
*D9
  1

  0
LINE
  5
70DE5
330
1124A
100
AcDbEntity
  8
AM_5
100
AcDbLine
 10
193.9345916679753
 20
75.89831046818014
 30
0.0
 11
177.2665916679751
 21
75.89831046818014
 31
0.0
  0
LINE
  5
70DE6
330
1124A
100
AcDbEntity
  8
AM_5
100
AcDbLine
 10
177.2665916679751
 20
75.89831046818014
 30
0.0
 11
161.1234770219887
 21
92.99034271018394
 31
0.0
  0
MTEXT
  5
70DE7
102
{ACAD_XDICTIONARY
360
70E76
102
}
330
1124A
100
AcDbEntity
  8
AM_5
 62
     2
100
AcDbMText
 10
186.3505916679753
 20
78.99831046818016
 30
0.0
 40
3.200000000000001
 41
0.0
 71
     5
 72
     1
  1
\U+22054×%%c8サラ
 73
     1
 44
1.0
1001
ACAD
1000
MTEXTBEGIN
1070
    73
1070
     1
1070
    44
1040
1.0
1070
    74
1070
     0
1000
MTEXTEND
  0
INSERT
  5
70DE8
330
1124A
100
AcDbEntity
  8
AM_5
100
AcDbBlockReference
  2
_OPEN30
 10
159.7502011912364
 20
94.44434184796614
 30
0.0
 41
2.0
 42
2.0
 43
2.0
 50
133.3645564443851
  0
POINT
  5
70DE9
330
1124A
100
AcDbEntity
  8
Defpoints
 62
     0
100
AcDbPoint
 10
159.7502011912364
 20
94.44434184796614
 30
0.0
  0
POINT
  5
70DEA
330
1124A
100
AcDbEntity
  8
Defpoints
 62
     0
100
AcDbPoint
 10
157.0036495297318
 20
97.35234012353046
 30
0.0
  0
ENDBLK
  5
1124C
330
1124A
100
AcDbEntity
  8
0
100
AcDbBlockEnd
  0
BLOCK
  5
118CC
330
118CB
100
AcDbEntity
  8
0
100
AcDbBlockBegin
  2
*D10
 70
     1
 10
0.0
 20
0.0
 30
0.0
  3
*D10
  1

  0
LINE
  5
70B24
330
118CB
100
AcDbEntity
  8
AM_5
100
AcDbLine
 10
350.3577758322927
 20
90.47323839320421
 30
0.0
 11
350.3577758322927
 21
64.8983104681794
 31
0.0
  0
LINE
  5
70B25
330
118CB
100
AcDbEntity
  8
AM_5
100
AcDbLine
 10
365.3577758322926
 20
92.87320785178371
 30
0.0
 11
365.3577758322926
 21
64.8983104681794
 31
0.0
  0
LINE
  5
70B26
330
118CB
100
AcDbEntity
  8
AM_5
100
AcDbLine
 10
351.3577758322926
 20
65.8983104681794
 30
0.0
 11
364.3577758322927
 21
65.8983104681794
 31
0.0
  0
INSERT
  5
70B27
330
118CB
100
AcDbEntity
  8
AM_5
100
AcDbBlockReference
  2
_Dot
 10
350.3577758322927
 20
65.8983104681794
 30
0.0
 50
180.0
  0
INSERT
  5
70B28
330
118CB
100
AcDbEntity
  8
AM_5
100
AcDbBlockReference
  2
_Dot
 10
365.3577758322926
 20
65.8983104681794
 30
0.0
  0
MTEXT
  5
70B29
330
118CB
100
AcDbEntity
  8
AM_5
 62
     2
100
AcDbMText
 10
357.8577758322926
 20
68.9983104681794
 30
0.0
 40
3.200000000000001
 41
0.0
 71
     5
 72
     1
  1
15
 73
     1
 44
1.0
1001
ACAD
1000
MTEXTBEGIN
1070
    73
1070
     1
1070
    44
1040
1.0
1070
    74
1070
     0
1000
MTEXTEND
  0
POINT
  5
70B2A
330
118CB
100
AcDbEntity
  8
Defpoints
 62
     0
100
AcDbPoint
 10
350.3577758322927
 20
91.47323839320421
 30
0.0
  0
POINT
  5
70B2B
330
118CB
100
AcDbEntity
  8
Defpoints
 62
     0
100
AcDbPoint
 10
365.3577758322926
 20
93.87320785178372
 30
0.0
  0
POINT
  5
70B2C
330
118CB
100
AcDbEntity
  8
Defpoints
 62
     0
100
AcDbPoint
 10
365.3577758322926
 20
65.8983104681794
 30
0.0
  0
ENDBLK
  5
118CD
330
118CB
100
AcDbEntity
  8
0
100
AcDbBlockEnd
  0
BLOCK
  5
118D8
330
118D7
100
AcDbEntity
  8
0
100
AcDbBlockBegin
  2
*D11
 70
     1
 10
0.0
 20
0.0
 30
0.0
  3
*D11
  1

  0
LINE
  5
70B2D
330
118D7
100
AcDbEntity
  8
AM_5
100
AcDbLine
 10
365.3577758322926
 20
92.87320785178371
 30
0.0
 11
365.3577758322926
 21
54.8983104681794
 31
0.0
  0
LINE
  5
70B2E
330
118D7
100
AcDbEntity
  8
AM_5
100
AcDbLine
 10
338.3577758322926
 20
108.8732078517837
 30
0.0
 11
338.3577758322926
 21
54.8983104681794
 31
0.0
  0
LINE
  5
70B2F
330
118D7
100
AcDbEntity
  8
AM_5
100
AcDbLine
 10
364.3577758322927
 20
55.8983104681794
 30
0.0
 11
339.3577758322927
 21
55.8983104681794
 31
0.0
  0
INSERT
  5
70B30
330
118D7
100
AcDbEntity
  8
AM_5
100
AcDbBlockReference
  2
_Dot
 10
365.3577758322926
 20
55.8983104681794
 30
0.0
  0
INSERT
  5
70B31
330
118D7
100
AcDbEntity
  8
AM_5
100
AcDbBlockReference
  2
_Dot
 10
338.3577758322926
 20
55.8983104681794
 30
0.0
 50
180.0
  0
MTEXT
  5
70B32
330
118D7
100
AcDbEntity
  8
AM_5
 62
     2
100
AcDbMText
 10
351.6537506009845
 20
58.9983104681794
 30
0.0
 40
3.200000000000001
 41
0.0
 71
     5
 72
     1
  1
27
 73
     1
 44
1.0
1001
ACAD
1000
MTEXTBEGIN
1070
    73
1070
     1
1070
    44
1040
1.0
1070
    74
1070
     0
1000
MTEXTEND
  0
POINT
  5
70B33
330
118D7
100
AcDbEntity
  8
Defpoints
 62
     0
100
AcDbPoint
 10
365.3577758322926
 20
93.87320785178372
 30
0.0
  0
POINT
  5
70B34
330
118D7
100
AcDbEntity
  8
Defpoints
 62
     0
100
AcDbPoint
 10
338.3577758322926
 20
109.8732078517837
 30
0.0
  0
POINT
  5
70B35
330
118D7
100
AcDbEntity
  8
Defpoints
 62
     0
100
AcDbPoint
 10
338.3577758322926
 20
55.8983104681794
 30
0.0
  0
ENDBLK
  5
118D9
330
118D7
100
AcDbEntity
  8
0
100
AcDbBlockEnd
  0
BLOCK
  5
118E4
330
118E3
100
AcDbEntity
  8
0
100
AcDbBlockBegin
  2
*D12
 70
     1
 10
0.0
 20
0.0
 30
0.0
  3
*D12
  1

  0
LINE
  5
70AE0
330
118E3
100
AcDbEntity
  8
AM_5
 48
1.01
100
AcDbLine
 10
344.9577758561346
 20
95.8732383693623
 30
0.0
 11
315.8577758322926
 21
95.8732383693623
 31
0.0
  0
LINE
  5
70AE1
330
118E3
100
AcDbEntity
  8
AM_5
 48
1.01
100
AcDbLine
 10
344.9577758561346
 20
149.8731773342047
 30
0.0
 11
315.8577758322926
 21
149.8731773342047
 31
0.0
  0
LINE
  5
70AE2
330
118E3
100
AcDbEntity
  8
AM_5
 48
1.01
100
AcDbLine
 10
316.8577758322926
 20
96.87323836936229
 30
0.0
 11
316.8577758322927
 21
148.8731773342047
 31
0.0
  0
INSERT
  5
70AE3
330
118E3
100
AcDbEntity
  8
AM_5
 48
1.01
100
AcDbBlockReference
  2
_Dot
 10
316.8577758322926
 20
95.8732383693623
 30
0.0
 50
270.0
  0
INSERT
  5
70AE4
330
118E3
100
AcDbEntity
  8
AM_5
 48
1.01
100
AcDbBlockReference
  2
_Dot
 10
316.8577758322927
 20
149.8731773342047
 30
0.0
 50
90.0
  0
MTEXT
  5
70AE5
330
118E3
100
AcDbEntity
  8
AM_5
 62
     2
 48
1.01
100
AcDbMText
 10
313.7577758322926
 20
122.8732078517835
 30
0.0
 40
3.200000000000001
 41
0.0
 71
     5
 72
     1
  1
54
 11
0.0000000000000001
 21
1.0
 31
0.0
 73
     1
 44
1.0
1001
ACAD
1000
MTEXTBEGIN
1070
    73
1070
     1
1070
    44
1040
1.0
1070
    74
1070
     0
1000
MTEXTEND
  0
POINT
  5
70AE6
330
118E3
100
AcDbEntity
  8
Defpoints
 62
     0
 48
1.01
100
AcDbPoint
 10
345.9577758561346
 20
95.8732383693623
 30
0.0
  0
POINT
  5
70AE7
330
118E3
100
AcDbEntity
  8
Defpoints
 62
     0
 48
1.01
100
AcDbPoint
 10
345.9577758561346
 20
149.8731773342047
 30
0.0
  0
POINT
  5
70AE8
330
118E3
100
AcDbEntity
  8
Defpoints
 62
     0
 48
1.01
100
AcDbPoint
 10
316.8577758322927
 20
149.8731773342047
 30
0.0
  0
ENDBLK
  5
118E5
330
118E3
100
AcDbEntity
  8
0
100
AcDbBlockEnd
  0
BLOCK
  5
118F0
330
118EF
100
AcDbEntity
  8
0
100
AcDbBlockBegin
  2
*D13
 70
     1
 10
0.0
 20
0.0
 30
0.0
  3
*D13
  1

  0
LINE
  5
70AE9
330
118EF
100
AcDbEntity
  8
AM_5
 48
1.01
100
AcDbLine
 10
325.8577758322926
 20
157.8732078517837
 30
0.0
 11
305.8577758322927
 21
157.8732078517837
 31
0.0
  0
LINE
  5
70AEA
330
118EF
100
AcDbEntity
  8
AM_5
 48
1.01
100
AcDbLine
 10
325.8577758322926
 20
87.87320785178371
 30
0.0
 11
305.8577758322926
 21
87.87320785178371
 31
0.0
  0
LINE
  5
70AEB
330
118EF
100
AcDbEntity
  8
AM_5
 48
1.01
100
AcDbLine
 10
306.8577758322927
 20
156.8732078517837
 30
0.0
 11
306.8577758322927
 21
88.87320785178372
 31
0.0
  0
INSERT
  5
70AEC
330
118EF
100
AcDbEntity
  8
AM_5
 48
1.01
100
AcDbBlockReference
  2
_Dot
 10
306.8577758322927
 20
157.8732078517837
 30
0.0
 50
90.0
  0
INSERT
  5
70AED
330
118EF
100
AcDbEntity
  8
AM_5
 48
1.01
100
AcDbBlockReference
  2
_Dot
 10
306.8577758322927
 20
87.87320785178371
 30
0.0
 50
270.0
  0
MTEXT
  5
70AEE
330
118EF
100
AcDbEntity
  8
AM_5
 62
     2
 48
1.01
100
AcDbMText
 10
303.7577758322926
 20
122.8732078517838
 30
0.0
 40
3.200000000000001
 41
0.0
 71
     5
 72
     1
  1
70
 11
0.0000000000000001
 21
1.0
 31
0.0
 73
     1
 44
1.0
1001
ACAD
1000
MTEXTBEGIN
1070
    73
1070
     1
1070
    44
1040
1.0
1070
    74
1070
     0
1000
MTEXTEND
  0
POINT
  5
70AEF
330
118EF
100
AcDbEntity
  8
Defpoints
 62
     0
 48
1.01
100
AcDbPoint
 10
326.8577758322927
 20
157.8732078517837
 30
0.0
  0
POINT
  5
70AF0
330
118EF
100
AcDbEntity
  8
Defpoints
 62
     0
 48
1.01
100
AcDbPoint
 10
326.8577758322927
 20
87.87320785178371
 30
0.0
  0
POINT
  5
70AF1
330
118EF
100
AcDbEntity
  8
Defpoints
 62
     0
 48
1.01
100
AcDbPoint
 10
306.8577758322927
 20
87.87320785178371
 30
0.0
  0
ENDBLK
  5
118F1
330
118EF
100
AcDbEntity
  8
0
100
AcDbBlockEnd
  0
BLOCK
  5
118FC
330
118FB
100
AcDbEntity
  8
0
100
AcDbBlockBegin
  2
*D14
 70
     1
 10
0.0
 20
0.0
 30
0.0
  3
*D14
  1

  0
LINE
  5
70AF2
330
118FB
100
AcDbEntity
  8
AM_5
 48
1.01
100
AcDbLine
 10
325.8577758322926
 20
217.4540669146064
 30
0.0
 11
315.8577758322926
 21
217.4540669146064
 31
0.0
  0
LINE
  5
70AF3
330
118FB
100
AcDbEntity
  8
AM_5
 48
1.01
100
AcDbLine
 10
325.8577758322926
 20
214.4540669146064
 30
0.0
 11
315.8577758322926
 21
214.4540669146064
 31
0.0
  0
LINE
  5
70AF4
330
118FB
100
AcDbEntity
  8
AM_5
 48
1.01
100
AcDbLine
 10
316.8577758322927
 20
218.4540669146064
 30
0.0
 11
316.8577758322927
 21
219.4540669146064
 31
0.0
  0
LINE
  5
70AF5
330
118FB
100
AcDbEntity
  8
AM_5
 48
1.01
100
AcDbLine
 10
316.8577758322927
 20
213.4540669146064
 30
0.0
 11
316.8577758322927
 21
207.9607335812731
 31
0.0
  0
LINE
  5
70AF6
330
118FB
100
AcDbEntity
  8
AM_5
 48
1.01
100
AcDbLine
 10
316.8577758322927
 20
217.4540669146064
 30
0.0
 11
316.8577758322927
 21
214.4540669146064
 31
0.0
  0
INSERT
  5
70AF7
330
118FB
100
AcDbEntity
  8
AM_5
 48
1.01
100
AcDbBlockReference
  2
_Dot
 10
316.8577758322927
 20
217.4540669146064
 30
0.0
 50
270.0
  0
INSERT
  5
70AF8
330
118FB
100
AcDbEntity
  8
AM_5
 48
1.01
100
AcDbBlockReference
  2
_Dot
 10
316.8577758322927
 20
214.4540669146064
 30
0.0
 50
90.0
  0
MTEXT
  5
70AF9
330
118FB
100
AcDbEntity
  8
AM_5
 62
     2
 48
1.01
100
AcDbMText
 10
313.7577758322926
 20
210.2074002479398
 30
0.0
 40
3.200000000000001
 41
0.0
 71
     5
 72
     1
  1
3
 11
0.0000000000000001
 21
1.0
 31
0.0
 73
     1
 44
1.0
1001
ACAD
1000
MTEXTBEGIN
1070
    73
1070
     1
1070
    44
1040
1.0
1070
    74
1070
     0
1000
MTEXTEND
  0
POINT
  5
70AFA
330
118FB
100
AcDbEntity
  8
Defpoints
 62
     0
 48
1.01
100
AcDbPoint
 10
326.8577758322927
 20
217.4540669146064
 30
0.0
  0
POINT
  5
70AFB
330
118FB
100
AcDbEntity
  8
Defpoints
 62
     0
 48
1.01
100
AcDbPoint
 10
326.8577758322927
 20
214.4540669146064
 30
0.0
  0
POINT
  5
70AFC
330
118FB
100
AcDbEntity
  8
Defpoints
 62
     0
 48
1.01
100
AcDbPoint
 10
316.8577758322927
 20
214.4540669146064
 30
0.0
  0
ENDBLK
  5
118FD
330
118FB
100
AcDbEntity
  8
0
100
AcDbBlockEnd
  0
BLOCK
  5
1190A
330
11909
100
AcDbEntity
  8
0
100
AcDbBlockBegin
  2
*D15
 70
     1
 10
0.0
 20
0.0
 30
0.0
  3
*D15
  1

  0
LINE
  5
70AFD
330
11909
100
AcDbEntity
  8
AM_5
 48
1.01
100
AcDbLine
 10
337.3577758322927
 20
227.454063862846
 30
0.0
 11
305.8577758322926
 21
227.454063862846
 31
0.0
  0
LINE
  5
70AFE
330
11909
100
AcDbEntity
  8
AM_5
 48
1.01
100
AcDbLine
 10
325.8577758322926
 20
214.4540669146064
 30
0.0
 11
305.8577758322926
 21
214.4540669146064
 31
0.0
  0
LINE
  5
70AFF
330
11909
100
AcDbEntity
  8
AM_5
 48
1.01
100
AcDbLine
 10
306.8577758322927
 20
226.454063862846
 30
0.0
 11
306.8577758322927
 21
215.4540669146064
 31
0.0
  0
INSERT
  5
70B00
330
11909
100
AcDbEntity
  8
AM_5
 48
1.01
100
AcDbBlockReference
  2
_Dot
 10
306.8577758322927
 20
227.454063862846
 30
0.0
 50
90.0
  0
INSERT
  5
70B01
330
11909
100
AcDbEntity
  8
AM_5
 48
1.01
100
AcDbBlockReference
  2
_Dot
 10
306.8577758322927
 20
214.4540669146064
 30
0.0
 50
270.0
  0
MTEXT
  5
70B02
330
11909
100
AcDbEntity
  8
AM_5
 62
     2
 48
1.01
100
AcDbMText
 10
303.7577758322925
 20
220.9540653887263
 30
0.0
 40
3.200000000000001
 41
0.0
 71
     5
 72
     1
  1
13
 11
0.0000000000000001
 21
1.0
 31
0.0
 73
     1
 44
1.0
1001
ACAD
1000
MTEXTBEGIN
1070
    73
1070
     1
1070
    44
1040
1.0
1070
    74
1070
     0
1000
MTEXTEND
  0
POINT
  5
70B03
330
11909
100
AcDbEntity
  8
Defpoints
 62
     0
 48
1.01
100
AcDbPoint
 10
338.3577758322926
 20
227.454063862846
 30
0.0
  0
POINT
  5
70B04
330
11909
100
AcDbEntity
  8
Defpoints
 62
     0
 48
1.01
100
AcDbPoint
 10
326.8577758322927
 20
214.4540669146064
 30
0.0
  0
POINT
  5
70B05
330
11909
100
AcDbEntity
  8
Defpoints
 62
     0
 48
1.01
100
AcDbPoint
 10
306.8577758322927
 20
214.4540669146064
 30
0.0
  0
ENDBLK
  5
1190B
330
11909
100
AcDbEntity
  8
0
100
AcDbBlockEnd
  0
BLOCK
  5
11916
330
11915
100
AcDbEntity
  8
0
100
AcDbBlockBegin
  2
*D16
 70
     1
 10
0.0
 20
0.0
 30
0.0
  3
*D16
  1

  0
LINE
  5
70B06
330
11915
100
AcDbEntity
  8
AM_5
100
AcDbLine
 10
356.3577758322927
 20
141.8732078517837
 30
0.0
 11
378.3577758322927
 21
141.8732078517837
 31
0.0
  0
LINE
  5
70B07
330
11915
100
AcDbEntity
  8
AM_5
100
AcDbLine
 10
356.3577758322927
 20
103.8732078517837
 30
0.0
 11
378.3577758322926
 21
103.8732078517837
 31
0.0
  0
LINE
  5
70B08
330
11915
100
AcDbEntity
  8
AM_5
100
AcDbLine
 10
377.3577758322927
 20
140.8732078517837
 30
0.0
 11
377.3577758322927
 21
104.8732078517837
 31
0.0
  0
INSERT
  5
70B09
330
11915
100
AcDbEntity
  8
AM_5
100
AcDbBlockReference
  2
_Dot
 10
377.3577758322927
 20
141.8732078517837
 30
0.0
 50
90.0
  0
INSERT
  5
70B0A
330
11915
100
AcDbEntity
  8
AM_5
100
AcDbBlockReference
  2
_Dot
 10
377.3577758322927
 20
103.8732078517837
 30
0.0
 50
270.0
  0
MTEXT
  5
70B0B
330
11915
100
AcDbEntity
  8
AM_5
 62
     2
100
AcDbMText
 10
374.2577758322926
 20
122.8732078517837
 30
0.0
 40
3.200000000000001
 41
0.0
 71
     5
 72
     1
  1
38
 11
0.0000000000000001
 21
1.0
 31
0.0
 73
     1
 44
1.0
1001
ACAD
1000
MTEXTBEGIN
1070
    73
1070
     1
1070
    44
1040
1.0
1070
    74
1070
     0
1000
MTEXTEND
  0
POINT
  5
70B0C
330
11915
100
AcDbEntity
  8
Defpoints
 62
     0
100
AcDbPoint
 10
355.3577758322926
 20
141.8732078517837
 30
0.0
  0
POINT
  5
70B0D
330
11915
100
AcDbEntity
  8
Defpoints
 62
     0
100
AcDbPoint
 10
355.3577758322926
 20
103.8732078517837
 30
0.0
  0
POINT
  5
70B0E
330
11915
100
AcDbEntity
  8
Defpoints
 62
     0
100
AcDbPoint
 10
377.3577758322927
 20
103.8732078517837
 30
0.0
  0
ENDBLK
  5
11917
330
11915
100
AcDbEntity
  8
0
100
AcDbBlockEnd
  0
BLOCK
  5
11922
330
11921
100
AcDbEntity
  8
0
100
AcDbBlockBegin
  2
*D17
 70
     1
 10
0.0
 20
0.0
 30
0.0
  3
*D17
  1

  0
LINE
  5
70B0F
330
11921
100
AcDbEntity
  8
AM_5
100
AcDbLine
 10
377.6738357933652
 20
164.2191600049045
 30
0.0
 11
367.5338357933652
 21
164.2191600049045
 31
0.0
  0
LINE
  5
70B10
330
11921
100
AcDbEntity
  8
AM_5
100
AcDbLine
 10
367.5338357933652
 20
164.2191600049045
 30
0.0
 11
363.7749442688055
 21
158.5431870873943
 31
0.0
  0
MTEXT
  5
70B11
330
11921
100
AcDbEntity
  8
AM_5
 62
     2
100
AcDbMText
 10
373.3538357933652
 20
167.3191600049045
 30
0.0
 40
3.200000000000001
 41
0.0
 71
     5
 72
     1
  1
2-R6
 73
     1
 44
1.0
1001
ACAD
1000
MTEXTBEGIN
1070
    73
1070
     1
1070
    44
1040
1.0
1070
    74
1070
     0
1000
MTEXTEND
  0
INSERT
  5
70B12
330
11921
100
AcDbEntity
  8
AM_5
100
AcDbBlockReference
  2
_OPEN30
 10
362.6706521596773
 20
156.8756922784916
 30
0.0
 41
2.0
 42
2.0
 43
2.0
 50
236.4856337886378
  0
POINT
  5
70B13
330
11921
100
AcDbEntity
  8
Defpoints
 62
     0
100
AcDbPoint
 10
362.6706521596773
 20
156.8756922784916
 30
0.0
  0
POINT
  5
70B14
330
11921
100
AcDbEntity
  8
Defpoints
 62
     0
100
AcDbPoint
 10
359.3577758322946
 20
151.8732078517863
 30
0.0
  0
ENDBLK
  5
11923
330
11921
100
AcDbEntity
  8
0
100
AcDbBlockEnd
  0
BLOCK
  5
1192B
330
1192A
100
AcDbEntity
  8
0
100
AcDbBlockBegin
  2
*D18
 70
     1
 10
0.0
 20
0.0
 30
0.0
  3
*D18
  1

  0
LINE
  5
70B15
330
1192A
100
AcDbEntity
  8
AM_5
100
AcDbLine
 10
378.108664544213
 20
153.9258990837696
 30
0.0
 11
367.9686645442129
 21
153.9258990837696
 31
0.0
  0
LINE
  5
70B16
330
1192A
100
AcDbEntity
  8
AM_5
100
AcDbLine
 10
367.9686645442129
 20
153.9258990837696
 30
0.0
 11
359.9391344065657
 21
142.4314967760346
 31
0.0
  0
MTEXT
  5
70B17
330
1192A
100
AcDbEntity
  8
AM_5
 62
     2
100
AcDbMText
 10
373.788664544213
 20
157.0258990837696
 30
0.0
 40
3.200000000000001
 41
0.0
 71
     5
 72
     1
  1
4-R6
 73
     1
 44
1.0
1001
ACAD
1000
MTEXTBEGIN
1070
    73
1070
     1
1070
    44
1040
1.0
1070
    74
1070
     0
1000
MTEXTEND
  0
INSERT
  5
70B18
330
1192A
100
AcDbEntity
  8
AM_5
100
AcDbBlockReference
  2
_OPEN30
 10
358.7937947629978
 20
140.7919245449719
 30
0.0
 41
2.0
 42
2.0
 43
2.0
 50
235.0633888261498
  0
POINT
  5
70B19
330
1192A
100
AcDbEntity
  8
Defpoints
 62
     0
100
AcDbPoint
 10
358.7937947629978
 20
140.7919245449719
 30
0.0
  0
POINT
  5
70B1A
330
1192A
100
AcDbEntity
  8
Defpoints
 62
     0
100
AcDbPoint
 10
355.3577758322941
 20
135.8732078517841
 30
0.0
  0
ENDBLK
  5
1192C
330
1192A
100
AcDbEntity
  8
0
100
AcDbBlockEnd
  0
BLOCK
  5
11934
330
11933
100
AcDbEntity
  8
0
100
AcDbBlockBegin
  2
*D19
 70
     1
 10
0.0
 20
0.0
 30
0.0
  3
*D19
  1

  0
LINE
  5
70B1B
330
11933
100
AcDbEntity
  8
AM_5
100
AcDbLine
 10
326.8577758322927
 20
78.64116744651074
 30
0.0
 11
326.8577758322927
 21
44.8983104681794
 31
0.0
  0
LINE
  5
70B1C
330
11933
100
AcDbEntity
  8
AM_5
100
AcDbLine
 10
365.3577758322926
 20
92.87320785178371
 30
0.0
 11
365.3577758322926
 21
44.8983104681794
 31
0.0
  0
LINE
  5
70B1D
330
11933
100
AcDbEntity
  8
AM_5
100
AcDbLine
 10
327.8577758322926
 20
45.8983104681794
 30
0.0
 11
364.3577758322927
 21
45.8983104681794
 31
0.0
  0
INSERT
  5
70B1E
330
11933
100
AcDbEntity
  8
AM_5
100
AcDbBlockReference
  2
_Dot
 10
326.8577758322927
 20
45.8983104681794
 30
0.0
 50
180.0
  0
INSERT
  5
70B1F
330
11933
100
AcDbEntity
  8
AM_5
100
AcDbBlockReference
  2
_Dot
 10
365.3577758322926
 20
45.8983104681794
 30
0.0
  0
MTEXT
  5
70B20
330
11933
100
AcDbEntity
  8
AM_5
 62
     2
100
AcDbMText
 10
346.1077758322927
 20
48.9983104681794
 30
0.0
 40
3.200000000000001
 41
0.0
 71
     5
 72
     1
  1
38.5
 73
     1
 44
1.0
1001
ACAD
1000
MTEXTBEGIN
1070
    73
1070
     1
1070
    44
1040
1.0
1070
    74
1070
     0
1000
MTEXTEND
  0
POINT
  5
70B21
330
11933
100
AcDbEntity
  8
Defpoints
 62
     0
100
AcDbPoint
 10
326.8577758322927
 20
79.64116744651073
 30
0.0
  0
POINT
  5
70B22
330
11933
100
AcDbEntity
  8
Defpoints
 62
     0
100
AcDbPoint
 10
365.3577758322926
 20
93.87320785178372
 30
0.0
  0
POINT
  5
70B23
330
11933
100
AcDbEntity
  8
Defpoints
 62
     0
100
AcDbPoint
 10
365.3577758322926
 20
45.8983104681794
 30
0.0
  0
ENDBLK
  5
11935
330
11933
100
AcDbEntity
  8
0
100
AcDbBlockEnd
  0
BLOCK
  5
12549
330
12548
100
AcDbEntity
  8
0
100
AcDbBlockBegin
  2
*D20
 70
     1
 10
0.0
 20
0.0
 30
0.0
  3
*D20
  1

  0
LINE
  5
70DEB
330
12548
100
AcDbEntity
  8
AM_5
100
AcDbLine
 10
174.1769275478374
 20
217.4540669146064
 30
0.0
 11
186.3769253604847
 21
217.4540669146064
 31
0.0
  0
LINE
  5
70DEC
330
12548
100
AcDbEntity
  8
AM_5
100
AcDbLine
 10
174.3769253604846
 20
214.4540669146064
 30
0.0
 11
186.3769253604847
 21
214.4540669146064
 31
0.0
  0
LINE
  5
70DED
330
12548
100
AcDbEntity
  8
AM_5
100
AcDbLine
 10
185.3769253604847
 20
218.4540669146064
 30
0.0
 11
185.3769253604847
 21
219.4540669146064
 31
0.0
  0
LINE
  5
70DEE
330
12548
100
AcDbEntity
  8
AM_5
100
AcDbLine
 10
185.3769253604847
 20
213.4540669146064
 30
0.0
 11
185.3769253604847
 21
207.9607335812731
 31
0.0
  0
LINE
  5
70DEF
330
12548
100
AcDbEntity
  8
AM_5
100
AcDbLine
 10
185.3769253604847
 20
217.4540669146064
 30
0.0
 11
185.3769253604847
 21
214.4540669146064
 31
0.0
  0
INSERT
  5
70DF0
330
12548
100
AcDbEntity
  8
AM_5
100
AcDbBlockReference
  2
_Dot
 10
185.3769253604847
 20
217.4540669146064
 30
0.0
 50
270.0
  0
INSERT
  5
70DF1
330
12548
100
AcDbEntity
  8
AM_5
100
AcDbBlockReference
  2
_Dot
 10
185.3769253604847
 20
214.4540669146064
 30
0.0
 50
90.0
  0
MTEXT
  5
70DF2
330
12548
100
AcDbEntity
  8
AM_5
 62
     2
100
AcDbMText
 10
182.2769253604846
 20
210.2074002479398
 30
0.0
 40
3.200000000000001
 41
0.0
 71
     5
 72
     1
  1
3
 11
0.0000000000000001
 21
1.0
 31
0.0
 73
     1
 44
1.0
1001
ACAD
1000
MTEXTBEGIN
1070
    73
1070
     1
1070
    44
1040
1.0
1070
    74
1070
     0
1000
MTEXTEND
  0
POINT
  5
70DF3
330
12548
100
AcDbEntity
  8
Defpoints
 62
     0
100
AcDbPoint
 10
173.1769275478374
 20
217.4540669146064
 30
0.0
  0
POINT
  5
70DF4
330
12548
100
AcDbEntity
  8
Defpoints
 62
     0
100
AcDbPoint
 10
173.3769253604847
 20
214.4540669146064
 30
0.0
  0
POINT
  5
70DF5
330
12548
100
AcDbEntity
  8
Defpoints
 62
     0
100
AcDbPoint
 10
185.3769253604847
 20
214.4540669146064
 30
0.0
  0
ENDBLK
  5
1254A
330
12548
100
AcDbEntity
  8
0
100
AcDbBlockEnd
  0
BLOCK
  5
12619
330
12618
100
AcDbEntity
  8
0
100
AcDbBlockBegin
  2
*D21
 70
     1
 10
0.0
 20
0.0
 30
0.0
  3
*D21
  1

  0
LINE
  5
70DF6
330
12618
100
AcDbEntity
  8
AM_5
100
AcDbLine
 10
152.8769253604846
 20
223.9540669146064
 30
0.0
 11
152.8769253604846
 21
237.9540669146063
 31
0.0
  0
LINE
  5
70DF7
330
12618
100
AcDbEntity
  8
AM_5
100
AcDbLine
 10
168.8769253604845
 20
223.9540669146063
 30
0.0
 11
168.8769253604845
 21
237.9540669146063
 31
0.0
  0
LINE
  5
70DF8
330
12618
100
AcDbEntity
  8
AM_5
100
AcDbLine
 10
153.8769253604846
 20
236.9540669146064
 30
0.0
 11
167.8769253604845
 21
236.9540669146064
 31
0.0
  0
INSERT
  5
70DF9
330
12618
100
AcDbEntity
  8
AM_5
100
AcDbBlockReference
  2
_Dot
 10
152.8769253604846
 20
236.9540669146064
 30
0.0
 50
180.0
  0
INSERT
  5
70DFA
330
12618
100
AcDbEntity
  8
AM_5
100
AcDbBlockReference
  2
_Dot
 10
168.8769253604845
 20
236.9540669146064
 30
0.0
  0
MTEXT
  5
70DFB
330
12618
100
AcDbEntity
  8
AM_5
 62
     2
100
AcDbMText
 10
160.8769253604846
 20
240.0540669146064
 30
0.0
 40
3.200000000000001
 41
0.0
 71
     5
 72
     1
  1
16
 73
     1
 44
1.0
1001
ACAD
1000
MTEXTBEGIN
1070
    73
1070
     1
1070
    44
1040
1.0
1070
    74
1070
     0
1000
MTEXTEND
  0
POINT
  5
70DFC
330
12618
100
AcDbEntity
  8
Defpoints
 62
     0
100
AcDbPoint
 10
152.8769253604846
 20
222.9540669146063
 30
0.0
  0
POINT
  5
70DFD
330
12618
100
AcDbEntity
  8
Defpoints
 62
     0
100
AcDbPoint
 10
168.8769253604845
 20
222.9540669146063
 30
0.0
  0
POINT
  5
70DFE
330
12618
100
AcDbEntity
  8
Defpoints
 62
     0
100
AcDbPoint
 10
168.8769253604845
 20
236.9540669146064
 30
0.0
  0
ENDBLK
  5
1261A
330
12618
100
AcDbEntity
  8
0
100
AcDbBlockEnd
  0
BLOCK
  5
12669
330
12668
100
AcDbEntity
  8
0
100
AcDbBlockBegin
  2
*D22
 70
     1
 10
0.0
 20
0.0
 30
0.0
  3
*D22
  1

  0
LINE
  5
70DFF
330
12668
100
AcDbEntity
  8
AM_5
100
AcDbLine
 10
248.5950898957877
 20
140.398310468178
 30
0.0
 11
264.5950898957877
 21
140.398310468178
 31
0.0
  0
LINE
  5
70E00
330
12668
100
AcDbEntity
  8
AM_5
100
AcDbLine
 10
248.5950898957877
 20
105.3983104681813
 30
0.0
 11
264.5950898957877
 21
105.3983104681813
 31
0.0
  0
LINE
  5
70E01
330
12668
100
AcDbEntity
  8
AM_5
100
AcDbLine
 10
263.5950898957877
 20
139.398310468178
 30
0.0
 11
263.5950898957877
 21
106.3983104681813
 31
0.0
  0
INSERT
  5
70E02
330
12668
100
AcDbEntity
  8
AM_5
100
AcDbBlockReference
  2
_Dot
 10
263.5950898957877
 20
140.398310468178
 30
0.0
 50
90.0
  0
INSERT
  5
70E03
330
12668
100
AcDbEntity
  8
AM_5
100
AcDbBlockReference
  2
_Dot
 10
263.5950898957877
 20
105.3983104681813
 30
0.0
 50
270.0
  0
MTEXT
  5
70E04
330
12668
100
AcDbEntity
  8
AM_5
 62
     2
100
AcDbMText
 10
260.4950898957877
 20
122.8983104681797
 30
0.0
 40
3.200000000000001
 41
0.0
 71
     5
 72
     1
  1
35
 11
0.0000000000000001
 21
1.0
 31
0.0
 73
     1
 44
1.0
1001
ACAD
1000
MTEXTBEGIN
1070
    73
1070
     1
1070
    44
1040
1.0
1070
    74
1070
     0
1000
MTEXTEND
  0
POINT
  5
70E05
330
12668
100
AcDbEntity
  8
Defpoints
 62
     0
100
AcDbPoint
 10
247.5950898957877
 20
140.398310468178
 30
0.0
  0
POINT
  5
70E06
330
12668
100
AcDbEntity
  8
Defpoints
 62
     0
100
AcDbPoint
 10
247.5950898957877
 20
105.3983104681813
 30
0.0
  0
POINT
  5
70E07
330
12668
100
AcDbEntity
  8
Defpoints
 62
     0
100
AcDbPoint
 10
263.5950898957877
 20
105.3983104681813
 30
0.0
  0
ENDBLK
  5
1266A
330
12668
100
AcDbEntity
  8
0
100
AcDbBlockEnd
  0
BLOCK
  5
12705
330
12704
100
AcDbEntity
  8
0
100
AcDbBlockBegin
  2
*D23
 70
     1
 10
0.0
 20
0.0
 30
0.0
  3
*D23
  1

  0
LINE
  5
70B53
330
12704
100
AcDbEntity
  8
AM_5
 48
0.3
100
AcDbLine
 10
144.356950739625
 20
202.172674575175
 30
0.0
 11
152.2347037745846
 21
213.283175078273
 31
0.0
  0
MTEXT
  5
70B54
330
12704
100
AcDbEntity
  8
AM_5
 62
     2
 48
0.3
100
AcDbMText
 10
144.6699830550494
 20
207.973782677421
 30
0.0
 40
3.200000000000001
 41
0.0
 71
     5
 72
     1
  1
R2.5
 11
0.578399371869979
 21
0.8157537414075486
 31
0.0
 73
     1
 44
1.0
1001
ACAD
1000
MTEXTBEGIN
1070
    73
1070
     1
1070
    44
1040
1.0
1070
    74
1070
     0
1000
MTEXTEND
  0
INSERT
  5
70B55
330
12704
100
AcDbEntity
  8
AM_5
 48
0.3
100
AcDbBlockReference
  2
_OPEN30
 10
153.3915025183246
 20
214.9146825610881
 30
0.0
 41
2.0
 42
2.0
 43
2.0
 50
54.66195844319095
  0
POINT
  5
70B56
330
12704
100
AcDbEntity
  8
Defpoints
 62
     0
 48
0.3
100
AcDbPoint
 10
153.3915025183246
 20
214.9146825610881
 30
0.0
  0
POINT
  5
70B57
330
12704
100
AcDbEntity
  8
Defpoints
 62
     0
 48
0.3
100
AcDbPoint
 10
154.8375009479995
 20
216.954066914607
 30
0.0
  0
ENDBLK
  5
12706
330
12704
100
AcDbEntity
  8
0
100
AcDbBlockEnd
  0
BLOCK
  5
13B5E
330
13B5D
100
AcDbEntity
  8
0
100
AcDbBlockBegin
  2
*D24
 70
     1
 10
0.0
 20
0.0
 30
0.0
  3
*D24
  1

  0
LINE
  5
70E08
330
13B5D
100
AcDbEntity
  8
AM_5
100
AcDbLine
 10
158.3769253604847
 20
87.1733409619147
 30
0.0
 11
158.3769253604847
 21
74.89831046817943
 31
0.0
  0
LINE
  5
70E09
330
13B5D
100
AcDbEntity
  8
AM_5
100
AcDbLine
 10
173.3769253604847
 20
91.89831046817934
 30
0.0
 11
173.3769253604847
 21
74.89831046817943
 31
0.0
  0
LINE
  5
70E0A
330
13B5D
100
AcDbEntity
  8
AM_5
100
AcDbLine
 10
159.3769253604847
 20
75.89831046817943
 30
0.0
 11
172.3769253604847
 21
75.89831046817943
 31
0.0
  0
INSERT
  5
70E0B
330
13B5D
100
AcDbEntity
  8
AM_5
100
AcDbBlockReference
  2
_Dot
 10
158.3769253604847
 20
75.89831046817943
 30
0.0
 50
180.0
  0
INSERT
  5
70E0C
330
13B5D
100
AcDbEntity
  8
AM_5
100
AcDbBlockReference
  2
_Dot
 10
173.3769253604847
 20
75.89831046817943
 30
0.0
  0
MTEXT
  5
70E0D
330
13B5D
100
AcDbEntity
  8
AM_5
 62
     2
100
AcDbMText
 10
165.8769253604847
 20
78.99831046817943
 30
0.0
 40
3.200000000000001
 41
0.0
 71
     5
 72
     1
  1
15
 73
     1
 44
1.0
1001
ACAD
1000
MTEXTBEGIN
1070
    73
1070
     1
1070
    44
1040
1.0
1070
    74
1070
     0
1000
MTEXTEND
  0
POINT
  5
70E0E
330
13B5D
100
AcDbEntity
  8
Defpoints
 62
     0
100
AcDbPoint
 10
158.3769253604847
 20
88.17334096191471
 30
0.0
  0
POINT
  5
70E0F
330
13B5D
100
AcDbEntity
  8
Defpoints
 62
     0
100
AcDbPoint
 10
173.3769253604847
 20
92.89831046817935
 30
0.0
  0
POINT
  5
70E10
330
13B5D
100
AcDbEntity
  8
Defpoints
 62
     0
100
AcDbPoint
 10
173.3769253604847
 20
75.89831046817943
 30
0.0
  0
ENDBLK
  5
13B5F
330
13B5D
100
AcDbEntity
  8
0
100
AcDbBlockEnd
  0
BLOCK
  5
153D4
330
153D3
100
AcDbEntity
  8
0
100
AcDbBlockBegin
  2
*D25
 70
     1
 10
0.0
 20
0.0
 30
0.0
  3
*D25
  1

  0
LINE
  5
70E11
330
153D3
100
AcDbEntity
  8
フロントプレート-AM_5
100
AcDbLine
 10
154.8769253604845
 20
137.3983104681768
 30
0.0
 11
154.8769253604845
 21
168.8983104681798
 31
0.0
  0
LINE
  5
70E12
330
153D3
100
AcDbEntity
  8
フロントプレート-AM_5
100
AcDbLine
 10
158.3769253604847
 20
158.6483104681866
 30
0.0
 11
158.3769253604847
 21
168.8983104681798
 31
0.0
  0
LINE
  5
70E13
330
153D3
100
AcDbEntity
  8
フロントプレート-AM_5
100
AcDbLine
 10
159.3769253604847
 20
167.8983104681798
 30
0.0
 11
160.3769253604847
 21
167.8983104681798
 31
0.0
  0
LINE
  5
70E14
330
153D3
100
AcDbEntity
  8
フロントプレート-AM_5
100
AcDbLine
 10
153.8769253604845
 20
167.8983104681798
 30
0.0
 11
138.1435920271511
 21
167.8983104681798
 31
0.0
  0
LINE
  5
70E15
330
153D3
100
AcDbEntity
  8
フロントプレート-AM_5
100
AcDbLine
 10
158.3769253604847
 20
167.8983104681798
 30
0.0
 11
154.8769253604845
 21
167.8983104681798
 31
0.0
  0
INSERT
  5
70E16
330
153D3
100
AcDbEntity
  8
フロントプレート-AM_5
100
AcDbBlockReference
  2
_Dot
 10
158.3769253604847
 20
167.8983104681798
 30
0.0
 50
180.0
  0
INSERT
  5
70E17
330
153D3
100
AcDbEntity
  8
フロントプレート-AM_5
100
AcDbBlockReference
  2
_Dot
 10
154.8769253604845
 20
167.8983104681798
 30
0.0
  0
MTEXT
  5
70E18
330
153D3
100
AcDbEntity
  8
フロントプレート-AM_5
 62
     2
100
AcDbMText
 10
145.5102586938178
 20
170.9983104681798
 30
0.0
 40
3.200000000000001
 41
0.0
 71
     5
 72
     1
  1
min:3.5
 73
     1
 44
1.0
1001
ACAD
1000
MTEXTBEGIN
1070
    73
1070
     1
1070
    44
1040
1.0
1070
    74
1070
     0
1000
MTEXTEND
  0
POINT
  5
70E19
330
153D3
100
AcDbEntity
  8
Defpoints
 62
     0
100
AcDbPoint
 10
154.8769253604845
 20
136.3983104681768
 30
0.0
  0
POINT
  5
70E1A
330
153D3
100
AcDbEntity
  8
Defpoints
 62
     0
100
AcDbPoint
 10
158.3769253604847
 20
157.6483104681866
 30
0.0
  0
POINT
  5
70E1B
330
153D3
100
AcDbEntity
  8
Defpoints
 62
     0
100
AcDbPoint
 10
158.3769253604847
 20
167.8983104681798
 30
0.0
  0
ENDBLK
  5
153D5
330
153D3
100
AcDbEntity
  8
0
100
AcDbBlockEnd
  0
BLOCK
  5
153FC
330
153FB
100
AcDbEntity
  8
0
100
AcDbBlockBegin
  2
*D26
 70
     1
 10
0.0
 20
0.0
 30
0.0
  3
*D26
  1

  0
LINE
  5
70E1C
330
153FB
100
AcDbEntity
  8
フロントプレート-AM_5
100
AcDbLine
 10
148.8769253604845
 20
108.3983104681811
 30
0.0
 11
148.8769253604845
 21
74.89831046817934
 31
0.0
  0
LINE
  5
70E1D
330
153FB
100
AcDbEntity
  8
フロントプレート-AM_5
100
AcDbLine
 10
158.3769253604847
 20
87.1733409619147
 30
0.0
 11
158.3769253604847
 21
74.89831046817934
 31
0.0
  0
LINE
  5
70E1E
330
153FB
100
AcDbEntity
  8
フロントプレート-AM_5
100
AcDbLine
 10
157.3769253604847
 20
75.89831046817934
 30
0.0
 11
149.8769253604845
 21
75.89831046817934
 31
0.0
  0
LINE
  5
70E1F
330
153FB
100
AcDbEntity
  8
フロントプレート-AM_5
100
AcDbLine
 10
148.8769253604845
 20
75.89831046817934
 30
0.0
 11
140.8769253604845
 21
75.89831046817934
 31
0.0
  0
INSERT
  5
70E20
330
153FB
100
AcDbEntity
  8
フロントプレート-AM_5
100
AcDbBlockReference
  2
_Dot
 10
158.3769253604847
 20
75.89831046817934
 30
0.0
  0
INSERT
  5
70E21
330
153FB
100
AcDbEntity
  8
フロントプレート-AM_5
100
AcDbBlockReference
  2
_Dot
 10
148.8769253604845
 20
75.89831046817934
 30
0.0
 50
180.0
  0
MTEXT
  5
70E22
330
153FB
100
AcDbEntity
  8
フロントプレート-AM_5
 62
     2
100
AcDbMText
 10
144.3769253604845
 20
78.69831046817934
 30
0.0
 40
3.0
 41
0.0
 71
     5
 72
     1
  1
9.5
 73
     1
 44
1.0
1001
ACAD
1000
MTEXTBEGIN
1070
    73
1070
     1
1070
    44
1040
1.0
1070
    74
1070
     0
1000
MTEXTEND
  0
POINT
  5
70E23
330
153FB
100
AcDbEntity
  8
Defpoints
 62
     0
100
AcDbPoint
 10
148.8769253604845
 20
109.3983104681811
 30
0.0
  0
POINT
  5
70E24
330
153FB
100
AcDbEntity
  8
Defpoints
 62
     0
100
AcDbPoint
 10
158.3769253604847
 20
88.17334096191471
 30
0.0
  0
POINT
  5
70E25
330
153FB
100
AcDbEntity
  8
Defpoints
 62
     0
100
AcDbPoint
 10
158.3769253604847
 20
75.89831046817934
 30
0.0
  0
ENDBLK
  5
153FD
330
153FB
100
AcDbEntity
  8
0
100
AcDbBlockEnd
  0
BLOCK
  5
1673F
330
1673E
100
AcDbEntity
  8
0
100
AcDbBlockBegin
  2
*D27
 70
     1
 10
0.0
 20
0.0
 30
0.0
  3
*D27
  1

  0
LINE
  5
70E26
330
1673E
100
AcDbEntity
  8
フロントプレート-AM_5
100
AcDbLine
 10
174.3769253604846
 20
214.4540669146064
 30
0.0
 11
196.3769253604846
 21
214.4540669146064
 31
0.0
  0
LINE
  5
70E27
330
1673E
100
AcDbEntity
  8
フロントプレート-AM_5
100
AcDbLine
 10
165.8769253604846
 20
226.9540669146064
 30
0.0
 11
196.3769253604846
 21
226.9540669146064
 31
0.0
  0
LINE
  5
70E28
330
1673E
100
AcDbEntity
  8
フロントプレート-AM_5
100
AcDbLine
 10
195.3769253604846
 20
215.4540669146064
 30
0.0
 11
195.3769253604846
 21
225.9540669146063
 31
0.0
  0
INSERT
  5
70E29
330
1673E
100
AcDbEntity
  8
フロントプレート-AM_5
100
AcDbBlockReference
  2
_Dot
 10
195.3769253604846
 20
214.4540669146064
 30
0.0
 50
270.0
  0
INSERT
  5
70E2A
330
1673E
100
AcDbEntity
  8
フロントプレート-AM_5
100
AcDbBlockReference
  2
_Dot
 10
195.3769253604846
 20
226.9540669146064
 30
0.0
 50
90.0
  0
MTEXT
  5
70E2B
330
1673E
100
AcDbEntity
  8
フロントプレート-AM_5
 62
     2
100
AcDbMText
 10
192.2769253604845
 20
220.7040669146064
 30
0.0
 40
3.200000000000001
 41
0.0
 71
     5
 72
     1
  1
12.5
 11
0.0000000000000001
 21
1.0
 31
0.0
 73
     1
 44
1.0
1001
ACAD
1000
MTEXTBEGIN
1070
    73
1070
     1
1070
    44
1040
1.0
1070
    74
1070
     0
1000
MTEXTEND
  0
POINT
  5
70E2C
330
1673E
100
AcDbEntity
  8
Defpoints
 62
     0
100
AcDbPoint
 10
173.3769253604847
 20
214.4540669146064
 30
0.0
  0
POINT
  5
70E2D
330
1673E
100
AcDbEntity
  8
Defpoints
 62
     0
100
AcDbPoint
 10
164.8769253604846
 20
226.9540669146064
 30
0.0
  0
POINT
  5
70E2E
330
1673E
100
AcDbEntity
  8
Defpoints
 62
     0
100
AcDbPoint
 10
195.3769253604846
 20
226.9540669146064
 30
0.0
  0
ENDBLK
  5
16740
330
1673E
100
AcDbEntity
  8
0
100
AcDbBlockEnd
  0
BLOCK
  5
4FDA3
330
4FDA2
100
AcDbEntity
  8
0
100
AcDbBlockBegin
  2
*D28
 70
     1
 10
0.0
 20
0.0
 30
0.0
  3
*D28
  1

  0
LINE
  5
70E2F
330
4FDA2
100
AcDbEntity
  8
フロントプレート-AM_5
100
AcDbLine
 10
153.626925360483
 20
138.3983104681765
 30
0.0
 11
121.8769253604886
 21
138.3983104681765
 31
0.0
  0
LINE
  5
70E30
330
4FDA2
100
AcDbEntity
  8
フロントプレート-AM_5
100
AcDbLine
 10
147.6269253604829
 20
107.3983104681814
 30
0.0
 11
121.8769253604886
 21
107.3983104681814
 31
0.0
  0
LINE
  5
70E31
330
4FDA2
100
AcDbEntity
  8
フロントプレート-AM_5
100
AcDbLine
 10
122.8769253604886
 20
137.3983104681765
 30
0.0
 11
122.8769253604886
 21
108.3983104681814
 31
0.0
  0
INSERT
  5
70E32
330
4FDA2
100
AcDbEntity
  8
フロントプレート-AM_5
100
AcDbBlockReference
  2
_Dot
 10
122.8769253604886
 20
138.3983104681765
 30
0.0
 50
90.0
  0
INSERT
  5
70E33
330
4FDA2
100
AcDbEntity
  8
フロントプレート-AM_5
100
AcDbBlockReference
  2
_Dot
 10
122.8769253604886
 20
107.3983104681814
 30
0.0
 50
270.0
  0
MTEXT
  5
70E34
330
4FDA2
100
AcDbEntity
  8
フロントプレート-AM_5
 62
     2
100
AcDbMText
 10
119.7769253604886
 20
122.898310468179
 30
0.0
 40
3.200000000000001
 41
0.0
 71
     5
 72
     1
  1
31
 11
0.0000000000000001
 21
1.0
 31
0.0
 73
     1
 44
1.0
1001
ACAD
1000
MTEXTBEGIN
1070
    73
1070
     1
1070
    44
1040
1.0
1070
    74
1070
     0
1000
MTEXTEND
  0
POINT
  5
70E35
330
4FDA2
100
AcDbEntity
  8
Defpoints
 62
     0
100
AcDbPoint
 10
154.626925360483
 20
138.3983104681765
 30
0.0
  0
POINT
  5
70E36
330
4FDA2
100
AcDbEntity
  8
Defpoints
 62
     0
100
AcDbPoint
 10
148.6269253604829
 20
107.3983104681814
 30
0.0
  0
POINT
  5
70E37
330
4FDA2
100
AcDbEntity
  8
Defpoints
 62
     0
100
AcDbPoint
 10
122.8769253604886
 20
107.3983104681814
 30
0.0
  0
ENDBLK
  5
4FDA4
330
4FDA2
100
AcDbEntity
  8
0
100
AcDbBlockEnd
  0
BLOCK
  5
57F28
330
57F27
100
AcDbEntity
  8
0
100
AcDbBlockBegin
  2
*D29
 70
     1
 10
0.0
 20
0.0
 30
0.0
  3
*D29
  1

  0
LINE
  5
70B88
330
57F27
100
AcDbEntity
  8
AM_5
100
AcDbLine
 10
198.6031209286512
 20
163.338015837066
 30
0.0
 11
192.3429315722111
 21
157.4025792904173
 31
0.0
  0
MTEXT
  5
70B89
330
57F27
100
AcDbEntity
  8
AM_5
 62
     2
100
AcDbMText
 10
194.0658009098394
 20
163.3079355334031
 30
0.0
 40
3.200000000000001
 41
0.0
 71
     5
 72
     1
  1
R6
 11
0.7256788280262793
 21
0.6880336027799849
 31
0.0
 73
     1
 44
1.0
1001
ACAD
1000
MTEXTBEGIN
1070
    73
1070
     1
1070
    44
1040
1.0
1070
    74
1070
     0
1000
MTEXTEND
  0
INSERT
  5
70B8A
330
57F27
100
AcDbEntity
  8
AM_5
100
AcDbBlockReference
  2
_OPEN30
 10
190.8915739161585
 20
156.0265120848574
 30
0.0
 41
2.0
 42
2.0
 43
2.0
 50
223.4746523518101
  0
POINT
  5
70B8B
330
57F27
100
AcDbEntity
  8
Defpoints
 62
     0
100
AcDbPoint
 10
190.8915739161585
 20
156.0265120848574
 30
0.0
  0
POINT
  5
70B8C
330
57F27
100
AcDbEntity
  8
Defpoints
 62
     0
100
AcDbPoint
 10
186.537500948002
 20
151.8983104681785
 30
0.0
  0
ENDBLK
  5
57F29
330
57F27
100
AcDbEntity
  8
0
100
AcDbBlockEnd
  0
BLOCK
  5
58231
330
58230
100
AcDbEntity
  8
0
100
AcDbBlockBegin
  2
*D30
 70
     1
 10
0.0
 20
0.0
 30
0.0
  3
*D30
  1

  0
LINE
  5
70B8D
330
58230
100
AcDbEntity
  8
フロントプレート-AM_5
100
AcDbLine
 10
361.3577758322926
 20
108.8732078517837
 30
0.0
 11
361.3577758322926
 21
74.8983104681794
 31
0.0
  0
LINE
  5
70B8E
330
58230
100
AcDbEntity
  8
フロントプレート-AM_5
100
AcDbLine
 10
365.3577758322926
 20
92.87320785178371
 30
0.0
 11
365.3577758322926
 21
74.8983104681794
 31
0.0
  0
LINE
  5
70B8F
330
58230
100
AcDbEntity
  8
フロントプレート-AM_5
100
AcDbLine
 10
360.3577758322927
 20
75.8983104681794
 30
0.0
 11
359.3577758322926
 21
75.8983104681794
 31
0.0
  0
LINE
  5
70B90
330
58230
100
AcDbEntity
  8
フロントプレート-AM_5
100
AcDbLine
 10
366.3577758322926
 20
75.8983104681794
 30
0.0
 11
371.9577758322927
 21
75.8983104681794
 31
0.0
  0
LINE
  5
70B91
330
58230
100
AcDbEntity
  8
フロントプレート-AM_5
100
AcDbLine
 10
361.3577758322926
 20
75.8983104681794
 30
0.0
 11
365.3577758322926
 21
75.8983104681794
 31
0.0
  0
INSERT
  5
70B92
330
58230
100
AcDbEntity
  8
フロントプレート-AM_5
100
AcDbBlockReference
  2
_Dot
 10
361.3577758322926
 20
75.8983104681794
 30
0.0
  0
INSERT
  5
70B93
330
58230
100
AcDbEntity
  8
フロントプレート-AM_5
100
AcDbBlockReference
  2
_Dot
 10
365.3577758322926
 20
75.8983104681794
 30
0.0
 50
180.0
  0
MTEXT
  5
70B94
330
58230
100
AcDbEntity
  8
フロントプレート-AM_5
 62
     2
100
AcDbMText
 10
369.6577758322927
 20
78.9983104681794
 30
0.0
 40
3.200000000000001
 41
0.0
 71
     5
 72
     1
  1
4
 73
     1
 44
1.0
1001
ACAD
1000
MTEXTBEGIN
1070
    73
1070
     1
1070
    44
1040
1.0
1070
    74
1070
     0
1000
MTEXTEND
  0
POINT
  5
70B95
330
58230
100
AcDbEntity
  8
Defpoints
 62
     0
100
AcDbPoint
 10
361.3577758322926
 20
109.8732078517837
 30
0.0
  0
POINT
  5
70B96
330
58230
100
AcDbEntity
  8
Defpoints
 62
     0
100
AcDbPoint
 10
365.3577758322926
 20
93.87320785178372
 30
0.0
  0
POINT
  5
70B97
330
58230
100
AcDbEntity
  8
Defpoints
 62
     0
100
AcDbPoint
 10
365.3577758322926
 20
75.8983104681794
 30
0.0
  0
ENDBLK
  5
58232
330
58230
100
AcDbEntity
  8
0
100
AcDbBlockEnd
  0
BLOCK
  5
67D44
330
67D43
100
AcDbEntity
  8
0
100
AcDbBlockBegin
  2
*D31
 70
     1
 10
0.0
 20
0.0
 30
0.0
  3
*D31
  1

  0
LINE
  5
70B98
330
67D43
100
AcDbEntity
  8
フロントプレート-AM_5
100
AcDbLine
 10
143.1024868495476
 20
162.211643801513
 30
0.0
 11
150.5733993328614
 21
157.8983104681797
 31
0.0
  0
MTEXT
  5
70B99
330
67D43
100
AcDbEntity
  8
フロントプレート-AM_5
 62
     2
100
AcDbMText
 10
147.52191768742
 20
163.2396558865781
 30
0.0
 40
3.200000000000001
 41
0.0
 71
     5
 72
     1
  1
R2
 11
0.8660254037844447
 21
-0.4999999999999895
 31
0.0
 73
     1
 44
1.0
1001
ACAD
1000
MTEXTBEGIN
1070
    73
1070
     1
1070
    44
1040
1.0
1070
    74
1070
     0
1000
MTEXTEND
  0
INSERT
  5
70B9A
330
67D43
100
AcDbEntity
  8
フロントプレート-AM_5
100
AcDbBlockReference
  2
_OPEN30
 10
152.3054501404303
 20
156.8983104681797
 30
0.0
 41
2.0
 42
2.0
 43
2.0
 50
330.0000000000007
  0
POINT
  5
70B9B
330
67D43
100
AcDbEntity
  8
Defpoints
 62
     0
100
AcDbPoint
 10
152.3054501404303
 20
156.8983104681797
 30
0.0
  0
POINT
  5
70B9C
330
67D43
100
AcDbEntity
  8
Defpoints
 62
     0
100
AcDbPoint
 10
154.0375009479992
 20
155.8983104681797
 30
0.0
  0
ENDBLK
  5
67D45
330
67D43
100
AcDbEntity
  8
0
100
AcDbBlockEnd
  0
BLOCK
  5
6C2BB
330
6C2BA
100
AcDbEntity
  8
0
100
AcDbBlockBegin
  2
*D32
 70
     1
 10
0.0
 20
0.0
 30
0.0
  3
*D32
  1

  0
LINE
  5
70E38
330
6C2BA
100
AcDbEntity
  8
フロントプレート-AM_5
100
AcDbLine
 10
168.8769253604846
 20
223.9540669146064
 30
0.0
 11
168.8769253604846
 21
237.9540669146063
 31
0.0
  0
LINE
  5
70E39
330
6C2BA
100
AcDbEntity
  8
フロントプレート-AM_5
100
AcDbLine
 10
173.3769253604847
 20
216.4540669146064
 30
0.0
 11
173.3769253604847
 21
237.9540669146063
 31
0.0
  0
LINE
  5
70E3A
330
6C2BA
100
AcDbEntity
  8
フロントプレート-AM_5
100
AcDbLine
 10
167.8769253604846
 20
236.9540669146064
 30
0.0
 11
166.8769253604846
 21
236.9540669146064
 31
0.0
  0
LINE
  5
70E3B
330
6C2BA
100
AcDbEntity
  8
フロントプレート-AM_5
100
AcDbLine
 10
174.3769253604846
 20
236.9540669146064
 30
0.0
 11
183.070258693818
 21
236.9540669146064
 31
0.0
  0
LINE
  5
70E3C
330
6C2BA
100
AcDbEntity
  8
フロントプレート-AM_5
100
AcDbLine
 10
168.8769253604846
 20
236.9540669146064
 30
0.0
 11
173.3769253604847
 21
236.9540669146064
 31
0.0
  0
INSERT
  5
70E3D
330
6C2BA
100
AcDbEntity
  8
フロントプレート-AM_5
100
AcDbBlockReference
  2
_Dot
 10
168.8769253604846
 20
236.9540669146064
 30
0.0
  0
INSERT
  5
70E3E
330
6C2BA
100
AcDbEntity
  8
フロントプレート-AM_5
100
AcDbBlockReference
  2
_Dot
 10
173.3769253604847
 20
236.9540669146064
 30
0.0
 50
180.0
  0
MTEXT
  5
70E3F
330
6C2BA
100
AcDbEntity
  8
フロントプレート-AM_5
 62
     2
100
AcDbMText
 10
179.2235920271513
 20
240.0540669146064
 30
0.0
 40
3.200000000000001
 41
0.0
 71
     5
 72
     1
  1
4.5
 73
     1
 44
1.0
1001
ACAD
1000
MTEXTBEGIN
1070
    73
1070
     1
1070
    44
1040
1.0
1070
    74
1070
     0
1000
MTEXTEND
  0
POINT
  5
70E40
330
6C2BA
100
AcDbEntity
  8
Defpoints
 62
     0
100
AcDbPoint
 10
168.8769253604846
 20
222.9540669146063
 30
0.0
  0
POINT
  5
70E41
330
6C2BA
100
AcDbEntity
  8
Defpoints
 62
     0
100
AcDbPoint
 10
173.3769253604847
 20
215.4540669146064
 30
0.0
  0
POINT
  5
70E42
330
6C2BA
100
AcDbEntity
  8
Defpoints
 62
     0
100
AcDbPoint
 10
173.3769253604847
 20
236.9540669146064
 30
0.0
  0
ENDBLK
  5
6C2BC
330
6C2BA
100
AcDbEntity
  8
0
100
AcDbBlockEnd
  0
BLOCK
  5
6C302
330
6C301
100
AcDbEntity
  8
0
100
AcDbBlockBegin
  2
*D33
 70
     1
 10
0.0
 20
0.0
 30
0.0
  3
*D33
  1

  0
LINE
  5
70E43
330
6C301
100
AcDbEntity
  8
フロントプレート-AM_5
100
AcDbLine
 10
146.8769253604845
 20
223.9540669146064
 30
0.0
 11
146.8769253604845
 21
247.9540669146063
 31
0.0
  0
LINE
  5
70E44
330
6C301
100
AcDbEntity
  8
フロントプレート-AM_5
100
AcDbLine
 10
173.3769253604847
 20
216.4540669146064
 30
0.0
 11
173.3769253604847
 21
247.9540669146063
 31
0.0
  0
LINE
  5
70E45
330
6C301
100
AcDbEntity
  8
フロントプレート-AM_5
100
AcDbLine
 10
147.8769253604845
 20
246.9540669146062
 30
0.0
 11
172.3769253604847
 21
246.9540669146062
 31
0.0
  0
INSERT
  5
70E46
330
6C301
100
AcDbEntity
  8
フロントプレート-AM_5
100
AcDbBlockReference
  2
_Dot
 10
146.8769253604845
 20
246.9540669146062
 30
0.0
 50
180.0
  0
INSERT
  5
70E47
330
6C301
100
AcDbEntity
  8
フロントプレート-AM_5
100
AcDbBlockReference
  2
_Dot
 10
173.3769253604847
 20
246.9540669146062
 30
0.0
  0
MTEXT
  5
70E48
330
6C301
100
AcDbEntity
  8
フロントプレート-AM_5
 62
     2
100
AcDbMText
 10
160.1269253604846
 20
250.0540669146062
 30
0.0
 40
3.200000000000001
 41
0.0
 71
     5
 72
     1
  1
26.5
 73
     1
 44
1.0
1001
ACAD
1000
MTEXTBEGIN
1070
    73
1070
     1
1070
    44
1040
1.0
1070
    74
1070
     0
1000
MTEXTEND
  0
POINT
  5
70E49
330
6C301
100
AcDbEntity
  8
Defpoints
 62
     0
100
AcDbPoint
 10
146.8769253604845
 20
222.9540669146063
 30
0.0
  0
POINT
  5
70E4A
330
6C301
100
AcDbEntity
  8
Defpoints
 62
     0
100
AcDbPoint
 10
173.3769253604847
 20
215.4540669146064
 30
0.0
  0
POINT
  5
70E4B
330
6C301
100
AcDbEntity
  8
Defpoints
 62
     0
100
AcDbPoint
 10
173.3769253604847
 20
246.9540669146062
 30
0.0
  0
ENDBLK
  5
6C303
330
6C301
100
AcDbEntity
  8
0
100
AcDbBlockEnd
  0
BLOCK
  5
70C6F
330
70C6E
100
AcDbEntity
  8
0
100
AcDbBlockBegin
  2
*D34
 70
     1
 10
0.0
 20
0.0
 30
0.0
  3
*D34
  1

  0
LINE
  5
70E4C
330
70C6E
100
AcDbEntity
  8
フロントプレート-AM_5
100
AcDbLine
 10
187.0260729569696
 20
162.6345708987726
 30
0.0
 11
176.8860729569695
 21
162.6345708987726
 31
0.0
  0
LINE
  5
70E4D
330
70C6E
100
AcDbEntity
  8
フロントプレート-AM_5
100
AcDbLine
 10
176.8860729569695
 20
162.6345708987726
 30
0.0
 11
172.681172425141
 21
157.887046818787
 31
0.0
  0
MTEXT
  5
70E4E
330
70C6E
100
AcDbEntity
  8
フロントプレート-AM_5
 62
     2
100
AcDbMText
 10
182.7060729569696
 20
165.7345708987726
 30
0.0
 40
3.200000000000001
 41
0.0
 71
     5
 72
     1
  1
2-R6
 73
     1
 44
1.0
1001
ACAD
1000
MTEXTBEGIN
1070
    73
1070
     1
1070
    44
1040
1.0
1070
    74
1070
     0
1000
MTEXTEND
  0
INSERT
  5
70E4F
330
70C6E
100
AcDbEntity
  8
フロントプレート-AM_5
100
AcDbBlockReference
  2
_OPEN30
 10
171.3551106589769
 20
156.3898627311352
 30
0.0
 41
2.0
 42
2.0
 43
2.0
 50
228.4685631351709
  0
POINT
  5
70E50
330
70C6E
100
AcDbEntity
  8
Defpoints
 62
     0
100
AcDbPoint
 10
171.3551106589769
 20
156.3898627311352
 30
0.0
  0
POINT
  5
70E51
330
70C6E
100
AcDbEntity
  8
Defpoints
 62
     0
100
AcDbPoint
 10
167.3769253604846
 20
151.8983104681798
 30
0.0
  0
ENDBLK
  5
70C70
330
70C6E
100
AcDbEntity
  8
0
100
AcDbBlockEnd
  0
ENDSEC
  0
SECTION
  2
ENTITIES
  0
LINE
  5
1112D
330
1F
100
AcDbEntity
  8
AM_2
100
AcDbLine
 10
31.50000013139607
 20
288.5000000000001
 30
0.0
 11
31.50000013139607
 21
223.0
 31
0.0
  0
LINE
  5
1112E
330
1F
100
AcDbEntity
  8
AM_0
100
AcDbLine
 10
108.3243150494268
 20
288.5000000000001
 30
0.0
 11
108.3243150494268
 21
223.0
 31
0.0
  0
MTEXT
  5
1112F
330
1F
100
AcDbEntity
  8
AM_6
 48
1.01
100
AcDbMText
 10
34.92850012805821
 20
252.5000000000001
 30
0.0
 40
3.2
 41
0.0
 71
     4
 72
     5
  1
フロントプレート：バレル研磨
 73
     1
 44
1.0
1001
ACAD
1000
MTEXTBEGIN
1070
    73
1070
     1
1070
    44
1040
1.0
1070
    74
1070
     0
1000
MTEXTEND
  0
MTEXT
  5
11130
330
1F
100
AcDbEntity
  8
AM_6
 48
1.01
100
AcDbMText
 10
17.72850008037449
 20
252.5000000000001
 30
0.0
 40
3.2
 41
0.0
 71
     4
 72
     5
  1
\T1.40;\W0.61;仕上げ
 73
     1
 44
1.0
1001
ACAD
1000
MTEXTBEGIN
1070
    73
1070
     1
1070
    44
1040
1.0
1070
    74
1070
     0
1000
MTEXTEND
  0
LINE
  5
11131
330
1F
100
AcDbEntity
  8
AM_0
100
AcDbLine
 10
11.50000013139606
 20
223.0
 30
0.0
 11
108.3243150494268
 21
223.0
 31
0.0
  0
LINE
  5
11132
330
1F
100
AcDbEntity
  8
AM_2
100
AcDbLine
 10
11.50000013139606
 20
240.5000000000001
 30
0.0
 11
108.3243150494268
 21
240.5000000000001
 31
0.0
  0
LINE
  5
11133
330
1F
100
AcDbEntity
  8
AM_2
100
AcDbLine
 10
11.50000013139606
 20
232.0000000000001
 30
0.0
 11
108.3243150494268
 21
232.0000000000001
 31
0.0
  0
MTEXT
  5
11134
330
1F
100
AcDbEntity
  8
AM_6
 48
1.01
100
AcDbMText
 10
34.92850012805821
 20
244.5000000000001
 30
0.0
 40
3.2
 41
0.0
 71
     4
 72
     5
  1
トロカバー　　　：生地（グレー）
 73
     1
 44
1.0
1001
ACAD
1000
MTEXTBEGIN
1070
    73
1070
     1
1070
    44
1040
1.0
1070
    74
1070
     0
1000
MTEXTEND
  0
MTEXT
  5
11135
330
1F
100
AcDbEntity
  8
AM_6
 48
1.01
100
AcDbMText
 10
14.52850003269077
 20
236.5000000000001
 30
0.0
 40
3.2
 41
0.0
 71
     4
 72
     5
  1
\T1.40;\W0.61;セットビス
 73
     1
 44
1.0
1001
ACAD
1000
MTEXTBEGIN
1070
    73
1070
     1
1070
    44
1040
1.0
1070
    74
1070
     0
1000
MTEXTEND
  0
MTEXT
  5
11136
330
1F
100
AcDbEntity
  8
AM_6
 48
1.01
100
AcDbMText
 10
19.32850010421634
 20
228.0000000000001
 30
0.0
 40
3.2
 41
0.0
 71
     4
 72
     5
  1
\T1.40;\W0.61;備考
 73
     1
 44
1.0
1001
ACAD
1000
MTEXTBEGIN
1070
    73
1070
     1
1070
    44
1040
1.0
1070
    74
1070
     0
1000
MTEXTEND
  0
LINE
  5
11137
330
1F
100
AcDbEntity
  8
AM_2
100
AcDbLine
 10
11.50000013139606
 20
280.5000000000001
 30
0.0
 11
108.3243150494268
 21
280.5000000000001
 31
0.0
  0
LINE
  5
11138
330
1F
100
AcDbEntity
  8
AM_2
100
AcDbLine
 10
11.50000013139606
 20
272.5
 30
0.0
 11
108.3243150494268
 21
272.5
 31
0.0
  0
LINE
  5
11139
330
1F
100
AcDbEntity
  8
AM_2
100
AcDbLine
 10
11.50000013139606
 20
256.5000000000001
 30
0.0
 11
108.3243150494268
 21
256.5000000000001
 31
0.0
  0
MTEXT
  5
1113A
330
1F
100
AcDbEntity
  8
AM_6
 48
1.01
100
AcDbMText
 10
34.92850012805821
 20
260.5
 30
0.0
 40
3.2
 41
0.0
 71
     4
 72
     5
  1
トロカバー　　　：ナイロン
 73
     1
 44
1.0
1001
ACAD
1000
MTEXTBEGIN
1070
    73
1070
     1
1070
    44
1040
1.0
1070
    74
1070
     0
1000
MTEXTEND
  0
MTEXT
  5
1113B
330
1F
100
AcDbEntity
  8
AM_6
 48
1.01
100
AcDbMText
 10
34.92850012805821
 20
284.5
 30
0.0
 40
3.2
 41
0.0
 71
     4
 72
     5
  1
可動ストライク
 73
     1
 44
1.0
1001
ACAD
1000
MTEXTBEGIN
1070
    73
1070
     1
1070
    44
1040
1.0
1070
    74
1070
     0
1000
MTEXTEND
  0
MTEXT
  5
1113C
330
1F
100
AcDbEntity
  8
AM_6
 48
1.01
100
AcDbMText
 10
34.92850012805821
 20
268.5
 30
0.0
 40
3.2
 41
0.0
 71
     4
 72
     5
  1
フロントプレート：ステンレス
 73
     1
 44
1.0
1001
ACAD
1000
MTEXTBEGIN
1070
    73
1070
     1
1070
    44
1040
1.0
1070
    74
1070
     0
1000
MTEXTEND
  0
MTEXT
  5
1113D
330
1F
100
AcDbEntity
  8
AM_6
 48
1.01
100
AcDbMText
 10
17.72850008037449
 20
268.5
 30
0.0
 40
3.2
 41
0.0
 71
     4
 72
     5
  1
\T1.40;\W0.61;材　質
 73
     1
 44
1.0
1001
ACAD
1000
MTEXTBEGIN
1070
    73
1070
     1
1070
    44
1040
1.0
1070
    74
1070
     0
1000
MTEXTEND
  0
MTEXT
  5
1113E
330
1F
100
AcDbEntity
  8
AM_6
 48
1.01
100
AcDbMText
 10
17.72850008037449
 20
284.5
 30
0.0
 40
3.2
 41
0.0
 71
     4
 72
     5
  1
\T1.40;\W0.61;品　名
 73
     1
 44
1.0
1001
ACAD
1000
MTEXTBEGIN
1070
    73
1070
     1
1070
    44
1040
1.0
1070
    74
1070
     0
1000
MTEXTEND
  0
MTEXT
  5
1113F
330
1F
100
AcDbEntity
  8
AM_6
 48
1.01
100
AcDbMText
 10
17.72850008037449
 20
276.5000000000001
 30
0.0
 40
3.2
 41
0.0
 71
     4
 72
     5
  1
\T1.40;\W0.61;品　番
 73
     1
 44
1.0
1001
ACAD
1000
MTEXTBEGIN
1070
    73
1070
     1
1070
    44
1040
1.0
1070
    74
1070
     0
1000
MTEXTEND
  0
MTEXT
  5
11140
330
1F
100
AcDbEntity
  8
AM_6
 48
1.01
100
AcDbMText
 10
34.92850012805821
 20
276.5000000000001
 30
0.0
 40
3.2
 41
0.0
 71
     4
 72
     5
  1
IDB-110
 73
     1
 44
1.0
1001
ACAD
1000
MTEXTBEGIN
1070
    73
1070
     1
1070
    44
1040
1.0
1070
    74
1070
     0
1000
MTEXTEND
  0
MTEXT
  5
11141
330
1F
100
AcDbEntity
  8
AM_6
 48
1.01
100
AcDbMText
 10
34.92850012805821
 20
235.9672577271072
 30
0.0
 40
3.2
 41
0.0
 71
     4
 72
     5
  1
呼び3.5×20　サラ木ネジ + SUS：2本
 73
     1
 44
1.0
1001
ACAD
1000
MTEXTBEGIN
1070
    73
1070
     1
1070
    44
1040
1.0
1070
    74
1070
     0
1000
MTEXTEND
  0
LINE
  5
11144
330
1F
100
AcDbEntity
  8
0フロントプレート
100
AcDbLine
 10
134.8769253604837
 20
87.89831046817946
 30
0.0
 11
167.3769253604846
 21
87.89831046817935
 31
0.0
  0
LINE
  5
11145
330
1F
100
AcDbEntity
  8
0フロントプレート
100
AcDbLine
 10
167.3769253604846
 20
157.8983104681798
 30
0.0
 11
134.8769253604839
 21
157.8983104681798
 31
0.0
  0
ARC
  5
11146
330
1F
100
AcDbEntity
  8
0フロントプレート
100
AcDbCircle
 10
134.8769253604839
 20
155.8983104681798
 30
0.0
 40
2.0
100
AcDbArc
 50
90.0
 51
180.0
1001
GENIUS_GENODEF_13
1002
{
1000
HIER
1070
     0
1002
}
1002
{
1000
MANEDIT
1070
     0
1002
}
1002
{
1000
NOSEL
1070
     0
1002
}
1002
{
1000
BEHIND
1070
     0
1002
}
1002
{
1000
OTHER
1070
     0
1002
}
1002
{
1000
REACTOR
1002
}
1001
GENIUS_GENOBJ-N-FIL_13
1002
{
1000
OWNER
1000
GEN
1002
}
  0
CIRCLE
  5
11147
330
1F
100
AcDbEntity
  8
0フロントプレート
 48
0.4
100
AcDbCircle
 10
158.3769253604847
 20
149.8983104681866
 30
0.0
 40
2.0
  0
CIRCLE
  5
11148
330
1F
100
AcDbEntity
  8
0フロントプレート
 48
0.4
100
AcDbCircle
 10
158.3769253604847
 20
149.8983104681866
 30
0.0
 40
4.0
  0
LINE
  5
11149
330
1F
100
AcDbEntity
  8
フロントプレート-AM_7
 48
0.7725000023841858
100
AcDbLine
 10
150.6519253366428
 20
149.8983104681816
 30
0.0
 11
166.1019253843265
 21
149.8983104681775
 31
0.0
1001
GENIUS_GENOBJ-N-CEN_13
1002
{
1000
OWNER
1000
GEN
1002
}
1001
GENIUS_GENODEF_13
1002
{
1000
HIER
1070
     0
1002
}
1002
{
1000
MANEDIT
1070
     0
1002
}
1002
{
1000
NOSEL
1070
     0
1002
}
1002
{
1000
BEHIND
1070
     0
1002
}
1002
{
1000
OTHER
1070
     0
1002
}
1002
{
1000
REACTOR
1002
}
  0
LINE
  5
1114A
330
1F
100
AcDbEntity
  8
フロントプレート-AM_7
 48
0.7725000023841858
100
AcDbLine
 10
158.3769253604847
 20
142.1983104205029
 30
0.0
 11
158.3769253604847
 21
157.6483104681866
 31
0.0
1001
GENIUS_GENOBJ-N-CEN_13
1002
{
1000
OWNER
1000
GEN
1002
}
1001
GENIUS_GENODEF_13
1002
{
1000
HIER
1070
     0
1002
}
1002
{
1000
MANEDIT
1070
     0
1002
}
1002
{
1000
NOSEL
1070
     0
1002
}
1002
{
1000
BEHIND
1070
     0
1002
}
1002
{
1000
OTHER
1070
     0
1002
}
1002
{
1000
REACTOR
1002
}
  0
LINE
  5
1114B
330
1F
100
AcDbEntity
  8
フロントプレート-AM_7
 48
0.7725000023841858
100
AcDbLine
 10
158.3769253604847
 20
103.6233410095984
 30
0.0
 11
158.3769253604847
 21
88.17334096191471
 31
0.0
1001
GENIUS_GENOBJ-N-CEN_13
1002
{
1000
OWNER
1000
GEN
1002
}
1001
GENIUS_GENODEF_13
1002
{
1000
HIER
1070
     0
1002
}
1002
{
1000
MANEDIT
1070
     0
1002
}
1002
{
1000
NOSEL
1070
     0
1002
}
1002
{
1000
BEHIND
1070
     0
1002
}
1002
{
1000
OTHER
1070
     0
1002
}
1002
{
1000
REACTOR
1002
}
  0
LINE
  5
1114C
330
1F
100
AcDbEntity
  8
フロントプレート-AM_7
 48
0.7725000023841858
100
AcDbLine
 10
150.6519253366428
 20
95.89834098575428
 30
0.0
 11
166.1019253843265
 21
95.89834098575792
 31
0.0
1001
GENIUS_GENOBJ-N-CEN_13
1002
{
1000
OWNER
1000
GEN
1002
}
1001
GENIUS_GENODEF_13
1002
{
1000
HIER
1070
     0
1002
}
1002
{
1000
MANEDIT
1070
     0
1002
}
1002
{
1000
NOSEL
1070
     0
1002
}
1002
{
1000
BEHIND
1070
     0
1002
}
1002
{
1000
OTHER
1070
     0
1002
}
1002
{
1000
REACTOR
1002
}
  0
CIRCLE
  5
1114D
330
1F
100
AcDbEntity
  8
0フロントプレート
 48
0.4
100
AcDbCircle
 10
158.3769253604847
 20
95.89834098574883
 30
0.0
 40
4.0
  0
CIRCLE
  5
1114E
330
1F
100
AcDbEntity
  8
0フロントプレート
 48
0.4
100
AcDbCircle
 10
158.3769253604847
 20
95.89834098574883
 30
0.0
 40
2.0
  0
DIMENSION
  5
1114F
330
1F
100
AcDbEntity
  8
AM_5
 48
1.01
100
AcDbDimension
  2
*D5
 10
188.3769253604931
 20
149.8983104681775
 30
0.0
 11
185.276925360493
 21
122.8983257269677
 31
0.0
 70
    32
  1
<>
 71
     5
 42
53.99996948241959
  3
SYS$0
100
AcDbAlignedDimension
 13
166.1019253843265
 23
95.89834098575792
 33
0.0
 14
166.1019253843265
 24
149.8983104681775
 34
0.0
 50
90.0
100
AcDbRotatedDimension
1001
ACAD
1000
DSTYLE
1002
{
1070
   286
1070
     0
1070
   284
1070
     8
1070
   274
1070
     2
1070
   272
1070
     2
1070
    48
1040
0.1
1070
    47
1040
0.1
1070
   343
1005
6C4
1070
   344
1005
6C4
1002
}
1001
ACAD_DSTYLE_DIMINSPECT
1070
   396
1000
100%
1070
   395
1000

1070
   394
1070
    33
1070
   393
1070
     0
  0
DIMENSION
  5
11150
330
1F
100
AcDbEntity
  8
AM_5
 48
1.01
100
AcDbDimension
  2
*D6
 10
198.3769253605119
 20
157.8983104681797
 30
0.0
 11
195.2769253605119
 21
122.8983104681796
 31
0.0
 70
    32
  1
<>
 71
     5
 42
70.00000000000044
  3
SYS$0
100
AcDbAlignedDimension
 13
167.3769253604846
 23
87.89831046817935
 33
0.0
 14
167.3769253604846
 24
157.8983104681798
 34
0.0
 50
90.0
100
AcDbRotatedDimension
1001
ACAD
1000
DSTYLE
1002
{
1070
    41
1040
1.0
1070
    47
1040
0.001
1070
    48
1040
0.1
1070
   271
1070
     2
1070
   272
1070
     2
1070
   274
1070
     4
1070
   279
1070
     0
1070
   341
1005
A66
1070
   343
1005
6C4
1070
   344
1005
6C4
1002
}
1001
ACAD_DSTYLE_DIMINSPECT
1070
   396
1000
100%
1070
   395
1000

1070
   394
1070
    33
1070
   393
1070
     0
  0
LINE
  5
11152
330
1F
100
AcDbEntity
  8
0フロントプレート
100
AcDbLine
 10
173.3769253604847
 20
214.4540669146064
 30
0.0
 11
135.6769253604843
 21
214.454066914606
 31
0.0
  0
LINE
  5
11154
330
1F
100
AcDbEntity
  8
0フロントプレート
100
AcDbLine
 10
173.3769253604847
 20
215.4540669146064
 30
0.0
 11
135.6769253604843
 21
215.4540669146069
 31
0.0
  0
LINE
  5
11155
330
1F
100
AcDbEntity
  8
AM_7
 48
0.4350006103515057
100
AcDbLine
 10
158.3769253604847
 20
211.4540669146064
 30
0.0
 11
158.3769253604847
 21
221.0540791216367
 31
0.0
  0
LINE
  5
11156
330
1F
100
AcDbEntity
  8
0フロントプレート
 48
0.15
100
AcDbLine
 10
173.3769253604847
 20
215.4540669146064
 30
0.0
 11
173.3769253604847
 21
214.4540669146064
 31
0.0
  0
DIMENSION
  5
11157
330
1F
100
AcDbEntity
  8
AM_5
 48
1.01
100
AcDbDimension
  2
*D7
 10
122.8769253604839
 20
214.454066914606
 30
0.0
 11
122.8769253604838
 21
221.6827921240474
 31
0.0
 70
   160
  1
<>
 71
     5
 42
2.982058542774723
  3
SYS$0
100
AcDbAlignedDimension
 13
133.7769877261391
 23
217.4361254573807
 33
0.0
 14
133.8769253604837
 24
214.454066914606
 34
0.0
 50
90.0
100
AcDbRotatedDimension
1001
ACAD_DSTYLE_DIMINSPECT
1070
   396
1000
100%
1070
   395
1000

1070
   394
1070
    33
1070
   393
1070
     0
1001
ACAD
1000
DSTYLE
1002
{
1070
   271
1070
     1
1070
   272
1070
     3
1070
   343
1005
6C4
1070
   344
1005
6C4
1002
}
  0
DIMENSION
  5
11160
330
1F
100
AcDbEntity
  8
AM_5
 48
1.01
100
AcDbDimension
  2
*D8
 10
132.8769253604846
 20
65.8983104681794
 30
0.0
 11
153.1269253604847
 21
68.9983104681794
 31
0.0
 70
    32
 71
     5
 42
40.49999999999999
  3
SYS$0
100
AcDbAlignedDimension
 13
173.3769253604847
 23
92.89831046817935
 33
0.0
 14
132.8769253604846
 24
87.89831046817935
 34
0.0
100
AcDbRotatedDimension
1001
ACAD
1000
DSTYLE
1002
{
1070
    41
1040
1.0
1070
    47
1040
0.001
1070
    48
1040
0.2
1070
   271
1070
     2
1070
   272
1070
     2
1070
   279
1070
     0
1070
   341
1005
A66
1070
   343
1005
6C4
1070
   344
1005
6C4
1002
}
  0
ARC
  5
11165
330
1F
100
AcDbEntity
  8
0フロントプレート
100
AcDbCircle
 10
167.3769253604846
 20
151.8983104681798
 30
0.0
 40
6.0
100
AcDbArc
 50
0.0
 51
90.0
1001
GENIUS_GENODEF_13
1002
{
1000
HIER
1070
     0
1002
}
1002
{
1000
MANEDIT
1070
     0
1002
}
1002
{
1000
NOSEL
1070
     0
1002
}
1002
{
1000
BEHIND
1070
     0
1002
}
1002
{
1000
OTHER
1070
     0
1002
}
1002
{
1000
REACTOR
1002
}
1001
GENIUS_GENOBJ-N-FIL_13
1002
{
1000
OWNER
1000
GEN
1002
}
  0
ARC
  5
11166
330
1F
100
AcDbEntity
  8
0フロントプレート
100
AcDbCircle
 10
167.3769253604846
 20
93.89831046817935
 30
0.0
 40
6.0
100
AcDbArc
 50
270.0
 51
0.0
1001
GENIUS_GENOBJ-N-FIL_13
1002
{
1000
OWNER
1000
GEN
1002
}
1001
GENIUS_GENODEF_13
1002
{
1000
HIER
1070
     0
1002
}
1002
{
1000
MANEDIT
1070
     0
1002
}
1002
{
1000
NOSEL
1070
     0
1002
}
1002
{
1000
BEHIND
1070
     0
1002
}
1002
{
1000
OTHER
1070
     0
1002
}
1002
{
1000
REACTOR
1002
}
  0
ARC
  5
11168
330
1F
100
AcDbEntity
  8
0フロントプレート
100
AcDbCircle
 10
142.1769209857762
 20
126.3983104681807
 30
0.0
 40
0.5
100
AcDbArc
 50
90.0
 51
180.0
  0
LINE
  5
1116B
330
1F
100
AcDbEntity
  8
フロントプレート-AM_7
100
AcDbLine
 10
128.8769253604846
 20
122.8983104681798
 30
0.0
 11
177.3769253604847
 21
122.8983104681798
 31
0.0
1001
GENIUS_GENOBJ-N-CEN_13
1002
{
1000
OWNER
1000
GEN
1002
}
1001
GENIUS_GENODEF_13
1002
{
1000
HIER
1070
     0
1002
}
1002
{
1000
MANEDIT
1070
     0
1002
}
1002
{
1000
NOSEL
1070
     0
1002
}
1002
{
1000
BEHIND
1070
     0
1002
}
1002
{
1000
OTHER
1070
     0
1002
}
1002
{
1000
REACTOR
1002
}
  0
LINE
  5
1116C
330
1F
100
AcDbEntity
  8
0フロントプレート
100
AcDbLine
 10
132.8769253604837
 20
89.89831046817945
 30
0.0
 11
132.8769253604838
 21
155.8983104681798
 31
0.0
  0
ARC
  5
1116D
330
1F
100
AcDbEntity
  8
0フロントプレート
100
AcDbCircle
 10
134.8769253604837
 20
89.89831046817945
 30
0.0
 40
2.0
100
AcDbArc
 50
180.0
 51
270.0
1001
GENIUS_GENOBJ-N-FIL_13
1002
{
1000
OWNER
1000
GEN
1002
}
1001
GENIUS_GENODEF_13
1002
{
1000
HIER
1070
     0
1002
}
1002
{
1000
MANEDIT
1070
     0
1002
}
1002
{
1000
NOSEL
1070
     0
1002
}
1002
{
1000
BEHIND
1070
     0
1002
}
1002
{
1000
OTHER
1070
     0
1002
}
1002
{
1000
REACTOR
1002
}
  0
LINE
  5
1116F
330
1F
100
AcDbEntity
  8
0フロントプレート
100
AcDbLine
 10
173.3769253604847
 20
93.89831046817935
 30
0.0
 11
173.3769253604847
 21
151.8983104681798
 31
0.0
  0
LINE
  5
1117A
330
1F
100
AcDbEntity
  8
AM_7
 48
0.4599998474119957
100
AcDbLine
 10
236.0950898957877
 20
95.89831046818185
 30
0.0
 11
244.6950868440271
 21
95.89831046818185
 31
0.0
  0
LINE
  5
1117B
330
1F
100
AcDbEntity
  8
0フロントプレート
 48
0.15
100
AcDbLine
 10
240.0950898957877
 20
157.8983104681798
 30
0.0
 11
240.0950898957877
 21
157.8983104681793
 31
0.0
  0
LINE
  5
1117C
330
1F
100
AcDbEntity
  8
0フロントプレート
 48
0.15
100
AcDbLine
 10
240.0950898957877
 20
87.8983104681798
 30
0.0
 11
240.0950898957877
 21
87.8983104681798
 31
0.0
  0
ARC
  5
1117F
330
1F
100
AcDbEntity
  8
0フロントプレート
100
AcDbCircle
 10
240.0950898957827
 20
89.89831046817981
 30
0.0
 40
2.0
100
AcDbArc
 50
270.0
 51
311.4096221092754
1001
GENIUS_GENODEF_13
1002
{
1000
HIER
1070
     0
1002
}
1002
{
1000
MANEDIT
1070
     0
1002
}
1002
{
1000
NOSEL
1070
     0
1002
}
1002
{
1000
BEHIND
1070
     0
1002
}
1002
{
1000
OTHER
1070
     0
1002
}
1002
{
1000
REACTOR
1002
}
1001
GENIUS_GENOBJ-N-FIL_13
1002
{
1000
OWNER
1000
GEN
1002
}
  0
LINE
  5
11180
330
1F
100
AcDbEntity
  8
0フロントプレート
 48
1.01
100
AcDbLine
 10
239.0950898957877
 20
157.8983104681798
 30
0.0
 11
240.0950898957828
 21
157.8983104681795
 31
0.0
1001
GENIUS_GENREC_14
1002
{
1000
PYDIR
1011
239.0950898957877
1021
87.8983104681798
1031
0.0
1002
}
1002
{
1000
PXDIR
1011
240.0950898957877
1021
157.8983104681798
1031
0.0
1002
}
1002
{
1000
PORI
1011
239.0950898957877
1021
157.8983104681798
1031
0.0
1002
}
1002
{
1000
PINS
1011
239.0950898957877
1021
157.8983104681798
1031
0.0
1002
}
1002
{
1000
PINS2
1011
240.0950898957877
1021
87.8983104681798
1031
0.0
1002
}
1002
{
1000
C
1070
     1
1002
}
1001
GENIUS_GENOBJ-N-REC_13
1002
{
1000
OWNER
1000
GEN
1002
}
1001
GENIUS_GENODEF_13
1002
{
1000
HIER
1070
     0
1002
}
1002
{
1000
MANEDIT
1070
     0
1002
}
1002
{
1000
NOSEL
1070
     0
1002
}
1002
{
1000
BEHIND
1070
     0
1002
}
1002
{
1000
OTHER
1070
     0
1002
}
1002
{
1000
REACTOR
1002
}
  0
LINE
  5
11183
330
1F
100
AcDbEntity
  8
0フロントプレート
 48
1.01
100
AcDbLine
 10
240.0950898957827
 20
87.8983104681798
 30
0.0
 11
239.0950898957877
 21
87.8983104681798
 31
0.0
1001
GENIUS_GENREC_14
1002
{
1000
PYDIR
1011
239.0950898957877
1021
87.8983104681798
1031
0.0
1002
}
1002
{
1000
PXDIR
1011
240.0950898957877
1021
157.8983104681798
1031
0.0
1002
}
1002
{
1000
PORI
1011
239.0950898957877
1021
157.8983104681798
1031
0.0
1002
}
1002
{
1000
PINS
1011
239.0950898957877
1021
157.8983104681798
1031
0.0
1002
}
1002
{
1000
PINS2
1011
240.0950898957877
1021
87.8983104681798
1031
0.0
1002
}
1002
{
1000
C
1070
     1
1002
}
1001
GENIUS_GENOBJ-N-REC_13
1002
{
1000
OWNER
1000
GEN
1002
}
1001
GENIUS_GENODEF_13
1002
{
1000
HIER
1070
     0
1002
}
1002
{
1000
MANEDIT
1070
     0
1002
}
1002
{
1000
NOSEL
1070
     0
1002
}
1002
{
1000
BEHIND
1070
     0
1002
}
1002
{
1000
OTHER
1070
     0
1002
}
1002
{
1000
REACTOR
1002
}
  0
LINE
  5
11184
330
1F
100
AcDbEntity
  8
0フロントプレート
 48
1.01
100
AcDbLine
 10
239.0950898957877
 20
87.8983104681798
 30
0.0
 11
239.0950898957877
 21
157.8983104681798
 31
0.0
1001
GENIUS_GENREC_14
1002
{
1000
PYDIR
1011
239.0950898957877
1021
87.8983104681798
1031
0.0
1002
}
1002
{
1000
PXDIR
1011
240.0950898957877
1021
157.8983104681798
1031
0.0
1002
}
1002
{
1000
PORI
1011
239.0950898957877
1021
157.8983104681798
1031
0.0
1002
}
1002
{
1000
PINS
1011
239.0950898957877
1021
157.8983104681798
1031
0.0
1002
}
1002
{
1000
PINS2
1011
240.0950898957877
1021
87.8983104681798
1031
0.0
1002
}
1002
{
1000
C
1070
     1
1002
}
1001
GENIUS_GENOBJ-N-REC_13
1002
{
1000
OWNER
1000
GEN
1002
}
1001
GENIUS_GENODEF_13
1002
{
1000
HIER
1070
     0
1002
}
1002
{
1000
MANEDIT
1070
     0
1002
}
1002
{
1000
NOSEL
1070
     0
1002
}
1002
{
1000
BEHIND
1070
     0
1002
}
1002
{
1000
OTHER
1070
     0
1002
}
1002
{
1000
REACTOR
1002
}
  0
ARC
  5
1118A
330
1F
100
AcDbEntity
  8
0フロントプレート
100
AcDbCircle
 10
135.6769253604843
 20
216.9540669146069
 30
0.0
 40
2.5
100
AcDbArc
 50
205.8337338644509
 51
270.0
  0
ARC
  5
1118B
330
1F
100
AcDbEntity
  8
0フロントプレート
100
AcDbCircle
 10
135.6769253604843
 20
216.9540669146069
 30
0.0
 40
1.5
100
AcDbArc
 50
205.8337338644509
 51
270.0
  0
LINE
  5
1118C
330
1F
100
AcDbEntity
  8
0フロントプレート
100
AcDbLine
 10
133.7769877261391
 20
217.4361254573807
 30
0.0
 11
134.3268318119939
 21
216.3004252617688
 31
0.0
  0
LINE
  5
1118D
330
1F
100
AcDbEntity
  8
0フロントプレート
100
AcDbLine
 10
132.8769253604789
 20
217.0003643554887
 30
0.0
 11
133.4267694463339
 21
215.8646641598767
 31
0.0
  0
LINE
  5
1118E
330
1F
100
AcDbEntity
  8
0フロントプレート
100
AcDbLine
 10
132.8769253604789
 20
217.0003643554887
 30
0.0
 11
133.7769877261391
 21
217.4361254573807
 31
0.0
  0
DIMENSION
  5
11191
330
1F
100
AcDbEntity
  8
AM_5
100
AcDbDimension
  2
*D9
 10
157.0036495297318
 20
97.35234012353046
 30
0.0
 11
186.3505916679753
 21
75.89831046818017
 31
0.0
 70
   163
  1
<>×%%c8サラ
 71
     5
 42
3.999999999999829
  3
SYS$3
100
AcDbDiametricDimension
 15
159.7502011912364
 25
94.44434184796614
 35
0.0
 40
0.0
1001
ACAD_DSTYLE_DIMRADIAL_EXTENSION
1070
   387
1070
     1
1070
   388
1040
0.0
1070
   390
1040
0.0
1001
ACAD_DSTYLE_DIMINSPECT
1070
   396
1000
100%
1070
   395
1000

1070
   394
1070
    33
1070
   393
1070
     0
  0
LINE
  5
114D1
330
1F
100
AcDbEntity
  8
0トロカバー
100
AcDbLine
 10
148.8769253604845
 20
118.9983104681782
 30
0.0
 11
142.1769253604847
 21
118.9983104681782
 31
0.0
1001
GENIUS_GENODEF_13
1002
{
1000
HIER
1070
     0
1002
}
1002
{
1000
MANEDIT
1070
     0
1002
}
1002
{
1000
NOSEL
1070
     0
1002
}
1002
{
1000
BEHIND
1070
     0
1002
}
1002
{
1000
OTHER
1070
     0
1002
}
1002
{
1000
REACTOR
1002
}
1001
GENIUS_GENOBJ-N-CEN_13
1002
{
1000
OWNER
1000
GEN
1002
}
1001
GENIUS_GENCEN_19
1002
{
1040
3.0
1002
}
  0
LINE
  5
114D2
330
1F
100
AcDbEntity
  8
0トロカバー
100
AcDbLine
 10
154.8769253604845
 20
126.7983104681782
 30
0.0
 11
148.1769253604845
 21
126.7983104681782
 31
0.0
1001
GENIUS_GENODEF_13
1002
{
1000
HIER
1070
     0
1002
}
1002
{
1000
MANEDIT
1070
     0
1002
}
1002
{
1000
NOSEL
1070
     0
1002
}
1002
{
1000
BEHIND
1070
     0
1002
}
1002
{
1000
OTHER
1070
     0
1002
}
1002
{
1000
REACTOR
1002
}
1001
GENIUS_GENOBJ-N-CEN_13
1002
{
1000
OWNER
1000
GEN
1002
}
1001
GENIUS_GENCEN_19
1002
{
1040
3.0
1002
}
  0
LINE
  5
114D8
330
1F
100
AcDbEntity
  8
0トロカバー
100
AcDbLine
 10
154.8769253604844
 20
136.3983104681768
 30
0.0
 11
154.8769253604845
 21
122.8983104681782
 31
0.0
  0
ARC
  5
114D9
330
1F
100
AcDbEntity
  8
0フロントプレート
100
AcDbCircle
 10
149.3769253604845
 20
138.8983104681782
 30
0.0
 40
1.0
100
AcDbArc
 50
90.0
 51
180.0
1001
GENIUS_GENODEF_13
1002
{
1000
HIER
1070
     0
1002
}
1002
{
1000
MANEDIT
1070
     0
1002
}
1002
{
1000
NOSEL
1070
     0
1002
}
1002
{
1000
BEHIND
1070
     0
1002
}
1002
{
1000
OTHER
1070
     0
1002
}
1002
{
1000
REACTOR
1002
}
1001
GENIUS_GENOBJ-N-FIL_13
1002
{
1000
OWNER
1000
GEN
1002
}
  0
ARC
  5
114DB
330
1F
100
AcDbEntity
  8
0フロントプレート
100
AcDbCircle
 10
149.3769253604845
 20
106.8983104681781
 30
0.0
 40
1.0
100
AcDbArc
 50
180.0
 51
270.0
1001
GENIUS_GENODEF_13
1002
{
1000
HIER
1070
     0
1002
}
1002
{
1000
MANEDIT
1070
     0
1002
}
1002
{
1000
NOSEL
1070
     0
1002
}
1002
{
1000
BEHIND
1070
     0
1002
}
1002
{
1000
OTHER
1070
     0
1002
}
1002
{
1000
REACTOR
1002
}
1001
GENIUS_GENOBJ-N-FIL_13
1002
{
1000
OWNER
1000
GEN
1002
}
  0
LINE
  5
114DC
330
1F
100
AcDbEntity
  8
0トロカバー
100
AcDbLine
 10
147.8769253604845
 20
126.4983104681782
 30
0.0
 11
147.8769253604846
 21
122.8983104681782
 31
0.0
  0
LINE
  5
114F3
330
1F
100
AcDbEntity
  8
0トロカバー
100
AcDbLine
 10
141.6769275478373
 20
217.4540669146064
 30
0.0
 11
141.6769275478373
 21
215.4540669146064
 31
0.0
  0
LINE
  5
114F4
330
1F
100
AcDbEntity
  8
0トロカバー
100
AcDbLine
 10
173.1769275478374
 20
217.4540669146064
 30
0.0
 11
173.1769275478374
 21
215.4540669146064
 31
0.0
  0
LINE
  5
114F6
330
1F
100
AcDbEntity
  8
0トロカバー
100
AcDbLine
 10
156.8769253604846
 20
226.9540669146064
 30
0.0
 11
164.8769253604846
 21
226.9540669146064
 31
0.0
  0
LINE
  5
114F7
330
1F
100
AcDbEntity
  8
0トロカバー
100
AcDbLine
 10
141.6769275478373
 20
217.4540669146064
 30
0.0
 11
173.1769275478374
 21
217.4540669146064
 31
0.0
  0
LINE
  5
114F8
330
1F
100
AcDbEntity
  8
0トロカバー
100
AcDbLine
 10
152.8769253604845
 20
217.7540669146063
 30
0.0
 11
152.8769253604845
 21
222.9540669146063
 31
0.0
  0
LINE
  5
114F9
330
1F
100
AcDbEntity
  8
0トロカバー
100
AcDbLine
 10
168.8769253604845
 20
217.7540669146064
 30
0.0
 11
168.8769253604845
 21
222.9540669146063
 31
0.0
  0
ARC
  5
114FA
330
1F
100
AcDbEntity
  8
0トロカバー
100
AcDbCircle
 10
156.8769253604846
 20
222.9540669146063
 30
0.0
 40
4.0
100
AcDbArc
 50
90.0
 51
180.0
1001
GENIUS_GENODEF_13
1002
{
1000
HIER
1070
     0
1002
}
1002
{
1000
MANEDIT
1070
     0
1002
}
1002
{
1000
NOSEL
1070
     0
1002
}
1002
{
1000
BEHIND
1070
     0
1002
}
1002
{
1000
OTHER
1070
     0
1002
}
1002
{
1000
REACTOR
1002
}
1001
GENIUS_GENOBJ-N-FIL_13
1002
{
1000
OWNER
1000
GEN
1002
}
  0
ARC
  5
114FB
330
1F
100
AcDbEntity
  8
0トロカバー
100
AcDbCircle
 10
164.8769253604846
 20
222.9540669146063
 30
0.0
 40
4.0
100
AcDbArc
 50
0.0
 51
90.0
1001
GENIUS_GENODEF_13
1002
{
1000
HIER
1070
     0
1002
}
1002
{
1000
MANEDIT
1070
     0
1002
}
1002
{
1000
NOSEL
1070
     0
1002
}
1002
{
1000
BEHIND
1070
     0
1002
}
1002
{
1000
OTHER
1070
     0
1002
}
1002
{
1000
REACTOR
1002
}
1001
GENIUS_GENOBJ-N-FIL_13
1002
{
1000
OWNER
1000
GEN
1002
}
  0
LINE
  5
114FC
330
1F
100
AcDbEntity
  8
0トロカバー
100
AcDbLine
 10
145.8769275478401
 20
217.4540669146064
 30
0.0
 11
146.4769275478399
 21
218.0540669146063
 31
0.0
  0
LINE
  5
114FD
330
1F
100
AcDbEntity
  8
0トロカバー
100
AcDbLine
 10
146.4769275478399
 20
218.0540669146063
 30
0.0
 11
147.0769275478398
 21
217.4540669146064
 31
0.0
  0
LINE
  5
114FE
330
1F
100
AcDbEntity
  8
0トロカバー
100
AcDbLine
 10
147.0769275478398
 20
217.4540669146064
 30
0.0
 11
147.6769275478396
 21
218.0540669146063
 31
0.0
  0
LINE
  5
114FF
330
1F
100
AcDbEntity
  8
0トロカバー
100
AcDbLine
 10
147.6769275478396
 20
218.0540669146063
 30
0.0
 11
148.2769275478395
 21
217.4540669146064
 31
0.0
  0
LINE
  5
11500
330
1F
100
AcDbEntity
  8
0トロカバー
100
AcDbLine
 10
148.2769275478395
 20
217.4540669146064
 30
0.0
 11
148.8769275478393
 21
218.0540669146063
 31
0.0
  0
LINE
  5
11501
330
1F
100
AcDbEntity
  8
0トロカバー
100
AcDbLine
 10
148.8769275478393
 20
218.0540669146063
 30
0.0
 11
149.4769275478392
 21
217.4540669146064
 31
0.0
  0
LINE
  5
11502
330
1F
100
AcDbEntity
  8
0トロカバー
100
AcDbLine
 10
149.4769275478392
 20
217.4540669146064
 30
0.0
 11
150.076927547839
 21
218.0540669146063
 31
0.0
  0
LINE
  5
11503
330
1F
100
AcDbEntity
  8
0トロカバー
100
AcDbLine
 10
150.076927547839
 20
218.0540669146063
 30
0.0
 11
150.6769275478389
 21
217.4540669146064
 31
0.0
  0
LINE
  5
11504
330
1F
100
AcDbEntity
  8
0トロカバー
100
AcDbLine
 10
150.6769275478389
 20
217.4540669146064
 30
0.0
 11
151.2769275478387
 21
218.0540669146063
 31
0.0
  0
LINE
  5
11505
330
1F
100
AcDbEntity
  8
0トロカバー
100
AcDbLine
 10
151.2769275478387
 20
218.0540669146063
 30
0.0
 11
151.8769275478386
 21
217.4540669146064
 31
0.0
  0
LINE
  5
11506
330
1F
100
AcDbEntity
  8
0トロカバー
100
AcDbLine
 10
151.8769275478386
 20
217.4540669146064
 30
0.0
 11
152.4769275478384
 21
218.0540669146063
 31
0.0
  0
LINE
  5
11507
330
1F
100
AcDbEntity
  8
0トロカバー
100
AcDbLine
 10
152.4769275478384
 20
218.0540669146063
 30
0.0
 11
153.0769275478383
 21
217.4540669146064
 31
0.0
  0
LINE
  5
11508
330
1F
100
AcDbEntity
  8
0トロカバー
100
AcDbLine
 10
153.0769275478383
 20
217.4540669146064
 30
0.0
 11
153.6769275478381
 21
218.0540669146063
 31
0.0
  0
LINE
  5
11509
330
1F
100
AcDbEntity
  8
0トロカバー
100
AcDbLine
 10
153.6769275478381
 20
218.0540669146063
 30
0.0
 11
154.276927547838
 21
217.4540669146064
 31
0.0
  0
LINE
  5
1150A
330
1F
100
AcDbEntity
  8
0トロカバー
100
AcDbLine
 10
154.276927547838
 20
217.4540669146064
 30
0.0
 11
154.8769275478378
 21
218.0540669146063
 31
0.0
  0
LINE
  5
1150B
330
1F
100
AcDbEntity
  8
0トロカバー
100
AcDbLine
 10
154.8769275478378
 20
218.0540669146063
 30
0.0
 11
155.4769275478377
 21
217.4540669146064
 31
0.0
  0
LINE
  5
1150C
330
1F
100
AcDbEntity
  8
0トロカバー
100
AcDbLine
 10
155.4769275478377
 20
217.4540669146064
 30
0.0
 11
156.0769275478375
 21
218.0540669146063
 31
0.0
  0
LINE
  5
1150D
330
1F
100
AcDbEntity
  8
0トロカバー
100
AcDbLine
 10
156.0769275478375
 20
218.0540669146063
 30
0.0
 11
156.6769275478374
 21
217.4540669146064
 31
0.0
  0
LINE
  5
1150E
330
1F
100
AcDbEntity
  8
0トロカバー
100
AcDbLine
 10
156.6769275478374
 20
217.4540669146064
 30
0.0
 11
157.2769275478372
 21
218.0540669146063
 31
0.0
  0
LINE
  5
1150F
330
1F
100
AcDbEntity
  8
0トロカバー
100
AcDbLine
 10
157.2769275478372
 20
218.0540669146063
 30
0.0
 11
157.8769275478371
 21
217.4540669146064
 31
0.0
  0
LINE
  5
11510
330
1F
100
AcDbEntity
  8
0トロカバー
100
AcDbLine
 10
157.8769275478371
 20
217.4540669146064
 30
0.0
 11
158.4769275478369
 21
218.0540669146063
 31
0.0
  0
LINE
  5
11511
330
1F
100
AcDbEntity
  8
0トロカバー
100
AcDbLine
 10
158.4769275478369
 20
218.0540669146063
 30
0.0
 11
159.0769275478369
 21
217.4540669146064
 31
0.0
  0
LINE
  5
11512
330
1F
100
AcDbEntity
  8
0トロカバー
100
AcDbLine
 10
159.0769275478369
 20
217.4540669146064
 30
0.0
 11
159.6769275478366
 21
218.0540669146063
 31
0.0
  0
LINE
  5
11513
330
1F
100
AcDbEntity
  8
0トロカバー
100
AcDbLine
 10
159.6769275478366
 20
218.0540669146063
 30
0.0
 11
160.2769275478365
 21
217.4540669146064
 31
0.0
  0
LINE
  5
11514
330
1F
100
AcDbEntity
  8
0トロカバー
100
AcDbLine
 10
160.2769275478365
 20
217.4540669146064
 30
0.0
 11
160.8769275478364
 21
218.0540669146063
 31
0.0
  0
LINE
  5
11515
330
1F
100
AcDbEntity
  8
0トロカバー
100
AcDbLine
 10
160.8769275478364
 20
218.0540669146063
 30
0.0
 11
161.4769275478363
 21
217.4540669146064
 31
0.0
  0
LINE
  5
11516
330
1F
100
AcDbEntity
  8
0トロカバー
100
AcDbLine
 10
161.4769275478363
 20
217.4540669146064
 30
0.0
 11
162.0769275478361
 21
218.0540669146063
 31
0.0
  0
LINE
  5
11517
330
1F
100
AcDbEntity
  8
0トロカバー
100
AcDbLine
 10
162.0769275478361
 20
218.0540669146063
 30
0.0
 11
162.676927547836
 21
217.4540669146064
 31
0.0
  0
LINE
  5
11518
330
1F
100
AcDbEntity
  8
0トロカバー
100
AcDbLine
 10
162.676927547836
 20
217.4540669146064
 30
0.0
 11
163.2769275478358
 21
218.0540669146063
 31
0.0
  0
LINE
  5
11519
330
1F
100
AcDbEntity
  8
0トロカバー
100
AcDbLine
 10
163.2769275478358
 20
218.0540669146063
 30
0.0
 11
163.8769275478357
 21
217.4540669146064
 31
0.0
  0
LINE
  5
1151A
330
1F
100
AcDbEntity
  8
0トロカバー
100
AcDbLine
 10
163.8769275478357
 20
217.4540669146064
 30
0.0
 11
164.4769275478355
 21
218.0540669146063
 31
0.0
  0
LINE
  5
1151B
330
1F
100
AcDbEntity
  8
0トロカバー
100
AcDbLine
 10
164.4769275478355
 20
218.0540669146063
 30
0.0
 11
165.0769275478354
 21
217.4540669146064
 31
0.0
  0
LINE
  5
1151C
330
1F
100
AcDbEntity
  8
0トロカバー
100
AcDbLine
 10
165.0769275478354
 20
217.4540669146064
 30
0.0
 11
165.6769275478352
 21
218.0540669146063
 31
0.0
  0
LINE
  5
1151D
330
1F
100
AcDbEntity
  8
0トロカバー
100
AcDbLine
 10
165.6769275478352
 20
218.0540669146063
 30
0.0
 11
166.2769275478351
 21
217.4540669146064
 31
0.0
  0
LINE
  5
1151E
330
1F
100
AcDbEntity
  8
0トロカバー
100
AcDbLine
 10
166.2769275478351
 20
217.4540669146064
 30
0.0
 11
166.8769275478349
 21
218.0540669146063
 31
0.0
  0
LINE
  5
1151F
330
1F
100
AcDbEntity
  8
0トロカバー
100
AcDbLine
 10
166.8769275478349
 20
218.0540669146063
 30
0.0
 11
167.4769275478348
 21
217.4540669146064
 31
0.0
  0
LINE
  5
11520
330
1F
100
AcDbEntity
  8
0トロカバー
100
AcDbLine
 10
167.4769275478348
 20
217.4540669146064
 30
0.0
 11
168.0769275478346
 21
218.0540669146063
 31
0.0
  0
LINE
  5
11521
330
1F
100
AcDbEntity
  8
0トロカバー
100
AcDbLine
 10
168.0769275478346
 20
218.0540669146063
 30
0.0
 11
168.6769275478345
 21
217.4540669146064
 31
0.0
  0
LINE
  5
1170E
330
1F
100
AcDbEntity
  8
0トロカバー
100
AcDbLine
 10
251.5950898957877
 20
136.398310468178
 30
0.0
 11
251.5950898957877
 21
109.3983104681813
 31
0.0
  0
LINE
  5
11710
330
1F
100
AcDbEntity
  8
0トロカバー
100
AcDbLine
 10
242.0950898957876
 20
157.3983104681797
 30
0.0
 11
240.0950898957877
 21
157.3983104681797
 31
0.0
  0
LINE
  5
11711
330
1F
100
AcDbEntity
  8
0トロカバー
100
AcDbLine
 10
242.0950898957876
 20
88.39831046817991
 30
0.0
 11
240.0950898957877
 21
88.39831046817991
 31
0.0
  0
LINE
  5
11712
330
1F
100
AcDbEntity
  8
0トロカバー
100
AcDbLine
 10
242.0950898957876
 20
157.3983104681797
 30
0.0
 11
242.0950898957876
 21
88.39831046817991
 31
0.0
  0
LINE
  5
11713
330
1F
100
AcDbEntity
  8
0トロカバー
100
AcDbLine
 10
247.5950898957877
 20
140.398310468178
 30
0.0
 11
242.0950898957876
 21
140.398310468178
 31
0.0
  0
LINE
  5
11714
330
1F
100
AcDbEntity
  8
0トロカバー
100
AcDbLine
 10
247.5950898957877
 20
105.3983104681813
 30
0.0
 11
242.0950898957876
 21
105.3983104681813
 31
0.0
  0
LINE
  5
11716
330
1F
100
AcDbEntity
  8
0トロカバー
100
AcDbLine
 10
242.6950898957876
 20
155.8983104681802
 30
0.0
 11
242.6950898957876
 21
153.8983104681802
 31
0.0
  0
LINE
  5
11717
330
1F
100
AcDbEntity
  8
0トロカバー
100
AcDbLine
 10
242.6950898957876
 20
146.898310468178
 30
0.0
 11
242.6950898957876
 21
144.898310468178
 31
0.0
  0
LINE
  5
11718
330
1F
100
AcDbEntity
  8
0トロカバー
100
AcDbLine
 10
242.0950898957876
 20
146.898310468178
 30
0.0
 11
242.6950898957876
 21
146.898310468178
 31
0.0
  0
LINE
  5
11719
330
1F
100
AcDbEntity
  8
0トロカバー
100
AcDbLine
 10
242.0950898957876
 20
144.898310468178
 30
0.0
 11
242.6950898957876
 21
144.898310468178
 31
0.0
  0
LINE
  5
1171A
330
1F
100
AcDbEntity
  8
0トロカバー
100
AcDbLine
 10
242.0950898957876
 20
153.8983104681802
 30
0.0
 11
242.6950898957876
 21
153.8983104681802
 31
0.0
  0
LINE
  5
1171B
330
1F
100
AcDbEntity
  8
0トロカバー
100
AcDbLine
 10
242.0950898957876
 20
155.8983104681802
 30
0.0
 11
242.6950898957876
 21
155.8983104681802
 31
0.0
  0
LINE
  5
1172B
330
1F
100
AcDbEntity
  8
AM_7
 48
0.8
100
AcDbLine
 10
236.0950898957877
 20
122.8983104681797
 30
0.0
 11
254.5950898957877
 21
122.8983104681797
 31
0.0
1001
GENIUS_GENOBJ-N-CEN_13
1002
{
1000
OWNER
1000
GEN
1002
}
1001
GENIUS_GENODEF_13
1002
{
1000
HIER
1070
     0
1002
}
1002
{
1000
MANEDIT
1070
     0
1002
}
1002
{
1000
NOSEL
1070
     0
1002
}
1002
{
1000
BEHIND
1070
     0
1002
}
1002
{
1000
OTHER
1070
     0
1002
}
1002
{
1000
REACTOR
1002
}
1001
GENIUS_GENCEN_19
1002
{
1040
3.0
1002
}
  0
ARC
  5
1175A
330
1F
100
AcDbEntity
  8
0フロントプレート
 48
1.01
100
AcDbCircle
 10
240.0950898957823
 20
155.8983104681795
 30
0.0
 40
2.0
100
AcDbArc
 50
48.59037789073383
 51
89.99999999998697
1001
GENIUS_GENREC_14
1002
{
1000
PYDIR
1011
239.0950898957877
1021
87.8983104681798
1031
0.0
1002
}
1002
{
1000
PXDIR
1011
240.0950898957877
1021
157.8983104681798
1031
0.0
1002
}
1002
{
1000
PORI
1011
239.0950898957877
1021
157.8983104681798
1031
0.0
1002
}
1002
{
1000
PINS
1011
239.0950898957877
1021
157.8983104681798
1031
0.0
1002
}
1002
{
1000
PINS2
1011
240.0950898957877
1021
87.8983104681798
1031
0.0
1002
}
1002
{
1000
C
1070
     1
1002
}
1001
GENIUS_GENOBJ-N-REC_13
1002
{
1000
OWNER
1000
GEN
1002
}
1001
GENIUS_GENOBJ-N-FIL_13
1002
{
1000
OWNER
1000
GEN
1002
}
1001
GENIUS_GENODEF_13
1002
{
1000
HIER
1070
     0
1002
}
1002
{
1000
MANEDIT
1070
     0
1002
}
1002
{
1000
NOSEL
1070
     0
1002
}
1002
{
1000
BEHIND
1070
     0
1002
}
1002
{
1000
OTHER
1070
     0
1002
}
1002
{
1000
REACTOR
1002
}
  0
LINE
  5
1175D
330
1F
100
AcDbEntity
  8
0フロントプレート
100
AcDbLine
 10
240.0950898957877
 20
87.8983104681798
 30
0.0
 11
240.0950898957877
 21
157.8983104681795
 31
0.0
  0
LINE
  5
1177C
330
1F
100
AcDbEntity
  8
0フロントプレート
 48
1.01
100
AcDbLine
 10
142.1769209857762
 20
126.8983104681807
 30
0.0
 11
147.8769209857787
 21
126.8983104681811
 31
0.0
1001
GENIUS_GENREC_14
1002
{
1000
PYDIR
1011
148.3769209857788
1021
105.8983104681798
1031
0.0
1002
}
1002
{
1000
PXDIR
1011
166.6769253605394
1021
139.8983104681798
1031
0.0
1002
}
1002
{
1000
PORI
1011
148.3769209857788
1021
139.8983104681798
1031
0.0
1002
}
1002
{
1000
PINS
1011
148.3769209857788
1021
139.8983104681798
1031
0.0
1002
}
1002
{
1000
PINS2
1011
166.6769253605394
1021
105.8983104681798
1031
0.0
1002
}
1002
{
1000
C
1070
     1
1002
}
1001
GENIUS_GENODEF_13
1002
{
1000
HIER
1070
     0
1002
}
1002
{
1000
MANEDIT
1070
     0
1002
}
1002
{
1000
NOSEL
1070
     0
1002
}
1002
{
1000
BEHIND
1070
     0
1002
}
1002
{
1000
OTHER
1070
     0
1002
}
1002
{
1000
REACTOR
1002
}
1001
GENIUS_GENOBJ-N-REC_13
1002
{
1000
OWNER
1000
GEN
1002
}
  0
ARC
  5
1177D
330
1F
100
AcDbEntity
  8
0フロントプレート
 48
1.01
100
AcDbCircle
 10
147.8769209857787
 20
127.3983104681811
 30
0.0
 40
0.5
100
AcDbArc
 50
270.0
 51
0.0
1001
GENIUS_GENREC_14
1002
{
1000
PYDIR
1011
148.3769209857788
1021
105.8983104681798
1031
0.0
1002
}
1002
{
1000
PXDIR
1011
166.6769253605394
1021
139.8983104681798
1031
0.0
1002
}
1002
{
1000
PORI
1011
148.3769209857788
1021
139.8983104681798
1031
0.0
1002
}
1002
{
1000
PINS
1011
148.3769209857788
1021
139.8983104681798
1031
0.0
1002
}
1002
{
1000
PINS2
1011
166.6769253605394
1021
105.8983104681798
1031
0.0
1002
}
1002
{
1000
C
1070
     1
1002
}
1001
GENIUS_GENODEF_13
1002
{
1000
HIER
1070
     0
1002
}
1002
{
1000
MANEDIT
1070
     0
1002
}
1002
{
1000
NOSEL
1070
     0
1002
}
1002
{
1000
BEHIND
1070
     0
1002
}
1002
{
1000
OTHER
1070
     0
1002
}
1002
{
1000
REACTOR
1002
}
1001
GENIUS_GENOBJ-N-REC_13
1002
{
1000
OWNER
1000
GEN
1002
}
  0
LINE
  5
1177E
330
1F
100
AcDbEntity
  8
0フロントプレート
 48
1.01
100
AcDbLine
 10
148.3769209857788
 20
127.3983104681811
 30
0.0
 11
148.3769209857788
 21
138.8983104681798
 31
0.0
1001
GENIUS_GENREC_14
1002
{
1000
PYDIR
1011
148.3769209857788
1021
105.8983104681798
1031
0.0
1002
}
1002
{
1000
PXDIR
1011
166.6769253605394
1021
139.8983104681798
1031
0.0
1002
}
1002
{
1000
PORI
1011
148.3769209857788
1021
139.8983104681798
1031
0.0
1002
}
1002
{
1000
PINS
1011
148.3769209857788
1021
139.8983104681798
1031
0.0
1002
}
1002
{
1000
PINS2
1011
166.6769253605394
1021
105.8983104681798
1031
0.0
1002
}
1002
{
1000
C
1070
     1
1002
}
1001
GENIUS_GENODEF_13
1002
{
1000
HIER
1070
     0
1002
}
1002
{
1000
MANEDIT
1070
     0
1002
}
1002
{
1000
NOSEL
1070
     0
1002
}
1002
{
1000
BEHIND
1070
     0
1002
}
1002
{
1000
OTHER
1070
     0
1002
}
1002
{
1000
REACTOR
1002
}
1001
GENIUS_GENOBJ-N-REC_13
1002
{
1000
OWNER
1000
GEN
1002
}
  0
LINE
  5
11780
330
1F
100
AcDbEntity
  8
0フロントプレート
 48
1.01
100
AcDbLine
 10
149.3769209857788
 20
139.8983104681798
 30
0.0
 11
166.1769253605394
 21
139.8983104681798
 31
0.0
1001
GENIUS_GENREC_14
1002
{
1000
PYDIR
1011
148.3769209857788
1021
105.8983104681798
1031
0.0
1002
}
1002
{
1000
PXDIR
1011
166.6769253605394
1021
139.8983104681798
1031
0.0
1002
}
1002
{
1000
PORI
1011
148.3769209857788
1021
139.8983104681798
1031
0.0
1002
}
1002
{
1000
PINS
1011
148.3769209857788
1021
139.8983104681798
1031
0.0
1002
}
1002
{
1000
PINS2
1011
166.6769253605394
1021
105.8983104681798
1031
0.0
1002
}
1002
{
1000
C
1070
     1
1002
}
1001
GENIUS_GENODEF_13
1002
{
1000
HIER
1070
     0
1002
}
1002
{
1000
MANEDIT
1070
     0
1002
}
1002
{
1000
NOSEL
1070
     0
1002
}
1002
{
1000
BEHIND
1070
     0
1002
}
1002
{
1000
OTHER
1070
     0
1002
}
1002
{
1000
REACTOR
1002
}
1001
GENIUS_GENOBJ-N-REC_13
1002
{
1000
OWNER
1000
GEN
1002
}
  0
ARC
  5
11781
330
1F
100
AcDbEntity
  8
0フロントプレート
 48
1.01
100
AcDbCircle
 10
166.1769253605394
 20
138.8983104681798
 30
0.0
 40
1.0
100
AcDbArc
 50
0.0
 51
90.0
1001
GENIUS_GENREC_14
1002
{
1000
PYDIR
1011
148.8769209857788
1021
105.8983104681798
1031
0.0
1002
}
1002
{
1000
PXDIR
1011
167.1769253605394
1021
139.8983104681798
1031
0.0
1002
}
1002
{
1000
PORI
1011
148.8769209857788
1021
139.8983104681798
1031
0.0
1002
}
1002
{
1000
PINS
1011
148.8769209857788
1021
139.8983104681798
1031
0.0
1002
}
1002
{
1000
PINS2
1011
167.1769253605394
1021
105.8983104681798
1031
0.0
1002
}
1002
{
1000
C
1070
     1
1002
}
1001
GENIUS_GENODEF_13
1002
{
1000
HIER
1070
     0
1002
}
1002
{
1000
MANEDIT
1070
     0
1002
}
1002
{
1000
NOSEL
1070
     0
1002
}
1002
{
1000
BEHIND
1070
     0
1002
}
1002
{
1000
OTHER
1070
     0
1002
}
1002
{
1000
REACTOR
1002
}
1001
GENIUS_GENOBJ-N-REC_13
1002
{
1000
OWNER
1000
GEN
1002
}
  0
LINE
  5
11782
330
1F
100
AcDbEntity
  8
0フロントプレート
 48
1.01
100
AcDbLine
 10
167.1769253605394
 20
138.8983104681798
 30
0.0
 11
167.1769253605394
 21
106.8983104681798
 31
0.0
1001
GENIUS_GENREC_14
1002
{
1000
PYDIR
1011
148.8769209857788
1021
105.8983104681798
1031
0.0
1002
}
1002
{
1000
PXDIR
1011
167.1769253605394
1021
139.8983104681798
1031
0.0
1002
}
1002
{
1000
PORI
1011
148.8769209857788
1021
139.8983104681798
1031
0.0
1002
}
1002
{
1000
PINS
1011
148.8769209857788
1021
139.8983104681798
1031
0.0
1002
}
1002
{
1000
PINS2
1011
167.1769253605394
1021
105.8983104681798
1031
0.0
1002
}
1002
{
1000
C
1070
     1
1002
}
1001
GENIUS_GENODEF_13
1002
{
1000
HIER
1070
     0
1002
}
1002
{
1000
MANEDIT
1070
     0
1002
}
1002
{
1000
NOSEL
1070
     0
1002
}
1002
{
1000
BEHIND
1070
     0
1002
}
1002
{
1000
OTHER
1070
     0
1002
}
1002
{
1000
REACTOR
1002
}
1001
GENIUS_GENOBJ-N-REC_13
1002
{
1000
OWNER
1000
GEN
1002
}
  0
ARC
  5
11783
330
1F
100
AcDbEntity
  8
0フロントプレート
 48
1.01
100
AcDbCircle
 10
166.1769253605394
 20
106.8983104681798
 30
0.0
 40
1.0
100
AcDbArc
 50
270.0
 51
0.0
1001
GENIUS_GENREC_14
1002
{
1000
PYDIR
1011
148.8769209857788
1021
105.8983104681798
1031
0.0
1002
}
1002
{
1000
PXDIR
1011
167.1769253605394
1021
139.8983104681798
1031
0.0
1002
}
1002
{
1000
PORI
1011
148.8769209857788
1021
139.8983104681798
1031
0.0
1002
}
1002
{
1000
PINS
1011
148.8769209857788
1021
139.8983104681798
1031
0.0
1002
}
1002
{
1000
PINS2
1011
167.1769253605394
1021
105.8983104681798
1031
0.0
1002
}
1002
{
1000
C
1070
     1
1002
}
1001
GENIUS_GENODEF_13
1002
{
1000
HIER
1070
     0
1002
}
1002
{
1000
MANEDIT
1070
     0
1002
}
1002
{
1000
NOSEL
1070
     0
1002
}
1002
{
1000
BEHIND
1070
     0
1002
}
1002
{
1000
OTHER
1070
     0
1002
}
1002
{
1000
REACTOR
1002
}
1001
GENIUS_GENOBJ-N-REC_13
1002
{
1000
OWNER
1000
GEN
1002
}
  0
LINE
  5
11784
330
1F
100
AcDbEntity
  8
0フロントプレート
 48
1.01
100
AcDbLine
 10
166.1769253605394
 20
105.8983104681798
 30
0.0
 11
149.3769209857788
 21
105.8983104681798
 31
0.0
1001
GENIUS_GENREC_14
1002
{
1000
PYDIR
1011
148.3769209857788
1021
105.8983104681798
1031
0.0
1002
}
1002
{
1000
PXDIR
1011
166.6769253605394
1021
139.8983104681798
1031
0.0
1002
}
1002
{
1000
PORI
1011
148.3769209857788
1021
139.8983104681798
1031
0.0
1002
}
1002
{
1000
PINS
1011
148.3769209857788
1021
139.8983104681798
1031
0.0
1002
}
1002
{
1000
PINS2
1011
166.6769253605394
1021
105.8983104681798
1031
0.0
1002
}
1002
{
1000
C
1070
     1
1002
}
1001
GENIUS_GENODEF_13
1002
{
1000
HIER
1070
     0
1002
}
1002
{
1000
MANEDIT
1070
     0
1002
}
1002
{
1000
NOSEL
1070
     0
1002
}
1002
{
1000
BEHIND
1070
     0
1002
}
1002
{
1000
OTHER
1070
     0
1002
}
1002
{
1000
REACTOR
1002
}
1001
GENIUS_GENOBJ-N-REC_13
1002
{
1000
OWNER
1000
GEN
1002
}
  0
LINE
  5
11786
330
1F
100
AcDbEntity
  8
0フロントプレート
 48
1.01
100
AcDbLine
 10
148.3769209857788
 20
106.8983104681798
 30
0.0
 11
148.3769209857788
 21
118.3983104681802
 31
0.0
1001
GENIUS_GENREC_14
1002
{
1000
PYDIR
1011
148.3769209857788
1021
105.8983104681798
1031
0.0
1002
}
1002
{
1000
PXDIR
1011
166.6769253605394
1021
139.8983104681798
1031
0.0
1002
}
1002
{
1000
PORI
1011
148.3769209857788
1021
139.8983104681798
1031
0.0
1002
}
1002
{
1000
PINS
1011
148.3769209857788
1021
139.8983104681798
1031
0.0
1002
}
1002
{
1000
PINS2
1011
166.6769253605394
1021
105.8983104681798
1031
0.0
1002
}
1002
{
1000
C
1070
     1
1002
}
1001
GENIUS_GENODEF_13
1002
{
1000
HIER
1070
     0
1002
}
1002
{
1000
MANEDIT
1070
     0
1002
}
1002
{
1000
NOSEL
1070
     0
1002
}
1002
{
1000
BEHIND
1070
     0
1002
}
1002
{
1000
OTHER
1070
     0
1002
}
1002
{
1000
REACTOR
1002
}
1001
GENIUS_GENOBJ-N-REC_13
1002
{
1000
OWNER
1000
GEN
1002
}
  0
ARC
  5
11787
330
1F
100
AcDbEntity
  8
0フロントプレート
 48
1.01
100
AcDbCircle
 10
147.8769209857787
 20
118.3983104681802
 30
0.0
 40
0.5
100
AcDbArc
 50
0.0
 51
90.0
1001
GENIUS_GENREC_14
1002
{
1000
PYDIR
1011
148.3769209857788
1021
105.8983104681798
1031
0.0
1002
}
1002
{
1000
PXDIR
1011
166.6769253605394
1021
139.8983104681798
1031
0.0
1002
}
1002
{
1000
PORI
1011
148.3769209857788
1021
139.8983104681798
1031
0.0
1002
}
1002
{
1000
PINS
1011
148.3769209857788
1021
139.8983104681798
1031
0.0
1002
}
1002
{
1000
PINS2
1011
166.6769253605394
1021
105.8983104681798
1031
0.0
1002
}
1002
{
1000
C
1070
     1
1002
}
1001
GENIUS_GENODEF_13
1002
{
1000
HIER
1070
     0
1002
}
1002
{
1000
MANEDIT
1070
     0
1002
}
1002
{
1000
NOSEL
1070
     0
1002
}
1002
{
1000
BEHIND
1070
     0
1002
}
1002
{
1000
OTHER
1070
     0
1002
}
1002
{
1000
REACTOR
1002
}
1001
GENIUS_GENOBJ-N-REC_13
1002
{
1000
OWNER
1000
GEN
1002
}
  0
LINE
  5
11788
330
1F
100
AcDbEntity
  8
0フロントプレート
 48
1.01
100
AcDbLine
 10
147.8769209857787
 20
118.8983104681802
 30
0.0
 11
142.1769209857762
 21
118.8983104681802
 31
0.0
1001
GENIUS_GENREC_14
1002
{
1000
PYDIR
1011
148.3769209857788
1021
105.8983104681798
1031
0.0
1002
}
1002
{
1000
PXDIR
1011
166.6769253605394
1021
139.8983104681798
1031
0.0
1002
}
1002
{
1000
PORI
1011
148.3769209857788
1021
139.8983104681798
1031
0.0
1002
}
1002
{
1000
PINS
1011
148.3769209857788
1021
139.8983104681798
1031
0.0
1002
}
1002
{
1000
PINS2
1011
166.6769253605394
1021
105.8983104681798
1031
0.0
1002
}
1002
{
1000
C
1070
     1
1002
}
1001
GENIUS_GENODEF_13
1002
{
1000
HIER
1070
     0
1002
}
1002
{
1000
MANEDIT
1070
     0
1002
}
1002
{
1000
NOSEL
1070
     0
1002
}
1002
{
1000
BEHIND
1070
     0
1002
}
1002
{
1000
OTHER
1070
     0
1002
}
1002
{
1000
REACTOR
1002
}
1001
GENIUS_GENOBJ-N-REC_13
1002
{
1000
OWNER
1000
GEN
1002
}
  0
ARC
  5
11789
330
1F
100
AcDbEntity
  8
0フロントプレート
 48
1.01
100
AcDbCircle
 10
142.1769209857762
 20
119.3983104681802
 30
0.0
 40
0.5
100
AcDbArc
 50
180.0
 51
270.0
1001
GENIUS_GENREC_14
1002
{
1000
PYDIR
1011
148.3769209857788
1021
105.8983104681798
1031
0.0
1002
}
1002
{
1000
PXDIR
1011
166.6769253605394
1021
139.8983104681798
1031
0.0
1002
}
1002
{
1000
PORI
1011
148.3769209857788
1021
139.8983104681798
1031
0.0
1002
}
1002
{
1000
PINS
1011
148.3769209857788
1021
139.8983104681798
1031
0.0
1002
}
1002
{
1000
PINS2
1011
166.6769253605394
1021
105.8983104681798
1031
0.0
1002
}
1002
{
1000
C
1070
     1
1002
}
1001
GENIUS_GENODEF_13
1002
{
1000
HIER
1070
     0
1002
}
1002
{
1000
MANEDIT
1070
     0
1002
}
1002
{
1000
NOSEL
1070
     0
1002
}
1002
{
1000
BEHIND
1070
     0
1002
}
1002
{
1000
OTHER
1070
     0
1002
}
1002
{
1000
REACTOR
1002
}
1001
GENIUS_GENOBJ-N-REC_13
1002
{
1000
OWNER
1000
GEN
1002
}
  0
LINE
  5
1178A
330
1F
100
AcDbEntity
  8
0フロントプレート
 48
1.01
100
AcDbLine
 10
141.6769209857762
 20
119.3983104681802
 30
0.0
 11
141.6769209857762
 21
126.3983104681807
 31
0.0
1001
GENIUS_GENREC_14
1002
{
1000
PYDIR
1011
148.3769209857788
1021
105.8983104681798
1031
0.0
1002
}
1002
{
1000
PXDIR
1011
166.6769253605394
1021
139.8983104681798
1031
0.0
1002
}
1002
{
1000
PORI
1011
148.3769209857788
1021
139.8983104681798
1031
0.0
1002
}
1002
{
1000
PINS
1011
148.3769209857788
1021
139.8983104681798
1031
0.0
1002
}
1002
{
1000
PINS2
1011
166.6769253605394
1021
105.8983104681798
1031
0.0
1002
}
1002
{
1000
C
1070
     1
1002
}
1001
GENIUS_GENODEF_13
1002
{
1000
HIER
1070
     0
1002
}
1002
{
1000
MANEDIT
1070
     0
1002
}
1002
{
1000
NOSEL
1070
     0
1002
}
1002
{
1000
BEHIND
1070
     0
1002
}
1002
{
1000
OTHER
1070
     0
1002
}
1002
{
1000
REACTOR
1002
}
1001
GENIUS_GENOBJ-N-REC_13
1002
{
1000
OWNER
1000
GEN
1002
}
  0
LWPOLYLINE
  5
1189C
330
1F
100
AcDbEntity
  8
切欠き-AM_2
 48
1.01
100
AcDbPolyline
 90
        8
 70
     1
 43
0.0
 10
344.3577758322927
 20
103.8732078517837
 10
355.3577758322926
 20
103.8732078517837
 42
0.4142135623730951
 10
361.3577758322926
 20
109.8732078517837
 10
361.3577758322926
 20
135.8732078517837
 42
0.4142135623730951
 10
355.3577758322926
 20
141.8732078517837
 10
344.3577758322927
 20
141.8732078517837
 42
0.4142135623730951
 10
338.3577758322926
 20
135.8732078517837
 10
338.3577758322926
 20
109.8732078517837
 42
0.4142135623730951
1001
GENIUS_GENREC_14
1002
{
1000
PYDIR
1011
338.3577758322926
1021
141.8732078517837
1031
0.0
1002
}
1002
{
1000
PXDIR
1011
361.3577758322926
1021
103.8732078517837
1031
0.0
1002
}
1002
{
1000
PORI
1011
338.3577758322926
1021
103.8732078517837
1031
0.0
1002
}
1002
{
1000
PINS
1011
352.6077758322927
1021
122.8732078517837
1031
0.0
1002
}
1002
{
1000
HVAL
1000
40
1002
}
1002
{
1000
H
1070
     2
1002
}
1002
{
1000
WVAL
1000
25.5
1002
}
1002
{
1000
W
1070
     2
1002
}
1002
{
1000
C
1070
     4
1002
}
1001
GENIUS_GENODEF_13
1002
{
1000
HIER
1070
     0
1002
}
1002
{
1000
MANEDIT
1070
     0
1002
}
1002
{
1000
NOSEL
1070
     0
1002
}
1002
{
1000
BEHIND
1070
     0
1002
}
1002
{
1000
OTHER
1070
     0
1002
}
1002
{
1000
REACTOR
1002
}
1001
GENIUS_GENOBJ-N-REC_13
1002
{
1000
OWNER
1000
GEN
1002
}
  0
LINE
  5
1189D
330
1F
100
AcDbEntity
  8
切欠き-AM_2
100
AcDbLine
 10
326.8577758322927
 20
167.9553459133017
 30
0.0
 11
326.8577758322927
 21
79.64116744651073
 31
0.0
  0
LINE
  5
1189E
330
1F
100
AcDbEntity
  8
切欠き-AM_2
100
AcDbLine
 10
326.8577758322927
 20
87.87320785178371
 30
0.0
 11
359.3577758322926
 21
87.87320785178371
 31
0.0
  0
LINE
  5
1189F
330
1F
100
AcDbEntity
  8
切欠き-AM_2
100
AcDbLine
 10
365.3577758322926
 20
93.87320785178372
 30
0.0
 11
365.3577758322926
 21
151.8732078517837
 31
0.0
  0
LINE
  5
118A0
330
1F
100
AcDbEntity
  8
切欠き-AM_2
100
AcDbLine
 10
359.3577758322926
 20
157.8732078517837
 30
0.0
 11
326.8577758322927
 21
157.8732078517837
 31
0.0
  0
ARC
  5
118A1
330
1F
100
AcDbEntity
  8
切欠き-AM_2
 48
0.6000000000000001
100
AcDbCircle
 10
359.3577758322926
 20
93.87320785178372
 30
0.0
 40
6.0
100
AcDbArc
 50
270.0
 51
0.0
1001
GENIUS_GENODEF_13
1002
{
1000
HIER
1070
     0
1002
}
1002
{
1000
MANEDIT
1070
     0
1002
}
1002
{
1000
NOSEL
1070
     0
1002
}
1002
{
1000
BEHIND
1070
     0
1002
}
1002
{
1000
OTHER
1070
     0
1002
}
1002
{
1000
REACTOR
1002
}
1001
GENIUS_GENOBJ-N-FIL_13
1002
{
1000
OWNER
1000
GEN
1002
}
  0
ARC
  5
118A2
330
1F
100
AcDbEntity
  8
切欠き-AM_2
 48
0.6000000000000001
100
AcDbCircle
 10
359.3577758322926
 20
151.8732078517837
 30
0.0
 40
6.0
100
AcDbArc
 50
0.0
 51
90.0
1001
GENIUS_GENOBJ-N-FIL_13
1002
{
1000
OWNER
1000
GEN
1002
}
1001
GENIUS_GENODEF_13
1002
{
1000
HIER
1070
     0
1002
}
1002
{
1000
MANEDIT
1070
     0
1002
}
1002
{
1000
NOSEL
1070
     0
1002
}
1002
{
1000
BEHIND
1070
     0
1002
}
1002
{
1000
OTHER
1070
     0
1002
}
1002
{
1000
REACTOR
1002
}
  0
LINE
  5
118A3
330
1F
100
AcDbEntity
  8
切欠き-AM_2
100
AcDbLine
 10
338.3577758322926
 20
227.454063862846
 30
0.0
 11
361.3577758322926
 21
227.454063862846
 31
0.0
  0
LINE
  5
118A4
330
1F
100
AcDbEntity
  8
切欠き-AM_2
100
AcDbLine
 10
326.8577758322927
 20
217.4540669146064
 30
0.0
 11
365.3577758322926
 21
217.4540669146064
 31
0.0
  0
LINE
  5
118A5
330
1F
100
AcDbEntity
  8
切欠き-AM_2
100
AcDbLine
 10
326.8577758322927
 20
214.4540669146064
 30
0.0
 11
392.0786887656431
 21
214.4540669146064
 31
0.0
  0
LINE
  5
118A6
330
1F
100
AcDbEntity
  8
切欠き-AM_2
100
AcDbLine
 10
326.8577758322927
 20
245.0721562295039
 30
0.0
 11
326.8577758322927
 21
214.4540669146064
 31
0.0
  0
LINE
  5
118A7
330
1F
100
AcDbEntity
  8
切欠き-AM_2
 48
0.6749998474119991
100
AcDbLine
 10
338.3577758322926
 20
227.454063862846
 30
0.0
 11
338.3577758322918
 21
217.4540669146064
 31
0.0
  0
LINE
  5
118A8
330
1F
100
AcDbEntity
  8
切欠き-AM_2
 48
0.7999998474119991
100
AcDbLine
 10
361.3577758322926
 20
227.454063862846
 30
0.0
 11
361.3577758322926
 21
217.4540669146064
 31
0.0
  0
CIRCLE
  5
118A9
330
1F
100
AcDbEntity
  8
AM_2
 48
0.4
100
AcDbCircle
 10
350.3577758322927
 20
95.8732383693623
 30
0.0
 40
1.399999976158099
  0
DIMENSION
  5
118AA
330
1F
100
AcDbEntity
  8
AM_5
 48
1.01
100
AcDbDimension
  2
*D12
 10
316.8577758322927
 20
149.8731773342047
 30
0.0
 11
313.7577758322926
 21
122.8732078517835
 31
0.0
 70
    32
 71
     5
 42
53.99993896484239
  3
SYS$0
100
AcDbAlignedDimension
 13
345.9577758561346
 23
95.8732383693623
 33
0.0
 14
345.9577758561346
 24
149.8731773342047
 34
0.0
 50
90.0
100
AcDbRotatedDimension
1001
ACAD
1000
DSTYLE
1002
{
1070
    41
1040
1.0
1070
   271
1070
     2
1070
   279
1070
     0
1070
   341
1005
A66
1070
   343
1005
6C4
1070
   344
1005
6C4
1002
}
  0
DIMENSION
  5
118AB
330
1F
100
AcDbEntity
  8
AM_5
 48
1.01
100
AcDbDimension
  2
*D13
 10
306.8577758322927
 20
87.87320785178371
 30
0.0
 11
303.7577758322926
 21
122.8732078517838
 31
0.0
 70
    32
 71
     5
 42
70.00000000000001
  3
SYS$0
100
AcDbAlignedDimension
 13
326.8577758322927
 23
157.8732078517837
 33
0.0
 14
326.8577758322927
 24
87.87320785178371
 34
0.0
 50
90.0
100
AcDbRotatedDimension
1001
ACAD
1000
DSTYLE
1002
{
1070
    41
1040
1.0
1070
   271
1070
     2
1070
   279
1070
     0
1070
   341
1005
A66
1070
   343
1005
6C4
1070
   344
1005
6C4
1002
}
  0
DIMENSION
  5
118AC
330
1F
100
AcDbEntity
  8
AM_5
 48
1.01
100
AcDbDimension
  2
*D14
 10
316.8577758322927
 20
214.4540669146064
 30
0.0
 11
313.7577758322926
 21
210.2074002479398
 31
0.0
 70
    32
 71
     5
 42
3.0
  3
SYS$0
100
AcDbAlignedDimension
 13
326.8577758322927
 23
217.4540669146064
 33
0.0
 14
326.8577758322927
 24
214.4540669146064
 34
0.0
 50
90.0
100
AcDbRotatedDimension
1001
ACAD
1000
DSTYLE
1002
{
1070
    41
1040
1.0
1070
   271
1070
     2
1070
   279
1070
     0
1070
   341
1005
A66
1070
   343
1005
6C4
1070
   344
1005
6C4
1002
}
  0
DIMENSION
  5
118AD
330
1F
100
AcDbEntity
  8
AM_5
 48
1.01
100
AcDbDimension
  2
*D15
 10
306.8577758322927
 20
214.4540669146064
 30
0.0
 11
303.7577758322925
 21
220.9540653887263
 31
0.0
 70
    32
 71
     5
 42
12.99999694823964
  3
SYS$0
100
AcDbAlignedDimension
 13
338.3577758322926
 23
227.454063862846
 33
0.0
 14
326.8577758322927
 24
214.4540669146064
 34
0.0
 50
90.0
100
AcDbRotatedDimension
1001
ACAD
1000
DSTYLE
1002
{
1070
    41
1040
1.0
1070
   271
1070
     2
1070
   279
1070
     0
1070
   341
1005
A66
1070
   343
1005
6C4
1070
   344
1005
6C4
1002
}
  0
LINE
  5
118AE
330
1F
100
AcDbEntity
  8
AM_7
 48
0.4
100
AcDbLine
 10
350.3577758322927
 20
91.47323839320421
 30
0.0
 11
350.3577758322927
 21
100.2732383455203
 31
0.0
1001
GENIUS_GENODEF_13
1002
{
1000
HIER
1070
     0
1002
}
1002
{
1000
MANEDIT
1070
     0
1002
}
1002
{
1000
NOSEL
1070
     0
1002
}
1002
{
1000
BEHIND
1070
     0
1002
}
1002
{
1000
OTHER
1070
     0
1002
}
1002
{
1000
REACTOR
1002
}
1001
GENIUS_GENOBJ-N-CEN_13
1002
{
1000
OWNER
1000
GEN
1002
}
  0
LINE
  5
118AF
330
1F
100
AcDbEntity
  8
AM_7
 48
0.4
100
AcDbLine
 10
345.9577758561346
 20
95.8732383693623
 30
0.0
 11
354.7577758084508
 21
95.8732383693623
 31
0.0
1001
GENIUS_GENODEF_13
1002
{
1000
HIER
1070
     0
1002
}
1002
{
1000
MANEDIT
1070
     0
1002
}
1002
{
1000
NOSEL
1070
     0
1002
}
1002
{
1000
BEHIND
1070
     0
1002
}
1002
{
1000
OTHER
1070
     0
1002
}
1002
{
1000
REACTOR
1002
}
1001
GENIUS_GENOBJ-N-CEN_13
1002
{
1000
OWNER
1000
GEN
1002
}
  0
LINE
  5
118B0
330
1F
100
AcDbEntity
  8
AM_7
 48
0.4
100
AcDbLine
 10
345.9577758561346
 20
149.8731773342047
 30
0.0
 11
354.7577758084508
 21
149.8731773342047
 31
0.0
1001
GENIUS_GENODEF_13
1002
{
1000
HIER
1070
     0
1002
}
1002
{
1000
MANEDIT
1070
     0
1002
}
1002
{
1000
NOSEL
1070
     0
1002
}
1002
{
1000
BEHIND
1070
     0
1002
}
1002
{
1000
OTHER
1070
     0
1002
}
1002
{
1000
REACTOR
1002
}
1001
GENIUS_GENOBJ-N-CEN_13
1002
{
1000
OWNER
1000
GEN
1002
}
  0
LINE
  5
118B1
330
1F
100
AcDbEntity
  8
AM_7
 48
0.4
100
AcDbLine
 10
350.3577758322927
 20
154.2731773103627
 30
0.0
 11
350.3577758322927
 21
145.4731773580466
 31
0.0
1001
GENIUS_GENODEF_13
1002
{
1000
HIER
1070
     0
1002
}
1002
{
1000
MANEDIT
1070
     0
1002
}
1002
{
1000
NOSEL
1070
     0
1002
}
1002
{
1000
BEHIND
1070
     0
1002
}
1002
{
1000
OTHER
1070
     0
1002
}
1002
{
1000
REACTOR
1002
}
1001
GENIUS_GENOBJ-N-CEN_13
1002
{
1000
OWNER
1000
GEN
1002
}
  0
CIRCLE
  5
118B2
330
1F
100
AcDbEntity
  8
AM_2
 48
0.4
100
AcDbCircle
 10
350.3577758322927
 20
149.8731773342047
 30
0.0
 40
1.399999976158099
  0
DIMENSION
  5
118B3
330
1F
100
AcDbEntity
  8
AM_5
100
AcDbDimension
  2
*D16
 10
377.3577758322927
 20
103.8732078517837
 30
0.0
 11
374.2577758322926
 21
122.8732078517837
 31
0.0
 70
    32
 71
     5
 42
38.0
  3
SYS$0
100
AcDbAlignedDimension
 13
355.3577758322926
 23
141.8732078517837
 33
0.0
 14
355.3577758322926
 24
103.8732078517837
 34
0.0
 50
90.0
100
AcDbRotatedDimension
1001
ACAD
1000
DSTYLE
1002
{
1070
    41
1040
1.0
1070
    47
1040
0.001
1070
   271
1070
     2
1070
   272
1070
     2
1070
   279
1070
     0
1070
   341
1005
A66
1070
   343
1005
6C4
1070
   344
1005
6C4
1002
}
  0
LINE
  5
118B4
330
1F
100
AcDbEntity
  8
AM_2
100
AcDbLine
 10
392.0786887656431
 20
214.4540669146064
 30
0.0
 11
392.0786887656431
 21
243.1611970929499
 31
0.0
  0
LINE
  5
118B5
330
1F
100
AcDbEntity
  8
切欠き-AM_2
100
AcDbLine
 10
392.0786887656431
 20
167.9553459133017
 30
0.0
 11
392.0786887656431
 21
79.64116744651073
 31
0.0
  0
SPLINE
  5
118B6
330
1F
100
AcDbEntity
  8
AM_2
100
AcDbSpline
210
0.0
220
0.0
230
1.0
 70
     8
 71
     3
 72
    10
 73
     6
 74
     4
 42
0.0000000001
 43
0.0000000001
 44
0.0000000001
 40
0.0
 40
0.0
 40
0.0
 40
0.0
 40
29.35450240476935
 40
63.62636608269601
 40
88.20836835276974
 40
88.20836835276974
 40
88.20836835276974
 40
88.20836835276974
 10
317.2596098501854
 20
238.8812816660271
 30
0.0
 10
326.2161568573467
 20
244.9507168817009
 30
0.0
 10
345.6296195983106
 20
258.1063173964937
 30
0.0
 10
373.6363909127178
 20
232.2011117819252
 30
0.0
 10
391.9802926424436
 20
242.928450449643
 30
0.0
 10
399.6421484389775
 20
247.4090305990367
 30
0.0
 11
317.2596098501854
 21
238.8812816660271
 31
0.0
 11
344.2970521180487
 21
250.3120964682872
 31
0.0
 11
376.5968107627814
 21
238.8540760698762
 31
0.0
 11
399.6421484389775
 21
247.4090305990367
 31
0.0
  0
LINE
  5
118B7
330
1F
100
AcDbEntity
  8
AM_7
100
AcDbLine
 10
323.8577758322926
 20
122.8732078517837
 30
0.0
 11
368.3577758322926
 21
122.8732078517837
 31
0.0
  0
MTEXT
  5
118B8
330
1F
100
AcDbEntity
  8
AM_6
100
AcDbMText
 10
339.3637479900235
 20
37.35459271789705
 30
0.0
 40
3.2
 41
39.00953854993895
 71
     1
 72
     5
  1
{\L切欠推奨寸法}
 73
     1
 44
1.0
1001
ACAD
1000
MTEXTBEGIN
1070
    73
1070
     1
1070
    44
1040
1.0
1070
    74
1070
     0
1000
MTEXTEND
  0
DIMENSION
  5
118B9
330
1F
100
AcDbEntity
  8
AM_5
100
AcDbDimension
  2
*D17
 10
359.3577758322946
 20
151.8732078517863
 30
0.0
 11
373.3538357933652
 21
164.2191600049045
 31
0.0
 70
   164
  1
2-<>
 71
     5
 42
5.999999999996873
  3
SYS$4
100
AcDbRadialDimension
 15
362.6706521596773
 25
156.8756922784916
 35
0.0
 40
0.0
1001
ACAD
1000
DSTYLE
1002
{
1070
    41
1040
2.0
1070
    47
1040
0.001
1070
   173
1070
     0
1070
   271
1070
     1
1070
   341
1005
A66
1070
   342
1005
A66
1070
   344
1005
0
1002
}
1001
ACAD_DSTYLE_DIMINSPECT
1070
   396
1000
100%
1070
   395
1000

1070
   394
1070
    33
1070
   393
1070
     0
  0
DIMENSION
  5
118BA
330
1F
100
AcDbEntity
  8
AM_5
100
AcDbDimension
  2
*D18
 10
355.3577758322941
 20
135.8732078517841
 30
0.0
 11
373.788664544213
 21
153.9258990837696
 31
0.0
 70
   164
  1
4-<>
 71
     5
 42
5.999999999999943
  3
SYS$4
100
AcDbRadialDimension
 15
358.7937947629978
 25
140.7919245449719
 35
0.0
 40
0.0
1001
ACAD
1000
DSTYLE
1002
{
1070
    41
1040
2.0
1070
    47
1040
0.001
1070
   173
1070
     0
1070
   271
1070
     1
1070
   341
1005
A66
1070
   342
1005
A66
1070
   344
1005
0
1002
}
  0
DIMENSION
  5
118BB
330
1F
100
AcDbEntity
  8
AM_5
100
AcDbDimension
  2
*D19
 10
365.3577758322926
 20
45.8983104681794
 30
0.0
 11
346.1077758322927
 21
48.9983104681794
 31
0.0
 70
    32
 71
     5
 42
38.5
  3
SYS$0
100
AcDbAlignedDimension
 13
326.8577758322927
 23
79.64116744651073
 33
0.0
 14
365.3577758322926
 24
93.87320785178372
 34
0.0
100
AcDbRotatedDimension
1001
ACAD
1000
DSTYLE
1002
{
1070
    41
1040
1.0
1070
    47
1040
0.2
1070
    48
1040
0.05
1070
   271
1070
     1
1070
   272
1070
     2
1070
   279
1070
     0
1070
   341
1005
A66
1070
   343
1005
6C4
1070
   344
1005
6C4
1002
}
  0
DIMENSION
  5
118BD
330
1F
100
AcDbEntity
  8
AM_5
100
AcDbDimension
  2
*D10
 10
365.3577758322926
 20
65.8983104681794
 30
0.0
 11
357.8577758322926
 21
68.9983104681794
 31
0.0
 70
    32
 71
     5
 42
15.0
  3
SYS$0
100
AcDbAlignedDimension
 13
350.3577758322927
 23
91.47323839320421
 33
0.0
 14
365.3577758322926
 24
93.87320785178372
 34
0.0
100
AcDbRotatedDimension
  0
DIMENSION
  5
118BE
330
1F
100
AcDbEntity
  8
AM_5
100
AcDbDimension
  2
*D11
 10
338.3577758322926
 20
55.8983104681794
 30
0.0
 11
351.6537506009845
 21
55.8983104681794
 31
0.0
 70
   160
 71
     5
 42
27.0
  3
SYS$0
100
AcDbAlignedDimension
 13
365.3577758322926
 23
93.87320785178372
 33
0.0
 14
338.3577758322926
 24
109.8732078517837
 34
0.0
100
AcDbRotatedDimension
  0
LINE
  5
119A0
330
1F
100
AcDbEntity
  8
0トロカバー
100
AcDbLine
 10
173.1769275478374
 20
215.4540669146064
 30
0.0
 11
141.6769275478373
 21
215.4540669146064
 31
0.0
  0
LINE
  5
11DB7
330
1F
100
AcDbEntity
  8
AM_7
 48
0.6
100
AcDbLine
 10
158.3769253604847
 20
156.8983104681866
 30
0.0
 11
158.3769253604847
 21
142.8983104681866
 31
0.0
1001
GENIUS_GENOBJ-N-CEN_13
1002
{
1000
OWNER
1000
GEN
1002
}
1001
GENIUS_GENODEF_13
1002
{
1000
HIER
1070
     0
1002
}
1002
{
1000
MANEDIT
1070
     0
1002
}
1002
{
1000
NOSEL
1070
     0
1002
}
1002
{
1000
BEHIND
1070
     0
1002
}
1002
{
1000
OTHER
1070
     0
1002
}
1002
{
1000
REACTOR
1002
}
1001
GENIUS_GENCEN_19
1002
{
1040
3.0
1002
}
  0
LINE
  5
11DB8
330
1F
100
AcDbEntity
  8
AM_7
 48
0.6
100
AcDbLine
 10
158.3769253604847
 20
102.8983409857488
 30
0.0
 11
158.3769253604847
 21
88.89834098574883
 31
0.0
1001
GENIUS_GENODEF_13
1002
{
1000
HIER
1070
     0
1002
}
1002
{
1000
MANEDIT
1070
     0
1002
}
1002
{
1000
NOSEL
1070
     0
1002
}
1002
{
1000
BEHIND
1070
     0
1002
}
1002
{
1000
OTHER
1070
     0
1002
}
1002
{
1000
REACTOR
1002
}
1001
GENIUS_GENOBJ-N-CEN_13
1002
{
1000
OWNER
1000
GEN
1002
}
1001
GENIUS_GENCEN_19
1002
{
1040
3.0
1002
}
  0
LINE
  5
12422
330
1F
100
AcDbEntity
  8
AM_7
 48
0.4599998474119957
100
AcDbLine
 10
236.0950898957877
 20
149.8983104681775
 30
0.0
 11
244.6950868440271
 21
149.8983104681775
 31
0.0
  0
LINE
  5
1242B
330
1F
100
AcDbEntity
  8
0トロカバー
100
AcDbLine
 10
166.8769253604847
 20
136.398310468178
 30
0.0
 11
166.8769253604847
 21
122.8983104681782
 31
0.0
  0
DIMENSION
  5
12547
330
1F
100
AcDbEntity
  8
AM_5
100
AcDbDimension
  2
*D20
 10
185.3769253604847
 20
214.4540669146064
 30
0.0
 11
182.2769253604846
 21
210.2074002479398
 31
0.0
 70
    32
 71
     5
 42
2.999999999999971
  3
SYS$0
100
AcDbAlignedDimension
 13
173.1769275478374
 23
217.4540669146064
 33
0.0
 14
173.3769253604847
 24
214.4540669146064
 34
0.0
 50
90.0
100
AcDbRotatedDimension
1001
ACAD_DSTYLE_DIMINSPECT
1070
   396
1000
100%
1070
   395
1000

1070
   394
1070
    33
1070
   393
1070
     0
  0
LINE
  5
1257A
330
1F
100
AcDbEntity
  8
0トロカバー
100
AcDbLine
 10
141.8769253604846
 20
122.8983104681782
 30
0.0
 11
141.8769253604847
 21
119.2983104681782
 31
0.0
  0
LINE
  5
1257B
330
1F
100
AcDbEntity
  8
0トロカバー
100
AcDbLine
 10
148.8769253604845
 20
122.8983104681782
 30
0.0
 11
148.8769253604845
 21
109.3983104681811
 31
0.0
  0
LINE
  5
1257C
330
1F
100
AcDbEntity
  8
0トロカバー
100
AcDbLine
 10
160.8769253604847
 20
122.8983104681782
 30
0.0
 11
160.8769253604847
 21
109.3983104681799
 31
0.0
  0
DIMENSION
  5
12617
330
1F
100
AcDbEntity
  8
AM_5
100
AcDbDimension
  2
*D21
 10
168.8769253604845
 20
236.9540669146064
 30
0.0
 11
160.8769253604846
 21
240.0540669146064
 31
0.0
 70
    32
 71
     5
 42
15.99999999999988
  3
SYS$0
100
AcDbAlignedDimension
 13
152.8769253604846
 23
222.9540669146063
 33
0.0
 14
168.8769253604845
 24
222.9540669146063
 34
0.0
100
AcDbRotatedDimension
1001
ACAD_DSTYLE_DIMINSPECT
1070
   396
1000
100%
1070
   395
1000

1070
   394
1070
    33
1070
   393
1070
     0
  0
DIMENSION
  5
12667
330
1F
100
AcDbEntity
  8
AM_5
100
AcDbDimension
  2
*D22
 10
263.5950898957877
 20
105.3983104681813
 30
0.0
 11
260.4950898957877
 21
122.8983104681797
 31
0.0
 70
    32
 71
     5
 42
34.99999999999676
  3
SYS$0
100
AcDbAlignedDimension
 13
247.5950898957877
 23
140.398310468178
 33
0.0
 14
247.5950898957877
 24
105.3983104681813
 34
0.0
 50
90.0
100
AcDbRotatedDimension
1001
ACAD_DSTYLE_DIMINSPECT
1070
   396
1000
100%
1070
   395
1000

1070
   394
1070
    33
1070
   393
1070
     0
  0
DIMENSION
  5
13B5C
330
1F
100
AcDbEntity
  8
AM_5
100
AcDbDimension
  2
*D24
 10
173.3769253604847
 20
75.89831046817943
 30
0.0
 11
165.8769253604847
 21
78.99831046817943
 31
0.0
 70
    32
 71
     5
 42
15.0
  3
SYS$0
100
AcDbAlignedDimension
 13
158.3769253604847
 23
88.17334096191471
 33
0.0
 14
173.3769253604847
 24
92.89831046817935
 34
0.0
100
AcDbRotatedDimension
1001
ACAD_DSTYLE_DIMINSPECT
1070
   396
1000
100%
1070
   395
1000

1070
   394
1070
    33
1070
   393
1070
     0
  0
DIMENSION
  5
153D2
330
1F
100
AcDbEntity
  8
フロントプレート-AM_5
100
AcDbDimension
  2
*D25
 10
158.3769253604847
 20
167.8983104681798
 30
0.0
 11
145.5102586938178
 21
167.8983104681798
 31
0.0
 70
   160
  1
min:<>
 71
     5
 42
3.50000000000017
  3
SYS$0
100
AcDbAlignedDimension
 13
154.8769253604845
 23
136.3983104681768
 33
0.0
 14
158.3769253604847
 24
157.6483104681866
 34
0.0
100
AcDbRotatedDimension
1001
ACAD_DSTYLE_DIMINSPECT
1070
   396
1000
100%
1070
   395
1000

1070
   394
1070
    33
1070
   393
1070
     0
  0
DIMENSION
  5
153FA
330
1F
100
AcDbEntity
  8
フロントプレート-AM_5
100
AcDbDimension
  2
*D26
 10
158.3769253604847
 20
75.89831046817934
 30
0.0
 11
144.3769253604845
 21
75.89831046817934
 31
0.0
 70
   160
  1
<>
 71
     5
 42
9.50000000000017
  3
SYS$0
100
AcDbAlignedDimension
 13
148.8769253604845
 23
109.3983104681811
 33
0.0
 14
158.3769253604847
 24
88.17334096191471
 34
0.0
100
AcDbRotatedDimension
1001
ACAD_DSTYLE_DIMINSPECT
1070
   396
1000
100%
1070
   395
1000

1070
   394
1070
    33
1070
   393
1070
     0
1001
ACAD
1000
DSTYLE
1002
{
1070
   147
1040
1.3
1070
   140
1040
3.0
1002
}
  0
DIMENSION
  5
1673D
330
1F
100
AcDbEntity
  8
フロントプレート-AM_5
100
AcDbDimension
  2
*D27
 10
195.3769253604846
 20
226.9540669146064
 30
0.0
 11
192.2769253604845
 21
220.7040669146064
 31
0.0
 70
    32
 71
     5
 42
12.49999999999997
  3
SYS$0
100
AcDbAlignedDimension
 13
173.3769253604847
 23
214.4540669146064
 33
0.0
 14
164.8769253604846
 24
226.9540669146064
 34
0.0
 50
90.0
100
AcDbRotatedDimension
1001
ACAD_DSTYLE_DIMINSPECT
1070
   396
1000
100%
1070
   395
1000

1070
   394
1070
    33
1070
   393
1070
     0
  0
LINE
  5
17C82
330
1F
100
AcDbEntity
  8
0フロントプレート
370
    20
100
AcDbLine
 10
134.1097036888718
 20
89.89831428287464
 30
0.0
 11
134.1097036888718
 21
155.8983142828748
 31
0.0
  0
ARC
  5
1DDC0
330
1F
100
AcDbEntity
  8
0トロカバー
100
AcDbCircle
 10
169.1769253604845
 20
217.7540669146064
 30
0.0
 40
0.3
100
AcDbArc
 50
180.0
 51
270.0
1001
GENIUS_GENODEF_13
1002
{
1000
HIER
1070
     0
1002
}
1002
{
1000
MANEDIT
1070
     0
1002
}
1002
{
1000
NOSEL
1070
     0
1002
}
1002
{
1000
BEHIND
1070
     0
1002
}
1002
{
1000
OTHER
1070
     0
1002
}
1002
{
1000
REACTOR
1002
}
1001
GENIUS_GENOBJ-N-FIL_13
1002
{
1000
OWNER
1000
GEN
1002
}
  0
ARC
  5
1DDC1
330
1F
100
AcDbEntity
  8
0トロカバー
100
AcDbCircle
 10
152.5769253604845
 20
217.7540669146063
 30
0.0
 40
0.3
100
AcDbArc
 50
343.1258406507778
 51
0.0
1001
GENIUS_GENODEF_13
1002
{
1000
HIER
1070
     0
1002
}
1002
{
1000
MANEDIT
1070
     0
1002
}
1002
{
1000
NOSEL
1070
     0
1002
}
1002
{
1000
BEHIND
1070
     0
1002
}
1002
{
1000
OTHER
1070
     0
1002
}
1002
{
1000
REACTOR
1002
}
1001
GENIUS_GENOBJ-N-FIL_13
1002
{
1000
OWNER
1000
GEN
1002
}
  0
LINE
  5
4EB3A
330
1F
100
AcDbEntity
  8
切欠き-AM_2
 48
0.7999998474119991
100
AcDbLine
 10
365.3577758322926
 20
217.4540669146064
 30
0.0
 11
365.3577758322926
 21
214.4540669146064
 31
0.0
  0
DIMENSION
  5
4FDA1
330
1F
100
AcDbEntity
  8
フロントプレート-AM_5
100
AcDbDimension
  2
*D28
 10
122.8769253604886
 20
107.3983104681814
 30
0.0
 11
119.7769253604886
 21
122.898310468179
 31
0.0
 70
    32
 71
     5
 42
30.99999999999511
  3
SYS$0
100
AcDbAlignedDimension
 13
154.626925360483
 23
138.3983104681765
 33
0.0
 14
148.6269253604829
 24
107.3983104681814
 34
0.0
 50
90.00000000000895
100
AcDbRotatedDimension
1001
ACAD_DSTYLE_DIMINSPECT
1070
   396
1000
100%
1070
   395
1000

1070
   394
1070
    33
1070
   393
1070
     0
  0
LINE
  5
567EE
330
1F
100
AcDbEntity
  8
0トロカバー
100
AcDbLine
 10
156.8769253604842
 20
138.3983104681768
 30
0.0
 11
162.8769253604847
 21
138.3983104681766
 31
0.0
  0
ARC
  5
567EF
330
1F
100
AcDbEntity
  8
0トロカバー
100
AcDbCircle
 10
156.8769253604845
 20
136.3983104681768
 30
0.0
 40
2.0
100
AcDbArc
 50
90.00000000000978
 51
180.0
1001
GENIUS_GENODEF_13
1002
{
1000
HIER
1070
     0
1002
}
1002
{
1000
MANEDIT
1070
     0
1002
}
1002
{
1000
NOSEL
1070
     0
1002
}
1002
{
1000
BEHIND
1070
     0
1002
}
1002
{
1000
OTHER
1070
     0
1002
}
1002
{
1000
REACTOR
1002
}
1001
GENIUS_GENOBJ-N-FIL_13
1002
{
1000
OWNER
1000
GEN
1002
}
  0
LINE
  5
567F2
330
1F
100
AcDbEntity
  8
0トロカバー
100
AcDbLine
 10
155.3769253604843
 20
139.8983104681766
 30
0.0
 11
166.1769253605392
 21
139.8983104681783
 31
0.0
1001
GENIUS_GENODEF_13
1002
{
1000
HIER
1070
     0
1002
}
1002
{
1000
MANEDIT
1070
     0
1002
}
1002
{
1000
NOSEL
1070
     0
1002
}
1002
{
1000
BEHIND
1070
     0
1002
}
1002
{
1000
OTHER
1070
     0
1002
}
1002
{
1000
REACTOR
1002
}
1001
GENIUS_GENOBJ-N-CEN_13
1002
{
1000
OWNER
1000
GEN
1002
}
1001
GENIUS_GENCEN_19
1002
{
1040
3.0
1002
}
  0
ARC
  5
567F3
330
1F
100
AcDbEntity
  8
0トロカバー
100
AcDbCircle
 10
155.3769253604845
 20
138.8983104681766
 30
0.0
 40
1.0
100
AcDbArc
 50
90.00000000000651
 51
180.0000000000065
1001
GENIUS_GENOBJ-N-CEN_13
1002
{
1000
OWNER
1000
GEN
1002
}
1001
GENIUS_GENCEN_19
1002
{
1040
3.0
1002
}
1001
GENIUS_GENODEF_13
1002
{
1000
HIER
1070
     0
1002
}
1002
{
1000
MANEDIT
1070
     0
1002
}
1002
{
1000
NOSEL
1070
     0
1002
}
1002
{
1000
BEHIND
1070
     0
1002
}
1002
{
1000
OTHER
1070
     0
1002
}
1002
{
1000
REACTOR
1002
}
1001
GENIUS_GENOBJ-N-FIL_13
1002
{
1000
OWNER
1000
GEN
1002
}
  0
ARC
  5
567F4
330
1F
100
AcDbEntity
  8
0トロカバー
100
AcDbCircle
 10
166.1769253605396
 20
138.8983104681782
 30
0.0
 40
1.0
100
AcDbArc
 50
0.0000000000130276
 51
90.0
1001
GENIUS_GENOBJ-N-CEN_13
1002
{
1000
OWNER
1000
GEN
1002
}
1001
GENIUS_GENCEN_19
1002
{
1040
3.0
1002
}
1001
GENIUS_GENOBJ-N-FIL_13
1002
{
1000
OWNER
1000
GEN
1002
}
1001
GENIUS_GENODEF_13
1002
{
1000
HIER
1070
     0
1002
}
1002
{
1000
MANEDIT
1070
     0
1002
}
1002
{
1000
NOSEL
1070
     0
1002
}
1002
{
1000
BEHIND
1070
     0
1002
}
1002
{
1000
OTHER
1070
     0
1002
}
1002
{
1000
REACTOR
1002
}
  0
LINE
  5
567F5
330
1F
100
AcDbEntity
  8
0トロカバー
100
AcDbLine
 10
154.626925360483
 20
138.3983104681765
 30
0.0
 11
166.9269253605407
 21
138.3983104681784
 31
0.0
  0
ARC
  5
567F6
330
1F
100
AcDbEntity
  8
0トロカバー
100
AcDbCircle
 10
154.6269253604829
 20
138.6483104681765
 30
0.0
 40
0.25
100
AcDbArc
 50
180.0
 51
270.0000000000098
1001
GENIUS_GENOBJ-N-FIL_13
1002
{
1000
OWNER
1000
GEN
1002
}
1001
GENIUS_GENODEF_13
1002
{
1000
HIER
1070
     0
1002
}
1002
{
1000
MANEDIT
1070
     0
1002
}
1002
{
1000
NOSEL
1070
     0
1002
}
1002
{
1000
BEHIND
1070
     0
1002
}
1002
{
1000
OTHER
1070
     0
1002
}
1002
{
1000
REACTOR
1002
}
  0
ARC
  5
567F7
330
1F
100
AcDbEntity
  8
0トロカバー
100
AcDbCircle
 10
166.9269253605407
 20
138.6483104681784
 30
0.0
 40
0.25
100
AcDbArc
 50
270.0000000000098
 51
0.0
1001
GENIUS_GENODEF_13
1002
{
1000
HIER
1070
     0
1002
}
1002
{
1000
MANEDIT
1070
     0
1002
}
1002
{
1000
NOSEL
1070
     0
1002
}
1002
{
1000
BEHIND
1070
     0
1002
}
1002
{
1000
OTHER
1070
     0
1002
}
1002
{
1000
REACTOR
1002
}
1001
GENIUS_GENOBJ-N-FIL_13
1002
{
1000
OWNER
1000
GEN
1002
}
  0
LINE
  5
567F8
330
1F
100
AcDbEntity
  8
0トロカバー
100
AcDbLine
 10
167.1769253605407
 20
138.8983104681783
 30
0.0
 11
167.1769253605408
 21
138.6483104681784
 31
0.0
  0
LINE
  5
567F9
330
1F
100
AcDbEntity
  8
0トロカバー
100
AcDbLine
 10
154.3769253604829
 20
138.8983104681783
 30
0.0
 11
154.376925360483
 21
138.6483104681764
 31
0.0
  0
LINE
  5
5680C
330
1F
100
AcDbEntity
  8
0トロカバー
100
AcDbLine
 10
150.8769253604842
 20
107.3983104681811
 30
0.0
 11
156.8769253604847
 21
107.3983104681814
 31
0.0
  0
ARC
  5
5680D
330
1F
100
AcDbEntity
  8
0トロカバー
100
AcDbCircle
 10
150.8769253604845
 20
109.3983104681811
 30
0.0
 40
2.0
100
AcDbArc
 50
180.0
 51
269.9999999999902
1001
GENIUS_GENODEF_13
1002
{
1000
HIER
1070
     0
1002
}
1002
{
1000
MANEDIT
1070
     0
1002
}
1002
{
1000
NOSEL
1070
     0
1002
}
1002
{
1000
BEHIND
1070
     0
1002
}
1002
{
1000
OTHER
1070
     0
1002
}
1002
{
1000
REACTOR
1002
}
1001
GENIUS_GENOBJ-N-FIL_13
1002
{
1000
OWNER
1000
GEN
1002
}
  0
LINE
  5
56810
330
1F
100
AcDbEntity
  8
0トロカバー
100
AcDbLine
 10
149.3769253604843
 20
105.8983104681813
 30
0.0
 11
160.1769253605392
 21
105.8983104681797
 31
0.0
1001
GENIUS_GENODEF_13
1002
{
1000
HIER
1070
     0
1002
}
1002
{
1000
MANEDIT
1070
     0
1002
}
1002
{
1000
NOSEL
1070
     0
1002
}
1002
{
1000
BEHIND
1070
     0
1002
}
1002
{
1000
OTHER
1070
     0
1002
}
1002
{
1000
REACTOR
1002
}
1001
GENIUS_GENOBJ-N-CEN_13
1002
{
1000
OWNER
1000
GEN
1002
}
1001
GENIUS_GENCEN_19
1002
{
1040
3.0
1002
}
  0
ARC
  5
56811
330
1F
100
AcDbEntity
  8
0トロカバー
100
AcDbCircle
 10
149.3769253604845
 20
106.8983104681813
 30
0.0
 40
1.0
100
AcDbArc
 50
179.9999999999935
 51
269.9999999999935
1001
GENIUS_GENOBJ-N-CEN_13
1002
{
1000
OWNER
1000
GEN
1002
}
1001
GENIUS_GENCEN_19
1002
{
1040
3.0
1002
}
1001
GENIUS_GENODEF_13
1002
{
1000
HIER
1070
     0
1002
}
1002
{
1000
MANEDIT
1070
     0
1002
}
1002
{
1000
NOSEL
1070
     0
1002
}
1002
{
1000
BEHIND
1070
     0
1002
}
1002
{
1000
OTHER
1070
     0
1002
}
1002
{
1000
REACTOR
1002
}
1001
GENIUS_GENOBJ-N-FIL_13
1002
{
1000
OWNER
1000
GEN
1002
}
  0
ARC
  5
56812
330
1F
100
AcDbEntity
  8
0トロカバー
100
AcDbCircle
 10
160.1769253605396
 20
106.8983104681797
 30
0.0
 40
1.0
100
AcDbArc
 50
270.0
 51
359.999999999987
1001
GENIUS_GENOBJ-N-CEN_13
1002
{
1000
OWNER
1000
GEN
1002
}
1001
GENIUS_GENCEN_19
1002
{
1040
3.0
1002
}
1001
GENIUS_GENOBJ-N-FIL_13
1002
{
1000
OWNER
1000
GEN
1002
}
1001
GENIUS_GENODEF_13
1002
{
1000
HIER
1070
     0
1002
}
1002
{
1000
MANEDIT
1070
     0
1002
}
1002
{
1000
NOSEL
1070
     0
1002
}
1002
{
1000
BEHIND
1070
     0
1002
}
1002
{
1000
OTHER
1070
     0
1002
}
1002
{
1000
REACTOR
1002
}
  0
LINE
  5
56813
330
1F
100
AcDbEntity
  8
0トロカバー
100
AcDbLine
 10
148.626925360483
 20
107.3983104681814
 30
0.0
 11
160.9269253605407
 21
107.3983104681796
 31
0.0
  0
ARC
  5
56814
330
1F
100
AcDbEntity
  8
0トロカバー
100
AcDbCircle
 10
148.6269253604829
 20
107.1483104681814
 30
0.0
 40
0.25
100
AcDbArc
 50
89.99999999999023
 51
180.0
1001
GENIUS_GENOBJ-N-FIL_13
1002
{
1000
OWNER
1000
GEN
1002
}
1001
GENIUS_GENODEF_13
1002
{
1000
HIER
1070
     0
1002
}
1002
{
1000
MANEDIT
1070
     0
1002
}
1002
{
1000
NOSEL
1070
     0
1002
}
1002
{
1000
BEHIND
1070
     0
1002
}
1002
{
1000
OTHER
1070
     0
1002
}
1002
{
1000
REACTOR
1002
}
  0
ARC
  5
56815
330
1F
100
AcDbEntity
  8
0トロカバー
100
AcDbCircle
 10
160.9269253605407
 20
107.1483104681796
 30
0.0
 40
0.25
100
AcDbArc
 50
0.0
 51
89.99999999999023
1001
GENIUS_GENODEF_13
1002
{
1000
HIER
1070
     0
1002
}
1002
{
1000
MANEDIT
1070
     0
1002
}
1002
{
1000
NOSEL
1070
     0
1002
}
1002
{
1000
BEHIND
1070
     0
1002
}
1002
{
1000
OTHER
1070
     0
1002
}
1002
{
1000
REACTOR
1002
}
1001
GENIUS_GENOBJ-N-FIL_13
1002
{
1000
OWNER
1000
GEN
1002
}
  0
LINE
  5
56816
330
1F
100
AcDbEntity
  8
0トロカバー
100
AcDbLine
 10
148.3769253604829
 20
106.8983104681796
 30
0.0
 11
148.376925360483
 21
107.1483104681815
 31
0.0
  0
LINE
  5
56817
330
1F
100
AcDbEntity
  8
0トロカバー
100
AcDbLine
 10
161.1769253605407
 20
106.8983104681796
 30
0.0
 11
161.1769253605408
 21
107.1483104681795
 31
0.0
  0
LINE
  5
56C6C
330
1F
100
AcDbEntity
  8
0トロカバー
  6
想像線1
 48
0.3
370
    13
100
AcDbLine
 10
135.6769275478373
 20
217.4540669146064
 30
0.0
 11
135.6769275478373
 21
215.4540669146064
 31
0.0
  0
LINE
  5
56C6D
330
1F
100
AcDbEntity
  8
0トロカバー
  6
想像線1
 48
0.3
370
    13
100
AcDbLine
 10
146.8769253604845
 20
217.7540669146063
 30
0.0
 11
146.8769253604845
 21
222.9540669146063
 31
0.0
  0
ARC
  5
56C6E
330
1F
100
AcDbEntity
  8
0トロカバー
  6
想像線1
 48
0.4
370
    13
100
AcDbCircle
 10
150.8769253604846
 20
222.9540669146063
 30
0.0
 40
4.0
100
AcDbArc
 50
90.0
 51
180.0
1001
GENIUS_GENODEF_13
1002
{
1000
HIER
1070
     0
1002
}
1002
{
1000
MANEDIT
1070
     0
1002
}
1002
{
1000
NOSEL
1070
     0
1002
}
1002
{
1000
BEHIND
1070
     0
1002
}
1002
{
1000
OTHER
1070
     0
1002
}
1002
{
1000
REACTOR
1002
}
1001
GENIUS_GENOBJ-N-FIL_13
1002
{
1000
OWNER
1000
GEN
1002
}
  0
LINE
  5
56C6F
330
1F
100
AcDbEntity
  8
0トロカバー
  6
想像線1
 48
0.3
370
    13
100
AcDbLine
 10
135.6769275478373
 20
217.4540669146064
 30
0.0
 11
141.6769275478373
 21
217.4540669146064
 31
0.0
  0
LINE
  5
56C70
330
1F
100
AcDbEntity
  8
0トロカバー
  6
想像線1
 48
0.4
370
    13
100
AcDbLine
 10
150.8769253604846
 20
226.9540669146064
 30
0.0
 11
156.8769253604846
 21
226.9540669146064
 31
0.0
  0
LINE
  5
56C77
330
1F
100
AcDbEntity
  8
0トロカバー
  6
想像線1
 48
0.3
370
    13
100
AcDbLine
 10
162.8769253604845
 20
217.7540669146064
 30
0.0
 11
162.8769253604845
 21
222.9540669146063
 31
0.0
  0
ARC
  5
56C78
330
1F
100
AcDbEntity
  8
0トロカバー
  6
想像線1
 48
0.4
370
    13
100
AcDbCircle
 10
158.8769253604846
 20
222.9540669146063
 30
0.0
 40
4.0
100
AcDbArc
 50
0.0
 51
90.0
1001
GENIUS_GENODEF_13
1002
{
1000
HIER
1070
     0
1002
}
1002
{
1000
MANEDIT
1070
     0
1002
}
1002
{
1000
NOSEL
1070
     0
1002
}
1002
{
1000
BEHIND
1070
     0
1002
}
1002
{
1000
OTHER
1070
     0
1002
}
1002
{
1000
REACTOR
1002
}
1001
GENIUS_GENOBJ-N-FIL_13
1002
{
1000
OWNER
1000
GEN
1002
}
  0
ARC
  5
5777F
330
1F
100
AcDbEntity
  8
0トロカバー
100
AcDbCircle
 10
148.1769253604845
 20
126.4983104681782
 30
0.0
 40
0.3
100
AcDbArc
 50
89.99999999999969
 51
180.0
1001
GENIUS_GENOBJ-N-CEN_13
1002
{
1000
OWNER
1000
GEN
1002
}
1001
GENIUS_GENCEN_19
1002
{
1040
3.0
1002
}
1001
GENIUS_GENODEF_13
1002
{
1000
HIER
1070
     0
1002
}
1002
{
1000
MANEDIT
1070
     0
1002
}
1002
{
1000
NOSEL
1070
     0
1002
}
1002
{
1000
BEHIND
1070
     0
1002
}
1002
{
1000
OTHER
1070
     0
1002
}
1002
{
1000
REACTOR
1002
}
1001
GENIUS_GENOBJ-N-FIL_13
1002
{
1000
OWNER
1000
GEN
1002
}
  0
ARC
  5
57780
330
1F
100
AcDbEntity
  8
0トロカバー
100
AcDbCircle
 10
142.1769253604847
 20
119.2983104681782
 30
0.0
 40
0.3
100
AcDbArc
 50
180.0
 51
270.0000000000002
1001
GENIUS_GENOBJ-N-CEN_13
1002
{
1000
OWNER
1000
GEN
1002
}
1001
GENIUS_GENCEN_19
1002
{
1040
3.0
1002
}
1001
GENIUS_GENODEF_13
1002
{
1000
HIER
1070
     0
1002
}
1002
{
1000
MANEDIT
1070
     0
1002
}
1002
{
1000
NOSEL
1070
     0
1002
}
1002
{
1000
BEHIND
1070
     0
1002
}
1002
{
1000
OTHER
1070
     0
1002
}
1002
{
1000
REACTOR
1002
}
1001
GENIUS_GENOBJ-N-FIL_13
1002
{
1000
OWNER
1000
GEN
1002
}
  0
ARC
  5
57781
330
1F
100
AcDbEntity
  8
0トロカバー
100
AcDbCircle
 10
247.5950898957877
 20
136.398310468178
 30
0.0
 40
4.0
100
AcDbArc
 50
0.0
 51
90.0
1001
GENIUS_GENODEF_13
1002
{
1000
HIER
1070
     0
1002
}
1002
{
1000
MANEDIT
1070
     0
1002
}
1002
{
1000
NOSEL
1070
     0
1002
}
1002
{
1000
BEHIND
1070
     0
1002
}
1002
{
1000
OTHER
1070
     0
1002
}
1002
{
1000
REACTOR
1002
}
1001
GENIUS_GENOBJ-N-FIL_13
1002
{
1000
OWNER
1000
GEN
1002
}
  0
ARC
  5
57782
330
1F
100
AcDbEntity
  8
0トロカバー
100
AcDbCircle
 10
247.5950898957877
 20
109.3983104681813
 30
0.0
 40
4.0
100
AcDbArc
 50
270.0
 51
0.0
1001
GENIUS_GENODEF_13
1002
{
1000
HIER
1070
     0
1002
}
1002
{
1000
MANEDIT
1070
     0
1002
}
1002
{
1000
NOSEL
1070
     0
1002
}
1002
{
1000
BEHIND
1070
     0
1002
}
1002
{
1000
OTHER
1070
     0
1002
}
1002
{
1000
REACTOR
1002
}
1001
GENIUS_GENOBJ-N-FIL_13
1002
{
1000
OWNER
1000
GEN
1002
}
  0
DIMENSION
  5
5822F
330
1F
100
AcDbEntity
  8
フロントプレート-AM_5
100
AcDbDimension
  2
*D30
 10
365.3577758322926
 20
75.8983104681794
 30
0.0
 11
369.6577758322927
 21
78.9983104681794
 31
0.0
 70
    32
 71
     5
 42
4.0
  3
SYS$0
100
AcDbAlignedDimension
 13
361.3577758322926
 23
109.8732078517837
 33
0.0
 14
365.3577758322926
 24
93.87320785178372
 34
0.0
100
AcDbRotatedDimension
1001
ACAD
1000
DSTYLE
1002
{
1070
    47
1040
0.2
1070
    48
1040
0.0
1002
}
1001
ACAD_DSTYLE_DIMINSPECT
1070
   396
1000
100%
1070
   395
1000

1070
   394
1070
    33
1070
   393
1070
     0
  0
LINE
  5
5BD23
330
1F
100
AcDbEntity
  8
0トロカバー
100
AcDbLine
 10
242.6950898957876
 20
89.89831046817915
 30
0.0
 11
242.6950898957876
 21
91.89831046817914
 31
0.0
  0
LINE
  5
5BD27
330
1F
100
AcDbEntity
  8
0トロカバー
100
AcDbLine
 10
242.0950898957876
 20
91.89831046817914
 30
0.0
 11
242.6950898957876
 21
91.89831046817914
 31
0.0
  0
LINE
  5
5BD28
330
1F
100
AcDbEntity
  8
0トロカバー
100
AcDbLine
 10
242.0950898957876
 20
89.89831046817915
 30
0.0
 11
242.6950898957876
 21
89.89831046817915
 31
0.0
  0
ARC
  5
5BF44
330
1F
100
AcDbEntity
  8
0トロカバー
100
AcDbCircle
 10
164.8769253604847
 20
136.398310468178
 30
0.0
 40
2.0
100
AcDbArc
 50
0.0
 51
90.00000000000856
1001
GENIUS_GENODEF_13
1002
{
1000
HIER
1070
     0
1002
}
1002
{
1000
MANEDIT
1070
     0
1002
}
1002
{
1000
NOSEL
1070
     0
1002
}
1002
{
1000
BEHIND
1070
     0
1002
}
1002
{
1000
OTHER
1070
     0
1002
}
1002
{
1000
REACTOR
1002
}
1001
GENIUS_GENOBJ-N-FIL_13
1002
{
1000
OWNER
1000
GEN
1002
}
  0
ARC
  5
5BF45
330
1F
100
AcDbEntity
  8
0トロカバー
100
AcDbCircle
 10
158.8769253604847
 20
109.3983104681799
 30
0.0
 40
2.0
100
AcDbArc
 50
269.9999999999914
 51
0.0
1001
GENIUS_GENODEF_13
1002
{
1000
HIER
1070
     0
1002
}
1002
{
1000
MANEDIT
1070
     0
1002
}
1002
{
1000
NOSEL
1070
     0
1002
}
1002
{
1000
BEHIND
1070
     0
1002
}
1002
{
1000
OTHER
1070
     0
1002
}
1002
{
1000
REACTOR
1002
}
1001
GENIUS_GENOBJ-N-FIL_13
1002
{
1000
OWNER
1000
GEN
1002
}
  0
DIMENSION
  5
6C2B9
330
1F
100
AcDbEntity
  8
フロントプレート-AM_5
100
AcDbDimension
  2
*D32
 10
173.3769253604847
 20
236.9540669146064
 30
0.0
 11
179.2235920271513
 21
240.0540669146064
 31
0.0
 70
    32
 71
     5
 42
4.500000000000028
  3
SYS$0
100
AcDbAlignedDimension
 13
168.8769253604846
 23
222.9540669146063
 33
0.0
 14
173.3769253604847
 24
215.4540669146064
 34
0.0
100
AcDbRotatedDimension
1001
ACAD
1000
DSTYLE
1002
{
1070
    47
1040
0.2
1070
    48
1040
0.0
1002
}
1001
ACAD_DSTYLE_DIMINSPECT
1070
   396
1000
100%
1070
   395
1000

1070
   394
1070
    33
1070
   393
1070
     0
  0
DIMENSION
  5
6C300
330
1F
100
AcDbEntity
  8
フロントプレート-AM_5
100
AcDbDimension
  2
*D33
 10
173.3769253604847
 20
246.9540669146062
 30
0.0
 11
160.1269253604846
 21
250.0540669146062
 31
0.0
 70
    32
 71
     5
 42
26.50000000000015
  3
SYS$0
100
AcDbAlignedDimension
 13
146.8769253604845
 23
222.9540669146063
 33
0.0
 14
173.3769253604847
 24
215.4540669146064
 34
0.0
100
AcDbRotatedDimension
1001
ACAD
1000
DSTYLE
1002
{
1070
    47
1040
0.2
1070
    48
1040
0.0
1002
}
1001
ACAD_DSTYLE_DIMINSPECT
1070
   396
1000
100%
1070
   395
1000

1070
   394
1070
    33
1070
   393
1070
     0
  0
MTEXT
  5
6FF8A
330
1F
100
AcDbEntity
  8
AM_6
100
AcDbMText
 10
134.5758854501274
 20
80.37554542465588
 30
0.0
 40
2.799999999999999
 41
9.161339768758807
 71
     1
 72
     5
  1
max:
 73
     1
 44
1.0
1001
ACAD
1000
MTEXTBEGIN
1070
    73
1070
     1
1070
    44
1040
1.0
1070
    74
1070
     0
1000
MTEXTEND
  0
LINE
  5
6FFC8
330
1F
100
AcDbEntity
  8
AM_5
100
AcDbLine
 10
142.2767786629792
 20
75.89831046817934
 30
0.0
 11
134.0550436126759
 21
75.89831046817934
 31
0.0
  0
LINE
  5
6FFE6
330
1F
100
AcDbEntity
  8
0トロカバー
100
AcDbLine
 10
242.6950898957876
 20
98.89831046818137
 30
0.0
 11
242.6950898957876
 21
100.8983104681813
 31
0.0
  0
LINE
  5
6FFE7
330
1F
100
AcDbEntity
  8
0トロカバー
100
AcDbLine
 10
242.0950898957876
 20
98.89831046818137
 30
0.0
 11
242.6950898957876
 21
98.89831046818137
 31
0.0
  0
LINE
  5
6FFE8
330
1F
100
AcDbEntity
  8
0トロカバー
100
AcDbLine
 10
242.0950898957876
 20
100.8983104681813
 30
0.0
 11
242.6950898957876
 21
100.8983104681813
 31
0.0
  0
TEXT
  5
70AA2
330
1F
100
AcDbEntity
  8
AM_6
 60
     1
100
AcDbText
 10
408.4999999999999
 20
8.500000000000056
 30
0.0
 40
2.5
  1
!GENTITLE-INSERT
100
AcDbText
  0
TEXT
  5
70AA3
330
1F
100
AcDbEntity
  8
AM_6
 60
     1
100
AcDbText
 10
0.0
 20
0.0000000000000568
 30
0.0
 40
2.5
  1
!GENTITLE-LL
100
AcDbText
  0
TEXT
  5
70AA4
330
1F
100
AcDbEntity
  8
AM_6
 60
     1
100
AcDbText
 10
420.0
 20
297.0
 30
0.0
 40
2.5
  1
!GENTITLE-RU
100
AcDbText
  0
TEXT
  5
70AA5
330
1F
100
AcDbEntity
  8
AM_6
 60
     1
100
AcDbText
 10
420.0
 20
297.0
 30
0.0
 40
2.5
  1
!GENTITLE-MAX
100
AcDbText
  0
LINE
  5
70AA7
330
1F
100
AcDbEntity
  8
size
100
AcDbLine
 10
0.0
 20
0.0000000000000568
 30
0.0
 11
420.0
 21
0.0000000000000568
 31
0.0
1001
GENIUS_GENREC_14
1002
{
1000
PYDIR
1011
0.0000000000000178
1021
297.0
1031
0.0
1002
}
1002
{
1000
PXDIR
1011
420.0
1021
0.0
1031
0.0
1002
}
1002
{
1000
PORI
1011
0.0
1021
0.0
1031
0.0
1002
}
1002
{
1000
PINS
1011
210.0
1021
148.4999999999999
1031
0.0
1002
}
1002
{
1000
HVAL
1000
297
1002
}
1002
{
1000
H
1070
     2
1002
}
1002
{
1000
WVAL
1000
420
1002
}
1002
{
1000
W
1070
     2
1002
}
1002
{
1000
C
1070
     4
1002
}
1001
GENIUS_GENOBJ-N-REC_13
1002
{
1000
OWNER
1000
GEN
1002
}
1001
GENIUS_GENODEF_13
1002
{
1000
HIER
1070
     0
1002
}
1002
{
1000
MANEDIT
1070
     0
1002
}
1002
{
1000
NOSEL
1070
     0
1002
}
1002
{
1000
BEHIND
1070
     0
1002
}
1002
{
1000
OTHER
1070
     0
1002
}
1002
{
1000
REACTOR
1002
}
  0
LINE
  5
70AA8
330
1F
100
AcDbEntity
  8
size
100
AcDbLine
 10
420.0
 20
0.0000000000000568
 30
0.0
 11
420.0
 21
297.0
 31
0.0
1001
GENIUS_GENREC_14
1002
{
1000
PYDIR
1011
0.0000000000000178
1021
297.0
1031
0.0
1002
}
1002
{
1000
PXDIR
1011
420.0
1021
0.0
1031
0.0
1002
}
1002
{
1000
PORI
1011
0.0
1021
0.0
1031
0.0
1002
}
1002
{
1000
PINS
1011
210.0
1021
148.4999999999999
1031
0.0
1002
}
1002
{
1000
HVAL
1000
297
1002
}
1002
{
1000
H
1070
     2
1002
}
1002
{
1000
WVAL
1000
420
1002
}
1002
{
1000
W
1070
     2
1002
}
1002
{
1000
C
1070
     4
1002
}
1001
GENIUS_GENOBJ-N-REC_13
1002
{
1000
OWNER
1000
GEN
1002
}
1001
GENIUS_GENODEF_13
1002
{
1000
HIER
1070
     0
1002
}
1002
{
1000
MANEDIT
1070
     0
1002
}
1002
{
1000
NOSEL
1070
     0
1002
}
1002
{
1000
BEHIND
1070
     0
1002
}
1002
{
1000
OTHER
1070
     0
1002
}
1002
{
1000
REACTOR
1002
}
  0
LINE
  5
70AA9
330
1F
100
AcDbEntity
  8
size
100
AcDbLine
 10
420.0
 20
297.0
 30
0.0
 11
0.0000000000000275
 21
297.0
 31
0.0
1001
GENIUS_GENREC_14
1002
{
1000
PYDIR
1011
0.0000000000000178
1021
297.0
1031
0.0
1002
}
1002
{
1000
PXDIR
1011
420.0
1021
0.0
1031
0.0
1002
}
1002
{
1000
PORI
1011
0.0
1021
0.0
1031
0.0
1002
}
1002
{
1000
PINS
1011
210.0
1021
148.4999999999999
1031
0.0
1002
}
1002
{
1000
HVAL
1000
297
1002
}
1002
{
1000
H
1070
     2
1002
}
1002
{
1000
WVAL
1000
420
1002
}
1002
{
1000
W
1070
     2
1002
}
1002
{
1000
C
1070
     4
1002
}
1001
GENIUS_GENOBJ-N-REC_13
1002
{
1000
OWNER
1000
GEN
1002
}
1001
GENIUS_GENODEF_13
1002
{
1000
HIER
1070
     0
1002
}
1002
{
1000
MANEDIT
1070
     0
1002
}
1002
{
1000
NOSEL
1070
     0
1002
}
1002
{
1000
BEHIND
1070
     0
1002
}
1002
{
1000
OTHER
1070
     0
1002
}
1002
{
1000
REACTOR
1002
}
  0
LINE
  5
70AAA
330
1F
100
AcDbEntity
  8
size
100
AcDbLine
 10
0.0000000000000275
 20
297.0
 30
0.0
 11
0.0
 21
0.0000000000000568
 31
0.0
1001
GENIUS_GENREC_14
1002
{
1000
PYDIR
1011
0.0000000000000178
1021
297.0
1031
0.0
1002
}
1002
{
1000
PXDIR
1011
420.0
1021
0.0
1031
0.0
1002
}
1002
{
1000
PORI
1011
0.0
1021
0.0
1031
0.0
1002
}
1002
{
1000
PINS
1011
210.0
1021
148.4999999999999
1031
0.0
1002
}
1002
{
1000
HVAL
1000
297
1002
}
1002
{
1000
H
1070
     2
1002
}
1002
{
1000
WVAL
1000
420
1002
}
1002
{
1000
W
1070
     2
1002
}
1002
{
1000
C
1070
     4
1002
}
1001
GENIUS_GENOBJ-N-REC_13
1002
{
1000
OWNER
1000
GEN
1002
}
1001
GENIUS_GENODEF_13
1002
{
1000
HIER
1070
     0
1002
}
1002
{
1000
MANEDIT
1070
     0
1002
}
1002
{
1000
NOSEL
1070
     0
1002
}
1002
{
1000
BEHIND
1070
     0
1002
}
1002
{
1000
OTHER
1070
     0
1002
}
1002
{
1000
REACTOR
1002
}
  0
LINE
  5
70AAB
330
1F
100
AcDbEntity
  8
waku
100
AcDbLine
 10
408.4999999999999
 20
8.500000000000056
 30
0.0
 11
408.4999999999999
 21
288.5000000000001
 31
0.0
1001
GENIUS_GENREC_14
1002
{
1000
PYDIR
1011
0.0000000000000178
1021
297.0
1031
0.0
1002
}
1002
{
1000
PXDIR
1011
420.0
1021
0.0
1031
0.0
1002
}
1002
{
1000
PORI
1011
0.0
1021
0.0
1031
0.0
1002
}
1002
{
1000
PINS
1011
210.0
1021
148.4999999999999
1031
0.0
1002
}
1002
{
1000
HVAL
1000
297
1002
}
1002
{
1000
H
1070
     2
1002
}
1002
{
1000
WVAL
1000
420
1002
}
1002
{
1000
W
1070
     2
1002
}
1002
{
1000
C
1070
     4
1002
}
1001
GENIUS_GENOBJ-N-REC_13
1002
{
1000
OWNER
1000
GEN
1002
}
1001
GENIUS_GENODEF_13
1002
{
1000
HIER
1070
     0
1002
}
1002
{
1000
MANEDIT
1070
     0
1002
}
1002
{
1000
NOSEL
1070
     0
1002
}
1002
{
1000
BEHIND
1070
     0
1002
}
1002
{
1000
OTHER
1070
     0
1002
}
1002
{
1000
REACTOR
1002
}
  0
LINE
  5
70AAC
330
1F
100
AcDbEntity
  8
waku
100
AcDbLine
 10
11.50000000000002
 20
288.5000000000001
 30
0.0
 11
11.5
 21
8.500000000000056
 31
0.0
1001
GENIUS_GENREC_14
1002
{
1000
PYDIR
1011
0.0000000000000178
1021
297.0
1031
0.0
1002
}
1002
{
1000
PXDIR
1011
420.0
1021
0.0
1031
0.0
1002
}
1002
{
1000
PORI
1011
0.0
1021
0.0
1031
0.0
1002
}
1002
{
1000
PINS
1011
210.0
1021
148.4999999999999
1031
0.0
1002
}
1002
{
1000
HVAL
1000
297
1002
}
1002
{
1000
H
1070
     2
1002
}
1002
{
1000
WVAL
1000
420
1002
}
1002
{
1000
W
1070
     2
1002
}
1002
{
1000
C
1070
     4
1002
}
1001
GENIUS_GENOBJ-N-REC_13
1002
{
1000
OWNER
1000
GEN
1002
}
1001
GENIUS_GENODEF_13
1002
{
1000
HIER
1070
     0
1002
}
1002
{
1000
MANEDIT
1070
     0
1002
}
1002
{
1000
NOSEL
1070
     0
1002
}
1002
{
1000
BEHIND
1070
     0
1002
}
1002
{
1000
OTHER
1070
     0
1002
}
1002
{
1000
REACTOR
1002
}
  0
LINE
  5
70AAD
330
1F
100
AcDbEntity
  8
waku
100
AcDbLine
 10
408.4999999999999
 20
288.5000000000001
 30
0.0
 11
11.50000000000002
 21
288.5000000000001
 31
0.0
1001
GENIUS_GENREC_14
1002
{
1000
PYDIR
1011
0.0000000000000178
1021
297.0
1031
0.0
1002
}
1002
{
1000
PXDIR
1011
420.0
1021
0.0
1031
0.0
1002
}
1002
{
1000
PORI
1011
0.0
1021
0.0
1031
0.0
1002
}
1002
{
1000
PINS
1011
210.0
1021
148.4999999999999
1031
0.0
1002
}
1002
{
1000
HVAL
1000
297
1002
}
1002
{
1000
H
1070
     2
1002
}
1002
{
1000
WVAL
1000
420
1002
}
1002
{
1000
W
1070
     2
1002
}
1002
{
1000
C
1070
     4
1002
}
1001
GENIUS_GENOBJ-N-REC_13
1002
{
1000
OWNER
1000
GEN
1002
}
1001
GENIUS_GENODEF_13
1002
{
1000
HIER
1070
     0
1002
}
1002
{
1000
MANEDIT
1070
     0
1002
}
1002
{
1000
NOSEL
1070
     0
1002
}
1002
{
1000
BEHIND
1070
     0
1002
}
1002
{
1000
OTHER
1070
     0
1002
}
1002
{
1000
REACTOR
1002
}
  0
TEXT
  5
70AAE
330
1F
100
AcDbEntity
  8
AM_6
 60
     1
100
AcDbText
 10
0.0
 20
0.0000000000000568
 30
0.0
 40
2.5
  1
!GENTITLE-LL
100
AcDbText
  0
TEXT
  5
70AAF
330
1F
100
AcDbEntity
  8
AM_6
 60
     1
100
AcDbText
 10
408.4999999999999
 20
288.5000000000001
 30
0.0
 40
2.5
  1
!GENTITLE-RU
100
AcDbText
  0
TEXT
  5
70AB0
330
1F
100
AcDbEntity
  8
AM_6
 60
     1
100
AcDbText
 10
420.0
 20
297.0
 30
0.0
 40
2.5
  1
!GENTITLE-MAX
100
AcDbText
  0
TEXT
  5
70AB1
330
1F
100
AcDbEntity
  8
AM_6
 60
     1
100
AcDbText
 10
408.4999999999999
 20
8.500000000000056
 30
0.0
 40
2.5
  1
!GENTITLE-INSERT
100
AcDbText
  0
LINE
  5
70AB2
330
1F
100
AcDbEntity
  8
waku
100
AcDbLine
 10
11.5
 20
8.500000000000056
 30
0.0
 11
408.4999999999999
 21
8.500000000000056
 31
0.0
  0
CIRCLE
  5
70BBA
330
1F
100
AcDbEntity
  8
AM_6
100
AcDbCircle
 10
71.4344048956401
 20
235.7332005617838
 30
0.0
 40
1.8
  0
DIMENSION
  5
70C6D
330
1F
100
AcDbEntity
  8
フロントプレート-AM_5
100
AcDbDimension
  2
*D34
 10
167.3769253604846
 20
151.8983104681798
 30
0.0
 11
182.7060729569696
 21
162.6345708987726
 31
0.0
 70
   164
  1
2-<>
 71
     5
 42
6.0
  3
SYS$4
100
AcDbRadialDimension
 15
171.3551106589769
 25
156.3898627311352
 35
0.0
 40
0.0
1001
ACAD
1000
DSTYLE
1002
{
1070
    47
1040
0.15
1070
    48
1040
0.15
1002
}
1001
ACAD_DSTYLE_DIMRADIAL_EXTENSION
1070
   387
1070
     1
1070
   388
1040
0.0
1070
   390
1040
1.570796326794896
1001
ACAD_DSTYLE_DIMINSPECT
1070
   396
1000
100%
1070
   395
1000

1070
   394
1070
    33
1070
   393
1070
     0
  0
ENDSEC
  0
SECTION
  2
OBJECTS
  0
DICTIONARY
  5
C
330
0
100
AcDbDictionary
281
     1
  3
ACAD_2007HEADERVARS_RT
350
70E55
  3
ACAD_BGPLOT_KEY
350
AB06
  3
ACAD_COLOR
350
A91D
  3
ACAD_GROUP
350
D
  3
ACAD_LAYOUT
350
1A
  3
ACAD_MATERIAL
350
A91C
  3
ACAD_MLEADERSTYLE
350
B3AD
  3
ACAD_MLINESTYLE
350
17
  3
ACAD_PLOTSETTINGS
350
19
  3
ACAD_PLOTSTYLENAME
350
E
  3
ACAD_SCALELIST
350
B38B
  3
ACAD_TABLESTYLE
350
AAB9
  3
ACAD_VISUALSTYLE
350
B0F1
  3
AcAsAppObject
350
3DA1
  3
ACASGREF_MASTER
350
3DE9
  3
ACDB_RECOMPOSE_DATA
350
B3DD
  3
AcDbVariableDictionary
350
34
  3
AcmDictionary
350
47
  3
AD_GREF_MODULE
350
3DEA
  3
AD_MAPI_MODULE
350
3E06
  3
AMG
350
2B
  3
AMGSNAPSETTINGS
350
7D
  3
ASE_INDEX_DICTIONARY
350
B331
  3
DWGPROPS
350
70E54
  3
MAPISURF_MODULE
350
3DEB
  0
DICTIONARY
  5
3F95
330
2
100
AcDbDictionary
280
     1
281
     1
  3
ACAD_LAYERFILTERS
360
1B678
  3
ACAD_LAYERSTATES
360
3F96
  3
ACLYDICTIONARY
360
1B677
  3
AMLAYER_GROUPCOLORS
360
AAB4
  0
DICTIONARY
  5
EB1B
330
10
100
AcDbDictionary
280
     1
281
     1
  3
ADSK_XREC_LAYER_RECONCILED
360
EB1C
  0
DICTIONARY
  5
EB1D
330
5F85
100
AcDbDictionary
280
     1
281
     1
  3
ADSK_XREC_LAYER_RECONCILED
360
EB1E
  0
DICTIONARY
  5
EB1F
330
AC9F
100
AcDbDictionary
280
     1
281
     1
  3
ADSK_XREC_LAYER_RECONCILED
360
EB20
  0
DICTIONARY
  5
EB21
330
ACA0
100
AcDbDictionary
280
     1
281
     1
  3
ADSK_XREC_LAYER_RECONCILED
360
EB22
  0
DICTIONARY
  5
EB23
330
ACA1
100
AcDbDictionary
280
     1
281
     1
  3
ADSK_XREC_LAYER_RECONCILED
360
EB24
  0
DICTIONARY
  5
EB25
330
ACC8
100
AcDbDictionary
280
     1
281
     1
  3
ADSK_XREC_LAYER_RECONCILED
360
EB26
  0
DICTIONARY
  5
EB27
330
ACC9
100
AcDbDictionary
280
     1
281
     1
  3
ADSK_XREC_LAYER_RECONCILED
360
EB28
  0
DICTIONARY
  5
EB29
330
ACCA
100
AcDbDictionary
280
     1
281
     1
  3
ADSK_XREC_LAYER_RECONCILED
360
EB2A
  0
DICTIONARY
  5
EB2B
330
AD60
100
AcDbDictionary
280
     1
281
     1
  3
ADSK_XREC_LAYER_RECONCILED
360
EB2C
  0
DICTIONARY
  5
EB2D
330
AD64
100
AcDbDictionary
280
     1
281
     1
  3
ADSK_XREC_LAYER_RECONCILED
360
EB2E
  0
DICTIONARY
  5
EB2F
330
AD67
100
AcDbDictionary
280
     1
281
     1
  3
ADSK_XREC_LAYER_RECONCILED
360
EB30
  0
DICTIONARY
  5
EB31
330
AD68
100
AcDbDictionary
280
     1
281
     1
  3
ADSK_XREC_LAYER_RECONCILED
360
EB32
  0
DICTIONARY
  5
EB33
330
AD69
100
AcDbDictionary
280
     1
281
     1
  3
ADSK_XREC_LAYER_RECONCILED
360
EB34
  0
DICTIONARY
  5
EB35
330
AD6A
100
AcDbDictionary
280
     1
281
     1
  3
ADSK_XREC_LAYER_RECONCILED
360
EB36
  0
DICTIONARY
  5
EB37
330
AD6E
100
AcDbDictionary
280
     1
281
     1
  3
ADSK_XREC_LAYER_RECONCILED
360
EB38
  0
DICTIONARY
  5
EB39
330
AD6F
100
AcDbDictionary
280
     1
281
     1
  3
ADSK_XREC_LAYER_RECONCILED
360
EB3A
  0
DICTIONARY
  5
EB3B
330
B1B6
100
AcDbDictionary
280
     1
281
     1
  3
ADSK_XREC_LAYER_RECONCILED
360
EB3C
  0
DICTIONARY
  5
EB3D
330
B2EB
100
AcDbDictionary
280
     1
281
     1
  3
ADSK_XREC_LAYER_RECONCILED
360
EB3E
  0
DICTIONARY
  5
EB3F
330
B2EC
100
AcDbDictionary
280
     1
281
     1
  3
ADSK_XREC_LAYER_RECONCILED
360
EB40
  0
DICTIONARY
  5
C00C
330
C00B
100
AcDbDictionary
280
     1
281
     1
  3
ADSK_XREC_LAYER_RECONCILED
360
EB41
  0
DICTIONARY
  5
C00E
330
C00D
100
AcDbDictionary
280
     1
281
     1
  3
ADSK_XREC_LAYER_RECONCILED
360
EB42
  0
DICTIONARY
  5
EB43
330
C00F
100
AcDbDictionary
280
     1
281
     1
  3
ADSK_XREC_LAYER_RECONCILED
360
EB44
  0
DICTIONARY
  5
EB45
330
C010
100
AcDbDictionary
280
     1
281
     1
  3
ADSK_XREC_LAYER_RECONCILED
360
EB46
  0
DICTIONARY
  5
EB47
330
C011
100
AcDbDictionary
280
     1
281
     1
  3
ADSK_XREC_LAYER_RECONCILED
360
EB48
  0
DICTIONARY
  5
EB49
330
C012
100
AcDbDictionary
280
     1
281
     1
  3
ADSK_XREC_LAYER_RECONCILED
360
EB4A
  0
DICTIONARY
  5
EB4B
330
C013
100
AcDbDictionary
280
     1
281
     1
  3
ADSK_XREC_LAYER_RECONCILED
360
EB4C
  0
DICTIONARY
  5
EB4D
330
C014
100
AcDbDictionary
280
     1
281
     1
  3
ADSK_XREC_LAYER_RECONCILED
360
EB4E
  0
DICTIONARY
  5
EB4F
330
C015
100
AcDbDictionary
280
     1
281
     1
  3
ADSK_XREC_LAYER_RECONCILED
360
EB50
  0
DICTIONARY
  5
EB51
330
C016
100
AcDbDictionary
280
     1
281
     1
  3
ADSK_XREC_LAYER_RECONCILED
360
EB52
  0
DICTIONARY
  5
EB53
330
C017
100
AcDbDictionary
280
     1
281
     1
  3
ADSK_XREC_LAYER_RECONCILED
360
EB54
  0
DICTIONARY
  5
EB55
330
C018
100
AcDbDictionary
280
     1
281
     1
  3
ADSK_XREC_LAYER_RECONCILED
360
EB56
  0
DICTIONARY
  5
EB57
330
C019
100
AcDbDictionary
280
     1
281
     1
  3
ADSK_XREC_LAYER_RECONCILED
360
EB58
  0
DICTIONARY
  5
EB59
330
C01A
100
AcDbDictionary
280
     1
281
     1
  3
ADSK_XREC_LAYER_RECONCILED
360
EB5A
  0
DICTIONARY
  5
EB5B
330
C01B
100
AcDbDictionary
280
     1
281
     1
  3
ADSK_XREC_LAYER_RECONCILED
360
EB5C
  0
DICTIONARY
  5
EB5D
330
C01C
100
AcDbDictionary
280
     1
281
     1
  3
ADSK_XREC_LAYER_RECONCILED
360
EB5E
  0
DICTIONARY
  5
EB5F
330
C01D
100
AcDbDictionary
280
     1
281
     1
  3
ADSK_XREC_LAYER_RECONCILED
360
EB60
  0
DICTIONARY
  5
EB61
330
C01E
100
AcDbDictionary
280
     1
281
     1
  3
ADSK_XREC_LAYER_RECONCILED
360
EB62
  0
DICTIONARY
  5
EB63
330
C01F
100
AcDbDictionary
280
     1
281
     1
  3
ADSK_XREC_LAYER_RECONCILED
360
EB64
  0
DICTIONARY
  5
EB65
330
C020
100
AcDbDictionary
280
     1
281
     1
  3
ADSK_XREC_LAYER_RECONCILED
360
EB66
  0
DICTIONARY
  5
EB67
330
C021
100
AcDbDictionary
280
     1
281
     1
  3
ADSK_XREC_LAYER_RECONCILED
360
EB68
  0
DICTIONARY
  5
E575
330
E574
100
AcDbDictionary
280
     1
281
     1
  3
ADSK_XREC_LAYER_RECONCILED
360
EB69
  0
DICTIONARY
  5
E577
330
E576
100
AcDbDictionary
280
     1
281
     1
  3
ADSK_XREC_LAYER_RECONCILED
360
EB6A
  0
DICTIONARY
  5
8A
330
1F
100
AcDbDictionary
280
     1
281
     1
  3
ACAD_SORTENTS
360
B1BA
  0
DICTIONARY
  5
70E76
330
70DE7
100
AcDbDictionary
280
     1
281
     1
  3
ACAD_MTEXT_RT
360
70E77
  0
DICTIONARY
  5
70E55
102
{ACAD_REACTORS
330
C
102
}
330
C
100
AcDbDictionary
281
     1
  3
DIMARCSYM
350
70E56
  0
DICTIONARY
  5
AB06
102
{ACAD_REACTORS
330
C
102
}
330
C
100
AcDbDictionary
280
     1
281
     1
  0
DICTIONARY
  5
A91D
102
{ACAD_REACTORS
330
C
102
}
330
C
100
AcDbDictionary
281
     1
  0
DICTIONARY
  5
D
102
{ACAD_REACTORS
330
C
102
}
330
C
100
AcDbDictionary
281
     1
  0
DICTIONARY
  5
1A
102
{ACAD_REACTORS
330
C
102
}
330
C
100
AcDbDictionary
281
     1
  3
Model
350
22
  3
ﾚｲｱｳﾄ1
350
1E
  3
ﾚｲｱｳﾄ2
350
26
  0
DICTIONARY
  5
A91C
102
{ACAD_REACTORS
330
C
102
}
330
C
100
AcDbDictionary
281
     1
  3
ByBlock
350
B0EF
  3
ByLayer
350
B0EE
  3
Global
350
B0F0
  0
DICTIONARY
  5
B3AD
102
{ACAD_REACTORS
330
C
102
}
330
C
100
AcDbDictionary
281
     1
  3
Standard
350
B3AE
  0
DICTIONARY
  5
17
102
{ACAD_REACTORS
330
C
102
}
330
C
100
AcDbDictionary
281
     1
  3
Standard
350
18
  0
DICTIONARY
  5
19
102
{ACAD_REACTORS
330
C
102
}
330
C
100
AcDbDictionary
281
     1
  3
01 A3フィット
350
B46C
  3
02 A3
350
B46D
  3
03 A2フィット
350
B46E
  3
04 A2
350
B46F
  3
05 A1フィット
350
B470
  3
06 A1
350
B471
  3
06 A4フィット
350
B472
  3
07 A4
350
B473
  3
シブタニA3
350
20215
  0
ACDBDICTIONARYWDFLT
  5
E
102
{ACAD_REACTORS
330
C
102
}
330
C
100
AcDbDictionary
281
     1
  3
Normal
350
F
100
AcDbDictionaryWithDefault
340
F
  0
DICTIONARY
  5
B38B
102
{ACAD_REACTORS
330
C
102
}
330
C
100
AcDbDictionary
281
     1
  3
A0
350
B38C
  3
A1
350
B38D
  3
A2
350
B38E
  3
A3
350
B38F
  3
A4
350
B390
  3
A5
350
B391
  3
A6
350
B392
  3
A7
350
B393
  3
A8
350
B394
  3
A9
350
B395
  3
B0
350
B396
  3
B1
350
B397
  3
B2
350
B398
  3
B3
350
B399
  3
B4
350
B39A
  3
B5
350
B39B
  3
B6
350
B39C
  3
B7
350
B39D
  3
B8
350
B39E
  3
B9
350
B39F
  3
C0
350
B3A0
  3
C1
350
B3A1
  3
C2
350
B3A2
  3
C3
350
B3A3
  3
C4
350
B3A4
  3
C5
350
B3A5
  3
C6
350
B3A6
  3
C7
350
B3A7
  3
C8
350
B3A8
  3
C9
350
B3A9
  3
D0
350
B3AA
  3
D1
350
B3AB
  3
D2
350
B3AC
  0
DICTIONARY
  5
AAB9
102
{ACAD_REACTORS
330
C
102
}
330
C
100
AcDbDictionary
281
     1
  3
Standard
350
AABA
  0
DICTIONARY
  5
B0F1
102
{ACAD_REACTORS
330
C
102
}
330
C
100
AcDbDictionary
281
     1
  3
2dWireframe
350
B0F7
  3
3D Hidden
350
B0F9
  3
3dWireframe
350
B0F8
  3
Basic
350
B0F6
  3
Brighten
350
B0FD
  3
ColorChange
350
B101
  3
Conceptual
350
B0FA
  3
Dim
350
B0FC
  3
Facepattern
350
B100
  3
Flat
350
B0F2
  3
FlatWithEdges
350
B0F3
  3
Gouraud
350
B0F4
  3
GouraudWithEdges
350
B0F5
  3
Linepattern
350
B0FF
  3
Realistic
350
B0FB
  3
Thicken
350
B0FE
  0
ACAD_PROXY_OBJECT
  5
3DA1
102
{ACAD_REACTORS
330
C
102
}
330
C
100
AcDbProxyObject
 90
      499
 91
      576
 95
   917527
 70
     0
 93
       10
310
407F
 94
        0
1001
ACAD
1000
AcRTDxfName
1000
ASAPP
  0
ACAD_PROXY_OBJECT
  5
3DE9
102
{ACAD_REACTORS
330
C
102
}
330
C
100
AcDbProxyObject
 90
      499
 91
      581
 95
   917527
 70
     0
 93
       34
310
010000407F
 94
        0
1001
ACAD
1000
AcRTDxfName
1000
ACASGREFMASTER
  0
XRECORD
  5
B3DD
102
{ACAD_REACTORS
330
C
102
}
330
C
100
AcDbXrecord
280
     1
 90
        1
330
AABA
  0
DICTIONARY
  5
34
102
{ACAD_REACTORS
330
C
102
}
330
C
100
AcDbDictionary
281
     1
  3
CANNOSCALE
350
B3E0
  3
CMLEADERSTYLE
350
B3DE
  3
CTABLESTYLE
350
AAF3
  3
DIMASSOC
350
A10C
  3
FIELDEVAL
350
AB07
  3
INDEXCTL
350
35
  3
LIGHTINGUNITS
350
B3E1
  3
MSLTSCALE
350
B3DF
  3
SORTENTS
350
194C
  0
DICTIONARY
  5
47
102
{ACAD_REACTORS
330
C
102
}
330
C
100
AcDbDictionary
281
     1
  3
AcmBOM
350
7E8
  3
AcmStdDictionary
350
4C
  3
AMDTSECTSYM_ARROWCOLOR
350
A929
  0
ACAD_PROXY_OBJECT
  5
3DEA
102
{ACAD_REACTORS
330
C
102
}
330
C
100
AcDbProxyObject
 90
      499
 91
      582
 95
   917527
 70
     0
 93
      114
310
00000043800000000000000000003F
 94
        0
1001
ACAD
1000
AcRTDxfName
1000
ACADGREFMODULE
  0
ACAD_PROXY_OBJECT
  5
3E06
102
{ACAD_REACTORS
330
C
102
}
330
C
100
AcDbProxyObject
 90
      499
 91
      594
 95
   917527
 70
     0
 93
       34
310
05000044FF
 94
        0
1001
ACAD
1000
AcRTDxfName
1000
MAPIADMODULE
  0
DICTIONARY
  5
2B
102
{ACAD_REACTORS
330
C
102
}
330
C
100
AcDbDictionary
281
     1
  0
DICTIONARY
  5
7D
102
{ACAD_REACTORS
330
C
102
}
330
C
100
AcDbDictionary
281
     1
  0
DICTIONARY
  5
B331
102
{ACAD_REACTORS
330
C
102
}
330
C
100
AcDbDictionary
281
     1
  3
ASEBlockHierarchyIndexRecord
350
B332
1001
DCO15
1040
1594111214.218
  0
XRECORD
  5
70E54
102
{ACAD_REACTORS
330
C
102
}
330
C
100
AcDbXrecord
280
     1
  1
DWGPROPS COOKIE
  2

  3

  4

  6

  7

  8
Administrator
  9

300
AmdtFileType=84
301
=
302
=
303
=
304
=
305
=
306
=
307
=
308
=
309
=
 40
5.102054224537036
 41
2455329.614664885
 42
2455401.645315069
  1

 90
        1
  0
ACAD_PROXY_OBJECT
  5
3DEB
102
{ACAD_REACTORS
330
C
102
}
330
C
100
AcDbProxyObject
 90
      499
 91
      583
 95
   917527
 70
     0
 93
        8
310
047E
 94
        0
1001
ACAD
1000
AcRTDxfName
1000
AMDTMAPISURFMOUDULE
  0
DICTIONARY
  5
1B678
102
{ACAD_REACTORS
330
3F95
102
}
330
3F95
100
AcDbDictionary
281
     1
  0
DICTIONARY
  5
3F96
102
{ACAD_REACTORS
330
3F95
102
}
330
3F95
100
AcDbDictionary
281
     1
  3
20011210
350
3FB7
  0
DICTIONARY
  5
1B677
102
{ACAD_REACTORS
330
3F95
102
}
330
3F95
100
AcDbDictionary
281
     1
1001
ACAD
1000
<All
  0
DICTIONARY
  5
AAB4
102
{ACAD_REACTORS
330
3F95
102
}
330
3F95
100
AcDbDictionary
280
     1
281
     1
  0
XRECORD
  5
EB1C
102
{ACAD_REACTORS
330
EB1B
102
}
330
EB1B
100
AcDbXrecord
280
     1
290
     1
  0
XRECORD
  5
EB1E
102
{ACAD_REACTORS
330
EB1D
102
}
330
EB1D
100
AcDbXrecord
280
     1
290
     1
  0
XRECORD
  5
EB20
102
{ACAD_REACTORS
330
EB1F
102
}
330
EB1F
100
AcDbXrecord
280
     1
290
     1
  0
XRECORD
  5
EB22
102
{ACAD_REACTORS
330
EB21
102
}
330
EB21
100
AcDbXrecord
280
     1
290
     1
  0
XRECORD
  5
EB24
102
{ACAD_REACTORS
330
EB23
102
}
330
EB23
100
AcDbXrecord
280
     1
290
     1
  0
XRECORD
  5
EB26
102
{ACAD_REACTORS
330
EB25
102
}
330
EB25
100
AcDbXrecord
280
     1
290
     1
  0
XRECORD
  5
EB28
102
{ACAD_REACTORS
330
EB27
102
}
330
EB27
100
AcDbXrecord
280
     1
290
     1
  0
XRECORD
  5
EB2A
102
{ACAD_REACTORS
330
EB29
102
}
330
EB29
100
AcDbXrecord
280
     1
290
     1
  0
XRECORD
  5
EB2C
102
{ACAD_REACTORS
330
EB2B
102
}
330
EB2B
100
AcDbXrecord
280
     1
290
     1
  0
XRECORD
  5
EB2E
102
{ACAD_REACTORS
330
EB2D
102
}
330
EB2D
100
AcDbXrecord
280
     1
290
     1
  0
XRECORD
  5
EB30
102
{ACAD_REACTORS
330
EB2F
102
}
330
EB2F
100
AcDbXrecord
280
     1
290
     1
  0
XRECORD
  5
EB32
102
{ACAD_REACTORS
330
EB31
102
}
330
EB31
100
AcDbXrecord
280
     1
290
     1
  0
XRECORD
  5
EB34
102
{ACAD_REACTORS
330
EB33
102
}
330
EB33
100
AcDbXrecord
280
     1
290
     1
  0
XRECORD
  5
EB36
102
{ACAD_REACTORS
330
EB35
102
}
330
EB35
100
AcDbXrecord
280
     1
290
     1
  0
XRECORD
  5
EB38
102
{ACAD_REACTORS
330
EB37
102
}
330
EB37
100
AcDbXrecord
280
     1
290
     1
  0
XRECORD
  5
EB3A
102
{ACAD_REACTORS
330
EB39
102
}
330
EB39
100
AcDbXrecord
280
     1
290
     1
  0
XRECORD
  5
EB3C
102
{ACAD_REACTORS
330
EB3B
102
}
330
EB3B
100
AcDbXrecord
280
     1
290
     1
  0
XRECORD
  5
EB3E
102
{ACAD_REACTORS
330
EB3D
102
}
330
EB3D
100
AcDbXrecord
280
     1
290
     1
  0
XRECORD
  5
EB40
102
{ACAD_REACTORS
330
EB3F
102
}
330
EB3F
100
AcDbXrecord
280
     1
290
     1
  0
XRECORD
  5
EB41
102
{ACAD_REACTORS
330
C00C
102
}
330
C00C
100
AcDbXrecord
280
     1
290
     1
  0
XRECORD
  5
EB42
102
{ACAD_REACTORS
330
C00E
102
}
330
C00E
100
AcDbXrecord
280
     1
290
     1
  0
XRECORD
  5
EB44
102
{ACAD_REACTORS
330
EB43
102
}
330
EB43
100
AcDbXrecord
280
     1
290
     1
  0
XRECORD
  5
EB46
102
{ACAD_REACTORS
330
EB45
102
}
330
EB45
100
AcDbXrecord
280
     1
290
     1
  0
XRECORD
  5
EB48
102
{ACAD_REACTORS
330
EB47
102
}
330
EB47
100
AcDbXrecord
280
     1
290
     1
  0
XRECORD
  5
EB4A
102
{ACAD_REACTORS
330
EB49
102
}
330
EB49
100
AcDbXrecord
280
     1
290
     1
  0
XRECORD
  5
EB4C
102
{ACAD_REACTORS
330
EB4B
102
}
330
EB4B
100
AcDbXrecord
280
     1
290
     1
  0
XRECORD
  5
EB4E
102
{ACAD_REACTORS
330
EB4D
102
}
330
EB4D
100
AcDbXrecord
280
     1
290
     1
  0
XRECORD
  5
EB50
102
{ACAD_REACTORS
330
EB4F
102
}
330
EB4F
100
AcDbXrecord
280
     1
290
     1
  0
XRECORD
  5
EB52
102
{ACAD_REACTORS
330
EB51
102
}
330
EB51
100
AcDbXrecord
280
     1
290
     1
  0
XRECORD
  5
EB54
102
{ACAD_REACTORS
330
EB53
102
}
330
EB53
100
AcDbXrecord
280
     1
290
     1
  0
XRECORD
  5
EB56
102
{ACAD_REACTORS
330
EB55
102
}
330
EB55
100
AcDbXrecord
280
     1
290
     1
  0
XRECORD
  5
EB58
102
{ACAD_REACTORS
330
EB57
102
}
330
EB57
100
AcDbXrecord
280
     1
290
     1
  0
XRECORD
  5
EB5A
102
{ACAD_REACTORS
330
EB59
102
}
330
EB59
100
AcDbXrecord
280
     1
290
     1
  0
XRECORD
  5
EB5C
102
{ACAD_REACTORS
330
EB5B
102
}
330
EB5B
100
AcDbXrecord
280
     1
290
     1
  0
XRECORD
  5
EB5E
102
{ACAD_REACTORS
330
EB5D
102
}
330
EB5D
100
AcDbXrecord
280
     1
290
     1
  0
XRECORD
  5
EB60
102
{ACAD_REACTORS
330
EB5F
102
}
330
EB5F
100
AcDbXrecord
280
     1
290
     1
  0
XRECORD
  5
EB62
102
{ACAD_REACTORS
330
EB61
102
}
330
EB61
100
AcDbXrecord
280
     1
290
     1
  0
XRECORD
  5
EB64
102
{ACAD_REACTORS
330
EB63
102
}
330
EB63
100
AcDbXrecord
280
     1
290
     1
  0
XRECORD
  5
EB66
102
{ACAD_REACTORS
330
EB65
102
}
330
EB65
100
AcDbXrecord
280
     1
290
     1
  0
XRECORD
  5
EB68
102
{ACAD_REACTORS
330
EB67
102
}
330
EB67
100
AcDbXrecord
280
     1
290
     1
  0
XRECORD
  5
EB69
102
{ACAD_REACTORS
330
E575
102
}
330
E575
100
AcDbXrecord
280
     1
290
     1
  0
XRECORD
  5
EB6A
102
{ACAD_REACTORS
330
E577
102
}
330
E577
100
AcDbXrecord
280
     1
290
     1
  0
SORTENTSTABLE
  5
B1BA
102
{ACAD_REACTORS
330
8A
102
}
330
8A
100
AcDbSortentsTable
330
1F
331
70AAD
  5
114D3
331
5822F
  5
5E853
331
118B8
  5
12209
331
1116C
  5
1172F
331
11512
  5
119E2
331
1112D
  5
114F5
331
1117C
  5
11734
331
1151A
  5
119EA
331
11135
  5
114FE
331
11184
  5
11765
331
11781
  5
11715
331
1257C
  5
11770
331
11789
  5
1171C
331
1113D
  5
1150E
331
1118C
  5
11773
331
114DB
  5
CC0D
331
5680C
  5
59C43
331
56814
  5
5A09A
331
56C6C
  5
5C6D8
331
6FFE7
  5
70460
331
11712
  5
11A05
331
11145
  5
11518
331
114F3
  5
1177E
331
118A1
  5
11A17
331
1114D
  5
1160F
331
114FB
  5
11787
331
1171A
  5
11A0E
331
118A9
  5
11A7F
331
11155
  5
1166F
331
11503
  5
118A0
331
17C82
  5
56FEE
331
11165
  5
116F9
331
1150B
  5
118A8
331
118B1
  5
12169
331
11DB7
  5
12260
331
1DDC1
  5
11782
331
567F5
  5
59C3D
331
70AAE
  5
114D4
331
57780
  5
11767
331
5BD27
  5
5E85F
331
1175A
  5
1175F
331
1116D
  5
11730
331
11513
  5
119E3
331
118B9
  5
1220A
331
1112E
  5
114F6
331
1151B
  5
119EB
331
11782
  5
11716
331
11136
  5
114FF
331
1178A
  5
1171D
331
114DC
  5
1176C
331
1113E
  5
1150F
331
1118D
  5
1177C
331
13B5C
  5
56F92
331
5680D
  5
59C45
331
56815
  5
5C68E
331
56C6D
  5
5C6D9
331
6FFC8
  5
7045E
331
6FFE8
  5
70461
331
70AA7
  5
114C8
331
114F4
  5
1177F
331
11146
  5
11519
331
11713
  5
11A07
331
118A2
  5
11A18
331
114FC
  5
11789
331
1114E
  5
11614
331
1171B
  5
11A0F
331
118AA
  5
11A81
331
11504
  5
118A1
331
11156
  5
11670
331
1172B
  5
11A10
331
119A0
  5
1225F
331
1150C
  5
118A9
331
11166
  5
116FB
331
118B2
  5
121B8
331
567EE
  5
570FC
331
567F6
  5
59C3E
331
70AAF
  5
114D5
331
57781
  5
11A01
331
5BD28
  5
5E860
331
11DB8
  5
12261
331
11514
  5
119E4
331
118BA
  5
1220B
331
1151C
  5
119EC
331
1112F
  5
114F7
331
11783
  5
11717
331
11137
  5
11502
331
1113F
  5
11510
331
1118E
  5
1177D
331
56816
  5
5C68F
331
56C6E
  5
5C6DA
331
11714
  5
11A08
331
11147
  5
1151B
331
118A3
  5
11A19
331
114FD
  5
1178A
331
1114F
  5
11620
331
118AB
  5
11A82
331
11505
  5
118A2
331
11157
  5
11671
331
118B3
  5
121B9
331
1150D
  5
118AA
331
567EF
  5
5716C
331
567F7
  5
59C3F
331
12547
  5
56F8E
331
1673D
  5
56FC9
331
70AA8
  5
114CB
331
70AB0
  5
114ED
331
57782
  5
11A09
331
11515
  5
119E5
331
1116F
  5
11731
331
118BB
  5
1220C
331
1151D
  5
119F8
331
11130
  5
114F8
331
1117F
  5
1175D
331
1177C
  5
11701
331
11138
  5
11504
331
11784
  5
11718
331
56817
  5
5C690
331
12617
  5
56F8F
331
56C6F
  5
5C728
331
6FF8A
  5
7045D
331
11140
  5
11513
331
1189C
  5
11A12
331
11148
  5
1151C
331
114F6
  5
11780
331
11150
  5
11627
331
114FE
  5
1178D
331
118A4
  5
11A63
331
118AC
  5
11A83
331
11160
  5
11672
331
11506
  5
118A3
331
12667
  5
56F90
331
118B4
  5
12204
331
1150E
  5
118AB
331
56C77
  5
5E850
331
5777F
  5
11769
331
567F8
  5
59C40
331
70AA9
  5
114CF
331
70AB1
  5
114EE
331
11168
  5
1171E
331
11516
  5
119E6
331
1175D
  5
11A11
331
1177D
  5
1170C
331
11180
  5
1175E
331
11131
  5
114F9
331
1151E
  5
119F9
331
11139
  5
11505
331
1170E
  5
11A00
331
56810
  5
59F25
331
4FDA1
  5
57073
331
70AA2
  5
1118B
331
11141
  5
11514
331
11716
  5
11A0A
331
11149
  5
1151E
331
114F7
  5
11781
331
1189D
  5
11A13
331
118A5
  5
11A64
331
114FF
  5
1189C
331
118AD
  5
12137
331
11507
  5
118A4
331
56C70
  5
5E84F
331
1150F
  5
118AC
331
118B5
  5
12206
331
56C78
  5
5E851
331
567F9
  5
59C42
331
70AAA
  5
114D0
331
70AB2
  5
114EF
331
5BD23
  5
5E85E
331
118BD
  5
1220F
331
11517
  5
119E7
331
11132
  5
114FB
331
1151F
  5
119FA
331
1177E
  5
11711
331
11786
  5
11719
331
1113A
  5
1150A
331
114D8
  5
1176A
331
4EB3A
  5
11A7C
331
56811
  5
59F39
331
70AA3
  5
1118D
331
11191
  5
119FD
331
11717
  5
11A0B
331
1114A
  5
1151F
331
114F8
  5
11784
331
1189E
  5
11A14
331
118A6
  5
11A6D
331
11152
  5
11628
331
11500
  5
1189D
331
12422
  5
56F8D
331
118AE
  5
12138
331
11508
  5
118A5
331
118B6
  5
12207
331
567F2
  5
57222
331
70AAB
  5
114D1
331
6C300
  5
7045C
331
5BF44
  5
1176F
331
11510
  5
118AD
331
118BE
  5
1225E
331
1117A
  5
11732
331
11518
  5
119E8
331
11520
  5
119FB
331
11133
  5
114FC
331
114D1
  5
11766
331
1257A
  5
1176D
331
1113B
  5
1150C
331
1118A
  5
11771
331
114D9
  5
CC0E
331
11787
  5
1171A
331
56812
  5
5A096
331
70AA4
  5
1118E
331
11710
  5
11A03
331
1189F
  5
11A15
331
1114B
  5
1160A
331
114F9
  5
11785
331
11718
  5
11A0C
331
118A7
  5
11A6E
331
11501
  5
1189E
331
11509
  5
118A6
331
118AF
  5
12167
331
1242B
  5
1176E
331
118B7
  5
12208
331
567F3
  5
57243
331
70AAC
  5
114D2
331
6C2B9
  5
7045B
331
5BF45
  5
5A098
331
1116B
  5
1172E
331
11511
  5
119E1
331
1117B
  5
11733
331
11519
  5
119E9
331
11521
  5
119FC
331
11134
  5
114FD
331
11183
  5
11760
331
114D2
  5
11768
331
11780
  5
11714
331
1257B
  5
1176B
331
1118B
  5
11772
331
1113C
  5
1150D
331
11788
  5
1171B
331
56813
  5
5A097
331
6FFE6
  5
7045F
331
70AA5
  5
1118F
331
11144
  5
11517
331
11711
  5
11A04
331
118A0
  5
11A16
331
1114C
  5
1160B
331
114FA
  5
11786
331
11719
  5
11A0D
331
153D2
  5
56F93
331
118A8
  5
11A71
331
11154
  5
1166E
331
11502
  5
1189F
331
153FA
  5
56F94
331
1150A
  5
118A7
331
118B0
  5
12168
331
1DDC0
  5
11783
331
567F4
  5
57294
  0
XRECORD
  5
70E77
102
{ACAD_REACTORS
330
70E76
102
}
330
70E76
100
AcDbXrecord
280
     1
 40
157.0
  1
\U+22054×%%c8サラ
  0
XRECORD
  5
70E56
102
{ACAD_REACTORS
330
70E55
102
}
330
70E55
100
AcDbXrecord
280
     1
 70
     1
  0
LAYOUT
  5
22
102
{ACAD_XDICTIONARY
360
70E59
102
}
102
{ACAD_REACTORS
330
1A
102
}
330
1A
100
AcDbPlotSettings
  1

  2
DocuCentre-II C5400
  4
A3
  6
AM_VIEW1
 40
4.857749938964843
 41
4.942420959472656
 42
4.9423828125
 43
4.857757568359375
 44
297.0106506347656
 45
420.0313415527343
 46
-4.89474105834958
 47
-4.884418487548828
 48
0.0000000000000275
 49
0.0000000000000568
140
420.0
141
297.0
142
1.0
143
1.0
 70
  3748
 72
     1
 73
     1
 74
     4
  7
monochrome.ctb
 75
     0
147
0.6739837184096828
148
-0.0000000000000275
149
-0.0000000000000568
100
AcDbLayout
  1
Model
 70
     1
 71
     0
 10
0.0
 20
0.0
 11
12.0
 21
9.0
 12
0.0
 22
0.0
 32
0.0
 14
0.0
 24
0.0
 34
0.0
 15
0.0
 25
0.0
 35
0.0
146
0.0
 13
0.0
 23
0.0
 33
0.0
 16
1.0
 26
0.0
 36
0.0
 17
0.0
 27
1.0
 37
0.0
 76
     0
330
1F
331
B0EC
1001
ACAD_PSEXT
1000
DocuCentre-II C5400
1000
FX DocuCentre-II C5400
1000
192.168.2.200
1000

1070
     0
  0
LAYOUT
  5
1E
102
{ACAD_XDICTIONARY
360
70E57
102
}
102
{ACAD_REACTORS
330
1A
102
}
330
1A
100
AcDbPlotSettings
  1

  2
\\ML370\XEROX
  4
A4
  6

 40
3.174999952316284
 41
3.174999952316284
 42
3.175003051757812
 43
3.17498779296875
 44
209.8674926757813
 45
296.6719970703125
 46
0.0
 47
0.0
 48
0.0
 49
0.0
140
0.0
141
0.0
142
1.0
143
1.0
 70
   688
 72
     1
 73
     1
 74
     5
  7
monochrome.ctb
 75
    16
147
1.0
148
0.0
149
0.0
100
AcDbLayout
  1
ﾚｲｱｳﾄ1
 70
     1
 71
     1
 10
-3.17498779296875
 20
-3.174999952316284
 11
293.4970092773438
 21
206.692492723465
 12
0.0
 22
0.0
 32
0.0
 14
1.000000000000000E+20
 24
1.000000000000000E+20
 34
1.000000000000000E+20
 15
-1.000000000000000E+20
 25
-1.000000000000000E+20
 35
-1.000000000000000E+20
146
0.0
 13
0.0
 23
0.0
 33
0.0
 16
1.0
 26
0.0
 36
0.0
 17
0.0
 27
1.0
 37
0.0
 76
     0
330
1B
  0
LAYOUT
  5
26
102
{ACAD_XDICTIONARY
360
70E5B
102
}
102
{ACAD_REACTORS
330
1A
102
}
330
1A
100
AcDbPlotSettings
  1

  2
\\ML370\XEROX
  4

  6

 40
0.0
 41
0.0
 42
0.0
 43
0.0
 44
0.0
 45
0.0
 46
0.0
 47
0.0
 48
0.0
 49
0.0
140
0.0
141
0.0
142
1.0
143
1.0
 70
   688
 72
     0
 73
     0
 74
     5
  7
monochrome.ctb
 75
    16
147
1.0
148
0.0
149
0.0
100
AcDbLayout
  1
ﾚｲｱｳﾄ2
 70
     1
 71
     2
 10
0.0
 20
0.0
 11
12.0
 21
9.0
 12
0.0
 22
0.0
 32
0.0
 14
0.0
 24
0.0
 34
0.0
 15
0.0
 25
0.0
 35
0.0
146
0.0
 13
0.0
 23
0.0
 33
0.0
 16
1.0
 26
0.0
 36
0.0
 17
0.0
 27
1.0
 37
0.0
 76
     0
330
23
  0
MATERIAL
  5
B0EF
102
{ACAD_XDICTIONARY
360
70E60
102
}
102
{ACAD_REACTORS
330
A91C
102
}
330
A91C
100
AcDbMaterial
  1
ByBlock
 73
     1
 78
     1
172
     1
176
     1
270
     1
274
     1
  0
MATERIAL
  5
B0EE
102
{ACAD_XDICTIONARY
360
70E5E
102
}
102
{ACAD_REACTORS
330
A91C
102
}
330
A91C
100
AcDbMaterial
  1
ByLayer
 73
     1
 78
     1
172
     1
176
     1
270
     1
274
     1
  0
MATERIAL
  5
B0F0
102
{ACAD_XDICTIONARY
360
70E62
102
}
102
{ACAD_REACTORS
330
A91C
102
}
330
A91C
100
AcDbMaterial
  1
Global
 73
     1
 78
     1
172
     1
176
     1
270
     1
274
     1
  0
MLEADERSTYLE
  5
B3AE
102
{ACAD_REACTORS
330
B3AD
102
}
330
B3AD
100
AcDbMLeaderStyle
170
     2
171
     1
172
     0
 90
        2
 40
0.0
 41
0.0
173
     1
 91
-1056964608
340
14
 92
       -2
290
     1
 42
2.0
291
     1
 43
0.36
  3
Standard
 44
4.0
300

342
11
174
     1
178
     6
175
     1
176
     0
 93
-1056964608
 45
4.0
292
     0
297
     0
 46
4.0
 94
-1056964608
 47
1.0
 49
1.0
140
1.0
293
     1
141
0.0
294
     1
177
     0
142
1.0
295
     0
296
     0
143
0.125
1001
ACAD_MLEADERVER
1070
     2
  0
MLINESTYLE
  5
18
102
{ACAD_REACTORS
330
17
102
}
330
17
100
AcDbMlineStyle
  2
STANDARD
 70
     0
  3

 62
   256
 51
90.0
 52
90.0
 71
     2
 49
0.5
 62
   256
  6
BYLAYER
 49
-0.5
 62
   256
  6
BYLAYER
  0
PLOTSETTINGS
  5
B46C
102
{ACAD_XDICTIONARY
360
70E64
102
}
102
{ACAD_REACTORS
330
19
102
}
330
19
100
AcDbPlotSettings
  1
01 A3フィット
  2
FX DocuWide 2050/2051
  4
A3
  6

 40
3.174999952316284
 41
3.174999952316284
 42
3.17498779296875
 43
3.17498779296875
 44
296.989501953125
 45
419.9889831542968
 46
0.0
 47
1.295841228961961
 48
214.3704939521119
 49
367.5855324241176
140
275.6727856380065
141
407.629191407817
142
1.0
143
1.445089120606129
 70
  3764
 72
     1
 73
     1
 74
     2
  7
monochrome.ctb
 75
     0
147
0.6919988433519999
148
0.0
149
0.0
1001
ACAD_PSEXT
1000
FX DocuWide 2050/2051
1000
FX DocuWide 2050/2051
1000
IP_192.200.15.252
1000

1070
     0
  0
PLOTSETTINGS
  5
B46D
102
{ACAD_XDICTIONARY
360
70E66
102
}
102
{ACAD_REACTORS
330
19
102
}
330
19
100
AcDbPlotSettings
  1
02 A3
  2
FX DocuWide 2050/2051
  4
A3
  6

 40
3.174999952316284
 41
3.174999952316284
 42
3.17498779296875
 43
3.17498779296875
 44
296.989501953125
 45
419.9889831542968
 46
-64.68024289608002
 47
-90.18050229549407
 48
214.3704939521119
 49
367.5855324241176
140
275.6727856380065
141
407.629191407817
142
1.0
143
1.0
 70
  3764
 72
     1
 73
     1
 74
     2
  7
monochrome.ctb
 75
    16
147
1.0
148
0.0
149
0.0
1001
ACAD_PSEXT
1000
FX DocuWide 2050/2051
1000
FX DocuWide 2050/2051
1000
IP_192.200.15.252
1000

1070
     0
  0
PLOTSETTINGS
  5
B46E
102
{ACAD_XDICTIONARY
360
70E68
102
}
102
{ACAD_REACTORS
330
19
102
}
330
19
100
AcDbPlotSettings
  1
03 A2フィット
  2
FX DocuWide 2050/2051
  4
User66
  6

 40
3.174999952316284
 41
3.174999952316284
 42
3.17498779296875
 43
3.17498779296875
 44
419.9889831542968
 45
593.97900390625
 46
0.0
 47
1.312647041252716
 48
214.3704939521119
 49
367.5855324241176
140
275.6727856380065
141
407.629191407817
142
1.0
143
1.015378155013403
 70
  3764
 72
     1
 73
     1
 74
     2
  7
monochrome.ctb
 75
     0
147
0.9848547509738377
148
0.0
149
0.0
1001
ACAD_PSEXT
1000
FX DocuWide 2050/2051
1000
FX DocuWide 2050/2051
1000
IP_192.200.15.252
1000

1070
     0
  0
PLOTSETTINGS
  5
B46F
102
{ACAD_XDICTIONARY
360
70E6A
102
}
102
{ACAD_REACTORS
330
19
102
}
330
19
100
AcDbPlotSettings
  1
04 A2
  2
FX DocuWide 2050/2051
  4
User66
  6

 40
3.174999952316284
 41
3.174999952316284
 42
3.17498779296875
 43
3.17498779296875
 44
419.9889831542968
 45
593.97900390625
 46
-3.180502295494079
 47
-3.185491919517517
 48
214.3704939521119
 49
367.5855324241176
140
275.6727856380065
141
407.629191407817
142
1.0
143
1.0
 70
  3764
 72
     1
 73
     1
 74
     2
  7
monochrome.ctb
 75
    16
147
1.0
148
0.0
149
0.0
1001
ACAD_PSEXT
1000
FX DocuWide 2050/2051
1000
FX DocuWide 2050/2051
1000
IP_192.200.15.252
1000

1070
     0
  0
PLOTSETTINGS
  5
B470
102
{ACAD_XDICTIONARY
360
70E6C
102
}
102
{ACAD_REACTORS
330
19
102
}
330
19
100
AcDbPlotSettings
  1
05 A1フィット
  2
FX DocuWide 2050/2051
  4
User139
  6

 40
3.174999952316284
 41
3.174999952316284
 42
3.17498779296875
 43
3.17498779296875
 44
593.97900390625
 45
840.9939575195313
 46
0.0
 47
1.784323459012171
 48
214.3704939521119
 49
367.5855324241176
140
275.6727856380065
141
407.629191407817
142
1.0
143
0.7147366594384652
 70
  3764
 72
     1
 73
     1
 74
     2
  7
monochrome.ctb
 75
     0
147
1.399116705145154
148
0.0
149
0.0
1001
ACAD_PSEXT
1000
FX DocuWide 2050/2051
1000
FX DocuWide 2050/2051
1000
IP_192.200.15.252
1000

1070
     0
  0
PLOTSETTINGS
  5
B471
102
{ACAD_XDICTIONARY
360
70E6E
102
}
102
{ACAD_REACTORS
330
19
102
}
330
19
100
AcDbPlotSettings
  1
06 A1
  2
FX DocuWide 2050/2051
  4
User139
  6

 40
3.174999952316284
 41
3.174999952316284
 42
3.17498779296875
 43
3.17498779296875
 44
593.97900390625
 45
840.9939575195313
 46
83.81450808048247
 47
120.3219848871231
 48
214.3704939521119
 49
367.5855324241176
140
275.6727856380065
141
407.629191407817
142
1.0
143
1.0
 70
  3764
 72
     1
 73
     1
 74
     2
  7
monochrome.ctb
 75
    16
147
1.0
148
0.0
149
0.0
1001
ACAD_PSEXT
1000
FX DocuWide 2050/2051
1000
FX DocuWide 2050/2051
1000
IP_192.200.15.252
1000

1070
     0
  0
PLOTSETTINGS
  5
B472
102
{ACAD_XDICTIONARY
360
70E70
102
}
102
{ACAD_REACTORS
330
19
102
}
330
19
100
AcDbPlotSettings
  1
06 A4フィット
  2
FX DocuWide 2050/2051
  4
A4
  6

 40
3.174999952316284
 41
3.174999952316284
 42
3.175003051757812
 43
3.17498779296875
 44
209.9944915771484
 45
296.989501953125
 46
0.0
 47
1.314011612960285
 48
214.3704939521119
 49
367.5855324241176
140
275.6727856380065
141
407.629191407817
142
1.0
143
2.06241771109504
 70
  3764
 72
     1
 73
     1
 74
     2
  7
monochrome.ctb
 75
     0
147
0.4848678299358913
148
0.0
149
0.0
1001
ACAD_PSEXT
1000
FX DocuWide 2050/2051
1000
FX DocuWide 2050/2051
1000
IP_192.200.15.252
1000

1070
     0
  0
PLOTSETTINGS
  5
B473
102
{ACAD_XDICTIONARY
360
70E72
102
}
102
{ACAD_REACTORS
330
19
102
}
330
19
100
AcDbPlotSettings
  1
07 A4
  2
FX DocuWide 2050/2051
  4
A4
  6

 40
3.174999952316284
 41
3.174999952316284
 42
3.175003051757812
 43
3.17498779296875
 44
209.9944915771484
 45
296.989501953125
 46
-108.1777557134628
 47
-151.68024289608
 48
214.3704939521119
 49
367.5855324241176
140
275.6727856380065
141
407.629191407817
142
1.0
143
1.0
 70
  3764
 72
     1
 73
     1
 74
     2
  7
monochrome.ctb
 75
    16
147
1.0
148
0.0
149
0.0
1001
ACAD_PSEXT
1000
FX DocuWide 2050/2051
1000
FX DocuWide 2050/2051
1000
IP_192.200.15.252
1000

1070
     0
  0
PLOTSETTINGS
  5
20215
102
{ACAD_XDICTIONARY
360
70E74
102
}
102
{ACAD_REACTORS
330
19
102
}
330
19
100
AcDbPlotSettings
  1
シブタニA3
  2
Fuji Xerox BT8050
  4
User121
  6

 40
3.174999952316284
 41
3.174999952316284
 42
3.17498779296875
 43
3.17498779296875
 44
297.0
 45
420.0
 46
-3.169999999999999
 47
-3.169999999999999
 48
0.0
 49
0.0
140
0.0
141
0.0
142
1.0
143
1.0
 70
  1716
 72
     1
 73
     1
 74
     2
  7
シブタニモノクロ.ctb
 75
    16
147
1.0
148
-57.89679924906841
149
-104.9183294096431
  0
ACDBPLACEHOLDER
  5
F
102
{ACAD_REACTORS
330
E
102
}
330
E
  0
SCALE
  5
B38C
102
{ACAD_REACTORS
330
B38B
102
}
330
B38B
100
AcDbScale
 70
     0
300
1:1
140
1.0
141
1.0
290
     1
  0
SCALE
  5
B38D
102
{ACAD_REACTORS
330
B38B
102
}
330
B38B
100
AcDbScale
 70
     0
300
1:2
140
1.0
141
2.0
290
     0
  0
SCALE
  5
B38E
102
{ACAD_REACTORS
330
B38B
102
}
330
B38B
100
AcDbScale
 70
     0
300
1:4
140
1.0
141
4.0
290
     0
  0
SCALE
  5
B38F
102
{ACAD_REACTORS
330
B38B
102
}
330
B38B
100
AcDbScale
 70
     0
300
1:5
140
1.0
141
5.0
290
     0
  0
SCALE
  5
B390
102
{ACAD_REACTORS
330
B38B
102
}
330
B38B
100
AcDbScale
 70
     0
300
1:8
140
1.0
141
8.0
290
     0
  0
SCALE
  5
B391
102
{ACAD_REACTORS
330
B38B
102
}
330
B38B
100
AcDbScale
 70
     0
300
1:10
140
1.0
141
10.0
290
     0
  0
SCALE
  5
B392
102
{ACAD_REACTORS
330
B38B
102
}
330
B38B
100
AcDbScale
 70
     0
300
1:16
140
1.0
141
16.0
290
     0
  0
SCALE
  5
B393
102
{ACAD_REACTORS
330
B38B
102
}
330
B38B
100
AcDbScale
 70
     0
300
1:20
140
1.0
141
20.0
290
     0
  0
SCALE
  5
B394
102
{ACAD_REACTORS
330
B38B
102
}
330
B38B
100
AcDbScale
 70
     0
300
1:30
140
1.0
141
30.0
290
     0
  0
SCALE
  5
B395
102
{ACAD_REACTORS
330
B38B
102
}
330
B38B
100
AcDbScale
 70
     0
300
1:40
140
1.0
141
40.0
290
     0
  0
SCALE
  5
B396
102
{ACAD_REACTORS
330
B38B
102
}
330
B38B
100
AcDbScale
 70
     0
300
1:50
140
1.0
141
50.0
290
     0
  0
SCALE
  5
B397
102
{ACAD_REACTORS
330
B38B
102
}
330
B38B
100
AcDbScale
 70
     0
300
1:100
140
1.0
141
100.0
290
     0
  0
SCALE
  5
B398
102
{ACAD_REACTORS
330
B38B
102
}
330
B38B
100
AcDbScale
 70
     0
300
2:1
140
2.0
141
1.0
290
     0
  0
SCALE
  5
B399
102
{ACAD_REACTORS
330
B38B
102
}
330
B38B
100
AcDbScale
 70
     0
300
4:1
140
4.0
141
1.0
290
     0
  0
SCALE
  5
B39A
102
{ACAD_REACTORS
330
B38B
102
}
330
B38B
100
AcDbScale
 70
     0
300
8:1
140
8.0
141
1.0
290
     0
  0
SCALE
  5
B39B
102
{ACAD_REACTORS
330
B38B
102
}
330
B38B
100
AcDbScale
 70
     0
300
10:1
140
10.0
141
1.0
290
     0
  0
SCALE
  5
B39C
102
{ACAD_REACTORS
330
B38B
102
}
330
B38B
100
AcDbScale
 70
     0
300
100:1
140
100.0
141
1.0
290
     0
  0
SCALE
  5
B39D
102
{ACAD_REACTORS
330
B38B
102
}
330
B38B
100
AcDbScale
 70
     0
300
1/128" = 1'-0"
140
0.0078125
141
12.0
290
     0
  0
SCALE
  5
B39E
102
{ACAD_REACTORS
330
B38B
102
}
330
B38B
100
AcDbScale
 70
     0
300
1/64" = 1'-0"
140
0.015625
141
12.0
290
     0
  0
SCALE
  5
B39F
102
{ACAD_REACTORS
330
B38B
102
}
330
B38B
100
AcDbScale
 70
     0
300
1/32" = 1'-0"
140
0.03125
141
12.0
290
     0
  0
SCALE
  5
B3A0
102
{ACAD_REACTORS
330
B38B
102
}
330
B38B
100
AcDbScale
 70
     0
300
1/16" = 1'-0"
140
0.0625
141
12.0
290
     0
  0
SCALE
  5
B3A1
102
{ACAD_REACTORS
330
B38B
102
}
330
B38B
100
AcDbScale
 70
     0
300
3/32" = 1'-0"
140
0.09375
141
12.0
290
     0
  0
SCALE
  5
B3A2
102
{ACAD_REACTORS
330
B38B
102
}
330
B38B
100
AcDbScale
 70
     0
300
1/8" = 1'-0"
140
0.125
141
12.0
290
     0
  0
SCALE
  5
B3A3
102
{ACAD_REACTORS
330
B38B
102
}
330
B38B
100
AcDbScale
 70
     0
300
3/16" = 1'-0"
140
0.1875
141
12.0
290
     0
  0
SCALE
  5
B3A4
102
{ACAD_REACTORS
330
B38B
102
}
330
B38B
100
AcDbScale
 70
     0
300
1/4" = 1'-0"
140
0.25
141
12.0
290
     0
  0
SCALE
  5
B3A5
102
{ACAD_REACTORS
330
B38B
102
}
330
B38B
100
AcDbScale
 70
     0
300
3/8" = 1'-0"
140
0.375
141
12.0
290
     0
  0
SCALE
  5
B3A6
102
{ACAD_REACTORS
330
B38B
102
}
330
B38B
100
AcDbScale
 70
     0
300
1/2" = 1'-0"
140
0.5
141
12.0
290
     0
  0
SCALE
  5
B3A7
102
{ACAD_REACTORS
330
B38B
102
}
330
B38B
100
AcDbScale
 70
     0
300
3/4" = 1'-0"
140
0.75
141
12.0
290
     0
  0
SCALE
  5
B3A8
102
{ACAD_REACTORS
330
B38B
102
}
330
B38B
100
AcDbScale
 70
     0
300
1" = 1'-0"
140
1.0
141
12.0
290
     0
  0
SCALE
  5
B3A9
102
{ACAD_REACTORS
330
B38B
102
}
330
B38B
100
AcDbScale
 70
     0
300
1-1/2" = 1'-0"
140
1.5
141
12.0
290
     0
  0
SCALE
  5
B3AA
102
{ACAD_REACTORS
330
B38B
102
}
330
B38B
100
AcDbScale
 70
     0
300
3" = 1'-0"
140
3.0
141
12.0
290
     0
  0
SCALE
  5
B3AB
102
{ACAD_REACTORS
330
B38B
102
}
330
B38B
100
AcDbScale
 70
     0
300
6" = 1'-0"
140
6.0
141
12.0
290
     0
  0
SCALE
  5
B3AC
102
{ACAD_REACTORS
330
B38B
102
}
330
B38B
100
AcDbScale
 70
     0
300
1'-0" = 1'-0"
140
12.0
141
12.0
290
     0
  0
TABLESTYLE
  5
AABA
102
{ACAD_XDICTIONARY
360
B3DB
102
}
102
{ACAD_REACTORS
330
AAB9
102
}
330
AAB9
100
AcDbTableStyle
  3
Standard
 70
     0
 71
     0
 40
1.5
 41
1.5
280
     0
281
     0
  7
STANDARD
140
4.5
170
     2
 62
     0
 63
     7
283
     0
274
    -2
284
     1
 64
     0
275
    -2
285
     1
 65
     0
276
    -2
286
     1
 66
     0
277
    -2
287
     1
 67
     0
278
    -2
288
     1
 68
     0
279
    -2
289
     1
 69
     0
  7
STANDARD
140
6.0
170
     5
 62
     0
 63
     7
283
     0
274
    -2
284
     1
 64
     0
275
    -2
285
     1
 65
     0
276
    -2
286
     1
 66
     0
277
    -2
287
     1
 67
     0
278
    -2
288
     1
 68
     0
279
    -2
289
     1
 69
     0
  7
STANDARD
140
4.5
170
     5
 62
     0
 63
     7
283
     0
274
    -2
284
     1
 64
     0
275
    -2
285
     1
 65
     0
276
    -2
286
     1
 66
     0
277
    -2
287
     1
 67
     0
278
    -2
288
     1
 68
     0
279
    -2
289
     1
 69
     0
  0
VISUALSTYLE
  5
B0F7
102
{ACAD_REACTORS
330
B0F1
102
}
330
B0F1
100
AcDbVisualStyle
  2
2dWireframe
 70
     4
 71
     0
 72
     2
 73
     0
 90
        0
 40
-0.6
 41
-30.0
 62
     5
 63
     7
 74
     1
 91
        4
 64
     7
 65
   257
 75
     1
175
     1
 42
1.0
 92
        0
 66
   257
 43
1.0
 76
     1
 77
     6
 78
     2
 67
     7
 79
     5
170
     0
171
     0
290
     0
174
     0
 93
        1
 44
0.0
173
     0
291
     0
 45
0.0
1001
ACAD
1000
AcDbSavedByObjectVersion
1070
     0
  0
VISUALSTYLE
  5
B0F9
102
{ACAD_REACTORS
330
B0F1
102
}
330
B0F1
100
AcDbVisualStyle
  2
3D Hidden
 70
     6
 71
     1
 72
     2
 73
     2
 90
        0
 40
-0.6
 41
-30.0
 62
     5
 63
     7
 74
     2
 91
        2
 64
     7
 65
   257
 75
     2
175
     1
 42
40.0
 92
        0
 66
   257
 43
1.0
 76
     1
 77
     6
 78
     2
 67
     7
 79
     3
170
     0
171
     0
290
     0
174
     0
 93
        1
 44
0.0
173
     0
291
     0
 45
0.0
1001
ACAD
1000
AcDbSavedByObjectVersion
1070
     0
  0
VISUALSTYLE
  5
B0F8
102
{ACAD_REACTORS
330
B0F1
102
}
330
B0F1
100
AcDbVisualStyle
  2
3dWireframe
 70
     5
 71
     0
 72
     2
 73
     0
 90
        0
 40
-0.6
 41
-30.0
 62
     5
 63
     7
 74
     1
 91
        4
 64
     7
 65
   257
 75
     1
175
     1
 42
1.0
 92
        0
 66
   257
 43
1.0
 76
     1
 77
     6
 78
     2
 67
     7
 79
     5
170
     0
171
     0
290
     0
174
     0
 93
        1
 44
0.0
173
     0
291
     0
 45
0.0
1001
ACAD
1000
AcDbSavedByObjectVersion
1070
     0
  0
VISUALSTYLE
  5
B0F6
102
{ACAD_REACTORS
330
B0F1
102
}
330
B0F1
100
AcDbVisualStyle
  2
Basic
 70
     7
 71
     1
 72
     0
 73
     1
 90
        0
 40
-0.6
 41
-30.0
 62
     5
 63
     7
 74
     0
 91
        4
 64
     7
 65
   257
 75
     1
175
     1
 42
1.0
 92
        8
 66
     7
 43
1.0
 76
     1
 77
     6
 78
     2
 67
     7
 79
     5
170
     0
171
     0
290
     0
174
     0
 93
        1
 44
0.0
173
     0
291
     1
 45
0.0
1001
ACAD
1000
AcDbSavedByObjectVersion
1070
     0
  0
VISUALSTYLE
  5
B0FD
102
{ACAD_REACTORS
330
B0F1
102
}
330
B0F1
100
AcDbVisualStyle
  2
Brighten
 70
    12
 71
     2
 72
     2
 73
     0
 90
        0
 40
-0.6
 41
-30.0
 62
     5
 63
     7
 74
     1
 91
        4
 64
     7
 65
   257
 75
     1
175
     1
 42
1.0
 92
        8
 66
     7
 43
1.0
 76
     1
 77
     6
 78
     2
 67
     7
 79
     5
170
     0
171
     0
290
     0
174
     0
 93
        1
 44
50.0
173
     0
291
     1
 45
0.0
1001
ACAD
1000
AcDbSavedByObjectVersion
1070
     0
  0
VISUALSTYLE
  5
B101
102
{ACAD_REACTORS
330
B0F1
102
}
330
B0F1
100
AcDbVisualStyle
  2
ColorChange
 70
    16
 71
     2
 72
     2
 73
     3
 90
        0
 40
-0.6
 41
-30.0
 62
     5
 63
     8
 74
     1
 91
        4
 64
     7
 65
   257
 75
     1
175
     1
 42
1.0
 92
        8
 66
     8
 43
1.0
 76
     1
 77
     6
 78
     2
 67
     7
 79
     5
170
     0
171
     0
290
     0
174
     0
 93
        1
 44
0.0
173
     0
291
     1
 45
0.0
1001
ACAD
1000
AcDbSavedByObjectVersion
1070
     0
  0
VISUALSTYLE
  5
B0FA
102
{ACAD_REACTORS
330
B0F1
102
}
330
B0F1
100
AcDbVisualStyle
  2
Conceptual
 70
     9
 71
     3
 72
     2
 73
     0
 90
        0
 40
-0.6
 41
-30.0
 62
     5
 63
     7
 74
     2
 91
        2
 64
     7
 65
   257
 75
     1
175
     1
 42
40.0
 92
        8
 66
     7
 43
1.0
 76
     1
 77
     6
 78
     2
 67
     7
 79
     3
170
     0
171
     0
290
     0
174
     0
 93
        1
 44
0.0
173
     0
291
     0
 45
0.0
1001
ACAD
1000
AcDbSavedByObjectVersion
1070
     0
  0
VISUALSTYLE
  5
B0FC
102
{ACAD_REACTORS
330
B0F1
102
}
330
B0F1
100
AcDbVisualStyle
  2
Dim
 70
    11
 71
     2
 72
     2
 73
     0
 90
        0
 40
-0.6
 41
-30.0
 62
     5
 63
     7
 74
     1
 91
        4
 64
     7
 65
   257
 75
     1
175
     1
 42
1.0
 92
        8
 66
     7
 43
1.0
 76
     1
 77
     6
 78
     2
 67
     7
 79
     5
170
     0
171
     0
290
     0
174
     0
 93
        1
 44
-50.0
173
     0
291
     1
 45
0.0
1001
ACAD
1000
AcDbSavedByObjectVersion
1070
     0
  0
VISUALSTYLE
  5
B100
102
{ACAD_REACTORS
330
B0F1
102
}
330
B0F1
100
AcDbVisualStyle
  2
Facepattern
 70
    15
 71
     2
 72
     2
 73
     0
 90
        0
 40
-0.6
 41
-30.0
 62
     5
 63
     7
 74
     1
 91
        4
 64
     7
 65
   257
 75
     1
175
     1
 42
1.0
 92
        8
 66
     7
 43
1.0
 76
     1
 77
     6
 78
     2
 67
     7
 79
     5
170
     0
171
     0
290
     0
174
     0
 93
        1
 44
0.0
173
     0
291
     1
 45
0.0
1001
ACAD
1000
AcDbSavedByObjectVersion
1070
     0
  0
VISUALSTYLE
  5
B0F2
102
{ACAD_REACTORS
330
B0F1
102
}
330
B0F1
100
AcDbVisualStyle
  2
Flat
 70
     0
 71
     2
 72
     1
 73
     1
 90
        2
 40
-0.6
 41
30.0
 62
     5
 63
     7
 74
     0
 91
        4
 64
     7
 65
   257
 75
     1
175
     1
 42
1.0
 92
        8
 66
     7
 43
1.0
 76
     1
 77
     6
 78
     2
 67
     7
 79
     5
170
     0
171
     0
290
     0
174
     0
 93
       13
 44
0.0
173
     0
291
     1
 45
0.0
1001
ACAD
1000
AcDbSavedByObjectVersion
1070
     0
  0
VISUALSTYLE
  5
B0F3
102
{ACAD_REACTORS
330
B0F1
102
}
330
B0F1
100
AcDbVisualStyle
  2
FlatWithEdges
 70
     1
 71
     2
 72
     1
 73
     1
 90
        2
 40
-0.6
 41
30.0
 62
     5
 63
     7
 74
     1
 91
        4
 64
     7
 65
   257
 75
     1
175
     1
 42
1.0
 92
        0
 66
   257
 43
1.0
 76
     1
 77
     6
 78
     2
 67
     7
 79
     5
170
     0
171
     0
290
     0
174
     0
 93
       13
 44
0.0
173
     0
291
     1
 45
0.0
1001
ACAD
1000
AcDbSavedByObjectVersion
1070
     0
  0
VISUALSTYLE
  5
B0F4
102
{ACAD_REACTORS
330
B0F1
102
}
330
B0F1
100
AcDbVisualStyle
  2
Gouraud
 70
     2
 71
     2
 72
     2
 73
     1
 90
        2
 40
-0.6
 41
30.0
 62
     5
 63
     7
 74
     0
 91
        4
 64
     7
 65
   257
 75
     1
175
     1
 42
1.0
 92
        0
 66
     7
 43
1.0
 76
     1
 77
     6
 78
     2
 67
     7
 79
     5
170
     0
171
     0
290
     0
174
     0
 93
       13
 44
0.0
173
     0
291
     1
 45
0.0
1001
ACAD
1000
AcDbSavedByObjectVersion
1070
     0
  0
VISUALSTYLE
  5
B0F5
102
{ACAD_REACTORS
330
B0F1
102
}
330
B0F1
100
AcDbVisualStyle
  2
GouraudWithEdges
 70
     3
 71
     2
 72
     2
 73
     1
 90
        2
 40
-0.6
 41
30.0
 62
     5
 63
     7
 74
     1
 91
        4
 64
     7
 65
   257
 75
     1
175
     1
 42
1.0
 92
        0
 66
   257
 43
1.0
 76
     1
 77
     6
 78
     2
 67
     7
 79
     5
170
     0
171
     0
290
     0
174
     0
 93
       13
 44
0.0
173
     0
291
     1
 45
0.0
1001
ACAD
1000
AcDbSavedByObjectVersion
1070
     0
  0
VISUALSTYLE
  5
B0FF
102
{ACAD_REACTORS
330
B0F1
102
}
330
B0F1
100
AcDbVisualStyle
  2
Linepattern
 70
    14
 71
     2
 72
     2
 73
     0
 90
        0
 40
-0.6
 41
-30.0
 62
     5
 63
     7
 74
     1
 91
        4
 64
     7
 65
   257
 75
     7
175
     7
 42
1.0
 92
        8
 66
     7
 43
1.0
 76
     1
 77
     6
 78
     2
 67
     7
 79
     5
170
     0
171
     0
290
     0
174
     0
 93
        1
 44
0.0
173
     0
291
     1
 45
0.0
1001
ACAD
1000
AcDbSavedByObjectVersion
1070
     0
  0
VISUALSTYLE
  5
B0FB
102
{ACAD_REACTORS
330
B0F1
102
}
330
B0F1
100
AcDbVisualStyle
  2
Realistic
 70
     8
 71
     2
 72
     2
 73
     0
 90
        0
 40
-0.6
 41
-30.0
 62
     5
 63
     7
 74
     1
 91
        0
 64
     7
 65
   257
 75
     1
175
     1
 42
1.0
 92
        8
 66
     8
 43
1.0
 76
     1
 77
     6
 78
     2
 67
     7
 79
     5
170
     0
171
     0
290
     0
174
     0
 93
       13
 44
0.0
173
     0
291
     0
 45
0.0
1001
ACAD
1000
AcDbSavedByObjectVersion
1070
     0
  0
VISUALSTYLE
  5
B0FE
102
{ACAD_REACTORS
330
B0F1
102
}
330
B0F1
100
AcDbVisualStyle
  2
Thicken
 70
    13
 71
     2
 72
     2
 73
     0
 90
        0
 40
-0.6
 41
-30.0
 62
     5
 63
     7
 74
     1
 91
        4
 64
     7
 65
   257
 75
     1
175
     1
 42
1.0
 92
       12
 66
     7
 43
1.0
 76
     1
 77
     6
 78
     2
 67
     7
 79
     5
170
     0
171
     0
290
     0
174
     0
 93
        1
 44
0.0
173
     0
291
     1
 45
0.0
1001
ACAD
1000
AcDbSavedByObjectVersion
1070
     0
  0
DICTIONARYVAR
  5
B3E0
102
{ACAD_REACTORS
330
34
102
}
330
34
100
DictionaryVariables
280
     0
  1
1:1
  0
DICTIONARYVAR
  5
B3DE
102
{ACAD_REACTORS
330
34
102
}
330
34
100
DictionaryVariables
280
     0
  1
STANDARD
  0
DICTIONARYVAR
  5
AAF3
102
{ACAD_REACTORS
330
34
102
}
330
34
100
DictionaryVariables
280
     0
  1
STANDARD
  0
DICTIONARYVAR
  5
A10C
102
{ACAD_REACTORS
330
34
102
}
330
34
100
DictionaryVariables
280
     0
  1
1
  0
DICTIONARYVAR
  5
AB07
102
{ACAD_REACTORS
330
34
102
}
330
34
100
DictionaryVariables
280
     0
  1
4
  0
DICTIONARYVAR
  5
35
102
{ACAD_REACTORS
330
34
102
}
330
34
100
DictionaryVariables
280
     0
  1
0
  0
DICTIONARYVAR
  5
B3E1
102
{ACAD_REACTORS
330
34
102
}
330
34
100
DictionaryVariables
280
     0
  1
0
  0
DICTIONARYVAR
  5
B3DF
102
{ACAD_REACTORS
330
34
102
}
330
34
100
DictionaryVariables
280
     0
  1
0
  0
DICTIONARYVAR
  5
194C
102
{ACAD_REACTORS
330
34
102
}
330
34
100
DictionaryVariables
280
     0
  1
127
  0
DICTIONARY
  5
7E8
102
{ACAD_REACTORS
330
47
102
}
330
47
100
AcDbDictionary
281
     1
  0
DICTIONARY
  5
4C
102
{ACAD_REACTORS
330
47
102
}
330
47
100
AcDbDictionary
281
     1
  0
XRECORD
  5
A929
102
{ACAD_REACTORS
330
47
102
}
330
47
100
AcDbXrecord
280
     1
 90
-1023410169
  0
XRECORD
  5
B332
102
{ACAD_REACTORS
330
B331
102
}
330
B331
100
AcDbXrecord
280
     1
  0
XRECORD
  5
3FB7
102
{ACAD_REACTORS
330
3F96
102
}
330
3F96
100
AcDbXrecord
280
     1
 91
        3
330
0
 90
        8
 62
     7
370
    40
331
16
  1
Color_7
330
0
 90
        0
 62
    14
370
    -3
331
16
  1
Color_14
330
0
 90
        8
 62
     7
370
    20
331
16
  1
Color_7
330
6D1
 90
        0
 62
     7
370
    -3
331
16
  1
Color_7
330
0
 90
        8
 62
     7
370
    50
331
16
  1
Color_7
330
0
 90
        8
 62
     2
370
    35
331
16
  1
Color_2
330
0
 90
        8
 62
     7
370
    -3
331
16
  1
Color_7
330
10
 90
        8
 62
     7
370
    -3
331
16
  1
Color_7
  0
DICTIONARY
  5
70E59
330
22
100
AcDbDictionary
280
     1
281
     1
  3
ACAD_XREC_ROUNDTRIP
360
70E5A
  0
DICTIONARY
  5
70E57
330
1E
100
AcDbDictionary
280
     1
281
     1
  3
ACAD_XREC_ROUNDTRIP
360
70E58
  0
DICTIONARY
  5
70E5B
330
26
100
AcDbDictionary
280
     1
281
     1
  3
ACAD_XREC_ROUNDTRIP
360
70E5C
  0
DICTIONARY
  5
70E60
330
B0EF
100
AcDbDictionary
280
     1
281
     1
  3
ACAD_XREC_ROUNDTRIP
360
70E61
  0
DICTIONARY
  5
70E5E
330
B0EE
100
AcDbDictionary
280
     1
281
     1
  3
ACAD_XREC_ROUNDTRIP
360
70E5F
  0
DICTIONARY
  5
70E62
330
B0F0
100
AcDbDictionary
280
     1
281
     1
  3
ACAD_XREC_ROUNDTRIP
360
70E63
  0
DICTIONARY
  5
70E64
330
B46C
100
AcDbDictionary
280
     1
281
     1
  3
ACAD_XREC_ROUNDTRIP
360
70E65
  0
DICTIONARY
  5
70E66
330
B46D
100
AcDbDictionary
280
     1
281
     1
  3
ACAD_XREC_ROUNDTRIP
360
70E67
  0
DICTIONARY
  5
70E68
330
B46E
100
AcDbDictionary
280
     1
281
     1
  3
ACAD_XREC_ROUNDTRIP
360
70E69
  0
DICTIONARY
  5
70E6A
330
B46F
100
AcDbDictionary
280
     1
281
     1
  3
ACAD_XREC_ROUNDTRIP
360
70E6B
  0
DICTIONARY
  5
70E6C
330
B470
100
AcDbDictionary
280
     1
281
     1
  3
ACAD_XREC_ROUNDTRIP
360
70E6D
  0
DICTIONARY
  5
70E6E
330
B471
100
AcDbDictionary
280
     1
281
     1
  3
ACAD_XREC_ROUNDTRIP
360
70E6F
  0
DICTIONARY
  5
70E70
330
B472
100
AcDbDictionary
280
     1
281
     1
  3
ACAD_XREC_ROUNDTRIP
360
70E71
  0
DICTIONARY
  5
70E72
330
B473
100
AcDbDictionary
280
     1
281
     1
  3
ACAD_XREC_ROUNDTRIP
360
70E73
  0
DICTIONARY
  5
70E74
330
20215
100
AcDbDictionary
280
     1
281
     1
  3
ACAD_XREC_ROUNDTRIP
360
70E75
  0
DICTIONARY
  5
B3DB
330
AABA
100
AcDbDictionary
280
     1
281
     1
  3
ACAD_ROUNDTRIP_2008_TABLESTYLE_CELLSTYLEMAP
360
70E53
  3
ACAD_XREC_ROUNDTRIP
360
70E5D
  0
XRECORD
  5
70E5A
102
{ACAD_REACTORS
330
70E59
102
}
330
70E59
100
AcDbXrecord
280
     1
102
SHADEPLOT
 70
     0
102
SHADEPLOTRESLEVEL
 70
     2
102
SHADEPLOTCUSTOMDPI
 70
   200
  0
XRECORD
  5
70E58
102
{ACAD_REACTORS
330
70E57
102
}
330
70E57
100
AcDbXrecord
280
     1
102
SHADEPLOT
 70
     0
102
SHADEPLOTRESLEVEL
 70
     2
102
SHADEPLOTCUSTOMDPI
 70
   300
  0
XRECORD
  5
70E5C
102
{ACAD_REACTORS
330
70E5B
102
}
330
70E5B
100
AcDbXrecord
280
     1
102
SHADEPLOT
 70
     0
102
SHADEPLOTRESLEVEL
 70
     2
102
SHADEPLOTCUSTOMDPI
 70
   300
  0
XRECORD
  5
70E61
102
{ACAD_REACTORS
330
70E60
102
}
330
70E60
100
AcDbXrecord
280
     1
102
MATERIAL
148
0.0
149
0.0
149
0.0
 93
        0
 94
       63
282
     0
 72
     1
 77
     1
171
     1
175
     1
179
     1
273
     0
  0
XRECORD
  5
70E5F
102
{ACAD_REACTORS
330
70E5E
102
}
330
70E5E
100
AcDbXrecord
280
     1
102
MATERIAL
148
0.0
149
0.0
149
0.0
 93
        0
 94
       63
282
     0
 72
     1
 77
     1
171
     1
175
     1
179
     1
273
     0
  0
XRECORD
  5
70E63
102
{ACAD_REACTORS
330
70E62
102
}
330
70E62
100
AcDbXrecord
280
     1
102
MATERIAL
148
0.0
149
0.0
149
0.0
 93
        0
 94
       63
282
     0
 72
     1
 77
     1
171
     1
175
     1
179
     1
273
     0
  0
XRECORD
  5
70E65
102
{ACAD_REACTORS
330
70E64
102
}
330
70E64
100
AcDbXrecord
280
     1
102
SHADEPLOT
 70
     0
102
SHADEPLOTRESLEVEL
 70
     2
102
SHADEPLOTCUSTOMDPI
 70
   200
  0
XRECORD
  5
70E67
102
{ACAD_REACTORS
330
70E66
102
}
330
70E66
100
AcDbXrecord
280
     1
102
SHADEPLOT
 70
     0
102
SHADEPLOTRESLEVEL
 70
     2
102
SHADEPLOTCUSTOMDPI
 70
   200
  0
XRECORD
  5
70E69
102
{ACAD_REACTORS
330
70E68
102
}
330
70E68
100
AcDbXrecord
280
     1
102
SHADEPLOT
 70
     0
102
SHADEPLOTRESLEVEL
 70
     2
102
SHADEPLOTCUSTOMDPI
 70
   200
  0
XRECORD
  5
70E6B
102
{ACAD_REACTORS
330
70E6A
102
}
330
70E6A
100
AcDbXrecord
280
     1
102
SHADEPLOT
 70
     0
102
SHADEPLOTRESLEVEL
 70
     2
102
SHADEPLOTCUSTOMDPI
 70
   200
  0
XRECORD
  5
70E6D
102
{ACAD_REACTORS
330
70E6C
102
}
330
70E6C
100
AcDbXrecord
280
     1
102
SHADEPLOT
 70
     0
102
SHADEPLOTRESLEVEL
 70
     2
102
SHADEPLOTCUSTOMDPI
 70
   200
  0
XRECORD
  5
70E6F
102
{ACAD_REACTORS
330
70E6E
102
}
330
70E6E
100
AcDbXrecord
280
     1
102
SHADEPLOT
 70
     0
102
SHADEPLOTRESLEVEL
 70
     2
102
SHADEPLOTCUSTOMDPI
 70
   200
  0
XRECORD
  5
70E71
102
{ACAD_REACTORS
330
70E70
102
}
330
70E70
100
AcDbXrecord
280
     1
102
SHADEPLOT
 70
     0
102
SHADEPLOTRESLEVEL
 70
     2
102
SHADEPLOTCUSTOMDPI
 70
   200
  0
XRECORD
  5
70E73
102
{ACAD_REACTORS
330
70E72
102
}
330
70E72
100
AcDbXrecord
280
     1
102
SHADEPLOT
 70
     0
102
SHADEPLOTRESLEVEL
 70
     2
102
SHADEPLOTCUSTOMDPI
 70
   200
  0
XRECORD
  5
70E75
102
{ACAD_REACTORS
330
70E74
102
}
330
70E74
100
AcDbXrecord
280
     1
102
SHADEPLOT
 70
     0
102
SHADEPLOTRESLEVEL
 70
     2
102
SHADEPLOTCUSTOMDPI
 70
   300
  0
CELLSTYLEMAP
  5
70E53
102
{ACAD_REACTORS
330
B3DB
102
}
330
B3DB
100
AcDbCellStyleMap
 90
        3
300
CELLSTYLE
  1
TABLEFORMAT_BEGIN
 90
        5
170
     1
 91
        0
 92
    32768
 62
   257
 93
        1
300
CONTENTFORMAT
  1
CONTENTFORMAT_BEGIN
 90
        0
 91
        0
 92
        4
 93
        0
300

 40
0.0
140
1.0
 94
        5
 62
     0
340
11
144
6.0
309
CONTENTFORMAT_END
171
     1
301
MARGIN
  1
CELLMARGIN_BEGIN
 40
1.5
 40
1.5
 40
1.5
 40
1.5
 40
0.18
 40
0.18
309
CELLMARGIN_END
 94
        6
 95
        1
302
GRIDFORMAT
  1
GRIDFORMAT_BEGIN
 90
        0
 91
        1
 62
     0
 92
       -2
340
0
 93
        0
 40
0.045
309
GRIDFORMAT_END
 95
        2
302
GRIDFORMAT
  1
GRIDFORMAT_BEGIN
 90
        0
 91
        1
 62
     0
 92
       -2
340
0
 93
        0
 40
0.045
309
GRIDFORMAT_END
 95
        4
302
GRIDFORMAT
  1
GRIDFORMAT_BEGIN
 90
        0
 91
        1
 62
     0
 92
       -2
340
0
 93
        0
 40
0.045
309
GRIDFORMAT_END
 95
        8
302
GRIDFORMAT
  1
GRIDFORMAT_BEGIN
 90
        0
 91
        1
 62
     0
 92
       -2
340
0
 93
        0
 40
0.045
309
GRIDFORMAT_END
 95
       16
302
GRIDFORMAT
  1
GRIDFORMAT_BEGIN
 90
        0
 91
        1
 62
     0
 92
       -2
340
0
 93
        0
 40
0.045
309
GRIDFORMAT_END
 95
       32
302
GRIDFORMAT
  1
GRIDFORMAT_BEGIN
 90
        0
 91
        1
 62
     0
 92
       -2
340
0
 93
        0
 40
0.045
309
GRIDFORMAT_END
309
TABLEFORMAT_END
  1
CELLSTYLE_BEGIN
 90
        1
 91
        1
300
_TITLE
309
CELLSTYLE_END
300
CELLSTYLE
  1
TABLEFORMAT_BEGIN
 90
        5
170
     1
 91
        0
 92
        0
 62
   257
 93
        1
300
CONTENTFORMAT
  1
CONTENTFORMAT_BEGIN
 90
        0
 91
        0
 92
        4
 93
        0
300

 40
0.0
140
1.0
 94
        5
 62
     0
340
11
144
4.5
309
CONTENTFORMAT_END
171
     1
301
MARGIN
  1
CELLMARGIN_BEGIN
 40
1.5
 40
1.5
 40
1.5
 40
1.5
 40
0.18
 40
0.18
309
CELLMARGIN_END
 94
        6
 95
        1
302
GRIDFORMAT
  1
GRIDFORMAT_BEGIN
 90
        0
 91
        1
 62
     0
 92
       -2
340
0
 93
        0
 40
0.045
309
GRIDFORMAT_END
 95
        2
302
GRIDFORMAT
  1
GRIDFORMAT_BEGIN
 90
        0
 91
        1
 62
     0
 92
       -2
340
0
 93
        0
 40
0.045
309
GRIDFORMAT_END
 95
        4
302
GRIDFORMAT
  1
GRIDFORMAT_BEGIN
 90
        0
 91
        1
 62
     0
 92
       -2
340
0
 93
        0
 40
0.045
309
GRIDFORMAT_END
 95
        8
302
GRIDFORMAT
  1
GRIDFORMAT_BEGIN
 90
        0
 91
        1
 62
     0
 92
       -2
340
0
 93
        0
 40
0.045
309
GRIDFORMAT_END
 95
       16
302
GRIDFORMAT
  1
GRIDFORMAT_BEGIN
 90
        0
 91
        1
 62
     0
 92
       -2
340
0
 93
        0
 40
0.045
309
GRIDFORMAT_END
 95
       32
302
GRIDFORMAT
  1
GRIDFORMAT_BEGIN
 90
        0
 91
        1
 62
     0
 92
       -2
340
0
 93
        0
 40
0.045
309
GRIDFORMAT_END
309
TABLEFORMAT_END
  1
CELLSTYLE_BEGIN
 90
        2
 91
        1
300
_HEADER
309
CELLSTYLE_END
300
CELLSTYLE
  1
TABLEFORMAT_BEGIN
 90
        5
170
     1
 91
        0
 92
        0
 62
   257
 93
        1
300
CONTENTFORMAT
  1
CONTENTFORMAT_BEGIN
 90
        0
 91
        0
 92
        4
 93
        0
300

 40
0.0
140
1.0
 94
        2
 62
     0
340
11
144
4.5
309
CONTENTFORMAT_END
171
     1
301
MARGIN
  1
CELLMARGIN_BEGIN
 40
1.5
 40
1.5
 40
1.5
 40
1.5
 40
0.18
 40
0.18
309
CELLMARGIN_END
 94
        6
 95
        1
302
GRIDFORMAT
  1
GRIDFORMAT_BEGIN
 90
        0
 91
        1
 62
     0
 92
       -2
340
0
 93
        0
 40
0.045
309
GRIDFORMAT_END
 95
        2
302
GRIDFORMAT
  1
GRIDFORMAT_BEGIN
 90
        0
 91
        1
 62
     0
 92
       -2
340
0
 93
        0
 40
0.045
309
GRIDFORMAT_END
 95
        4
302
GRIDFORMAT
  1
GRIDFORMAT_BEGIN
 90
        0
 91
        1
 62
     0
 92
       -2
340
0
 93
        0
 40
0.045
309
GRIDFORMAT_END
 95
        8
302
GRIDFORMAT
  1
GRIDFORMAT_BEGIN
 90
        0
 91
        1
 62
     0
 92
       -2
340
0
 93
        0
 40
0.045
309
GRIDFORMAT_END
 95
       16
302
GRIDFORMAT
  1
GRIDFORMAT_BEGIN
 90
        0
 91
        1
 62
     0
 92
       -2
340
0
 93
        0
 40
0.045
309
GRIDFORMAT_END
 95
       32
302
GRIDFORMAT
  1
GRIDFORMAT_BEGIN
 90
        0
 91
        1
 62
     0
 92
       -2
340
0
 93
        0
 40
0.045
309
GRIDFORMAT_END
309
TABLEFORMAT_END
  1
CELLSTYLE_BEGIN
 90
        3
 91
        2
300
_DATA
309
CELLSTYLE_END
  0
XRECORD
  5
70E5D
102
{ACAD_REACTORS
330
B3DB
102
}
330
B3DB
100
AcDbXrecord
280
     1
102
ACAD_ROUNDTRIP_PRE2007_TABLESTYLE
 90
        4
 91
        0
  1

 92
        4
 93
        0
  2

 94
        4
 95
        0
  3

  0
ENDSEC
  0
EOF
