  0
SECTION
  2
HEADER
  9
$ACADVER
  1
AC1009
  9
$INSBASE
 10
0.0
 20
0.0
 30
0.0
  9
$EXTMIN
 10
-211.0
 20
-100.0
 30
0.0
  9
$EXTMAX
 10
170.0
 20
173.0
 30
0.0
  9
$LIMMIN
 10
-211.0
 20
-100.0
  9
$LIMMAX
 10
170.0
 20
173.0
  9
$ORTHOMODE
 70
     0
  9
$REGENMODE
 70
     1
  9
$FILLMODE
 70
     1
  9
$QTEXTMODE
 70
     0
  9
$MIRRTEXT
 70
     1
  9
$DRAGMODE
 70
     2
  9
$LTSCALE
 40
1.0
  9
$OSMODE
 70
    37
  9
$ATTMODE
 70
     1
  9
$TEXTSIZE
 40
0.2
  9
$TRACEWID
 40
0.05
  9
$TEXTSTYLE
  7
STANDARD
  9
$CLAYER
  8
0
  9
$CELTYPE
  6
CONTINUOUS
  9
$CECOLOR
 62
   256
  9
$DIMSCALE
 40
1.0
  9
$DIMASZ
 40
1.0
  9
$DIMEXO
 40
2.54
  9
$DIMDLI
 40
0.38
  9
$DIMRND
 40
0.0
  9
$DIMDLE
 40
0.0
  9
$DIMEXE
 40
2.54
  9
$DIMTP
 40
0.0
  9
$DIMTM
 40
0.0
  9
$DIMTXT
 40
3.2000000000000002
  9
$DIMCEN
 40
0.09
  9
$DIMTSZ
 40
0.0
  9
$DIMTOL
 70
     0
  9
$DIMLIM
 70
     0
  9
$DIMTIH
 70
     0
  9
$DIMTOH
 70
     0
  9
$DIMSE1
 70
     0
  9
$DIMSE2
 70
     0
  9
$DIMTAD
 70
     1
  9
$DIMZIN
 70
     0
  9
$DIMBLK
  1

  9
$DIMASO
 70
     1
  9
$DIMSHO
 70
     0
  9
$DIMPOST
  1

  9
$DIMAPOST
  1

  9
$DIMALT
 70
     0
  9
$DIMALTD
 70
     2
  9
$DIMALTF
 40
25.399999999999999
  9
$DIMLFAC
 40
1.0
  9
$DIMTOFL
 70
     0
  9
$DIMTVP
 40
1.0
  9
$DIMTIX
 70
     0
  9
$DIMSOXD
 70
     0
  9
$DIMSAH
 70
     1
  9
$DIMBLK1
  1

  9
$DIMBLK2
  1

  9
$DIMSTYLE
  2
DIMSTYLE
  9
$DIMCLRD
 70
     0
  9
$DIMCLRE
 70
     0
  9
$DIMCLRT
 70
     0
  9
$DIMTFAC
 40
1.0
  9
$DIMGAP
 40
1.6000000000000001
  9
$LUNITS
 70
     2
  9
$LUPREC
 70
     4
  9
$SKETCHINC
 40
0.1
  9
$FILLETRAD
 40
0.0
  9
$AUNITS
 70
     0
  9
$AUPREC
 70
     0
  9
$MENU
  1
.
  9
$ELEVATION
 40
0.0
  9
$PELEVATION
 40
0.0
  9
$THICKNESS
 40
0.0
  9
$LIMCHECK
 70
     0
  9
$BLIPMODE
 70
     0
  9
$CHAMFERA
 40
0.0
  9
$CHAMFERB
 40
0.0
  9
$SKPOLY
 70
     0
  9
$TDCREATE
 40
2452809.6752949879
  9
$TDUPDATE
 40
2452809.6759656249
  9
$TDINDWG
 40
0.0006730787
  9
$TDUSRTIMER
 40
0.0006730787
  9
$USRTIMER
 70
     1
  9
$ANGBASE
 50
0.0
  9
$ANGDIR
 70
     0
  9
$PDMODE
 70
     0
  9
$PDSIZE
 40
0.0
  9
$PLINEWID
 40
0.0
  9
$COORDS
 70
     1
  9
$SPLFRAME
 70
     0
  9
$SPLINETYPE
 70
     6
  9
$SPLINESEGS
 70
     8
  9
$ATTDIA
 70
     0
  9
$ATTREQ
 70
     1
  9
$HANDLING
 70
 22529
  9
$HANDSEED
  5
1BE
  9
$SURFTAB1
 70
     6
  9
$SURFTAB2
 70
     6
  9
$SURFTYPE
 70
     6
  9
$SURFU
 70
     6
  9
$SURFV
 70
     6
  9
$UCSNAME
  2

  9
$UCSORG
 10
0.0
 20
0.0
 30
0.0
  9
$UCSXDIR
 10
1.0
 20
0.0
 30
0.0
  9
$UCSYDIR
 10
0.0
 20
1.0
 30
0.0
  9
$PUCSNAME
  2

  9
$PUCSORG
 10
0.0
 20
0.0
 30
0.0
  9
$PUCSXDIR
 10
1.0
 20
0.0
 30
0.0
  9
$PUCSYDIR
 10
0.0
 20
1.0
 30
0.0
  9
$USERI1
 70
     0
  9
$USERI2
 70
     0
  9
$USERI3
 70
     0
  9
$USERI4
 70
     0
  9
$USERI5
 70
     0
  9
$USERR1
 40
0.0
  9
$USERR2
 40
0.0
  9
$USERR3
 40
0.0
  9
$USERR4
 40
0.0
  9
$USERR5
 40
0.0
  9
$WORLDVIEW
 70
     1
  9
$SHADEDGE
 70
     3
  9
$SHADEDIF
 70
    70
  9
$TILEMODE
 70
     1
  9
$MAXACTVP
 70
    64
  9
$PLIMCHECK
 70
     0
  9
$PEXTMIN
 10
1.0000000000000000E+020
 20
1.0000000000000000E+020
 30
1.0000000000000000E+020
  9
$PEXTMAX
 10
-1.0000000000000000E+020
 20
-1.0000000000000000E+020
 30
-1.0000000000000000E+020
  9
$PLIMMIN
 10
-211.0
 20
-100.0
  9
$PLIMMAX
 10
170.0
 20
173.0
  9
$UNITMODE
 70
     0
  9
$VISRETAIN
 70
     1
  9
$PLINEGEN
 70
     0
  9
$PSLTSCALE
 70
     1
  0
ENDSEC
  0
SECTION
  2
TABLES
  0
TABLE
  2
VPORT
 70
     2
  0
VPORT
  2
*ACTIVE
 70
     0
 10
0.0
 20
0.0
 11
1.0
 21
1.0
 12
-147.65541780681579
 22
68.130041602654643
 13
0.0
 23
0.0
 14
1.0
 24
1.0
 15
0.0
 25
0.0
 16
0.0
 26
0.0
 36
1.0
 17
0.0
 27
0.0
 37
0.0
 40
102.46394813523079
 41
1.563081009296148
 42
50.0
 43
0.0
 44
0.0
 50
0.0
 51
0.0
 71
     0
 72
   100
 73
     1
 74
     1
 75
     0
 76
     0
 77
     0
 78
     0
  0
ENDTAB
  0
TABLE
  2
LTYPE
 70
     6
  0
LTYPE
  2
CONTINUOUS
 70
     0
  3
Solid line
 72
    65
 73
     0
 40
0.0
  0
LTYPE
  2
DASHED
 70
     0
  3
__ __ __ __ __ __ __ __ __ __ __ __ __ __ __
 72
    65
 73
     2
 40
3.5
 49
2.0
 49
-1.5
  0
LTYPE
  2
CENTER
 70
     0
  3
____ _ ____ _ ____ _ ____ _ ____ _ ____ _ ____
 72
    65
 73
     4
 40
17.5
 49
13.0
 49
-1.5
 49
1.5
 49
-1.5
  0
LTYPE
  2
PHANTOM
 70
     0
  3
_____ _ _ _____ _ _ _____ _ _ _____ _ _ ____  
 72
    65
 73
     6
 40
15.5
 49
8.0
 49
-1.5
 49
1.5
 49
-1.5
 49
1.5
 49
-1.5
  0
LTYPE
  2
DOT
 70
     0
  3
. . . . . . . . . . . . . . . . . . . . . . . .
 72
    65
 73
     2
 40
0.25
 49
0.0
 49
-0.25
  0
LTYPE
  2
HIDDEN
 70
     0
  3
__ __ __ __ __ __ __ __ __ __ __ __ __ __ __
 72
    65
 73
     2
 40
3.5
 49
2.0
 49
-1.5
  0
ENDTAB
  0
TABLE
  2
LAYER
 70
     4
  0
LAYER
  2
0
 70
     0
 62
     7
  6
CONTINUOUS
  0
LAYER
  2
1
 70
     0
 62
     7
  6
CONTINUOUS
  0
LAYER
  2
2
 70
     0
 62
     7
  6
CONTINUOUS
  0
LAYER
  2
DEFPOINTS
 70
     0
 62
     7
  6
CONTINUOUS
  0
ENDTAB
  0
TABLE
  2
STYLE
 70
     1
  0
STYLE
  2
STANDARD
 70
     0
 40
0.0
 41
1.0
 50
0.0
 71
     0
 42
0.2
  3
txt
  4
BIGFONT
  0
ENDTAB
  0
TABLE
  2
VIEW
 70
     0
  0
ENDTAB
  0
TABLE
  2
UCS
 70
     0
  0
ENDTAB
  0
TABLE
  2
APPID
 70
     1
  0
APPID
  2
ACAD
 70
     0
  0
ENDTAB
  0
TABLE
  2
DIMSTYLE
 70
     1
  0
DIMSTYLE
  2
DIMSTYLE
 70
     0
  3

  4

  5

  6

  7

 40
1.0
 41
1.0
 42
2.54
 43
0.38
 44
2.54
 45
0.0
 46
0.0
 47
0.0
 48
0.0
140
3.2000000000000002
141
0.09
142
0.0
143
25.399999999999999
144
1.0
145
0.0
146
1.0
147
1.6000000000000001
 71
     0
 72
     0
 73
     0
 74
     0
 75
     0
 76
     0
 77
     0
 78
     0
170
     0
171
     2
172
     0
173
     1
174
     0
175
     0
176
     0
177
     0
178
     0
  0
ENDTAB
  0
ENDSEC
  0
SECTION
  2
BLOCKS
  0
BLOCK
  8
0
  2
$MODEL_SPACE
 70
     0
 10
0.0
 20
0.0
 30
0.0
  3
$MODEL_SPACE
  1

  0
ENDBLK
  5
20
  8
0
  0
BLOCK
 67
     1
  8
0
  2
$PAPER_SPACE
 70
     0
 10
0.0
 20
0.0
 30
0.0
  3
$PAPER_SPACE
  1

  0
ENDBLK
  5
1C
 67
     1
  8
0
  0
BLOCK
  8
0
  2
_DOT
 70
     0
 10
0.0
 20
0.0
 30
0.0
  3
_DOT
  1

  0
POLYLINE
  5
30
  8
0
  6
BYBLOCK
 62
     0
 66
     1
 10
0.0
 20
0.0
 30
0.0
 70
     1
 40
0.4000000100000001
 41
0.4000000100000001
  0
VERTEX
  5
1BB
  8
0
  6
BYBLOCK
 62
     0
 10
-0.2
 20
0.0
 30
0.0
 42
1.0
  0
VERTEX
  5
1BC
  8
0
  6
BYBLOCK
 62
     0
 10
0.2
 20
0.0
 30
0.0
 42
1.0
  0
SEQEND
  5
1BD
  8
0
  6
BYBLOCK
 62
     0
  0
LINE
  5
34
  8
0
  6
BYBLOCK
 62
     0
 10
-0.4000000100000001
 20
0.0
 30
0.0
 11
-3.0
 21
0.0
 31
0.0
  0
ENDBLK
  5
35
  8
0
  0
BLOCK
  8
0
  2
*D1
 70
     1
 10
0.0
 20
0.0
 30
0.0
  3
*D1
  1

  0
LINE
  5
38
  8
0
  6
CONTINUOUS
 62
     7
 10
95.121131999999989
 20
41.057837999999997
 30
0.0
 11
95.121131999999989
 21
-8.9421605999999993
 31
0.0
  0
INSERT
  5
39
  8
0
  6
CONTINUOUS
 62
     7
  2
_DOT
 10
95.121131999999989
 20
41.057837999999997
 30
0.0
 50
90.0
  0
INSERT
  5
3A
  8
0
  6
CONTINUOUS
 62
     7
  2
_DOT
 10
95.121131999999989
 20
-8.9421605999999993
 30
0.0
 50
270.0
  0
LINE
  5
3B
  8
0
  6
CONTINUOUS
 62
     7
 10
71.661131999999995
 20
41.057837999999997
 30
0.0
 11
96.321135999999996
 21
41.057837999999997
 31
0.0
  0
LINE
  5
3C
  8
0
  6
CONTINUOUS
 62
     7
 10
71.661131999999995
 20
-8.9421605999999993
 30
0.0
 11
96.321135999999996
 21
-8.9421605999999993
 31
0.0
  0
TEXT
  5
3D
  8
0
  6
CONTINUOUS
 62
     7
 10
94.321131999999992
 20
13.31484
 30
0.0
 40
3.2000000000000002
  1
50
 50
90.000003000000007
 41
1.102098199999999
  0
POINT
  5
3E
  8
DEFPOINTS
  6
CONTINUOUS
 62
     7
 10
69.121131999999989
 20
41.057837999999997
 30
0.0
  0
POINT
  5
3F
  8
DEFPOINTS
  6
CONTINUOUS
 62
     7
 10
69.121131999999989
 20
-8.9421605999999993
 30
0.0
  0
POINT
  5
40
  8
DEFPOINTS
  6
CONTINUOUS
 62
     7
 10
95.121131999999989
 20
-8.9421605999999993
 30
0.0
  0
ENDBLK
  5
41
  8
0
  0
BLOCK
  8
0
  2
*D2
 70
     1
 10
0.0
 20
0.0
 30
0.0
  3
*D2
  1

  0
LINE
  5
44
  8
0
  6
CONTINUOUS
 62
     7
 10
85.121131999999989
 20
41.057837999999997
 30
0.0
 11
85.121131999999989
 21
51.591702000000012
 31
0.0
  0
LINE
  5
45
  8
0
  6
CONTINUOUS
 62
     7
 10
85.121131999999989
 20
41.057837999999997
 30
0.0
 11
85.121131999999989
 21
35.557837999999997
 31
0.0
  0
INSERT
  5
46
  8
0
  6
CONTINUOUS
 62
     7
  2
_DOT
 10
85.121131999999989
 20
41.057837999999997
 30
0.0
 50
90.0
  0
INSERT
  5
47
  8
0
  6
CONTINUOUS
 62
     7
  2
_DOT
 10
85.121131999999989
 20
35.557837999999997
 30
0.0
 50
270.0
  0
LINE
  5
48
  8
0
  6
CONTINUOUS
 62
     7
 10
71.661131999999995
 20
41.057837999999997
 30
0.0
 11
86.321135999999996
 21
41.057837999999997
 31
0.0
  0
LINE
  5
49
  8
0
  6
CONTINUOUS
 62
     7
 10
72.161131999999995
 20
35.557837999999997
 30
0.0
 11
86.321135999999996
 21
35.557837999999997
 31
0.0
  0
TEXT
  5
4A
  8
0
  6
CONTINUOUS
 62
     7
 10
84.321131999999992
 20
42.905703000000003
 30
0.0
 40
3.2000000000000002
  1
5.5
 50
90.000003000000007
 41
1.3571874999999991
  0
POINT
  5
4B
  8
DEFPOINTS
  6
CONTINUOUS
 62
     7
 10
69.121131999999989
 20
41.057837999999997
 30
0.0
  0
POINT
  5
4C
  8
DEFPOINTS
  6
CONTINUOUS
 62
     7
 10
69.621131999999989
 20
35.557837999999997
 30
0.0
  0
POINT
  5
4D
  8
DEFPOINTS
  6
CONTINUOUS
 62
     7
 10
85.121131999999989
 20
35.557837999999997
 30
0.0
  0
ENDBLK
  5
4E
  8
0
  0
BLOCK
  8
0
  2
*D3
 70
     1
 10
0.0
 20
0.0
 30
0.0
  3
*D3
  1

  0
LINE
  5
51
  8
0
  6
CONTINUOUS
 62
     7
 10
85.121131999999989
 20
35.557837999999997
 30
0.0
 11
85.121131999999989
 21
16.057839999999992
 31
0.0
  0
INSERT
  5
52
  8
0
  6
CONTINUOUS
 62
     7
  2
_DOT
 10
85.121131999999989
 20
35.557837999999997
 30
0.0
 50
90.0
  0
INSERT
  5
53
  8
0
  6
CONTINUOUS
 62
     7
  2
_DOT
 10
85.121131999999989
 20
16.057839999999992
 30
0.0
 50
270.0
  0
LINE
  5
54
  8
0
  6
CONTINUOUS
 62
     7
 10
77.661131999999995
 20
16.057839999999992
 30
0.0
 11
86.321135999999996
 21
16.057839999999992
 31
0.0
  0
TEXT
  5
55
  8
0
  6
CONTINUOUS
 62
     7
 10
84.321131999999992
 20
19.864840000000001
 30
0.0
 40
3.2000000000000002
  1
19.5
 50
90.000003000000007
 41
1.3928906000000001
  0
POINT
  5
56
  8
DEFPOINTS
  6
CONTINUOUS
 62
     7
 10
69.621131999999989
 20
35.557837999999997
 30
0.0
  0
POINT
  5
57
  8
DEFPOINTS
  6
CONTINUOUS
 62
     7
 10
75.121131999999989
 20
16.057839999999992
 30
0.0
  0
POINT
  5
58
  8
DEFPOINTS
  6
CONTINUOUS
 62
     7
 10
85.121131999999989
 20
16.057839999999992
 30
0.0
  0
ENDBLK
  5
59
  8
0
  0
BLOCK
  8
0
  2
*D4
 70
     1
 10
0.0
 20
0.0
 30
0.0
  3
*D4
  1

  0
LINE
  5
5C
  8
0
  6
CONTINUOUS
 62
     7
 10
85.121131999999989
 20
16.057839999999992
 30
0.0
 11
85.121131999999989
 21
-3.4421604000000001
 31
0.0
  0
INSERT
  5
5D
  8
0
  6
CONTINUOUS
 62
     7
  2
_DOT
 10
85.121131999999989
 20
16.057839999999992
 30
0.0
 50
90.0
  0
INSERT
  5
5E
  8
0
  6
CONTINUOUS
 62
     7
  2
_DOT
 10
85.121131999999989
 20
-3.4421604000000001
 30
0.0
 50
270.0
  0
LINE
  5
5F
  8
0
  6
CONTINUOUS
 62
     7
 10
72.161131999999995
 20
-3.4421604000000001
 30
0.0
 11
86.321135999999996
 21
-3.4421604000000001
 31
0.0
  0
TEXT
  5
60
  8
0
  6
CONTINUOUS
 62
     7
 10
84.321131999999992
 20
0.36483985
 30
0.0
 40
3.2000000000000002
  1
19.5
 50
90.000003000000007
 41
1.3928906000000001
  0
POINT
  5
61
  8
DEFPOINTS
  6
CONTINUOUS
 62
     7
 10
75.121131999999989
 20
16.057839999999992
 30
0.0
  0
POINT
  5
62
  8
DEFPOINTS
  6
CONTINUOUS
 62
     7
 10
69.621131999999989
 20
-3.4421604000000001
 30
0.0
  0
POINT
  5
63
  8
DEFPOINTS
  6
CONTINUOUS
 62
     7
 10
85.121131999999989
 20
-3.4421604000000001
 30
0.0
  0
ENDBLK
  5
64
  8
0
  0
BLOCK
  8
0
  2
*D5
 70
     1
 10
0.0
 20
0.0
 30
0.0
  3
*D5
  1

  0
LINE
  5
67
  8
0
  6
CONTINUOUS
 62
     7
 10
85.121131999999989
 20
-8.9421605999999993
 30
0.0
 11
85.121131999999989
 21
-19.99759899999999
 31
0.0
  0
LINE
  5
68
  8
0
  6
CONTINUOUS
 62
     7
 10
85.121131999999989
 20
-3.4421604000000001
 30
0.0
 11
85.121131999999989
 21
-8.9421605999999993
 31
0.0
  0
INSERT
  5
69
  8
0
  6
CONTINUOUS
 62
     7
  2
_DOT
 10
85.121131999999989
 20
-3.4421604000000001
 30
0.0
 50
90.0
  0
INSERT
  5
6A
  8
0
  6
CONTINUOUS
 62
     7
  2
_DOT
 10
85.121131999999989
 20
-8.9421605999999993
 30
0.0
 50
270.0
  0
LINE
  5
6B
  8
0
  6
CONTINUOUS
 62
     7
 10
71.661131999999995
 20
-8.9421605999999993
 30
0.0
 11
86.321135999999996
 21
-8.9421605999999993
 31
0.0
  0
TEXT
  5
6C
  8
0
  6
CONTINUOUS
 62
     7
 10
84.321131999999992
 20
-19.99759899999999
 30
0.0
 40
3.2000000000000002
  1
5.5
 50
90.000003000000007
 41
1.3571874999999991
  0
POINT
  5
6D
  8
DEFPOINTS
  6
CONTINUOUS
 62
     7
 10
69.621131999999989
 20
-3.4421604000000001
 30
0.0
  0
POINT
  5
6E
  8
DEFPOINTS
  6
CONTINUOUS
 62
     7
 10
69.121131999999989
 20
-8.9421605999999993
 30
0.0
  0
POINT
  5
6F
  8
DEFPOINTS
  6
CONTINUOUS
 62
     7
 10
85.121131999999989
 20
-8.9421605999999993
 30
0.0
  0
ENDBLK
  5
70
  8
0
  0
BLOCK
  8
0
  2
*D6
 70
     1
 10
0.0
 20
0.0
 30
0.0
  3
*D6
  1

  0
LINE
  5
73
  8
0
  6
CONTINUOUS
 62
     7
 10
70.121131999999989
 20
-33.942161999999989
 30
0.0
 11
60.121136
 21
-33.942161999999989
 31
0.0
  0
INSERT
  5
74
  8
0
  6
CONTINUOUS
 62
     7
  2
_DOT
 10
70.121131999999989
 20
-33.942161999999989
 30
0.0
  0
INSERT
  5
75
  8
0
  6
CONTINUOUS
 62
     7
  2
_DOT
 10
60.121136
 20
-33.942161999999989
 30
0.0
 50
180.0
  0
LINE
  5
76
  8
0
  6
CONTINUOUS
 62
     7
 10
70.121131999999989
 20
-10.48216
 30
0.0
 11
70.121131999999989
 21
-35.142158999999992
 31
0.0
  0
LINE
  5
77
  8
0
  6
CONTINUOUS
 62
     7
 10
60.121136
 20
-16.482160999999991
 30
0.0
 11
60.121136
 21
-35.142158999999992
 31
0.0
  0
TEXT
  5
78
  8
0
  6
CONTINUOUS
 62
     7
 10
62.378131999999987
 20
-33.142161999999999
 30
0.0
 40
3.2000000000000002
  1
10
 41
1.402670399999999
  0
POINT
  5
79
  8
DEFPOINTS
  6
CONTINUOUS
 62
     7
 10
70.121131999999989
 20
-7.9421600999999988
 30
0.0
  0
POINT
  5
7A
  8
DEFPOINTS
  6
CONTINUOUS
 62
     7
 10
60.121136
 20
-13.94216099999999
 30
0.0
  0
POINT
  5
7B
  8
DEFPOINTS
  6
CONTINUOUS
 62
     7
 10
60.121136
 20
-33.942161999999989
 30
0.0
  0
ENDBLK
  5
7C
  8
0
  0
BLOCK
  8
0
  2
*D7
 70
     1
 10
0.0
 20
0.0
 30
0.0
  3
*D7
  1

  0
LINE
  5
7F
  8
0
  6
CONTINUOUS
 62
     7
 10
60.121136
 20
-33.942161999999989
 30
0.0
 11
35.121136
 21
-33.942161999999989
 31
0.0
  0
INSERT
  5
80
  8
0
  6
CONTINUOUS
 62
     7
  2
_DOT
 10
60.121136
 20
-33.942161999999989
 30
0.0
  0
INSERT
  5
81
  8
0
  6
CONTINUOUS
 62
     7
  2
_DOT
 10
35.121136
 20
-33.942161999999989
 30
0.0
 50
180.0
  0
LINE
  5
82
  8
0
  6
CONTINUOUS
 62
     7
 10
35.121136
 20
13.51784
 30
0.0
 11
35.121136
 21
-35.142158999999992
 31
0.0
  0
TEXT
  5
83
  8
0
  6
CONTINUOUS
 62
     7
 10
44.878135999999991
 20
-33.142161999999999
 30
0.0
 40
3.2000000000000002
  1
25
 41
1.028624999999999
  0
POINT
  5
84
  8
DEFPOINTS
  6
CONTINUOUS
 62
     7
 10
60.121136
 20
-13.94216099999999
 30
0.0
  0
POINT
  5
85
  8
DEFPOINTS
  6
CONTINUOUS
 62
     7
 10
35.121136
 20
16.057839999999992
 30
0.0
  0
POINT
  5
86
  8
DEFPOINTS
  6
CONTINUOUS
 62
     7
 10
35.121136
 20
-33.942161999999989
 30
0.0
  0
ENDBLK
  5
87
  8
0
  0
BLOCK
  8
0
  2
*D8
 70
     1
 10
0.0
 20
0.0
 30
0.0
  3
*D8
  1

  0
LINE
  5
8A
  8
0
  6
CONTINUOUS
 62
     7
 10
35.121136
 20
-23.942160000000001
 30
0.0
 11
41.121135999999993
 21
-23.942160000000001
 31
0.0
  0
INSERT
  5
8B
  8
0
  6
CONTINUOUS
 62
     7
  2
_DOT
 10
35.121136
 20
-23.942160000000001
 30
0.0
 50
180.0
  0
INSERT
  5
8C
  8
0
  6
CONTINUOUS
 62
     7
  2
_DOT
 10
41.121135999999993
 20
-23.942160000000001
 30
0.0
  0
LINE
  5
8D
  8
0
  6
CONTINUOUS
 62
     7
 10
35.121136
 20
13.51784
 30
0.0
 11
35.121136
 21
-25.142160000000001
 31
0.0
  0
LINE
  5
8E
  8
0
  6
CONTINUOUS
 62
     7
 10
41.121135999999993
 20
10.51783899999999
 30
0.0
 11
41.121135999999993
 21
-25.142160000000001
 31
0.0
  0
TEXT
  5
8F
  8
0
  6
CONTINUOUS
 62
     7
 10
36.978135999999992
 20
-23.142160000000001
 30
0.0
 40
3.2000000000000002
  1
6
  0
POINT
  5
90
  8
DEFPOINTS
  6
CONTINUOUS
 62
     7
 10
35.121136
 20
16.057839999999992
 30
0.0
  0
POINT
  5
91
  8
DEFPOINTS
  6
CONTINUOUS
 62
     7
 10
41.121135999999993
 20
13.057838999999991
 30
0.0
  0
POINT
  5
92
  8
DEFPOINTS
  6
CONTINUOUS
 62
     7
 10
41.121135999999993
 20
-23.942160000000001
 30
0.0
  0
ENDBLK
  5
93
  8
0
  0
BLOCK
  8
0
  2
*D9
 70
     1
 10
0.0
 20
0.0
 30
0.0
  3
*D9
  1

  0
LINE
  5
96
  8
0
  6
CONTINUOUS
 62
     7
 10
95.121131999999989
 20
103.05784
 30
0.0
 11
95.121131999999989
 21
96.057838000000004
 31
0.0
  0
INSERT
  5
97
  8
0
  6
CONTINUOUS
 62
     7
  2
_DOT
 10
95.121131999999989
 20
103.05784
 30
0.0
 50
90.0
  0
INSERT
  5
98
  8
0
  6
CONTINUOUS
 62
     7
  2
_DOT
 10
95.121131999999989
 20
96.057838000000004
 30
0.0
 50
270.0
  0
LINE
  5
99
  8
0
  6
CONTINUOUS
 62
     7
 10
48.661135999999999
 20
103.05784
 30
0.0
 11
96.321135999999996
 21
103.05784
 31
0.0
  0
LINE
  5
9A
  8
0
  6
CONTINUOUS
 62
     7
 10
72.661131999999995
 20
96.057838000000004
 30
0.0
 11
96.321135999999996
 21
96.057838000000004
 31
0.0
  0
TEXT
  5
9B
  8
0
  6
CONTINUOUS
 62
     7
 10
94.321131999999992
 20
98.414838000000003
 30
0.0
 40
3.2000000000000002
  1
7
 50
90.000003000000007
  0
POINT
  5
9C
  8
DEFPOINTS
  6
CONTINUOUS
 62
     7
 10
46.121135999999993
 20
103.05784
 30
0.0
  0
POINT
  5
9D
  8
DEFPOINTS
  6
CONTINUOUS
 62
     7
 10
70.121131999999989
 20
96.057838000000004
 30
0.0
  0
POINT
  5
9E
  8
DEFPOINTS
  6
CONTINUOUS
 62
     7
 10
95.121131999999989
 20
96.057838000000004
 30
0.0
  0
ENDBLK
  5
9F
  8
0
  0
BLOCK
  8
0
  2
*D10
 70
     1
 10
0.0
 20
0.0
 30
0.0
  3
*D10
  1

  0
LINE
  5
A2
  8
0
  6
CONTINUOUS
 62
     7
 10
85.121131999999989
 20
96.057838000000004
 30
0.0
 11
85.121131999999989
 21
84.642493999999985
 31
0.0
  0
LINE
  5
A3
  8
0
  6
CONTINUOUS
 62
     7
 10
85.121131999999989
 20
97.257835
 30
0.0
 11
85.121131999999989
 21
96.057838000000004
 31
0.0
  0
INSERT
  5
A4
  8
0
  6
CONTINUOUS
 62
     7
  2
_DOT
 10
85.121131999999989
 20
97.257835
 30
0.0
 50
90.0
  0
INSERT
  5
A5
  8
0
  6
CONTINUOUS
 62
     7
  2
_DOT
 10
85.121131999999989
 20
96.057838000000004
 30
0.0
 50
270.0
  0
LINE
  5
A6
  8
0
  6
CONTINUOUS
 62
     7
 10
72.661131999999995
 20
97.257835
 30
0.0
 11
86.321135999999996
 21
97.257835
 31
0.0
  0
LINE
  5
A7
  8
0
  6
CONTINUOUS
 62
     7
 10
72.661131999999995
 20
96.057838000000004
 30
0.0
 11
86.321135999999996
 21
96.057838000000004
 31
0.0
  0
TEXT
  5
A8
  8
0
  6
CONTINUOUS
 62
     7
 10
84.321131999999992
 20
84.642488999999983
 30
0.0
 40
3.2000000000000002
  1
1.2
 50
90.000003000000007
 41
1.6286249999999991
  0
POINT
  5
A9
  8
DEFPOINTS
  6
CONTINUOUS
 62
     7
 10
70.121131999999989
 20
97.257835
 30
0.0
  0
POINT
  5
AA
  8
DEFPOINTS
  6
CONTINUOUS
 62
     7
 10
70.121131999999989
 20
96.057838000000004
 30
0.0
  0
POINT
  5
AB
  8
DEFPOINTS
  6
CONTINUOUS
 62
     7
 10
85.121131999999989
 20
96.057838000000004
 30
0.0
  0
ENDBLK
  5
AC
  8
0
  0
BLOCK
  8
0
  2
*D11
 70
     1
 10
0.0
 20
0.0
 30
0.0
  3
*D11
  1

  0
LINE
  5
AF
  8
0
  6
CONTINUOUS
 62
     7
 10
70.121131999999989
 20
81.057838000000004
 30
0.0
 11
47.121136
 21
81.057838000000004
 31
0.0
  0
INSERT
  5
B0
  8
0
  6
CONTINUOUS
 62
     7
  2
_DOT
 10
70.121131999999989
 20
81.057838000000004
 30
0.0
  0
INSERT
  5
B1
  8
0
  6
CONTINUOUS
 62
     7
  2
_DOT
 10
47.121136
 20
81.057838000000004
 30
0.0
 50
180.0
  0
LINE
  5
B2
  8
0
  6
CONTINUOUS
 62
     7
 10
70.121131999999989
 20
93.517838999999995
 30
0.0
 11
70.121131999999989
 21
79.857840999999993
 31
0.0
  0
LINE
  5
B3
  8
0
  6
CONTINUOUS
 62
     7
 10
47.121136
 20
94.717834999999994
 30
0.0
 11
47.121136
 21
79.857840999999993
 31
0.0
  0
TEXT
  5
B4
  8
0
  6
CONTINUOUS
 62
     7
 10
55.878135999999998
 20
81.857838000000015
 30
0.0
 40
3.2000000000000002
  1
23
 41
1.028624999999999
  0
POINT
  5
B5
  8
DEFPOINTS
  6
CONTINUOUS
 62
     7
 10
70.121131999999989
 20
96.057838000000004
 30
0.0
  0
POINT
  5
B6
  8
DEFPOINTS
  6
CONTINUOUS
 62
     7
 10
47.121136
 20
97.257835
 30
0.0
  0
POINT
  5
B7
  8
DEFPOINTS
  6
CONTINUOUS
 62
     7
 10
47.121136
 20
81.057838000000004
 30
0.0
  0
ENDBLK
  5
B8
  8
0
  0
BLOCK
  8
0
  2
*D12
 70
     1
 10
0.0
 20
0.0
 30
0.0
  3
*D12
  1

  0
LINE
  5
BB
  8
0
  6
CONTINUOUS
 62
     7
 10
23.488354000000001
 20
19.557839999999992
 30
0.0
 11
23.488354000000001
 21
12.557838999999991
 31
0.0
  0
INSERT
  5
BC
  8
0
  6
CONTINUOUS
 62
     7
  2
_DOT
 10
23.488354000000001
 20
19.557839999999992
 30
0.0
 50
90.0
  0
INSERT
  5
BD
  8
0
  6
CONTINUOUS
 62
     7
  2
_DOT
 10
23.488354000000001
 20
12.557838999999991
 30
0.0
 50
270.0
  0
LINE
  5
BE
  8
0
  6
CONTINUOUS
 62
     7
 10
33.009560999999998
 20
19.557839999999992
 30
0.0
 11
22.288354999999999
 21
19.557839999999992
 31
0.0
  0
LINE
  5
BF
  8
0
  6
CONTINUOUS
 62
     7
 10
33.009560999999998
 20
12.557838999999991
 30
0.0
 11
22.288354999999999
 21
12.557838999999991
 31
0.0
  0
TEXT
  5
C0
  8
0
  6
CONTINUOUS
 62
     7
 10
22.68835399999999
 20
14.914839999999989
 30
0.0
 40
3.2000000000000002
  1
7
 50
90.000003000000007
  0
POINT
  5
C1
  8
DEFPOINTS
  6
CONTINUOUS
 62
     7
 10
35.549560999999997
 20
19.557839999999992
 30
0.0
  0
POINT
  5
C2
  8
DEFPOINTS
  6
CONTINUOUS
 62
     7
 10
35.549560999999997
 20
12.557838999999991
 30
0.0
  0
POINT
  5
C3
  8
DEFPOINTS
  6
CONTINUOUS
 62
     7
 10
23.488354000000001
 20
12.557838999999991
 30
0.0
  0
ENDBLK
  5
C4
  8
0
  0
BLOCK
  8
0
  2
KOZU0001
 70
     0
 10
0.0
 20
0.0
 30
0.0
  3
KOZU0001
  1

  0
POINT
  5
C7
  8
0
  6
CONTINUOUS
 62
     7
 10
0.0
 20
0.0
 30
0.0
  0
LINE
  5
C8
  8
0
  6
CONTINUOUS
 62
     3
 10
-14.200001
 20
24.0
 30
0.0
 11
-14.200001
 21
-24.0
 31
0.0
  0
LINE
  5
C9
  8
0
  6
CONTINUOUS
 62
     3
 10
10.0
 20
24.0
 30
0.0
 11
10.0
 21
-24.0
 31
0.0
  0
LINE
  5
CA
  8
0
  6
CENTER
 62
     7
 10
-28.624168000000001
 20
0.0
 30
0.0
 11
13.955681
 21
0.0
 31
0.0
  0
LINE
  5
CB
  8
0
  6
CONTINUOUS
 62
     3
 10
-13.200001
 20
-25.0
 30
0.0
 11
9.0
 21
-25.0
 31
0.0
  0
LINE
  5
CC
  8
0
  6
CONTINUOUS
 62
     3
 10
-13.200001
 20
25.0
 30
0.0
 11
9.0
 21
25.0
 31
0.0
  0
LINE
  5
CD
  8
0
  6
CENTER
 62
     7
 10
5.0
 20
-15.0
 30
0.0
 11
5.0
 21
-24.0
 31
0.0
  0
LINE
  5
CE
  8
0
  6
CENTER
 62
     7
 10
-9.5
 20
19.5
 30
0.0
 11
9.5
 21
19.5
 31
0.0
  0
LINE
  5
CF
  8
0
  6
CENTER
 62
     7
 10
0.0
 20
27.180680999999989
 30
0.0
 11
0.0
 21
-27.366356
 31
0.0
  0
LINE
  5
D0
  8
0
  6
CENTER
 62
     7
 10
-5.0
 20
-15.0
 30
0.0
 11
-5.0
 21
-24.0
 31
0.0
  0
LINE
  5
D1
  8
0
  6
CONTINUOUS
 62
     3
 10
-5.0
 20
-17.0
 30
0.0
 11
5.0
 21
-17.0
 31
0.0
  0
LINE
  5
D2
  8
0
  6
CONTINUOUS
 62
     3
 10
-5.0
 20
-22.0
 30
0.0
 11
5.0
 21
-22.0
 31
0.0
  0
LINE
  5
D3
  8
0
  6
CENTER
 62
     7
 10
5.0
 20
24.0
 30
0.0
 11
5.0
 21
15.0
 31
0.0
  0
LINE
  5
D4
  8
0
  6
CENTER
 62
     7
 10
-5.0
 20
24.0
 30
0.0
 11
-5.0
 21
15.0
 31
0.0
  0
LINE
  5
D5
  8
0
  6
CONTINUOUS
 62
     3
 10
-5.0
 20
22.0
 30
0.0
 11
5.0
 21
22.0
 31
0.0
  0
LINE
  5
D6
  8
0
  6
CONTINUOUS
 62
     3
 10
-5.0
 20
17.0
 30
0.0
 11
5.0
 21
17.0
 31
0.0
  0
LINE
  5
D7
  8
0
  6
CENTER
 62
     7
 10
5.0
 20
4.5
 30
0.0
 11
5.0
 21
-4.5
 31
0.0
  0
LINE
  5
D8
  8
0
  6
CENTER
 62
     7
 10
-5.0
 20
4.5
 30
0.0
 11
-5.0
 21
-4.5
 31
0.0
  0
LINE
  5
D9
  8
0
  6
CONTINUOUS
 62
     3
 10
-5.0
 20
2.5
 30
0.0
 11
5.0
 21
2.5
 31
0.0
  0
LINE
  5
DA
  8
0
  6
CONTINUOUS
 62
     3
 10
-5.0
 20
-2.5
 30
0.0
 11
5.0
 21
-2.5
 31
0.0
  0
LINE
  5
DB
  8
0
  6
CENTER
 62
     7
 10
-9.5
 20
-19.5
 30
0.0
 11
9.5
 21
-19.5
 31
0.0
  0
LINE
  5
DC
  8
0
  6
CONTINUOUS
 62
     3
 10
-19.0
 20
3.0
 30
0.0
 11
-19.0
 21
-3.0
 31
0.0
  0
LINE
  5
DD
  8
0
  6
CONTINUOUS
 62
     3
 10
-24.571574999999999
 20
3.5
 30
0.0
 11
-19.5
 21
3.5
 31
0.0
  0
LINE
  5
DE
  8
0
  6
CONTINUOUS
 62
     3
 10
-24.571574999999999
 20
-3.5
 30
0.0
 11
-19.5
 21
-3.5
 31
0.0
  0
LINE
  5
DF
  8
0
  6
CONTINUOUS
 62
     3
 10
-96.5
 20
-18.0
 30
0.0
 11
-90.0
 21
-18.0
 31
0.0
  0
LINE
  5
E0
  8
0
  6
CONTINUOUS
 62
     3
 10
-14.200001
 20
18.0
 30
0.0
 11
-26.385981000000001
 21
4.398674999999999
 31
0.0
  0
LINE
  5
E1
  8
0
  6
CONTINUOUS
 62
     3
 10
-14.200001
 20
-18.000004000000001
 30
0.0
 11
-26.385981000000001
 21
-4.3986758999999997
 31
0.0
  0
LINE
  5
E2
  8
0
  6
CONTINUOUS
 62
     3
 10
-13.000000999999999
 20
81.199996999999996
 30
0.0
 11
10.0
 21
81.199996999999996
 31
0.0
  0
LINE
  5
E3
  8
0
  6
CONTINUOUS
 62
     3
 10
-14.200001
 20
85.800003000000004
 30
0.0
 11
-14.200001
 21
81.0
 31
0.0
  0
LINE
  5
E4
  8
0
  6
CONTINUOUS
 62
     3
 10
10.0
 20
81.199996999999996
 30
0.0
 11
10.0
 21
80.0
 31
0.0
  0
LINE
  5
E5
  8
0
  6
CONTINUOUS
 62
     3
 10
-13.200001
 20
80.0
 30
0.0
 11
10.0
 21
80.0
 31
0.0
  0
LINE
  5
E6
  8
0
  6
CONTINUOUS
 62
     3
 10
-13.000000999999999
 20
86.0
 30
0.0
 11
-13.000000999999999
 21
81.199996999999996
 31
0.0
  0
LINE
  5
E7
  8
0
  6
CONTINUOUS
 62
     3
 10
-19.0
 20
80.261031999999986
 30
0.0
 11
-19.0
 21
78.0
 31
0.0
  0
LINE
  5
E8
  8
0
  6
CONTINUOUS
 62
     3
 10
-24.99999
 20
81.684096999999994
 30
0.0
 11
-18.999988999999999
 21
80.261077999999998
 31
0.0
  0
LINE
  5
E9
  8
0
  6
CONTINUOUS
 62
     3
 10
-25.63278
 20
87.0
 30
0.0
 11
-14.000000999999999
 21
87.0
 31
0.0
  0
LINE
  5
EA
  8
0
  6
CONTINUOUS
 62
     3
 10
-25.75888599999999
 20
85.800003000000004
 30
0.0
 11
-14.200001
 21
85.800003000000004
 31
0.0
  0
LINE
  5
EB
  8
0
  6
CONTINUOUS
 62
     3
 10
-91.199996999999996
 20
25.0
 30
0.0
 11
-91.199996999999996
 21
18.0
 31
0.0
  0
LINE
  5
EC
  8
0
  6
CONTINUOUS
 62
     3
 10
-25.863538999999999
 20
79.627876000000001
 30
0.0
 11
-18.99999
 21
78.000053000000008
 31
0.0
  0
LINE
  5
ED
  8
0
  6
CONTINUOUS
 62
     3
 10
-25.75888599999999
 20
85.800003000000004
 30
0.0
 11
-25.75888599999999
 21
80.836287999999996
 31
0.0
  0
LINE
  5
EE
  8
0
  6
CONTINUOUS
 62
     3
 10
-90.0
 20
25.0
 30
0.0
 11
-90.0
 21
3.9737010000000001
 31
0.0
  0
LINE
  5
EF
  8
0
  6
CONTINUOUS
 62
     3
 10
-95.800003000000004
 20
18.0
 30
0.0
 11
-95.800003000000004
 21
4.8895229999999996
 31
0.0
  0
LINE
  5
F0
  8
0
  6
CONTINUOUS
 62
     3
 10
-25.758879
 20
80.836342000000002
 30
0.0
 11
-18.99999
 21
79.233337000000006
 31
0.0
  0
LINE
  5
F1
  8
0
  6
CONTINUOUS
 62
     3
 10
-97.0
 20
17.5
 30
0.0
 11
-97.0
 21
-17.5
 31
0.0
  0
LINE
  5
F2
  8
0
  6
CONTINUOUS
 62
     3
 10
-25.0
 20
85.800003000000004
 30
0.0
 11
-25.0
 21
81.684051999999994
 31
0.0
  0
LINE
  5
F3
  8
0
  6
CONTINUOUS
 62
     3
 10
-26.63278
 20
86.0
 30
0.0
 11
-26.63278
 21
80.600830000000002
 31
0.0
  0
LINE
  5
F4
  8
0
  6
CENTER
 62
     7
 10
-98.835602000000009
 20
0.0
 30
0.0
 11
-86.110123000000002
 21
0.0
 31
0.0
  0
LINE
  5
F5
  8
0
  6
CONTINUOUS
 62
     3
 10
-91.199996999999996
 20
-25.0
 30
0.0
 11
-90.0
 21
-25.0
 31
0.0
  0
LINE
  5
F6
  8
0
  6
CONTINUOUS
 62
     3
 10
-25.758869000000001
 20
80.836281
 30
0.0
 11
-24.999980999999998
 21
81.684035999999992
 31
0.0
  0
LINE
  5
F7
  8
0
  6
CONTINUOUS
 62
     3
 10
-91.199996999999996
 20
25.0
 30
0.0
 11
-90.0
 21
25.0
 31
0.0
  0
LINE
  5
F8
  8
0
  6
CONTINUOUS
 62
     3
 10
-96.5
 20
18.0
 30
0.0
 11
-90.0
 21
18.0
 31
0.0
  0
LINE
  5
F9
  8
0
  6
CONTINUOUS
 62
     3
 10
-96.155959999999993
 20
-4.945728299999999
 30
0.0
 11
-88.844040000000007
 21
-3.6332729000000001
 31
0.0
  0
LINE
  5
FA
  8
0
  6
CONTINUOUS
 62
     3
 10
-95.800003000000004
 20
-4.8895225999999994
 30
0.0
 11
-95.800003000000004
 21
-18.0
 31
0.0
  0
LINE
  5
FB
  8
0
  6
CONTINUOUS
 62
     3
 10
-96.155968000000001
 20
4.9457297000000002
 30
0.0
 11
-88.844040000000007
 21
3.6332726000000002
 31
0.0
  0
LINE
  5
FC
  8
0
  6
CONTINUOUS
 62
     3
 10
-91.199996999999996
 20
-18.0
 30
0.0
 11
-91.199996999999996
 21
-25.0
 31
0.0
  0
LINE
  5
FD
  8
0
  6
CONTINUOUS
 62
     3
 10
-90.0
 20
-3.9737007999999991
 30
0.0
 11
-90.0
 21
-25.0
 31
0.0
  0
LINE
  5
FE
  8
0
  6
CONTINUOUS
 62
     3
 10
-88.0
 20
2.6455109000000001
 30
0.0
 11
-88.0
 21
-2.6455109000000001
 31
0.0
  0
ARC
  5
FF
  8
0
  6
CONTINUOUS
 62
     3
 10
5.0
 20
-19.5
 30
0.0
 40
2.5
 50
270.00002000000001
 51
89.999977999999999
  0
ARC
  5
100
  8
0
  6
CONTINUOUS
 62
     3
 10
-13.200001
 20
-24.0
 30
0.0
 40
1.0
 50
180.0
 51
270.00004999999987
  0
ARC
  5
101
  8
0
  6
CONTINUOUS
 62
     3
 10
9.0
 20
24.0
 30
0.0
 40
1.0
 50
0.0
 51
90.0
  0
ARC
  5
102
  8
0
  6
CONTINUOUS
 62
     3
 10
-13.200001
 20
24.0
 30
0.0
 40
1.0
 50
90.0
 51
180.0
  0
ARC
  5
103
  8
0
  6
CONTINUOUS
 62
     3
 10
9.0
 20
-24.0
 30
0.0
 40
1.0
 50
270.0
 51
0.0
  0
ARC
  5
104
  8
0
  6
CONTINUOUS
 62
     3
 10
-5.0
 20
-19.5
 30
0.0
 40
2.5
 50
89.999977999999999
 51
270.0
  0
ARC
  5
105
  8
0
  6
CONTINUOUS
 62
     3
 10
-5.0
 20
19.5
 30
0.0
 40
2.5
 50
89.999977999999999
 51
270.0
  0
ARC
  5
106
  8
0
  6
CONTINUOUS
 62
     3
 10
5.0
 20
19.5
 30
0.0
 40
2.5
 50
270.00002000000001
 51
89.999977999999999
  0
ARC
  5
107
  8
0
  6
CONTINUOUS
 62
     3
 10
-5.0
 20
0.0
 30
0.0
 40
2.5
 50
89.999977999999999
 51
270.0
  0
ARC
  5
108
  8
0
  6
CONTINUOUS
 62
     3
 10
5.0
 20
0.0
 30
0.0
 40
2.5
 50
270.00002000000001
 51
89.999977999999999
  0
ARC
  5
109
  8
0
  6
CONTINUOUS
 62
     3
 10
-42.0
 20
0.0
 30
0.0
 40
17.0
 50
342.61655999999999
 51
345.52249
  0
ARC
  5
10A
  8
0
  6
CONTINUOUS
 62
     3
 10
-19.5
 20
-3.0
 30
0.0
 40
0.5
 50
270.0
 51
0.0
  0
ARC
  5
10B
  8
0
  6
CONTINUOUS
 62
     3
 10
-41.200001
 20
0.0
 30
0.0
 40
15.0
 50
346.64341000000002
 51
13.486212
  0
ARC
  5
10C
  8
0
  6
CONTINUOUS
 62
     3
 10
-19.5
 20
3.0
 30
0.0
 40
0.5
 50
0.0
 51
90.0
  0
ARC
  5
10D
  8
0
  6
CONTINUOUS
 62
     3
 10
-42.0
 20
0.0
 30
0.0
 40
17.0
 50
14.477513999999999
 51
17.184242000000001
  0
ARC
  5
10E
  8
0
  6
DASHED
 62
     3
 10
-42.0
 20
0.0
 30
0.0
 40
17.0
 50
348.11883999999992
 51
14.477513999999999
  0
ARC
  5
10F
  8
0
  6
CONTINUOUS
 62
     3
 10
-24.571574999999999
 20
-4.5
 30
0.0
 40
1.0
 50
90.0
 51
165.5225199999999
  0
ARC
  5
110
  8
0
  6
CONTINUOUS
 62
     3
 10
-24.571574999999999
 20
4.5
 30
0.0
 40
1.0
 50
194.47748000000001
 51
270.0
  0
ARC
  5
111
  8
0
  6
CONTINUOUS
 62
     3
 10
-25.63278
 20
86.0
 30
0.0
 40
1.0
 50
90.0
 51
180.0
  0
ARC
  5
112
  8
0
  6
CONTINUOUS
 62
     3
 10
-14.000000999999999
 20
86.0
 30
0.0
 40
1.0
 50
0.0
 51
90.0
  0
ARC
  5
113
  8
0
  6
CONTINUOUS
 62
     3
 10
-13.200001
 20
81.0
 30
0.0
 40
1.0
 50
180.0
 51
270.00004999999987
  0
ARC
  5
114
  8
0
  6
CONTINUOUS
 62
     3
 10
-25.63278
 20
80.600830000000002
 30
0.0
 40
1.0
 50
180.0
 51
256.65767999999991
  0
ARC
  5
115
  8
0
  6
CONTINUOUS
 62
     3
 10
-25.641182000000001
 20
3.7313817
 30
0.0
 40
1.0
 50
138.14160000000001
 51
193.48618999999991
  0
ARC
  5
116
  8
0
  6
CONTINUOUS
 62
     3
 10
-25.641182000000001
 20
-3.7313817
 30
0.0
 40
1.0
 50
166.5137399999999
 51
221.85836
  0
ARC
  5
117
  8
0
  6
CONTINUOUS
 62
     3
 10
-89.0
 20
-2.6455109000000001
 30
0.0
 40
1.0
 50
278.97291999999999
 51
359.99995000000001
  0
ARC
  5
118
  8
0
  6
CONTINUOUS
 62
     3
 10
-96.0
 20
5.9334927000000004
 30
0.0
 40
1.0
 50
179.99996999999991
 51
261.02706999999998
  0
ARC
  5
119
  8
0
  6
CONTINUOUS
 62
     3
 10
-96.5
 20
-17.5
 30
0.0
 40
0.5
 50
180.0
 51
270.0
  0
ARC
  5
11A
  8
0
  6
CONTINUOUS
 62
     3
 10
-96.5
 20
17.5
 30
0.0
 40
0.5
 50
90.0
 51
180.0
  0
ARC
  5
11B
  8
0
  6
CONTINUOUS
 62
     3
 10
-89.0
 20
2.6455109000000001
 30
0.0
 40
1.0
 50
0.0
 51
81.027075999999994
  0
ARC
  5
11C
  8
0
  6
CONTINUOUS
 62
     3
 10
-96.0
 20
-5.9334927000000004
 30
0.0
 40
1.0
 50
98.972922000000025
 51
179.99996999999991
  0
ARC
  5
11D
  8
0
  6
DASHED
 62
     3
 10
-71.0
 20
0.0
 30
0.0
 40
19.0
 50
168.5966699999999
 51
191.4033
  0
ENDBLK
  5
11E
  8
0
  0
BLOCK
  8
0
  2
KOZU0002
 70
     0
 10
0.0
 20
0.0
 30
0.0
  3
KOZU0002
  1

  0
LINE
  5
121
  8
0
  6
CONTINUOUS
 62
     7
 10
0.0
 20
0.0
 30
0.0
 11
-9.7347412000000002
 21
14.092677999999999
 31
0.0
  0
LINE
  5
122
  8
0
  6
CONTINUOUS
 62
     7
 10
-9.7347412000000002
 20
14.092677999999999
 30
0.0
 11
-49.528894000000001
 21
14.092677999999999
 31
0.0
  0
LINE
  5
123
  8
0
  6
CONTINUOUS
 62
     7
 10
0.0
 20
0.0
 30
0.0
 11
-2.2402107999999989
 21
2.2542588999999991
 31
0.0
  0
LINE
  5
124
  8
0
  6
CONTINUOUS
 62
     7
 10
0.0
 20
0.0
 30
0.0
 11
-1.315399999999999
 21
2.8930866999999991
 31
0.0
  0
TEXT
  5
125
  8
0
  6
CONTINUOUS
 62
     7
 10
-48.614893999999993
 20
14.892678
 30
0.0
 40
3.2000000000000002
  1
３－%%C５×１５スロット
 41
0.8440946700000001
  0
ENDBLK
  5
126
  8
0
  0
ENDSEC
  0
SECTION
  2
ENTITIES
  0
POINT
  5
127
  8
0
  6
CONTINUOUS
 62
     7
 10
60.121136
 20
35.557837999999997
 30
0.0
  0
LINE
  5
128
  8
0
  6
CONTINUOUS
 62
     7
 10
170.0
 20
173.0
 30
0.0
 11
170.0
 21
-100.0
 31
0.0
  0
LINE
  5
129
  8
0
  6
CONTINUOUS
 62
     7
 10
-211.0
 20
-100.0
 30
0.0
 11
170.0
 21
-100.0
 31
0.0
  0
LINE
  5
12A
  8
0
  6
CONTINUOUS
 62
     7
 10
-211.0
 20
173.0
 30
0.0
 11
170.0
 21
173.0
 31
0.0
  0
LINE
  5
12B
  8
0
  6
CONTINUOUS
 62
     7
 10
-211.0
 20
173.0
 30
0.0
 11
-211.0
 21
-100.0
 31
0.0
  0
LINE
  5
12C
  8
0
  6
CONTINUOUS
 62
     7
 10
-191.0
 20
173.0
 30
0.0
 11
-191.0
 21
77.0
 31
0.0
  0
LINE
  5
12D
  8
0
  6
CONTINUOUS
 62
     7
 10
-211.0
 20
165.0
 30
0.0
 11
-101.0
 21
165.0
 31
0.0
  0
LINE
  5
12E
  8
0
  6
CONTINUOUS
 62
     7
 10
-211.0
 20
157.0
 30
0.0
 11
-101.0
 21
157.0
 31
0.0
  0
LINE
  5
12F
  8
0
  6
CONTINUOUS
 62
     7
 10
-211.0
 20
149.0
 30
0.0
 11
-101.0
 21
149.0
 31
0.0
  0
LINE
  5
130
  8
0
  6
CONTINUOUS
 62
     7
 10
-211.0
 20
141.0
 30
0.0
 11
-101.0
 21
141.0
 31
0.0
  0
LINE
  5
131
  8
0
  6
CONTINUOUS
 62
     7
 10
-191.0
 20
117.0
 30
0.0
 11
-101.0
 21
117.0
 31
0.0
  0
LINE
  5
132
  8
0
  6
CONTINUOUS
 62
     7
 10
-191.0
 20
109.0
 30
0.0
 11
-101.0
 21
109.0
 31
0.0
  0
LINE
  5
133
  8
0
  6
CONTINUOUS
 62
     7
 10
-211.0
 20
101.0
 30
0.0
 11
-101.0
 21
101.0
 31
0.0
  0
LINE
  5
134
  8
0
  6
CONTINUOUS
 62
     7
 10
-191.0
 20
93.0
 30
0.0
 11
-101.0
 21
93.0
 31
0.0
  0
LINE
  5
135
  8
0
  6
CONTINUOUS
 62
     7
 10
-191.0
 20
85.0
 30
0.0
 11
-101.0
 21
85.0
 31
0.0
  0
LINE
  5
136
  8
0
  6
CONTINUOUS
 62
     7
 10
-211.0
 20
77.0
 30
0.0
 11
-101.0
 21
77.0
 31
0.0
  0
LINE
  5
137
  8
0
  6
CONTINUOUS
 62
     7
 10
-211.0
 20
173.0
 30
0.0
 11
-211.0
 21
77.0
 31
0.0
  0
LINE
  5
138
  8
0
  6
CONTINUOUS
 62
     7
 10
-211.0
 20
173.0
 30
0.0
 11
-101.0
 21
173.0
 31
0.0
  0
LINE
  5
139
  8
0
  6
CONTINUOUS
 62
     7
 10
-101.0
 20
173.0
 30
0.0
 11
-101.0
 21
77.0
 31
0.0
  0
LINE
  5
13A
  8
0
  6
CONTINUOUS
 62
     7
 10
-211.0
 20
133.0
 30
0.0
 11
-101.0
 21
133.0
 31
0.0
  0
LINE
  5
13B
  8
0
  6
CONTINUOUS
 62
     7
 10
-211.0
 20
125.0
 30
0.0
 11
-101.0
 21
125.0
 31
0.0
  0
LINE
  5
13C
  8
0
  6
CONTINUOUS
 62
     7
 10
-191.0
 20
117.0
 30
0.0
 11
-101.0
 21
117.0
 31
0.0
  0
LINE
  5
13D
  8
0
  6
CONTINUOUS
 62
     3
 10
45.921134999999992
 20
40.057837999999997
 30
0.0
 11
45.921134999999992
 21
-7.9421600999999988
 31
0.0
  0
LINE
  5
13E
  8
0
  6
CONTINUOUS
 62
     3
 10
70.121131999999989
 20
40.057837999999997
 30
0.0
 11
70.121131999999989
 21
-7.9421600999999988
 31
0.0
  0
LINE
  5
13F
  8
0
  6
CENTER
 62
     7
 10
28.479952000000001
 20
16.057839999999992
 30
0.0
 11
75.121131999999989
 21
16.057839999999992
 31
0.0
  0
LINE
  5
140
  8
0
  6
CONTINUOUS
 62
     3
 10
46.921135
 20
-8.9421605999999993
 30
0.0
 11
69.121131999999989
 21
-8.9421605999999993
 31
0.0
  0
LINE
  5
141
  8
0
  6
CONTINUOUS
 62
     3
 10
46.921135
 20
41.057837999999997
 30
0.0
 11
69.121131999999989
 21
41.057837999999997
 31
0.0
  0
LINE
  5
142
  8
0
  6
CENTER
 62
     7
 10
65.121131999999989
 20
1.0578397999999991
 30
0.0
 11
65.121131999999989
 21
-7.9421600999999988
 31
0.0
  0
LINE
  5
143
  8
0
  6
CENTER
 62
     7
 10
50.621135999999993
 20
35.557837999999997
 30
0.0
 11
69.621131999999989
 21
35.557837999999997
 31
0.0
  0
LINE
  5
144
  8
0
  6
CENTER
 62
     7
 10
60.121136
 20
46.057837999999997
 30
0.0
 11
60.121136
 21
-13.94216099999999
 31
0.0
  0
LINE
  5
145
  8
0
  6
CENTER
 62
     7
 10
55.121136
 20
1.0578397999999991
 30
0.0
 11
55.121136
 21
-7.9421600999999988
 31
0.0
  0
LINE
  5
146
  8
0
  6
CONTINUOUS
 62
     3
 10
55.121136
 20
-0.94216025
 30
0.0
 11
65.121131999999989
 21
-0.94216025
 31
0.0
  0
LINE
  5
147
  8
0
  6
CONTINUOUS
 62
     3
 10
55.121136
 20
-5.9421600999999988
 30
0.0
 11
65.121131999999989
 21
-5.9421600999999988
 31
0.0
  0
LINE
  5
148
  8
0
  6
CENTER
 62
     7
 10
65.121131999999989
 20
40.057837999999997
 30
0.0
 11
65.121131999999989
 21
31.057839999999999
 31
0.0
  0
LINE
  5
149
  8
0
  6
CENTER
 62
     7
 10
55.121136
 20
40.057837999999997
 30
0.0
 11
55.121136
 21
31.057839999999999
 31
0.0
  0
LINE
  5
14A
  8
0
  6
CONTINUOUS
 62
     3
 10
55.121136
 20
38.057837999999997
 30
0.0
 11
65.121131999999989
 21
38.057837999999997
 31
0.0
  0
LINE
  5
14B
  8
0
  6
CONTINUOUS
 62
     3
 10
55.121136
 20
33.057837999999997
 30
0.0
 11
65.121131999999989
 21
33.057837999999997
 31
0.0
  0
LINE
  5
14C
  8
0
  6
CENTER
 62
     7
 10
65.121131999999989
 20
20.557839999999999
 30
0.0
 11
65.121131999999989
 21
11.557839
 31
0.0
  0
LINE
  5
14D
  8
0
  6
CENTER
 62
     7
 10
55.121136
 20
20.557839999999999
 30
0.0
 11
55.121136
 21
11.557839
 31
0.0
  0
LINE
  5
14E
  8
0
  6
CONTINUOUS
 62
     3
 10
55.121136
 20
18.557839999999992
 30
0.0
 11
65.121131999999989
 21
18.557839999999992
 31
0.0
  0
LINE
  5
14F
  8
0
  6
CONTINUOUS
 62
     3
 10
55.121136
 20
13.557839
 30
0.0
 11
65.121131999999989
 21
13.557839
 31
0.0
  0
LINE
  5
150
  8
0
  6
CENTER
 62
     7
 10
50.621135999999993
 20
-3.4421604000000001
 30
0.0
 11
69.621131999999989
 21
-3.4421604000000001
 31
0.0
  0
LINE
  5
151
  8
0
  6
CONTINUOUS
 62
     3
 10
41.121135999999993
 20
19.057839999999992
 30
0.0
 11
41.121135999999993
 21
13.057838999999991
 31
0.0
  0
LINE
  5
152
  8
0
  6
CONTINUOUS
 62
     3
 10
35.549560999999997
 20
19.557839999999992
 30
0.0
 11
40.621135999999993
 21
19.557839999999992
 31
0.0
  0
LINE
  5
153
  8
0
  6
CONTINUOUS
 62
     3
 10
35.549560999999997
 20
12.557838999999991
 30
0.0
 11
40.621135999999993
 21
12.557838999999991
 31
0.0
  0
LINE
  5
154
  8
0
  6
CONTINUOUS
 62
     3
 10
-36.37886799999999
 20
-1.9421602
 30
0.0
 11
-29.878869999999999
 21
-1.9421602
 31
0.0
  0
LINE
  5
155
  8
0
  6
CONTINUOUS
 62
     3
 10
45.921134999999992
 20
34.057837999999997
 30
0.0
 11
33.735152999999997
 21
20.456513999999999
 31
0.0
  0
LINE
  5
156
  8
0
  6
CONTINUOUS
 62
     3
 10
45.921131000000003
 20
-1.942163499999999
 30
0.0
 11
33.735152999999997
 21
11.659162999999999
 31
0.0
  0
LINE
  5
157
  8
0
  6
CONTINUOUS
 62
     3
 10
47.121136
 20
97.257835
 30
0.0
 11
70.121131999999989
 21
97.257835
 31
0.0
  0
LINE
  5
158
  8
0
  6
CONTINUOUS
 62
     3
 10
45.921134999999992
 20
101.8578399999999
 30
0.0
 11
45.921134999999992
 21
97.057838000000004
 31
0.0
  0
LINE
  5
159
  8
0
  6
CONTINUOUS
 62
     3
 10
70.121131999999989
 20
97.257835
 30
0.0
 11
70.121131999999989
 21
96.057838000000004
 31
0.0
  0
LINE
  5
15A
  8
0
  6
CONTINUOUS
 62
     3
 10
46.921135
 20
96.057838000000004
 30
0.0
 11
70.121131999999989
 21
96.057838000000004
 31
0.0
  0
LINE
  5
15B
  8
0
  6
CONTINUOUS
 62
     3
 10
47.121136
 20
102.0578399999999
 30
0.0
 11
47.121136
 21
97.257835
 31
0.0
  0
LINE
  5
15C
  8
0
  6
CONTINUOUS
 62
     3
 10
41.121135999999993
 20
96.318871000000001
 30
0.0
 11
41.121135999999993
 21
94.057838000000004
 31
0.0
  0
LINE
  5
15D
  8
0
  6
CONTINUOUS
 62
     3
 10
35.121147000000001
 20
97.741935999999995
 30
0.0
 11
41.121147000000001
 21
96.318916000000016
 31
0.0
  0
LINE
  5
15E
  8
0
  6
CONTINUOUS
 62
     3
 10
34.488354000000001
 20
103.05784
 30
0.0
 11
46.121135999999993
 21
103.05784
 31
0.0
  0
LINE
  5
15F
  8
0
  6
CONTINUOUS
 62
     3
 10
34.362246999999989
 20
101.8578399999999
 30
0.0
 11
45.921134999999992
 21
101.8578399999999
 31
0.0
  0
LINE
  5
160
  8
0
  6
CONTINUOUS
 62
     3
 10
-31.078866999999988
 20
41.057837999999997
 30
0.0
 11
-31.078866999999988
 21
34.057837999999997
 31
0.0
  0
LINE
  5
161
  8
0
  6
CONTINUOUS
 62
     3
 10
34.257598999999999
 20
95.685721999999998
 30
0.0
 11
41.121142999999996
 21
94.057891999999995
 31
0.0
  0
LINE
  5
162
  8
0
  6
CONTINUOUS
 62
     3
 10
34.362246999999989
 20
101.8578399999999
 30
0.0
 11
34.362246999999989
 21
96.894126999999997
 31
0.0
  0
LINE
  5
163
  8
0
  6
CONTINUOUS
 62
     3
 10
-29.878869999999999
 20
41.057837999999997
 30
0.0
 11
-29.878869999999999
 21
20.031539999999989
 31
0.0
  0
LINE
  5
164
  8
0
  6
CONTINUOUS
 62
     3
 10
-35.678863999999997
 20
34.057837999999997
 30
0.0
 11
-35.678863999999997
 21
20.947362999999999
 31
0.0
  0
LINE
  5
165
  8
0
  6
CONTINUOUS
 62
     3
 10
34.362259000000002
 20
96.894180000000006
 30
0.0
 11
41.121142999999996
 21
95.291176000000007
 31
0.0
  0
LINE
  5
166
  8
0
  6
CONTINUOUS
 62
     3
 10
-36.87886799999999
 20
33.557837999999997
 30
0.0
 11
-36.87886799999999
 21
-1.4421602
 31
0.0
  0
LINE
  5
167
  8
0
  6
CONTINUOUS
 62
     3
 10
35.121136
 20
101.8578399999999
 30
0.0
 11
35.121136
 21
97.741889999999984
 31
0.0
  0
LINE
  5
168
  8
0
  6
CONTINUOUS
 62
     3
 10
33.488354000000001
 20
102.0578399999999
 30
0.0
 11
33.488354000000001
 21
96.658668999999989
 31
0.0
  0
LINE
  5
169
  8
0
  6
CENTER
 62
     7
 10
-41.878867999999997
 20
16.057839999999992
 30
0.0
 11
-22.878869999999999
 21
16.057839999999992
 31
0.0
  0
LINE
  5
16A
  8
0
  6
CONTINUOUS
 62
     3
 10
-31.078866999999988
 20
-8.9421605999999993
 30
0.0
 11
-29.878869999999999
 21
-8.9421605999999993
 31
0.0
  0
LINE
  5
16B
  8
0
  6
CONTINUOUS
 62
     3
 10
34.362262999999992
 20
96.894118999999989
 30
0.0
 11
35.121147000000001
 21
97.741874999999993
 31
0.0
  0
LINE
  5
16C
  8
0
  6
CONTINUOUS
 62
     3
 10
-31.078866999999988
 20
41.057837999999997
 30
0.0
 11
-29.878869999999999
 21
41.057837999999997
 31
0.0
  0
LINE
  5
16D
  8
0
  6
CONTINUOUS
 62
     3
 10
-36.37886799999999
 20
34.057837999999997
 30
0.0
 11
-29.878869999999999
 21
34.057837999999997
 31
0.0
  0
LINE
  5
16E
  8
0
  6
CONTINUOUS
 62
     3
 10
-36.034827999999997
 20
11.112111000000001
 30
0.0
 11
-28.722903999999989
 21
12.424566999999991
 31
0.0
  0
LINE
  5
16F
  8
0
  6
CONTINUOUS
 62
     3
 10
-35.678863999999997
 20
11.168317
 30
0.0
 11
-35.678863999999997
 21
-1.9421602
 31
0.0
  0
LINE
  5
170
  8
0
  6
CONTINUOUS
 62
     3
 10
-36.034835999999999
 20
21.003568999999992
 30
0.0
 11
-28.722902000000001
 21
19.691113000000001
 31
0.0
  0
LINE
  5
171
  8
0
  6
CONTINUOUS
 62
     3
 10
-31.078866999999988
 20
-1.9421602
 30
0.0
 11
-31.078866999999988
 21
-8.9421605999999993
 31
0.0
  0
LINE
  5
172
  8
0
  6
CONTINUOUS
 62
     3
 10
-29.878869999999999
 20
12.084139
 30
0.0
 11
-29.878869999999999
 21
-8.9421605999999993
 31
0.0
  0
LINE
  5
173
  8
0
  6
CONTINUOUS
 62
     3
 10
-27.878869999999999
 20
18.70335
 30
0.0
 11
-27.878869999999999
 21
13.412329
 31
0.0
  0
ARC
  5
174
  8
0
  6
CONTINUOUS
 62
     3
 10
65.121131999999989
 20
-3.4421604000000001
 30
0.0
 40
2.5
 50
270.0
 51
90.0
  0
ARC
  5
175
  8
0
  6
CONTINUOUS
 62
     3
 10
46.921135
 20
-7.9421600999999988
 30
0.0
 40
1.0
 50
179.99996999999991
 51
270.0
  0
ARC
  5
176
  8
0
  6
CONTINUOUS
 62
     3
 10
69.121131999999989
 20
40.057837999999997
 30
0.0
 40
1.0
 50
0.0
 51
90.0
  0
ARC
  5
177
  8
0
  6
CONTINUOUS
 62
     3
 10
46.921135
 20
40.057837999999997
 30
0.0
 40
1.0
 50
90.0
 51
180.0
  0
ARC
  5
178
  8
0
  6
CONTINUOUS
 62
     3
 10
69.121131999999989
 20
-7.9421600999999988
 30
0.0
 40
1.0
 50
270.0
 51
0.0
  0
ARC
  5
179
  8
0
  6
CONTINUOUS
 62
     3
 10
55.121136
 20
-3.4421604000000001
 30
0.0
 40
2.5
 50
90.0
 51
270.0
  0
ARC
  5
17A
  8
0
  6
CONTINUOUS
 62
     3
 10
55.121136
 20
35.557837999999997
 30
0.0
 40
2.5
 50
90.0
 51
270.0
  0
ARC
  5
17B
  8
0
  6
CONTINUOUS
 62
     3
 10
65.121131999999989
 20
35.557837999999997
 30
0.0
 40
2.5
 50
270.0
 51
90.0
  0
ARC
  5
17C
  8
0
  6
CONTINUOUS
 62
     3
 10
55.121136
 20
16.057839999999992
 30
0.0
 40
2.5
 50
90.0
 51
270.0
  0
ARC
  5
17D
  8
0
  6
CONTINUOUS
 62
     3
 10
65.121131999999989
 20
16.057839999999992
 30
0.0
 40
2.5
 50
270.0
 51
90.0
  0
ARC
  5
17E
  8
0
  6
CONTINUOUS
 62
     3
 10
18.121134000000001
 20
16.057839999999992
 30
0.0
 40
17.0
 50
342.61655999999999
 51
345.52249
  0
ARC
  5
17F
  8
0
  6
CONTINUOUS
 62
     3
 10
40.621135999999993
 20
13.057838999999991
 30
0.0
 40
0.5
 50
270.0
 51
0.0
  0
ARC
  5
180
  8
0
  6
CONTINUOUS
 62
     3
 10
18.92113299999999
 20
16.057839999999992
 30
0.0
 40
15.0
 50
346.64341000000002
 51
13.486215
  0
ARC
  5
181
  8
0
  6
CONTINUOUS
 62
     3
 10
40.621135999999993
 20
19.057839999999992
 30
0.0
 40
0.5
 50
0.0
 51
90.0
  0
ARC
  5
182
  8
0
  6
CONTINUOUS
 62
     3
 10
18.121134000000001
 20
16.057839999999992
 30
0.0
 40
17.0
 50
14.477510999999989
 51
17.184241
  0
ARC
  5
183
  8
0
  6
DASHED
 62
     3
 10
18.121134000000001
 20
16.057839999999992
 30
0.0
 40
17.0
 50
348.11883999999992
 51
14.477510999999989
  0
ARC
  5
184
  8
0
  6
CONTINUOUS
 62
     3
 10
35.549560999999997
 20
11.557839
 30
0.0
 40
1.0
 50
90.0
 51
165.52255
  0
ARC
  5
185
  8
0
  6
CONTINUOUS
 62
     3
 10
35.549560999999997
 20
20.557839999999999
 30
0.0
 40
1.0
 50
194.47749999999991
 51
270.0
  0
ARC
  5
186
  8
0
  6
CONTINUOUS
 62
     3
 10
34.488354000000001
 20
102.0578399999999
 30
0.0
 40
1.0
 50
90.0
 51
180.0
  0
ARC
  5
187
  8
0
  6
CONTINUOUS
 62
     3
 10
46.121135999999993
 20
102.0578399999999
 30
0.0
 40
1.0
 50
0.0
 51
90.0
  0
ARC
  5
188
  8
0
  6
CONTINUOUS
 62
     3
 10
46.921135
 20
97.057838000000004
 30
0.0
 40
1.0
 50
180.0
 51
270.0
  0
ARC
  5
189
  8
0
  6
CONTINUOUS
 62
     3
 10
34.488354000000001
 20
96.658668999999989
 30
0.0
 40
1.0
 50
180.0
 51
256.65757000000002
  0
ARC
  5
18A
  8
0
  6
CONTINUOUS
 62
     3
 10
34.479950000000002
 20
19.789220999999991
 30
0.0
 40
1.0
 50
138.14162999999991
 51
193.4862
  0
ARC
  5
18B
  8
0
  6
CONTINUOUS
 62
     3
 10
34.479950000000002
 20
12.326458000000001
 30
0.0
 40
1.0
 50
166.51379999999989
 51
221.85836999999989
  0
ARC
  5
18C
  8
0
  6
CONTINUOUS
 62
     3
 10
-28.878869999999999
 20
13.412329
 30
0.0
 40
1.0
 50
278.97291999999999
 51
359.99995000000001
  0
ARC
  5
18D
  8
0
  6
CONTINUOUS
 62
     3
 10
-35.87886799999999
 20
21.99133299999999
 30
0.0
 40
1.0
 50
180.0
 51
261.0270799999999
  0
ARC
  5
18E
  8
0
  6
CONTINUOUS
 62
     3
 10
-36.37886799999999
 20
-1.4421602
 30
0.0
 40
0.5
 50
179.99996999999991
 51
270.0
  0
ARC
  5
18F
  8
0
  6
CONTINUOUS
 62
     3
 10
-36.37886799999999
 20
33.557837999999997
 30
0.0
 40
0.5
 50
90.0
 51
180.0
  0
ARC
  5
190
  8
0
  6
CONTINUOUS
 62
     3
 10
-28.878869999999999
 20
18.70335
 30
0.0
 40
1.0
 50
0.0
 51
81.027078000000003
  0
ARC
  5
191
  8
0
  6
CONTINUOUS
 62
     3
 10
-35.87886799999999
 20
10.124347
 30
0.0
 40
1.0
 50
98.972922000000025
 51
179.99995000000001
  0
TEXT
  5
192
  8
0
  6
CONTINUOUS
 62
     7
 10
-188.14299999999989
 20
95.400000000000006
 30
0.0
 40
3.2000000000000002
  1
スペーサー　ｔ＝１．２　１枚付
 41
0.84306961
  0
TEXT
  5
193
  8
0
  6
CONTINUOUS
 62
     7
 10
-205.34299999999999
 20
167.40000000000001
 30
0.0
 40
3.2000000000000002
  1
品　名
 41
0.85537027
  0
TEXT
  5
194
  8
0
  6
CONTINUOUS
 62
     7
 10
-205.34299999999999
 20
159.40000000000001
 30
0.0
 40
3.2000000000000002
  1
品　番
 41
0.85537027
  0
TEXT
  5
195
  8
0
  6
CONTINUOUS
 62
     7
 10
-188.14299999999989
 20
87.400000000000006
 30
0.0
 40
3.2000000000000002
  1
スペーサー　ｔ＝３．０　１枚付
 41
0.84306961
  0
TEXT
  5
196
  8
0
  6
CONTINUOUS
 62
     7
 10
-188.14299999999989
 20
79.400000000000006
 30
0.0
 40
3.2000000000000002
  1
受注生産品
 41
0.90047268
  0
TEXT
  5
197
  8
0
  6
CONTINUOUS
 62
     7
 10
-205.34299999999999
 20
151.40000000000001
 30
0.0
 40
3.2000000000000002
  1
材　質
 41
0.85537027
  0
TEXT
  5
198
  8
0
  6
CONTINUOUS
 62
     7
 10
-205.34299999999999
 20
143.40000000000001
 30
0.0
 40
3.2000000000000002
  1
仕上げ
 41
0.85537027
  0
TEXT
  5
199
  8
0
  6
CONTINUOUS
 62
     7
 10
-188.14299999999989
 20
103.40000000000001
 30
0.0
 40
3.2000000000000002
  1
＊
 41
0.90047268
  0
TEXT
  5
19A
  8
0
  6
CONTINUOUS
 62
     7
 10
-188.14299999999989
 20
111.40000000000001
 30
0.0
 40
3.2000000000000002
  1
＊
 41
0.90047268
  0
TEXT
  5
19B
  8
0
  6
CONTINUOUS
 62
     7
 10
-208.54300000000001
 20
119.40000000000001
 30
0.0
 40
3.2000000000000002
  1
セットビス
 41
0.84892707
  0
TEXT
  5
19C
  8
0
  6
CONTINUOUS
 62
     7
 10
-188.14299999999989
 20
119.40000000000001
 30
0.0
 40
3.2000000000000002
  1
＊
 41
0.90047268
  0
TEXT
  5
19D
  8
0
  6
CONTINUOUS
 62
     7
 10
-203.74299999999999
 20
95.400000000000006
 30
0.0
 40
3.2000000000000002
  1
備考
 41
0.8643907499999999
  0
TEXT
  5
19E
  8
0
  6
CONTINUOUS
 62
     7
 10
-205.34299999999999
 20
135.40000000000001
 30
0.0
 40
3.2000000000000002
  1
定　尺
 41
0.85537027
  0
TEXT
  5
19F
  8
0
  6
CONTINUOUS
 62
     7
 10
-206.9429999999999
 20
127.40000000000001
 30
0.0
 40
3.2000000000000002
  1
左右勝手
 41
0.8512700499999999
  0
TEXT
  5
1A0
  8
0
  6
CONTINUOUS
 62
     7
 10
-188.3785499999999
 20
134.96997999999999
 30
0.0
 40
3.2000000000000002
  1
＊
 41
0.90047268
  0
TEXT
  5
1A1
  8
0
  6
CONTINUOUS
 62
     7
 10
-188.14299999999989
 20
167.40000000000001
 30
0.0
 40
3.2000000000000002
  1
クレセント受
 41
0.84741102
  0
TEXT
  5
1A2
  8
0
  6
CONTINUOUS
 62
     7
 10
-188.14299999999989
 20
159.40000000000001
 30
0.0
 40
3.2000000000000002
  1
ＨＢ－４２
 41
0.84892707
  0
TEXT
  5
1A3
  8
0
  6
CONTINUOUS
 62
     7
 10
-188.14299999999989
 20
151.40000000000001
 30
0.0
 40
3.2000000000000002
  1
ステンレス
 41
0.84892707
  0
TEXT
  5
1A4
  8
0
  6
CONTINUOUS
 62
     7
 10
-188.14299999999989
 20
143.40000000000001
 30
0.0
 40
3.2000000000000002
  1
バレル研磨
 41
0.84892707
  0
TEXT
  5
1A5
  8
0
  6
CONTINUOUS
 62
     7
 10
-188.3785499999999
 20
127.3661699999999
 30
0.0
 40
3.2000000000000002
  1
＊
 41
0.90047268
  0
DIMENSION
  5
1A6
  8
0
  6
CONTINUOUS
 62
     7
  2
*D1
 10
95.121131999999989
 20
-8.9421605999999993
 30
0.0
 11
95.121131999999989
 21
16.057839999999992
 31
0.0
 13
69.121131999999989
 23
41.057837999999997
 33
0.0
 14
69.121131999999989
 24
-8.9421605999999993
 34
0.0
 50
90.0
1001
ACAD
1000
DSTYLE
1002
{
1070
    77
1070
     1
1070
   172
1070
     1
1002
}
  0
DIMENSION
  5
1A7
  8
0
  6
CONTINUOUS
 62
     7
  2
*D2
 10
85.121131999999989
 20
35.557837999999997
 30
0.0
 11
85.121131999999989
 21
47.248702999999999
 31
0.0
 13
69.121131999999989
 23
41.057837999999997
 33
0.0
 14
69.621131999999989
 24
35.557837999999997
 34
0.0
 50
90.0
1001
ACAD
1000
DSTYLE
1002
{
1070
    77
1070
     1
1070
   172
1070
     1
1002
}
  0
DIMENSION
  5
1A8
  8
0
  6
CONTINUOUS
 62
     7
  2
*D3
 10
85.121131999999989
 20
16.057839999999992
 30
0.0
 11
85.121131999999989
 21
25.807839999999992
 31
0.0
 13
69.621131999999989
 23
35.557837999999997
 33
0.0
 14
75.121131999999989
 24
16.057839999999992
 34
0.0
 50
90.0
1001
ACAD
1000
DSTYLE
1002
{
1070
    77
1070
     1
1070
   172
1070
     1
1070
    75
1070
     1
1002
}
  0
DIMENSION
  5
1A9
  8
0
  6
CONTINUOUS
 62
     7
  2
*D4
 10
85.121131999999989
 20
-3.4421604000000001
 30
0.0
 11
85.121131999999989
 21
6.3078399000000003
 31
0.0
 13
75.121131999999989
 23
16.057839999999992
 33
0.0
 14
69.621131999999989
 24
-3.4421604000000001
 34
0.0
 50
90.0
1001
ACAD
1000
DSTYLE
1002
{
1070
    77
1070
     1
1070
   172
1070
     1
1070
    75
1070
     1
1002
}
  0
DIMENSION
  5
1AA
  8
0
  6
CONTINUOUS
 62
     7
  2
*D5
 10
85.121131999999989
 20
-8.9421605999999993
 30
0.0
 11
85.121131999999989
 21
-15.654598999999999
 31
0.0
 13
69.621131999999989
 23
-3.4421604000000001
 33
0.0
 14
69.121131999999989
 24
-8.9421605999999993
 34
0.0
 50
90.0
1001
ACAD
1000
DSTYLE
1002
{
1070
    77
1070
     1
1070
   172
1070
     1
1070
    75
1070
     1
1002
}
  0
DIMENSION
  5
1AB
  8
0
  6
CONTINUOUS
 62
     7
  2
*D6
 10
60.121136
 20
-33.942161999999989
 30
0.0
 11
65.121131999999989
 21
-33.942161999999989
 31
0.0
 13
70.121131999999989
 23
-7.9421600999999988
 33
0.0
 14
60.121136
 24
-13.94216099999999
 34
0.0
1001
ACAD
1000
DSTYLE
1002
{
1070
    77
1070
     1
1070
   172
1070
     1
1002
}
  0
DIMENSION
  5
1AC
  8
0
  6
CONTINUOUS
 62
     7
  2
*D7
 10
35.121136
 20
-33.942161999999989
 30
0.0
 11
47.621136
 21
-33.942161999999989
 31
0.0
 13
60.121136
 23
-13.94216099999999
 33
0.0
 14
35.121136
 24
16.057839999999992
 34
0.0
1001
ACAD
1000
DSTYLE
1002
{
1070
    77
1070
     1
1070
   172
1070
     1
1070
    75
1070
     1
1002
}
  0
DIMENSION
  5
1AD
  8
0
  6
CONTINUOUS
 62
     7
  2
*D8
 10
41.121135999999993
 20
-23.942160000000001
 30
0.0
 11
38.121135999999993
 21
-23.942160000000001
 31
0.0
 13
35.121136
 23
16.057839999999992
 33
0.0
 14
41.121135999999993
 24
13.057838999999991
 34
0.0
1001
ACAD
1000
DSTYLE
1002
{
1070
    77
1070
     1
1070
   172
1070
     1
1002
}
  0
DIMENSION
  5
1AE
  8
0
  6
CONTINUOUS
 62
     7
  2
*D9
 10
95.121131999999989
 20
96.057838000000004
 30
0.0
 11
95.121131999999989
 21
99.557838000000004
 31
0.0
 13
46.121135999999993
 23
103.05784
 33
0.0
 14
70.121131999999989
 24
96.057838000000004
 34
0.0
 50
90.0
1001
ACAD
1000
DSTYLE
1002
{
1070
    77
1070
     1
1070
   172
1070
     1
1002
}
  0
DIMENSION
  5
1AF
  8
0
  6
CONTINUOUS
 62
     7
  2
*D10
 10
85.121131999999989
 20
96.057838000000004
 30
0.0
 11
85.121131999999989
 21
88.985488999999987
 31
0.0
 13
70.121131999999989
 23
97.257835
 33
0.0
 14
70.121131999999989
 24
96.057838000000004
 34
0.0
 50
90.0
1001
ACAD
1000
DSTYLE
1002
{
1070
    77
1070
     1
1070
   172
1070
     1
1002
}
  0
DIMENSION
  5
1B0
  8
0
  6
CONTINUOUS
 62
     7
  2
*D11
 10
47.121136
 20
81.057838000000004
 30
0.0
 11
58.621136
 21
81.057838000000004
 31
0.0
 13
70.121131999999989
 23
96.057838000000004
 33
0.0
 14
47.121136
 24
97.257835
 34
0.0
1001
ACAD
1000
DSTYLE
1002
{
1070
    77
1070
     1
1070
   172
1070
     1
1002
}
  0
DIMENSION
  5
1B1
  8
0
  6
CONTINUOUS
 62
     7
  2
*D12
 10
23.488354000000001
 20
12.557838999999991
 30
0.0
 11
23.488354000000001
 21
16.057839999999992
 31
0.0
 13
35.549560999999997
 23
19.557839999999992
 33
0.0
 14
35.549560999999997
 24
12.557838999999991
 34
0.0
 50
90.0
1001
ACAD
1000
DSTYLE
1002
{
1070
    77
1070
     1
1070
   172
1070
     1
1002
}
  0
INSERT
  5
1B2
  8
0
  6
CONTINUOUS
 62
     7
  2
KOZU0002
 10
60.121136
 20
35.557842000000001
 30
0.0
  0
ENDSEC
  0
EOF
