  0
SECTION
  2
HEADER
  9
$ACADVER
  1
AC1018
  9
$ACADMAINTVER
 70
   104
  9
$DWGCODEPAGE
  3
ANSI_932
  9
$LASTSAVEDBY
  1
shibutani
  9
$CUSTOMPROPERTYTAG
  1
AmdtFileType
  9
$CUSTOMPROPERTY
  1
84
  9
$INSBASE
 10
0.0
 20
0.0
 30
0.0
  9
$EXTMIN
 10
2961.717480214775
 20
-831.2074719496232
 30
-0.0015258207003583
  9
$EXTMAX
 10
7211.896941277574
 20
670.8328754077374
 30
0.0000000349246037
  9
$LIMMIN
 10
1735.132052145826
 20
-6087.884660833434
  9
$LIMMAX
 10
2155.132052145826
 20
-5790.884660833434
  9
$ORTHOMODE
 70
     0
  9
$REGENMODE
 70
     1
  9
$FILLMODE
 70
     1
  9
$QTEXTMODE
 70
     0
  9
$MIRRTEXT
 70
     0
  9
$LTSCALE
 40
1.0
  9
$ATTMODE
 70
     1
  9
$TEXTSIZE
 40
3.5
  9
$TRACEWID
 40
1.0
  9
$TEXTSTYLE
  7
STANDARD
  9
$CLAYER
  8
AM_0
  9
$CELTYPE
  6
ByLayer
  9
$CECOLOR
 62
   256
  9
$CELTSCALE
 40
0.5
  9
$DISPSILH
 70
     0
  9
$DIMSCALE
 40
1.0
  9
$DIMASZ
 40
1.0
  9
$DIMEXO
 40
1.0
  9
$DIMDLI
 40
10.0
  9
$DIMRND
 40
0.0
  9
$DIMDLE
 40
0.0
  9
$DIMEXE
 40
1.0
  9
$DIMTP
 40
0.1
  9
$DIMTM
 40
0.1
  9
$DIMTXT
 40
3.5
  9
$DIMCEN
 40
0.0
  9
$DIMTSZ
 40
0.0
  9
$DIMTOL
 70
     0
  9
$DIMLIM
 70
     0
  9
$DIMTIH
 70
     0
  9
$DIMTOH
 70
     0
  9
$DIMSE1
 70
     0
  9
$DIMSE2
 70
     0
  9
$DIMTAD
 70
     1
  9
$DIMZIN
 70
     8
  9
$DIMBLK
  1

  9
$DIMASO
 70
     1
  9
$DIMSHO
 70
     1
  9
$DIMPOST
  1

  9
$DIMAPOST
  1
"
  9
$DIMALT
 70
     0
  9
$DIMALTD
 70
     2
  9
$DIMALTF
 40
0.0393701
  9
$DIMLFAC
 40
1.0
  9
$DIMTOFL
 70
     1
  9
$DIMTVP
 40
0.0
  9
$DIMTIX
 70
     0
  9
$DIMSOXD
 70
     0
  9
$DIMSAH
 70
     0
  9
$DIMBLK1
  1

  9
$DIMBLK2
  1

  9
$DIMSTYLE
  2
SYS
  9
$DIMCLRD
 70
   256
  9
$DIMCLRE
 70
   256
  9
$DIMCLRT
 70
     7
  9
$DIMTFAC
 40
0.71
  9
$DIMGAP
 40
1.5
  9
$DIMJUST
 70
     0
  9
$DIMSD1
 70
     0
  9
$DIMSD2
 70
     0
  9
$DIMTOLJ
 70
     0
  9
$DIMTZIN
 70
     8
  9
$DIMALTZ
 70
     0
  9
$DIMALTTZ
 70
     0
  9
$DIMUPT
 70
     0
  9
$DIMDEC
 70
     1
  9
$DIMTDEC
 70
     2
  9
$DIMALTU
 70
     2
  9
$DIMALTTD
 70
     2
  9
$DIMTXSTY
  7
STANDARD
  9
$DIMAUNIT
 70
     0
  9
$DIMADEC
 70
     0
  9
$DIMALTRND
 40
0.0
  9
$DIMAZIN
 70
     2
  9
$DIMDSEP
 70
    46
  9
$DIMATFIT
 70
     3
  9
$DIMFRAC
 70
     0
  9
$DIMLDRBLK
  1

  9
$DIMLUNIT
 70
     2
  9
$DIMLWD
 70
    -1
  9
$DIMLWE
 70
    -1
  9
$DIMTMOVE
 70
     0
  9
$LUNITS
 70
     2
  9
$LUPREC
 70
     2
  9
$SKETCHINC
 40
1.0
  9
$FILLETRAD
 40
2.0
  9
$AUNITS
 70
     0
  9
$AUPREC
 70
     0
  9
$MENU
  1
.
  9
$ELEVATION
 40
0.0
  9
$PELEVATION
 40
0.0
  9
$THICKNESS
 40
0.0
  9
$LIMCHECK
 70
     0
  9
$CHAMFERA
 40
0.0
  9
$CHAMFERB
 40
0.0
  9
$CHAMFERC
 40
20.0
  9
$CHAMFERD
 40
0.0
  9
$SKPOLY
 70
     0
  9
$TDCREATE
 40
2455567.561054317
  9
$TDUCREATE
 40
2455567.186054318
  9
$TDUPDATE
 40
2455860.480101632
  9
$TDUUPDATE
 40
2455860.105101632
  9
$TDINDWG
 40
8.6413273727
  9
$TDUSRTIMER
 40
8.6413253819
  9
$USRTIMER
 70
     1
  9
$ANGBASE
 50
0.0
  9
$ANGDIR
 70
     0
  9
$PDMODE
 70
     0
  9
$PDSIZE
 40
-3.0
  9
$PLINEWID
 40
0.0
  9
$SPLFRAME
 70
     0
  9
$SPLINETYPE
 70
     6
  9
$SPLINESEGS
 70
     8
  9
$HANDSEED
  5
551C9
  9
$SURFTAB1
 70
     6
  9
$SURFTAB2
 70
     6
  9
$SURFTYPE
 70
     6
  9
$SURFU
 70
     6
  9
$SURFV
 70
     6
  9
$UCSBASE
  2

  9
$UCSNAME
  2

  9
$UCSORG
 10
0.0
 20
0.0
 30
0.0
  9
$UCSXDIR
 10
1.0
 20
0.0
 30
0.0
  9
$UCSYDIR
 10
0.0
 20
1.0
 30
0.0
  9
$UCSORTHOREF
  2

  9
$UCSORTHOVIEW
 70
     0
  9
$UCSORGTOP
 10
0.0
 20
0.0
 30
0.0
  9
$UCSORGBOTTOM
 10
0.0
 20
0.0
 30
0.0
  9
$UCSORGLEFT
 10
0.0
 20
0.0
 30
0.0
  9
$UCSORGRIGHT
 10
0.0
 20
0.0
 30
0.0
  9
$UCSORGFRONT
 10
0.0
 20
0.0
 30
0.0
  9
$UCSORGBACK
 10
0.0
 20
0.0
 30
0.0
  9
$PUCSBASE
  2

  9
$PUCSNAME
  2

  9
$PUCSORG
 10
0.0
 20
0.0
 30
0.0
  9
$PUCSXDIR
 10
1.0
 20
0.0
 30
0.0
  9
$PUCSYDIR
 10
0.0
 20
1.0
 30
0.0
  9
$PUCSORTHOREF
  2

  9
$PUCSORTHOVIEW
 70
     0
  9
$PUCSORGTOP
 10
0.0
 20
0.0
 30
0.0
  9
$PUCSORGBOTTOM
 10
0.0
 20
0.0
 30
0.0
  9
$PUCSORGLEFT
 10
0.0
 20
0.0
 30
0.0
  9
$PUCSORGRIGHT
 10
0.0
 20
0.0
 30
0.0
  9
$PUCSORGFRONT
 10
0.0
 20
0.0
 30
0.0
  9
$PUCSORGBACK
 10
0.0
 20
0.0
 30
0.0
  9
$USERI1
 70
     0
  9
$USERI2
 70
     0
  9
$USERI3
 70
     0
  9
$USERI4
 70
     0
  9
$USERI5
 70
     0
  9
$USERR1
 40
0.0
  9
$USERR2
 40
0.0
  9
$USERR3
 40
0.0
  9
$USERR4
 40
0.0
  9
$USERR5
 40
0.0
  9
$WORLDVIEW
 70
     1
  9
$SHADEDGE
 70
     3
  9
$SHADEDIF
 70
    70
  9
$TILEMODE
 70
     1
  9
$MAXACTVP
 70
    64
  9
$PINSBASE
 10
0.0
 20
0.0
 30
0.0
  9
$PLIMCHECK
 70
     0
  9
$PEXTMIN
 10
1.000000000000000E+20
 20
1.000000000000000E+20
 30
1.000000000000000E+20
  9
$PEXTMAX
 10
-1.000000000000000E+20
 20
-1.000000000000000E+20
 30
-1.000000000000000E+20
  9
$PLIMMIN
 10
-3.17498779296875
 20
-3.174999952316284
  9
$PLIMMAX
 10
293.4970092773438
 20
206.692492723465
  9
$UNITMODE
 70
     0
  9
$VISRETAIN
 70
     1
  9
$PLINEGEN
 70
     0
  9
$PSLTSCALE
 70
     1
  9
$TREEDEPTH
 70
  3020
  9
$CMLSTYLE
  2
Standard
  9
$CMLJUST
 70
     0
  9
$CMLSCALE
 40
20.0
  9
$PROXYGRAPHICS
 70
     1
  9
$MEASUREMENT
 70
     1
  9
$CELWEIGHT
370
    -1
  9
$ENDCAPS
280
     0
  9
$JOINSTYLE
280
     0
  9
$LWDISPLAY
290
     1
  9
$INSUNITS
 70
     4
  9
$HYPERLINKBASE
  1

  9
$STYLESHEET
  1
monochrome.ctb
  9
$XEDIT
290
     1
  9
$CEPSNTYPE
380
     0
  9
$PSTYLEMODE
290
     1
  9
$FINGERPRINTGUID
  2
{E0FB5660-30B4-4D8A-8C1D-9D7E99D72F0A}
  9
$VERSIONGUID
  2
{C4240D89-8DBF-4677-BD2F-943E5EC88D81}
  9
$EXTNAMES
290
     1
  9
$PSVPSCALE
 40
0.0
  9
$OLESTARTUP
290
     0
  9
$SORTENTS
280
   127
  9
$INDEXCTL
280
     0
  9
$HIDETEXT
280
     0
  9
$XCLIPFRAME
290
     0
  9
$HALOGAP
280
     0
  9
$OBSCOLOR
 70
   257
  9
$OBSLTYPE
280
     0
  9
$INTERSECTIONDISPLAY
280
     0
  9
$INTERSECTIONCOLOR
 70
   257
  9
$DIMASSOC
280
     1
  9
$PROJECTNAME
  1

  0
ENDSEC
  0
SECTION
  2
CLASSES
  0
CLASS
  1
ACDBDICTIONARYWDFLT
  2
AcDbDictionaryWithDefault
  3
ObjectDBX Classes
 90
        0
 91
        1
280
     0
281
     0
  0
CLASS
  1
ACDBPLACEHOLDER
  2
AcDbPlaceHolder
  3
ObjectDBX Classes
 90
        0
 91
        1
280
     0
281
     0
  0
CLASS
  1
LAYOUT
  2
AcDbLayout
  3
ObjectDBX Classes
 90
        0
 91
        3
280
     0
281
     0
  0
CLASS
  1
AMGSETTINGSOBJ
  2
AmgSettingsObj
  3
"AcadM|Product Description: AutoCAD Mechanical|Company: Autodesk"
 90
        0
 91
        4
280
     0
281
     0
  0
CLASS
  1
ACME_DOCUMENT
  2
AcMeDbDoc
  3
AcMeServices
 90
        0
 91
        2
280
     0
281
     0
  0
CLASS
  1
ACMESCOPE
  2
AcMeScope
  3
AcMeServices
 90
        0
 91
        1
280
     0
281
     0
  0
CLASS
  1
ACMECOMMANDHISTORY
  2
AcMeCommandHistory
  3
AcMeServices
 90
        0
 91
        1
280
     0
281
     0
  0
CLASS
  1
DICTIONARYVAR
  2
AcDbDictionaryVar
  3
ObjectDBX Classes
 90
        0
 91
        6
280
     0
281
     0
  0
CLASS
  1
ACIMSYSVARMAN
  2
AcImSysVarManager
  3
AcMeServices
 90
        0
 91
        6
280
     0
281
     0
  0
CLASS
  1
ACIMREALSYSVAR
  2
AcImRealSysVar
  3
AcMeServices
 90
        0
 91
       16
280
     0
281
     0
  0
CLASS
  1
ACIMINTSYSVAR
  2
AcImIntSysVar
  3
AcMeServices
 90
        0
 91
       49
280
     0
281
     0
  0
CLASS
  1
ACMEDRAWINGMAN
  2
AcMeDrawingMan
  3
AcMeServices
 90
        0
 91
        1
280
     0
281
     0
  0
CLASS
  1
ACMEVIEW
  2
AcMeView
  3
AcMeServices
 90
        0
 91
        1
280
     0
281
     0
  0
CLASS
  1
ACDBENTITYCACHE
  2
AcMeEntityCache
  3
AcMeServices
 90
        0
 91
        1
280
     0
281
     0
  0
CLASS
  1
GSMANAGER
  2
AcMeGSManager
  3
AcMeServices
 90
        0
 91
        1
280
     0
281
     0
  0
CLASS
  1
AMDTINTERNALREACTOR
  2
AmdtInternalReactor
  3
AcMeServices
 90
        0
 91
        2
280
     0
281
     0
  0
CLASS
  1
ACMESTATEMGR
  2
AcMeStateMgr
  3
AcMeServices
 90
        0
 91
        1
280
     0
281
     0
  0
CLASS
  1
ACGREFMASTER
  2
AcGrefMaster
  3
AcAttribServices
 90
        0
 91
        1
280
     0
281
     0
  0
CLASS
  1
ACME_DATABASE
  2
AcMeDbDatabase
  3
AcMeServices
 90
        0
 91
        1
280
     0
281
     0
  0
CLASS
  1
ACRFINSADJUSTERMGR
  2
AcRfInsAdjusterMgr
  3
AcMeServices
 90
        0
 91
        1
280
     0
281
     0
  0
CLASS
  1
ACGREFACADMASTER
  2
AcGrefacadMaster
  3
AcGrefServices
 90
        0
 91
        1
280
     0
281
     0
  0
CLASS
  1
AMIMASTER
  2
AmiMaster
  3
AmiServices
 90
        0
 91
        1
280
     0
281
     0
  0
CLASS
  1
ACMDATADICTIONARY
  2
AcmDataDictionary
  3
"AcmSymBB|Product Description: AutoCAD Mechanical|Company: Autodesk"
 90
        0
 91
        1
280
     0
281
     0
  0
CLASS
  1
ACMDATAENTRYBLOCK
  2
AcmDataEntryBlock
  3
"AcmSymBB|Product Description: AutoCAD Mechanical|Company: Autodesk"
 90
        0
 91
       10
280
     0
281
     0
  0
CLASS
  1
ACIMSTRSYSVAR
  2
AcImStrSysVar
  3
AcMeServices
 90
        0
 91
       11
280
     0
281
     0
  0
CLASS
  1
ACMSTANDARDISO
  2
AcmStandardISO
  3
"Amdt_StdImp|Product Description: AutoCAD Mechanical|Company: Autodesk"
 90
        0
 91
        2
280
     0
281
     0
  0
CLASS
  1
AMGOBJPROPCFG
  2
AmgObjPropCfg
  3
"AmgLay|Product Description: AutoCAD Mechanical|Company: Autodesk"
 90
        1
 91
        1
280
     0
281
     0
  0
CLASS
  1
AMDTEDGESTANDARDISO
  2
AmdtEdgeStdISO
  3
"Amdt_StdImp|Product Description: AutoCAD Mechanical|Company: Autodesk"
 90
        0
 91
        2
280
     0
281
     0
  0
CLASS
  1
ACMSURFSTANDARDISO
  2
AcmSurfTextStdISO
  3
"Amdt_StdImp|Product Description: AutoCAD Mechanical|Company: Autodesk"
 90
        0
 91
        2
280
     0
281
     0
  0
CLASS
  1
ACMFCFSTANDARDISO
  2
AcmFCFStdISO
  3
"Amdt_StdImp|Product Description: AutoCAD Mechanical|Company: Autodesk"
 90
        0
 91
        2
280
     0
281
     0
  0
CLASS
  1
ACMWELDSTANDARDISO
  2
AcmWeldingStdISO
  3
"Amdt_StdImp|Product Description: AutoCAD Mechanical|Company: Autodesk"
 90
        0
 91
        2
280
     0
281
     0
  0
CLASS
  1
ACMIDSTANDARDISO
  2
AcmIdStdISO
  3
"Amdt_StdImp|Product Description: AutoCAD Mechanical|Company: Autodesk"
 90
        0
 91
        2
280
     0
281
     0
  0
CLASS
  1
ACMDATUMSTANDARDISO
  2
AcmDatumStdISO
  3
"Amdt_StdImp|Product Description: AutoCAD Mechanical|Company: Autodesk"
 90
        0
 91
        2
280
     0
281
     0
  0
CLASS
  1
ACMBOMSTANDARDISO
  2
AcmBOMStdISO
  3
"Amdt_StdImp|Product Description: AutoCAD Mechanical|Company: Autodesk"
 90
        0
 91
        2
280
     0
281
     0
  0
CLASS
  1
ACMDETAILSTANDARDISO
  2
AmdtDetailSymStdISO
  3
"Amdt_StdImp|Product Description: AutoCAD Mechanical|Company: Autodesk"
 90
        0
 91
        2
280
     0
281
     0
  0
CLASS
  1
ACMSECTIONSTANDARDISO
  2
AmdtSectionSymStdISO
  3
"Amdt_StdImp|Product Description: AutoCAD Mechanical|Company: Autodesk"
 90
        0
 91
        2
280
     0
281
     0
  0
CLASS
  1
ACMCENTERLINESTANDARDISO
  2
AmdtCenterLineStdISO
  3
"Amdt_StdImp|Product Description: AutoCAD Mechanical|Company: Autodesk"
 90
        0
 91
        2
280
     0
281
     0
  0
CLASS
  1
ACAMGLAYSTD
  2
AcAmgLayStd
  3
"AmgLay|Product Description: AutoCAD Mechanical|Company: Autodesk"
 90
        0
 91
        3
280
     0
281
     0
  0
CLASS
  1
ACAMGDIMSTD
  2
AcAmgDimStd
  3
"AmgDim|Product Description: AutoCAD Mechanical|Company: Autodesk"
 90
        0
 91
        3
280
     0
281
     0
  0
CLASS
  1
ACAMGTITLESTD
  2
AcAmgTitleStd
  3
"AmgTitle|Product Description: AutoCAD Mechanical|Company: Autodesk"
 90
        0
 91
        3
280
     0
281
     0
  0
CLASS
  1
ACAMGFILTERDAT
  2
AcAmgFilterDat
  3
"AcadM|Product Description: AutoCAD Mechanical|Company: Autodesk"
 90
        0
 91
        6
280
     0
281
     0
  0
CLASS
  1
LAYER_INDEX
  2
AcDbLayerIndex
  3
ObjectDBX Classes
 90
        0
 91
        0
280
     0
281
     0
  0
CLASS
  1
IDBUFFER
  2
AcDbIdBuffer
  3
ObjectDBX Classes
 90
        0
 91
        0
280
     0
281
     0
  0
CLASS
  1
PLOTSETTINGS
  2
AcDbPlotSettings
  3
ObjectDBX Classes
 90
        0
 91
        0
280
     0
281
     0
  0
CLASS
  1
AMDTFORMULAUPDATEDISPATCHER
  2
AmdtFormulaUpdateDispatcher
  3
AcMeServices
 90
        0
 91
        1
280
     0
281
     0
  0
CLASS
  1
ACMSTANDARDANSI
  2
AcmStandardANSI
  3
"Amdt_StdImp|Product Description: AutoCAD Mechanical|Company: Autodesk"
 90
        0
 91
        1
280
     0
281
     0
  0
CLASS
  1
ACMSURFSTANDARDANSI
  2
AcmSurfTextStdANSI
  3
"Amdt_StdImp|Product Description: AutoCAD Mechanical|Company: Autodesk"
 90
        0
 91
        1
280
     0
281
     0
  0
CLASS
  1
ACMFCFSTANDARDANSI
  2
AcmFCFStdANSI
  3
"Amdt_StdImp|Product Description: AutoCAD Mechanical|Company: Autodesk"
 90
        0
 91
        1
280
     0
281
     0
  0
CLASS
  1
ACMWELDSTANDARDANSI
  2
AcmWeldingStdANSI
  3
"Amdt_StdImp|Product Description: AutoCAD Mechanical|Company: Autodesk"
 90
        0
 91
        1
280
     0
281
     0
  0
CLASS
  1
ACMIDSTANDARDANSI
  2
AcmIdStdANSI
  3
"Amdt_StdImp|Product Description: AutoCAD Mechanical|Company: Autodesk"
 90
        0
 91
        1
280
     0
281
     0
  0
CLASS
  1
ACMDATUMSTANDARDANSI
  2
AcmDatumStdANSI
  3
"Amdt_StdImp|Product Description: AutoCAD Mechanical|Company: Autodesk"
 90
        0
 91
        1
280
     0
281
     0
  0
CLASS
  1
ACMBOMSTANDARDANSI
  2
AcmBOMStdANSI
  3
"Amdt_StdImp|Product Description: AutoCAD Mechanical|Company: Autodesk"
 90
        0
 91
        1
280
     0
281
     0
  0
CLASS
  1
ACMDETAILSTANDARDANSI
  2
AmdtDetailSymStdANSI
  3
"Amdt_StdImp|Product Description: AutoCAD Mechanical|Company: Autodesk"
 90
        0
 91
        1
280
     0
281
     0
  0
CLASS
  1
ACMSECTIONSTANDARDANSI
  2
AmdtSectionSymStdANSI
  3
"Amdt_StdImp|Product Description: AutoCAD Mechanical|Company: Autodesk"
 90
        0
 91
        1
280
     0
281
     0
  0
CLASS
  1
ACMCENTERLINESTANDARDANSI
  2
AmdtCenterLineStdANSI
  3
"Amdt_StdImp|Product Description: AutoCAD Mechanical|Company: Autodesk"
 90
        0
 91
        1
280
     0
281
     0
  0
CLASS
  1
ACMBOM
  2
AcmBom
  3
"AcmSymBB|Product Description: AutoCAD Mechanical|Company: Autodesk"
 90
        0
 91
        1
280
     0
281
     0
  0
CLASS
  1
ACMDATAENTRYPART
  2
AcmDataEntryPart
  3
"AcmSymBB|Product Description: AutoCAD Mechanical|Company: Autodesk"
 90
        0
 91
       29
280
     0
281
     0
  0
CLASS
  1
ACMPARTREF
  2
AcmPartRef
  3
"AcmSymBB|Product Description: AutoCAD Mechanical|Company: Autodesk"
 90
     3071
 91
        0
280
     0
281
     1
  0
CLASS
  1
ACDBCIRCARCRES
  2
AcDbCircArcRes
  3
AcGrefServices
 90
        0
 91
        3
280
     0
281
     0
  0
CLASS
  1
ACMBOMROW
  2
AcmBomRow
  3
"AcmSymBB|Product Description: AutoCAD Mechanical|Company: Autodesk"
 90
        0
 91
        0
280
     0
281
     0
  0
CLASS
  1
ACMBALLOON
  2
AcmBalloon
  3
"AcmSymBB|Product Description: AutoCAD Mechanical|Company: Autodesk"
 90
     3071
 91
        0
280
     0
281
     1
  0
CLASS
  1
AMDTNOTE
  2
AmdtNote
  3
"AcmSymBB|Product Description: AutoCAD Mechanical|Company: Autodesk"
 90
     3071
 91
        2
280
     0
281
     1
  0
CLASS
  1
STDPART2D
  2
AmgStdPart
  3
"AmgStdPart|Product Description: AutoCAD Mechanical|Company: Autodesk"
 90
     3071
 91
        0
280
     0
281
     1
  0
CLASS
  1
ACDBSTDPARTRES_LINE
  2
AcDbStdPartRes_Line
  3
"AmgStdPart|Product Description: AutoCAD Mechanical|Company: Autodesk"
 90
        0
 91
        0
280
     0
281
     0
  0
CLASS
  1
ACMDATAENTRY
  2
AcmDataEntry
  3
"AcmSymBB|Product Description: AutoCAD Mechanical|Company: Autodesk"
 90
        0
 91
        9
280
     0
281
     0
  0
CLASS
  1
ACDBOPPOLYLINERES
  2
AcDbOpPolylineRes
  3
AcGrefServices
 90
        0
 91
        0
280
     0
281
     0
  0
CLASS
  1
ACMPARTLIST
  2
AcmPartList
  3
"AcmSymBB|Product Description: AutoCAD Mechanical|Company: Autodesk"
 90
     3071
 91
        0
280
     0
281
     1
  0
CLASS
  1
ACDBLINERES
  2
AcDbLineRes
  3
AcGrefServices
 90
        0
 91
       12
280
     0
281
     0
  0
CLASS
  1
ACRFINSADJ
  2
AcRfInsAdjuster
  3
AcMeServices
 90
        0
 91
        0
280
     0
281
     0
  0
CLASS
  1
AM_DRAWING_MGR
  2
AcDmDwgMgr
  3
AcMechDwgViewMgmt
 90
        0
 91
        1
280
     0
281
     0
  0
CLASS
  1
AM_DWG_DOCUMENT
  2
AcDmDwgDocument
  3
AcMechDwgViewMgmt
 90
        0
 91
        1
280
     0
281
     0
  0
CLASS
  1
AM_DWG_SHEET
  2
AcDmSheet
  3
AcMechDwgViewMgmt
 90
        0
 91
        2
280
     0
281
     0
  0
CLASS
  1
AM_VIEWDIMPARMAP
  2
AcDmViewDimParMap
  3
AcMechDwgViewMgmt
 90
        0
 91
        2
280
     0
281
     0
  0
CLASS
  1
AM_DWGMGR_NAME
  2
AcDmDwgMgrName
  3
AcMechDwgViewMgmt
 90
        0
 91
        1
280
     0
281
     0
  0
CLASS
  1
AMDTMENUSTATEMGR
  2
AmdtMenuStateMgr
  3
McadcomServices
 90
        0
 91
        1
280
     0
281
     0
  0
CLASS
  1
AMDTMCOMMENUSTATE
  2
AmdtMcomMenuState
  3
McadcomServices
 90
        0
 91
        1
280
     0
281
     0
  0
CLASS
  1
ASAPP
  2
AcAsAppObject
  3
AutoSurfServices
 90
        0
 91
        2
280
     0
281
     0
  0
CLASS
  1
IM_STATIC_MAN
  2
AcImStaticVarManager
  3
AcMeServices
 90
        0
 91
        1
280
     0
281
     0
  0
CLASS
  1
ACIMDBLSTATICVAR
  2
AcImDblStaticVar
  3
AcMeServices
 90
        0
 91
       20
280
     0
281
     0
  0
CLASS
  1
ACIMSTRSTATICVAR
  2
AcImStrStaticVar
  3
AcMeServices
 90
        0
 91
       12
280
     0
281
     0
  0
CLASS
  1
ACIMINTSTATICVAR
  2
AcImIntStaticVar
  3
AcMeServices
 90
        0
 91
       17
280
     0
281
     0
  0
CLASS
  1
ACASGREFMASTER
  2
AcAsGrefMaster
  3
AutoSurfResolverServices
 90
        0
 91
        2
280
     0
281
     0
  0
CLASS
  1
ACADGREFMODULE
  2
AcAdGrefModule
  3
AdGrefServices
 90
        0
 91
        2
280
     0
281
     0
  0
CLASS
  1
AMDTMAPISURFMOUDULE
  2
AmdtMApiSurfModule
  3
MApiSurfServices
 90
        0
 91
        2
280
     0
281
     0
  0
CLASS
  1
MAPIAMMOUDLE
  2
MApiAmModule
  3
MApiAmServices
 90
        0
 91
        1
280
     0
281
     0
  0
CLASS
  1
AMDTADMENUSTATE
  2
AmdtAdMenuState
  3
DesignerServices
 90
        0
 91
        1
280
     0
281
     0
  0
CLASS
  1
ADAPPL
  2
AcAdAppl
  3
DesignerServices
 90
        0
 91
        1
280
     0
281
     0
  0
CLASS
  1
DEPMGR
  2
AcAdDepMgr
  3
DesignerServices
 90
        0
 91
        1
280
     0
281
     0
  0
CLASS
  1
PARAMMGR
  2
AcAdParamMgr
  3
DesignerServices
 90
        0
 91
        1
280
     0
281
     0
  0
CLASS
  1
PARAMSCOPE
  2
AcAdParamScope
  3
DesignerServices
 90
        0
 91
        1
280
     0
281
     0
  0
CLASS
  1
NAMEDAPPL
  2
AcAdNamedAppl
  3
DesignerServices
 90
        0
 91
        1
280
     0
281
     0
  0
CLASS
  1
ADHNTMPLT
  2
AdHoleNoteTemplateMgr
  3
DesignerServices
 90
        0
 91
        0
280
     0
281
     0
  0
CLASS
  1
AM_HNTEMPLATE_MGR_NAME
  2
AdHoleNoteTemplateMgrName
  3
DesignerServices
 90
        0
 91
        0
280
     0
281
     0
  0
CLASS
  1
AMDTDMMENUSTATE
  2
AmdtDmMenuState
  3
AcMechDwgViewMgmt
 90
        0
 91
        1
280
     0
281
     0
  0
CLASS
  1
MAPIADMODULE
  2
MApiAdModule
  3
MApiAdServices
 90
        0
 91
        2
280
     0
281
     0
  0
CLASS
  1
AMDTAMMENUSTATE
  2
AmdtAmMenuState
  3
DesignerAssemblies
 90
        0
 91
        1
280
     0
281
     0
  0
CLASS
  1
ACAMPROJECT
  2
AcAmProject
  3
DesignerAssemblies
 90
        0
 91
        1
280
     0
281
     0
  0
CLASS
  1
ACAMGRCOMPDEF
  2
AcAmGrCompDef
  3
DesignerAssemblies
 90
        0
 91
        1
280
     0
281
     0
  0
CLASS
  1
ACCMCONTEXT
  2
AcCmContext
  3
DesignerAssemblies
 90
        0
 91
        1
280
     0
281
     0
  0
CLASS
  1
ACAMCOMPDEF
  2
AcAmCompDef
  3
DesignerAssemblies
 90
        0
 91
        1
280
     0
281
     0
  0
CLASS
  1
ACAMCOMPDEFMGR
  2
AcAmCompDefMgr
  3
DesignerAssemblies
 90
        0
 91
        1
280
     0
281
     0
  0
CLASS
  1
AMCONTEXTMGR
  2
AcAmContextMgr
  3
DesignerAssemblies
 90
        0
 91
        1
280
     0
281
     0
  0
CLASS
  1
ACAMCONTEXTMODELER
  2
AcAmContextModeler
  3
DesignerAssemblies
 90
        0
 91
        1
280
     0
281
     0
  0
CLASS
  1
CATALOGSTATE
  2
AcAmCatalogState
  3
DesignerAssemblies
 90
        0
 91
        1
280
     0
281
     0
  0
CLASS
  1
ACAMGRCOMPDEFSET
  2
AcAmGrCompDefSet
  3
DesignerAssemblies
 90
        0
 91
        1
280
     0
281
     0
  0
CLASS
  1
AMDTBROWSERDBTAB
  2
AmdtBrowserDbTab
  3
McadcomServices
 90
        0
 91
        1
280
     0
281
     0
  0
CLASS
  1
CBROWSERAPPOBJECT
  2
CBrowserAppObject
  3
McadcomServices
 90
        0
 91
        3
280
     0
281
     0
  0
CLASS
  1
DM_PLACEHOLDER
  2
AcDmSelsetPlaceholder
  3
AcMechDwgViewMgmt
 90
        0
 91
        1
280
     0
281
     0
  0
CLASS
  1
ACMPICKOBJ
  2
AcmPickEnt
  3
"AcmSymBB|Product Description: AutoCAD Mechanical|Company: Autodesk"
 90
        0
 91
        0
280
     0
281
     1
  0
CLASS
  1
ACMNOTESTANDARDISO
  2
AmdtNoteStdISO
  3
"Amdt_StdImp|Product Description: AutoCAD Mechanical|Company: Autodesk"
 90
        0
 91
        2
280
     0
281
     0
  0
CLASS
  1
ACMNOTESTANDARDANSI
  2
AmdtNoteStdANSI
  3
"Amdt_StdImp|Product Description: AutoCAD Mechanical|Company: Autodesk"
 90
        0
 91
        1
280
     0
281
     0
  0
CLASS
  1
ACMTHREADLINESTANDARDISO
  2
AmdtThreadLineStdISO
  3
"Amdt_StdImp|Product Description: AutoCAD Mechanical|Company: Autodesk"
 90
        0
 91
        2
280
     0
281
     0
  0
CLASS
  1
ACMTHREADLINESTANDARDANSI
  2
AmdtThreadLineStdANSI
  3
"Amdt_StdImp|Product Description: AutoCAD Mechanical|Company: Autodesk"
 90
        0
 91
        1
280
     0
281
     0
  0
CLASS
  1
TABLESTYLE
  2
AcDbTableStyle
  3
ObjectDBX Classes
 90
     4095
 91
        1
280
     0
281
     0
  0
CLASS
  1
SORTENTSTABLE
  2
AcDbSortentsTable
  3
ObjectDBX Classes
 90
        0
 91
        1
280
     0
281
     0
  0
CLASS
  1
MATERIAL
  2
AcDbMaterial
  3
ObjectDBX Classes
 90
     1153
 91
        3
280
     0
281
     0
  0
CLASS
  1
VISUALSTYLE
  2
AcDbVisualStyle
  3
ObjectDBX Classes
 90
     4095
 91
       16
280
     0
281
     0
  0
CLASS
  1
ACRFATTGENMGR
  2
AcRfAttGeneralMgr
  3
AcAttribServices
 90
        0
 91
        1
280
     0
281
     0
  0
CLASS
  1
ACRFOBJATTMGR
  2
AcRfObjAttGroupMgr
  3
AcAttribServices
 90
        0
 91
        1
280
     0
281
     0
  0
CLASS
  1
ACRFMCADAPIATTHOLDER
  2
AcRfMCADAPIAttHolder
  3
AcAttribServices
 90
        0
 91
        1
280
     0
281
     0
  0
CLASS
  1
AMDTSYSATTR
  2
AmdtSystemAttribute
  3
AcAttribServices
 90
        0
 91
        6
280
     0
281
     0
  0
CLASS
  1
ACMTAPERSTANDARDISO
  2
AcmTaperStdISO
  3
"Amdt_StdImp|Product Description: AutoCAD Mechanical|Company: Autodesk"
 90
        0
 91
        2
280
     0
281
     0
  0
CLASS
  1
CAMSSTRUCTBTNSTATE
  2
StructBtnState
  3
L"DesignerAssemblies"
 90
        0
 91
        1
280
     0
281
     0
  0
CLASS
  1
DIMASSOC
  2
AcDbDimAssoc
  3
"AcDbDimAssoc|Product Desc:     AcDim ARX App For Dimension|Company:          Autodesk, Inc.|WEB Address:      www.autodesk.com"
 90
        0
 91
        0
280
     0
281
     0
  0
CLASS
  1
AMDTNOTETEMPLATEDB
  2
AmdtNoteTemplateDB
  3
AMDT_STDIMP_MODULE_NAME
 90
        0
 91
       14
280
     0
281
     0
  0
CLASS
  1
ACMTAPERSTANDARDANSI
  2
AcmTaperStdANSI
  3
"Amdt_StdImp|Product Description: AutoCAD Mechanical|Company: Autodesk"
 90
        0
 91
        1
280
     0
281
     0
  0
CLASS
  1
ACAMGHOLECHARTSTDANSI
  2
AcAmgHoleChartStdANSI
  3
ACMSYMBB_MODULE_NAME
 90
        0
 91
        1
280
     0
281
     0
  0
CLASS
  1
AMDTACMWBLOCKBOMENTITY
  2
AmdtAcmWblockBomEntity
  3
"AcmSymBB|Product Description: AutoCAD Mechanical|Company: Autodesk"
 90
     3071
 91
       20
280
     0
281
     1
  0
CLASS
  1
EXACXREFPANELOBJECT
  2
ExAcXREFPanelObject
  3
EXAC_ESW
 90
     1025
 91
        0
280
     0
281
     0
  0
CLASS
  1
NPOCOLLECTION
  2
AcDbImpNonPersistentObjectsCollection
  3
ObjectDBX Classes
 90
     1153
 91
        0
280
     0
281
     0
  0
CLASS
  1
LARGE_RADIAL_DIMENSION
  2
AcDbRadialDimensionLarge
  3
ObjectDBX Classes
 90
     1025
 91
        0
280
     0
281
     1
  0
ENDSEC
  0
SECTION
  2
TABLES
  0
TABLE
  2
VPORT
  5
8
330
0
100
AcDbSymbolTable
 70
     1
  0
VPORT
  5
B0EC
330
8
100
AcDbSymbolTableRecord
100
AcDbViewportTableRecord
  2
*Active
 70
     0
 10
0.0
 20
0.0
 11
1.0
 21
1.0
 12
6211.473373777595
 22
27.56248169854587
 13
0.0
 23
0.0
 14
2.5
 24
2.5
 15
10.0
 25
10.0
 16
0.0
 26
0.0
 36
1.0
 17
0.0
 27
0.0
 37
0.0
 40
2040.343302520961
 41
1.009032258064516
 42
50.0
 43
-1370.695619172058
 44
-1370.695619172058
 50
0.0
 51
0.0
 71
     0
 72
   100
 73
     1
 74
     3
 75
     0
 76
     0
 77
     0
 78
     0
281
     0
 65
     0
110
0.0
120
0.0
130
0.0
111
1.0
121
0.0
131
0.0
112
0.0
122
1.0
132
0.0
 79
     0
146
0.0
  0
ENDTAB
  0
TABLE
  2
LTYPE
  5
5
330
0
100
AcDbSymbolTable
 70
    39
  0
LTYPE
  5
14
330
5
100
AcDbSymbolTableRecord
100
AcDbLinetypeTableRecord
  2
ByBlock
 70
     0
  3

 72
    65
 73
     0
 40
0.0
  0
LTYPE
  5
15
330
5
100
AcDbSymbolTableRecord
100
AcDbLinetypeTableRecord
  2
ByLayer
 70
     0
  3

 72
    65
 73
     0
 40
0.0
  0
LTYPE
  5
16
330
5
100
AcDbSymbolTableRecord
100
AcDbLinetypeTableRecord
  2
Continuous
 70
     0
  3
Solid line
 72
    65
 73
     0
 40
0.0
  0
LTYPE
  5
4F
330
5
100
AcDbSymbolTableRecord
100
AcDbLinetypeTableRecord
  2
AM_ISO02W050
 70
     0
  3
__ __ __ __ __ __ __ __ __ __ __ __ __ __ __
 72
    65
 73
     2
 40
7.5
 49
6.0
 74
     0
 49
-1.5
 74
     0
  0
LTYPE
  5
52
330
5
100
AcDbSymbolTableRecord
100
AcDbLinetypeTableRecord
  2
Amconstr
 70
     0
  3
_______________________
 72
    65
 73
     2
 40
9999.0
 49
9999.0
 74
     0
 49
0.0
 74
     0
  0
LTYPE
  5
64
330
5
100
AcDbSymbolTableRecord
100
AcDbLinetypeTableRecord
  2
ACISOWELD
 70
     0
  3
_ _ _ _ _
 72
    65
 73
     2
 40
2.0
 49
2.0
 74
     0
 49
-1.0
 74
     0
  0
LTYPE
  5
65
330
5
100
AcDbSymbolTableRecord
100
AcDbLinetypeTableRecord
  2
ACISOTGB
 70
     0
  3
__ . . __ . .
 72
    65
 73
     6
 40
9.0
 49
4.0
 74
     0
 49
-1.0
 74
     0
 49
1.0
 74
     0
 49
-1.0
 74
     0
 49
1.0
 74
     0
 49
-1.0
 74
     0
  0
LTYPE
  5
66
330
5
100
AcDbSymbolTableRecord
100
AcDbLinetypeTableRecord
  2
ACISOTGL
 70
     0
  3
_ _ _ _ _
 72
    65
 73
     2
 40
3.0
 49
2.0
 74
     0
 49
-1.0
 74
     0
  0
LTYPE
  5
69
330
5
100
AcDbSymbolTableRecord
100
AcDbLinetypeTableRecord
  2
CENTER
 70
     0
  3
__ . __
 72
    65
 73
     4
 40
7.0
 49
4.0
 74
     0
 49
-1.0
 74
     0
 49
1.0
 74
     0
 49
-1.0
 74
     0
  0
LTYPE
  5
A6E
330
5
100
AcDbSymbolTableRecord
100
AcDbLinetypeTableRecord
  2
PHANTOM2
 70
     0
  3
Phantom (.5x) ___ _ _ ___ _ _ ___ _ _ ___ _ _
 72
    65
 73
     6
 40
31.75
 49
15.875
 74
     0
 49
-3.174999999999999
 74
     0
 49
3.174999999999999
 74
     0
 49
-3.174999999999999
 74
     0
 49
3.174999999999999
 74
     0
 49
-3.174999999999999
 74
     0
  0
LTYPE
  5
4DED
330
5
100
AcDbSymbolTableRecord
100
AcDbLinetypeTableRecord
  2
中線
 70
     0
  3
___________________
 72
    65
 73
     2
 40
2.0
 49
1.0
 74
     0
 49
1.0
 74
     0
  0
LTYPE
  5
4DF6
330
5
100
AcDbSymbolTableRecord
100
AcDbLinetypeTableRecord
  2
細線
 70
     0
  3
___________________
 72
    65
 73
     2
 40
2.0
 49
1.0
 74
     0
 49
1.0
 74
     0
  0
LTYPE
  5
4DF7
330
5
100
AcDbSymbolTableRecord
100
AcDbLinetypeTableRecord
  2
太線
 70
     0
  3
___________________
 72
    65
 73
     2
 40
2.0
 49
1.0
 74
     0
 49
1.0
 74
     0
  0
LTYPE
  5
4EA7
330
5
100
AcDbSymbolTableRecord
100
AcDbLinetypeTableRecord
  2
文字
 70
     0
  3
_________________
 72
    65
 73
     2
 40
2.0
 49
1.0
 74
     0
 49
1.0
 74
     0
  0
LTYPE
  5
4EA9
330
5
100
AcDbSymbolTableRecord
100
AcDbLinetypeTableRecord
  2
寸法線
 70
     0
  3
________________
 72
    65
 73
     2
 40
2.0
 49
1.0
 74
     0
 49
1.0
 74
     0
  0
LTYPE
  5
4F12
330
5
100
AcDbSymbolTableRecord
100
AcDbLinetypeTableRecord
  2
ハッチング
 70
     0
  3
_________________
 72
    65
 73
     2
 40
2.0
 49
1.0
 74
     0
 49
1.0
 74
     0
  0
LTYPE
  5
5180
330
5
100
AcDbSymbolTableRecord
100
AcDbLinetypeTableRecord
  2
陰線1
 70
     0
  3
__ __ __ __
 72
    65
 73
     2
 40
4.0
 49
2.2
 74
     0
 49
-1.8
 74
     0
  0
LTYPE
  5
5182
330
5
100
AcDbSymbolTableRecord
100
AcDbLinetypeTableRecord
  2
切断線
 70
     0
  3
/\/-/\/-/\/-/\/-/\/-/\/
 72
    65
 73
     2
 40
11.0001
 49
0.0001
 74
     4
 75
   135
340
56
 46
0.04
 50
0.0
 44
0.0
 45
0.0
 49
-11.0
 74
     0
  0
LTYPE
  5
5183
330
5
100
AcDbSymbolTableRecord
100
AcDbLinetypeTableRecord
  2
想像線1
 70
     0
  3
__ __ __ _____ __ __ ____
 72
    65
 73
     6
 40
14.5
 49
6.0
 74
     0
 49
-1.5
 74
     0
 49
2.0
 74
     0
 49
-1.5
 74
     0
 49
2.0
 74
     0
 49
-1.5
 74
     0
  0
LTYPE
  5
5185
330
5
100
AcDbSymbolTableRecord
100
AcDbLinetypeTableRecord
  2
中心線1
 70
     0
  3
___ _ ___ _ ___
 72
    65
 73
     4
 40
18.0
 49
12.0
 74
     0
 49
-2.0
 74
     0
 49
2.0
 74
     0
 49
-2.0
 74
     0
  0
LTYPE
  5
5188
330
5
100
AcDbSymbolTableRecord
100
AcDbLinetypeTableRecord
  2
補助線
 70
     0
  3
______________
 72
    65
 73
     2
 40
2.0
 49
1.0
 74
     0
 49
1.0
 74
     0
  0
LTYPE
  5
6427
330
5
100
AcDbSymbolTableRecord
100
AcDbLinetypeTableRecord
  2
HIDDEN
 70
     0
  3
Hidden __ __ __ __ __ __ __ __ __ __ __ __ __ _
 72
    65
 73
     2
 40
0.375
 49
0.25
 74
     0
 49
-0.125
 74
     0
  0
LTYPE
  5
AC81
330
5
100
AcDbSymbolTableRecord
100
AcDbLinetypeTableRecord
  2
破断線
 70
     0
  3
/\/-/\/-/\/-/\/-/\/-/\/
 72
    65
 73
     2
 40
0.4401
 49
0.0001
 74
     4
 75
   136
340
AC80
 46
0.0016
 50
0.0
 44
0.0
 45
0.0
 49
-0.4400000000000001
 74
     0
  0
LTYPE
  5
AC9E
330
5
100
AcDbSymbolTableRecord
100
AcDbLinetypeTableRecord
  2
Amzigzag
 70
     0
  3
/\/-/\/-/\/-/\/-/\/-/\/
 72
    65
 73
     2
 40
11.0001
 49
0.0001
 74
     4
 75
   135
340
56
 46
0.04
 50
0.0
 44
0.0
 45
0.0
 49
-11.0
 74
     0
  0
LTYPE
  5
AF0F
330
5
100
AcDbSymbolTableRecord
100
AcDbLinetypeTableRecord
  2
genzigzag
 70
     0
  3
/\/-/\/-/\/-/\/-/\/-/\/
 72
    65
 73
     2
 40
12.0001
 49
0.0001
 74
     4
 75
   135
340
AC80
 46
2.0
 50
0.0
 44
0.0
 45
0.0
 49
-12.0
 74
     0
  0
LTYPE
  5
AF95
330
5
100
AcDbSymbolTableRecord
100
AcDbLinetypeTableRecord
  2
AM_ISO08W050
 70
     0
  3
____ . ____ . ____ . ____ . ____ . ____ . ____
 72
    65
 73
     4
 40
18.0
 49
12.0
 74
     0
 49
-1.5
 74
     0
 49
3.0
 74
     0
 49
-1.5
 74
     0
  0
LTYPE
  5
AF96
330
5
100
AcDbSymbolTableRecord
100
AcDbLinetypeTableRecord
  2
AM_ISO09W050
 70
     0
  3
_____ . . _____ . . _____ . . ____ .. ____
 72
    65
 73
     6
 40
22.5
 49
12.0
 74
     0
 49
-1.5
 74
     0
 49
3.0
 74
     0
 49
-1.5
 74
     0
 49
3.0
 74
     0
 49
-1.5
 74
     0
  0
LTYPE
  5
AF97
330
5
100
AcDbSymbolTableRecord
100
AcDbLinetypeTableRecord
  2
AM_ISO08W050x2
 70
     0
  3
__ . __ . __ . __ . __ . __
 72
    65
 73
     4
 40
9.0
 49
6.0
 74
     0
 49
-0.75
 74
     0
 49
1.5
 74
     0
 49
-0.75
 74
     0
  0
LTYPE
  5
AF98
330
5
100
AcDbSymbolTableRecord
100
AcDbLinetypeTableRecord
  2
AM_ISO02W050x2
 70
     0
  3
 _ _ _ _ _ _ _ _ _ _ _ _
 72
    65
 73
     2
 40
3.75
 49
3.0
 74
     0
 49
-0.75
 74
     0
  0
LTYPE
  5
1D53A
330
5
100
AcDbSymbolTableRecord
100
AcDbLinetypeTableRecord
  2
DASHED
 70
     0
  3
__ __ __ __ __ __ __ __ __ __ __ __ __ __ __
 72
    65
 73
     2
 40
3.5
 49
2.0
 74
     0
 49
-1.5
 74
     0
  0
LTYPE
  5
1D53B
330
5
100
AcDbSymbolTableRecord
100
AcDbLinetypeTableRecord
  2
CENTER2
 70
     0
  3
Center (.5x) ___ _ ___ _ ___ _ ___ _ ___ _ ___
 72
    65
 73
     4
 40
1.125
 49
0.75
 74
     0
 49
-0.125
 74
     0
 49
0.125
 74
     0
 49
-0.125
 74
     0
  0
LTYPE
  5
1D53C
330
5
100
AcDbSymbolTableRecord
100
AcDbLinetypeTableRecord
  2
HIDDEN2
 70
     0
  3
Hidden (.5x) _ _ _ _ _ _ _ _ _ _ _ _ _ _ _ _ _
 72
    65
 73
     2
 40
0.1875
 49
0.125
 74
     0
 49
-0.0625
 74
     0
  0
LTYPE
  5
1D53D
330
5
100
AcDbSymbolTableRecord
100
AcDbLinetypeTableRecord
  2
Amzigzag2
 70
     0
  3
/\/-/\/-/\/-/\/-/\/-/\/
 72
    65
 73
     2
 40
0.4401
 49
0.0001
 74
     4
 75
   136
340
AC80
 46
0.0016
 50
0.0
 44
0.0
 45
0.0
 49
-0.4400000000000001
 74
     0
  0
LTYPE
  5
1D53E
330
5
100
AcDbSymbolTableRecord
100
AcDbLinetypeTableRecord
  2
ACANSTGB
 70
     0
  3
__ . . __ . .
 72
    65
 73
     6
 40
0.35433070866
 49
0.15748031496
 74
     0
 49
-0.03937007874
 74
     0
 49
0.03937007874
 74
     0
 49
-0.03937007874
 74
     0
 49
0.03937007874
 74
     0
 49
-0.03937007874
 74
     0
  0
LTYPE
  5
1D53F
330
5
100
AcDbSymbolTableRecord
100
AcDbLinetypeTableRecord
  2
ACANSTGL
 70
     0
  3
_ _ _ _ _
 72
    65
 73
     2
 40
0.11811023622
 49
0.07874015748
 74
     0
 49
-0.03937007874
 74
     0
  0
LTYPE
  5
3215C
330
5
100
AcDbSymbolTableRecord
100
AcDbLinetypeTableRecord
  2
PHANTOM
 70
     0
  3
_____ _ _ _____ _ _ _____ _ _ _____ _ _ ____  
 72
    65
 73
     6
 40
15.5
 49
8.0
 74
     0
 49
-1.5
 74
     0
 49
1.5
 74
     0
 49
-1.5
 74
     0
 49
1.5
 74
     0
 49
-1.5
 74
     0
  0
LTYPE
  5
53A3B
330
5
100
AcDbSymbolTableRecord
100
AcDbLinetypeTableRecord
  2
中心線2
 70
     0
  3
 -+-
 72
    65
 73
     4
 40
9.5
 49
6.0
 74
     0
 49
-1.0
 74
     0
 49
1.5
 74
     0
 49
-1.0
 74
     0
  0
LTYPE
  5
53A3C
330
5
100
AcDbSymbolTableRecord
100
AcDbLinetypeTableRecord
  2
想像線2
 70
     0
  3
__ _ _ __ _ _ __
 72
    65
 73
     6
 40
6.9
 49
2.5
 74
     0
 49
-0.8
 74
     0
 49
1.0
 74
     0
 49
-0.8
 74
     0
 49
1.0
 74
     0
 49
-0.8
 74
     0
  0
LTYPE
  5
53A3D
330
5
100
AcDbSymbolTableRecord
100
AcDbLinetypeTableRecord
  2
JIS_08_11
 70
     0
  3
1SASEN11 ___ _ ___ _ ___ _ ___ _ ___ _ ___
 72
    65
 73
     4
 40
12.8
 49
11.0
 74
     0
 49
-0.6
 74
     0
 49
0.6
 74
     0
 49
-0.6
 74
     0
  0
LTYPE
  5
53A3E
330
5
100
AcDbSymbolTableRecord
100
AcDbLinetypeTableRecord
  2
DIVIDE
 70
     0
  3
__ . . __ . . 
 72
    65
 73
     6
 40
9.769736842105263
 49
3.907894736842103
 74
     0
 49
-1.953947368421053
 74
     0
 49
0.0
 74
     0
 49
-1.953947368421053
 74
     0
 49
0.0
 74
     0
 49
-1.953947368421053
 74
     0
  0
LTYPE
  5
53A3F
330
5
100
AcDbSymbolTableRecord
100
AcDbLinetypeTableRecord
  2
JIS_08_15
 70
     0
  3
1SASEN15 ____ _ ____ _ ____ _ ____ _ ____
 72
    65
 73
     4
 40
17.25
 49
15.0
 74
     0
 49
-0.75
 74
     0
 49
0.75
 74
     0
 49
-0.75
 74
     0
  0
ENDTAB
  0
TABLE
  2
LAYER
  5
2
102
{ACAD_XDICTIONARY
360
3F95
102
}
330
0
100
AcDbSymbolTable
 70
    61
  0
LAYER
  5
10
330
2
100
AcDbSymbolTableRecord
100
AcDbLayerTableRecord
  2
0
 70
     0
 62
     7
  6
Continuous
370
    -3
390
F
  0
LAYER
  5
6D1
330
2
100
AcDbSymbolTableRecord
100
AcDbLayerTableRecord
  2
Defpoints
 70
     0
 62
     7
  6
Continuous
290
     0
370
    -3
390
F
  0
LAYER
  5
5F85
330
2
100
AcDbSymbolTableRecord
100
AcDbLayerTableRecord
  2
AM_0
 70
     0
 62
     7
  6
中線
370
    30
390
F
1001
AcAecLayerStandard
1000

1000

  0
LAYER
  5
AC9F
330
2
100
AcDbSymbolTableRecord
100
AcDbLayerTableRecord
  2
size
 70
     0
 62
     5
  6
Continuous
290
     0
370
    25
390
F
  0
LAYER
  5
ACA0
330
2
100
AcDbSymbolTableRecord
100
AcDbLayerTableRecord
  2
waku
 70
     0
 62
     7
  6
Continuous
370
    35
390
F
  0
LAYER
  5
ACA1
330
2
100
AcDbSymbolTableRecord
100
AcDbLayerTableRecord
  2
AM_6
 70
     0
 62
     2
  6
文字
370
    13
390
F
1001
AcAecLayerStandard
1000

1000

  0
LAYER
  5
AD60
330
2
100
AcDbSymbolTableRecord
100
AcDbLayerTableRecord
  2
AM_1
 70
     0
 62
    30
  6
太線
370
    40
390
F
1001
AcAecLayerStandard
1000

1000

  0
LAYER
  5
AD64
330
2
100
AcDbSymbolTableRecord
100
AcDbLayerTableRecord
  2
AM_2
 70
     0
 62
     1
  6
細線
370
     9
390
F
1001
AcAecLayerStandard
1000

1000

  0
LAYER
  5
AD67
330
2
100
AcDbSymbolTableRecord
100
AcDbLayerTableRecord
  2
AM_3
 70
     0
 62
     6
  6
陰線1
370
     9
390
F
1001
AcAecLayerStandard
1000

1000

  0
LAYER
  5
AD68
330
2
100
AcDbSymbolTableRecord
100
AcDbLayerTableRecord
  2
AM_5
 70
     0
 62
     3
  6
寸法線
370
     9
390
F
1001
AcAecLayerStandard
1000

1000

  0
LAYER
  5
AD69
330
2
100
AcDbSymbolTableRecord
100
AcDbLayerTableRecord
  2
AM_7
 70
     0
 62
     4
  6
中心線1
370
     9
390
F
1001
AcAecLayerStandard
1000

1000

  0
LAYER
  5
AD6A
330
2
100
AcDbSymbolTableRecord
100
AcDbLayerTableRecord
  2
AM_8
 70
     0
 62
     1
  6
ハッチング
370
     9
390
F
1001
AcAecLayerStandard
1000

1000

  0
LAYER
  5
AD6E
330
2
100
AcDbSymbolTableRecord
100
AcDbLayerTableRecord
  2
AM_10
 70
     0
 62
     7
  6
切断線
370
    13
390
F
1001
AcAecLayerStandard
1000

1000

  0
LAYER
  5
AD6F
330
2
100
AcDbSymbolTableRecord
100
AcDbLayerTableRecord
  2
AM_11
 70
     0
 62
     2
  6
想像線1
370
     9
390
F
1001
AcAecLayerStandard
1000

1000

  0
LAYER
  5
B1B6
330
2
100
AcDbSymbolTableRecord
100
AcDbLayerTableRecord
  2
AM_CL
 70
     0
 62
     1
  6
Amconstr
370
    15
390
F
1001
AcAecLayerStandard
1000

1000

  0
LAYER
  5
B2EB
330
2
100
AcDbSymbolTableRecord
100
AcDbLayerTableRecord
  2
AM_14
 70
     0
 62
     5
  6
細線
370
     9
390
F
1001
AcAecLayerStandard
1000

1000

  0
LAYER
  5
B2EC
330
2
100
AcDbSymbolTableRecord
100
AcDbLayerTableRecord
  2
AM_15
 70
     0
 62
     6
  6
陰線1
370
     9
390
F
1001
AcAecLayerStandard
1000

1000

  0
LAYER
  5
CA46
330
2
100
AcDbSymbolTableRecord
100
AcDbLayerTableRecord
  2
001本体
 70
     0
 62
   121
  6
中線
370
    30
390
F
1001
AcAecLayerStandard
1000

1000

  0
LAYER
  5
EB4F
330
2
100
AcDbSymbolTableRecord
100
AcDbLayerTableRecord
  2
AM_4
 70
     0
 62
     3
  6
補助線
370
     9
390
F
1001
AcAecLayerStandard
1000

1000

  0
LAYER
  5
1E1B6
330
2
100
AcDbSymbolTableRecord
100
AcDbLayerTableRecord
  2
AM_12
 70
     0
 62
     7
  6
Continuous
290
     0
370
    15
390
F
  0
LAYER
  5
53A4D
330
2
100
AcDbSymbolTableRecord
100
AcDbLayerTableRecord
  2
104
 70
     0
 62
    50
  6
文字
370
    13
390
F
1001
AcAecLayerStandard
1000

1000

  0
LAYER
  5
53A52
330
2
100
AcDbSymbolTableRecord
100
AcDbLayerTableRecord
  2
01 台座
 70
     0
 62
     4
  6
Continuous
370
    -3
390
F
1001
AcAecLayerStandard
1000

1000

  0
LAYER
  5
53A54
330
2
100
AcDbSymbolTableRecord
100
AcDbLayerTableRecord
  2
02 アーム下側
 70
     0
 62
     3
  6
Continuous
370
    -3
390
F
1001
AcAecLayerStandard
1000

1000

  0
LAYER
  5
53A55
330
2
100
AcDbSymbolTableRecord
100
AcDbLayerTableRecord
  2
07 台座カバー
 70
     0
 62
     3
  6
JIS_08_11
370
    -3
390
F
1001
AcAecLayerStandard
1000

1000

  0
ENDTAB
  0
TABLE
  2
STYLE
  5
3
330
0
100
AcDbSymbolTable
 70
    12
  0
STYLE
  5
11
330
3
100
AcDbSymbolTableRecord
100
AcDbTextStyleTableRecord
  2
STANDARD
 70
     0
 40
0.0
 41
0.7
 50
0.0
 71
     0
 42
3.5
  3
romans.shx
  4
extfont.shx
  0
STYLE
  5
56
330
3
100
AcDbSymbolTableRecord
100
AcDbTextStyleTableRecord
  2

 70
     1
 40
0.0
 41
1.0
 50
0.0
 71
     0
 42
2.5
  3
ltypeshp.shx
  4

  0
STYLE
  5
58
330
3
100
AcDbSymbolTableRecord
100
AcDbTextStyleTableRecord
  2
ACISOTS
 70
     0
 40
1.0
 41
1.0
 50
0.0
 71
     0
 42
2.5
  3
isocp.shx
  4
extfont.shx
  0
STYLE
  5
63
330
3
100
AcDbSymbolTableRecord
100
AcDbTextStyleTableRecord
  2
ACISOGDT
 70
     0
 40
0.0
 41
1.0
 50
0.0
 71
     0
 42
2.5
  3
amgdt.shx
  4

  0
STYLE
  5
A74
330
3
100
AcDbSymbolTableRecord
100
AcDbTextStyleTableRecord
  2
DIM
 70
     0
 40
0.0
 41
1.0
 50
0.0
 71
     0
 42
2.5
  3
monotxt.shx
  4
extfont.shx
  0
STYLE
  5
AC80
330
3
100
AcDbSymbolTableRecord
100
AcDbTextStyleTableRecord
  2

 70
     1
 40
0.0
 41
1.0
 50
0.0
 71
     0
 42
3.2
  3
genltshp.shx
  4

  0
STYLE
  5
CA48
330
3
100
AcDbSymbolTableRecord
100
AcDbTextStyleTableRecord
  2
横書き
 70
     0
 40
0.0
 41
1.0
 50
0.0
 71
     0
 42
3.5
  3
TXT.shx
  4
bigfont.shx
  0
STYLE
  5
CA49
330
3
100
AcDbSymbolTableRecord
100
AcDbTextStyleTableRecord
  2
横書き2
 70
     0
 40
0.0
 41
1.0
 50
0.0
 71
     0
 42
4.0
  3
TXT.shx
  4
extfont2.shx
  0
STYLE
  5
CA4A
330
3
100
AcDbSymbolTableRecord
100
AcDbTextStyleTableRecord
  2
明朝
 70
     0
 40
0.0
 41
1.0
 50
0.0
 71
     0
 42
3.0
  3
MS Mincho.ttf
  4

1001
ACAD
1000
MS Mincho
1071
    32785
  0
STYLE
  5
1D540
330
3
100
AcDbSymbolTableRecord
100
AcDbTextStyleTableRecord
  2
ACANSTS
 70
     0
 40
1.0
 41
1.0
 50
0.0
 71
     0
 42
3.2
  3
romans.shx
  4
extfont.shx
  0
STYLE
  5
1D541
330
3
100
AcDbSymbolTableRecord
100
AcDbTextStyleTableRecord
  2
ACANSGDT
 70
     0
 40
0.0
 41
1.0
 50
0.0
 71
     0
 42
3.2
  3
amgdt.shx
  4

  0
ENDTAB
  0
TABLE
  2
VIEW
  5
6
330
0
100
AcDbSymbolTable
 70
     6
  0
VIEW
  5
AE1
330
6
100
AcDbSymbolTableRecord
100
AcDbViewTableRecord
  2
AM_VIEW1
 70
     0
 40
148.5
 10
1876.338856879554
 20
-5865.134660833434
 41
282.4136094674557
 11
0.0
 21
0.0
 31
1.0
 12
0.0
 22
0.0
 32
0.0
 42
50.0
 43
-1370.695619172058
 44
-1370.695619172058
 50
0.0
 71
     0
281
     0
 72
     0
  0
VIEW
  5
AE2
330
6
100
AcDbSymbolTableRecord
100
AcDbViewTableRecord
  2
AM_VIEW2
 70
     0
 40
148.5
 10
2013.925247412098
 20
-5865.134660833434
 41
282.4136094674557
 11
0.0
 21
0.0
 31
1.0
 12
0.0
 22
0.0
 32
0.0
 42
50.0
 43
-1370.695619172058
 44
-1370.695619172058
 50
0.0
 71
     0
281
     0
 72
     0
  0
VIEW
  5
AE3
330
6
100
AcDbSymbolTableRecord
100
AcDbViewTableRecord
  2
AM_VIEW3
 70
     0
 40
148.5
 10
1876.338856879554
 20
-6013.634660833434
 41
282.4136094674557
 11
0.0
 21
0.0
 31
1.0
 12
0.0
 22
0.0
 32
0.0
 42
50.0
 43
-1370.695619172058
 44
-1370.695619172058
 50
0.0
 71
     0
281
     0
 72
     0
  0
VIEW
  5
AE4
330
6
100
AcDbSymbolTableRecord
100
AcDbViewTableRecord
  2
AM_VIEW4
 70
     0
 40
148.5
 10
2013.925247412098
 20
-6013.634660833434
 41
282.4136094674557
 11
0.0
 21
0.0
 31
1.0
 12
0.0
 22
0.0
 32
0.0
 42
50.0
 43
-1370.695619172058
 44
-1370.695619172058
 50
0.0
 71
     0
281
     0
 72
     0
  0
VIEW
  5
AE5
330
6
100
AcDbSymbolTableRecord
100
AcDbViewTableRecord
  2
AM_VIEW5
 70
     0
 40
148.5
 10
1945.132052145826
 20
-5939.384660833434
 41
282.4136094674557
 11
0.0
 21
0.0
 31
1.0
 12
0.0
 22
0.0
 32
0.0
 42
50.0
 43
-1370.695619172058
 44
-1370.695619172058
 50
0.0
 71
     0
281
     0
 72
     0
  0
VIEW
  5
AE6
330
6
100
AcDbSymbolTableRecord
100
AcDbViewTableRecord
  2
AM_VIEW6
 70
     0
 40
296.9970300000004
 10
1945.132052145826
 20
-5939.384660833434
 41
564.8215706627218
 11
0.0
 21
0.0
 31
1.0
 12
0.0
 22
0.0
 32
0.0
 42
50.0
 43
-1370.695619172058
 44
-1370.695619172058
 50
0.0
 71
     0
281
     0
 72
     0
  0
ENDTAB
  0
TABLE
  2
UCS
  5
7
330
0
100
AcDbSymbolTable
 70
     0
  0
ENDTAB
  0
TABLE
  2
APPID
  5
9
330
0
100
AcDbSymbolTable
 70
    60
  0
APPID
  5
12
330
9
100
AcDbSymbolTableRecord
100
AcDbRegAppTableRecord
  2
ACAD
 70
     0
  0
APPID
  5
30
330
9
100
AcDbSymbolTableRecord
100
AcDbRegAppTableRecord
  2
MCAD_NO_VIS
 70
     0
  0
APPID
  5
31
330
9
100
AcDbSymbolTableRecord
100
AcDbRegAppTableRecord
  2
ACAD_TEMP_GRAPHIC
 70
     0
  0
APPID
  5
44
330
9
100
AcDbSymbolTableRecord
100
AcDbRegAppTableRecord
  2
ACATTRIBSERVICES
 70
     0
  0
APPID
  5
7A1
330
9
100
AcDbSymbolTableRecord
100
AcDbRegAppTableRecord
  2
GENIUS_GENDIMSH_14
 70
     0
  0
APPID
  5
A49
330
9
100
AcDbSymbolTableRecord
100
AcDbRegAppTableRecord
  2
GENIUS_GENREC_14
 70
     0
  0
APPID
  5
A4A
330
9
100
AcDbSymbolTableRecord
100
AcDbRegAppTableRecord
  2
GENIUS_GENOBJ-N-REC_13
 70
     0
  0
APPID
  5
A4B
330
9
100
AcDbSymbolTableRecord
100
AcDbRegAppTableRecord
  2
GENIUS_GENODEF_13
 70
     0
  0
APPID
  5
A4C
330
9
100
AcDbSymbolTableRecord
100
AcDbRegAppTableRecord
  2
DCO15
 70
     0
  0
APPID
  5
ADC
330
9
100
AcDbSymbolTableRecord
100
AcDbRegAppTableRecord
  2
GENIUS_GENOLIS_13
 70
     0
  0
APPID
  5
ADD
330
9
100
AcDbSymbolTableRecord
100
AcDbRegAppTableRecord
  2
GENIUS_GENOENT_13
 70
     0
  0
APPID
  5
ADE
330
9
100
AcDbSymbolTableRecord
100
AcDbRegAppTableRecord
  2
GENIUS_GENOBJ-N-TIT_13
 70
     0
  0
APPID
  5
ADF
330
9
100
AcDbSymbolTableRecord
100
AcDbRegAppTableRecord
  2
GENIUS_GENTITLE_13
 70
     0
  0
APPID
  5
AE0
330
9
100
AcDbSymbolTableRecord
100
AcDbRegAppTableRecord
  2
GENIUS_GENOREF_13
 70
     0
  0
APPID
  5
AE7
330
9
100
AcDbSymbolTableRecord
100
AcDbRegAppTableRecord
  2
GENIUS_GENSCREG_15
 70
     0
  0
APPID
  5
AE8
330
9
100
AcDbSymbolTableRecord
100
AcDbRegAppTableRecord
  2
GENIUS_GENOBJ-N-SDF_13
 70
     0
  0
APPID
  5
FAF
330
9
100
AcDbSymbolTableRecord
100
AcDbRegAppTableRecord
  2
GENIUS_GENBLLY_14
 70
     0
  0
APPID
  5
FB0
330
9
100
AcDbSymbolTableRecord
100
AcDbRegAppTableRecord
  2
GENIUS_GENTRA_14
 70
     0
  0
APPID
  5
1285
330
9
100
AcDbSymbolTableRecord
100
AcDbRegAppTableRecord
  2
GENIUS_GENDTOL_13
 70
     0
  0
APPID
  5
142D
330
9
100
AcDbSymbolTableRecord
100
AcDbRegAppTableRecord
  2
GENIUS_GENOBJ-N-CEN_13
 70
     0
  0
APPID
  5
1AB5
330
9
100
AcDbSymbolTableRecord
100
AcDbRegAppTableRecord
  2
GENIUS_GENOBJ-N-CRS_13
 70
     0
  0
APPID
  5
1B36
330
9
100
AcDbSymbolTableRecord
100
AcDbRegAppTableRecord
  2
GENIUS_GENOBJ-N-HTC_13
 70
     0
  0
APPID
  5
1B37
330
9
100
AcDbSymbolTableRecord
100
AcDbRegAppTableRecord
  2
GENIUS_GENHATCH_13
 70
     0
  0
APPID
  5
216D
330
9
100
AcDbSymbolTableRecord
100
AcDbRegAppTableRecord
  2
GENIUS_GENOBJ-N-FIL_13
 70
     0
  0
APPID
  5
2356
330
9
100
AcDbSymbolTableRecord
100
AcDbRegAppTableRecord
  2
GEVID990412420
 70
     0
  0
APPID
  5
2357
330
9
100
AcDbSymbolTableRecord
100
AcDbRegAppTableRecord
  2
GEVDC
 70
     0
  0
APPID
  5
2358
330
9
100
AcDbSymbolTableRecord
100
AcDbRegAppTableRecord
  2
GEVCON
 70
     0
  0
APPID
  5
235B
330
9
100
AcDbSymbolTableRecord
100
AcDbRegAppTableRecord
  2
GEVRADREF
 70
     0
  0
APPID
  5
2360
330
9
100
AcDbSymbolTableRecord
100
AcDbRegAppTableRecord
  2
GENIUS_GENBH_13
 70
     0
  0
APPID
  5
2362
330
9
100
AcDbSymbolTableRecord
100
AcDbRegAppTableRecord
  2
GENIUS_GENOBJ-NBEHI-BHF_13
 70
     0
  0
APPID
  5
2364
330
9
100
AcDbSymbolTableRecord
100
AcDbRegAppTableRecord
  2
GENIUS_GENOBJ-NBEHI-BHB_13
 70
     0
  0
APPID
  5
2379
330
9
100
AcDbSymbolTableRecord
100
AcDbRegAppTableRecord
  2
GENIUS_GENOBJ-F-SCPASSM_13
 70
     0
  0
APPID
  5
3D74
330
9
100
AcDbSymbolTableRecord
100
AcDbRegAppTableRecord
  2
GENIUS_GENDIM_13
 70
     0
  0
APPID
  5
3D76
330
9
100
AcDbSymbolTableRecord
100
AcDbRegAppTableRecord
  2
GENIUS_GE3DTOL_13
 70
     0
  0
APPID
  5
3D9C
330
9
100
AcDbSymbolTableRecord
100
AcDbRegAppTableRecord
  2
AD_DRAW
 70
     0
  0
APPID
  5
3DE8
330
9
100
AcDbSymbolTableRecord
100
AcDbRegAppTableRecord
  2
ASURF_PCURVE_APPNAME
 70
     0
  0
APPID
  5
3DED
330
9
100
AcDbSymbolTableRecord
100
AcDbRegAppTableRecord
  2
AMG_3D2D_5.0
 70
     0
  0
APPID
  5
3E1B
330
9
100
AcDbSymbolTableRecord
100
AcDbRegAppTableRecord
  2
DESIGNERASSEMBLIES
 70
     0
  0
APPID
  5
3E20
330
9
100
AcDbSymbolTableRecord
100
AcDbRegAppTableRecord
  2
ACADM_DIM_EDIT
 70
     0
  0
APPID
  5
3E21
330
9
100
AcDbSymbolTableRecord
100
AcDbRegAppTableRecord
  2
AMDT_DM_ADJ
 70
     0
  0
APPID
  5
4143
330
9
100
AcDbSymbolTableRecord
100
AcDbRegAppTableRecord
  2
GENIUS_GENFIL_13
 70
     0
  0
APPID
  5
4144
330
9
100
AcDbSymbolTableRecord
100
AcDbRegAppTableRecord
  2
GENIUS_GENOBJ-N-CHA_13
 70
     0
  0
APPID
  5
4E17
330
9
100
AcDbSymbolTableRecord
100
AcDbRegAppTableRecord
  2
GEVID1008153417
 70
     0
  0
APPID
  5
4E58
330
9
100
AcDbSymbolTableRecord
100
AcDbRegAppTableRecord
  2
GEVID1008153418
 70
     0
  0
APPID
  5
4E5E
330
9
100
AcDbSymbolTableRecord
100
AcDbRegAppTableRecord
  2
GEVID1008153419
 70
     0
  0
APPID
  5
4E64
330
9
100
AcDbSymbolTableRecord
100
AcDbRegAppTableRecord
  2
GEVID1008153420
 70
     0
  0
APPID
  5
4E75
330
9
100
AcDbSymbolTableRecord
100
AcDbRegAppTableRecord
  2
GEVID1008153421
 70
     0
  0
APPID
  5
4EB7
330
9
100
AcDbSymbolTableRecord
100
AcDbRegAppTableRecord
  2
GENIUS_AMGTXT_16
 70
     0
  0
APPID
  5
7645
330
9
100
AcDbSymbolTableRecord
100
AcDbRegAppTableRecord
  2
GENIUS_GENOBJ-N-DIM_13
 70
     0
  0
APPID
  5
AAD0
330
9
100
AcDbSymbolTableRecord
100
AcDbRegAppTableRecord
  2
ACAD_DSTYLE_DIMARC_LENGTH_SYMBOL
 70
     0
  0
APPID
  5
AAD1
330
9
100
AcDbSymbolTableRecord
100
AcDbRegAppTableRecord
  2
ACAD_DSTYLE_DIMJOGGED_JOGANGLE_SYMBOL
 70
     0
  0
APPID
  5
AAFD
330
9
100
AcDbSymbolTableRecord
100
AcDbRegAppTableRecord
  2
ACAD_PSEXT
 70
     0
  0
APPID
  5
AD61
330
9
100
AcDbSymbolTableRecord
100
AcDbRegAppTableRecord
  2
AcAecLayerStandard
 70
     0
  0
APPID
  5
AEE3
330
9
100
AcDbSymbolTableRecord
100
AcDbRegAppTableRecord
  2
ACAD_EXEMPT_FROM_CAD_STANDARDS
 70
     0
  0
APPID
  5
B1BE
330
9
100
AcDbSymbolTableRecord
100
AcDbRegAppTableRecord
  2
GENIUS_GENCEN_19
 70
     0
  0
APPID
  5
B4DF
330
9
100
AcDbSymbolTableRecord
100
AcDbRegAppTableRecord
  2
ACAD_MLEADERVER
 70
     0
  0
APPID
  5
CA4C
330
9
100
AcDbSymbolTableRecord
100
AcDbRegAppTableRecord
  2
ACAD_DSTYLE_DIMRADIAL_EXTENSION
 70
     0
  0
APPID
  5
1ED6D
330
9
100
AcDbSymbolTableRecord
100
AcDbRegAppTableRecord
  2
ACAD_DSTYLE_DIMINSPECT
 70
     0
  0
APPID
  5
219D8
330
9
100
AcDbSymbolTableRecord
100
AcDbRegAppTableRecord
  2
ACDBBLOCKREPETAG
 70
     0
  0
APPID
  5
219D9
330
9
100
AcDbSymbolTableRecord
100
AcDbRegAppTableRecord
  2
AcDbDynamicBlockGUID
 70
     0
  0
ENDTAB
  0
TABLE
  2
DIMSTYLE
  5
A
330
0
100
AcDbSymbolTable
 70
    41
100
AcDbDimStyleTable
 71
     1
340
2515
  0
DIMSTYLE
105
A76
330
A
100
AcDbSymbolTableRecord
100
AcDbDimStyleTableRecord
  2
STANDARD
 70
     0
 41
3.0
 42
1.0
 43
7.0
 44
2.0
 73
     0
 74
     0
 77
     1
140
2.799999999999999
141
0.0
143
0.0394
147
0.7
171
     4
172
     1
173
     1
176
     3
177
     3
178
     2
271
     3
272
     3
273
     8
274
     4
289
     0
340
A74
341
A66
343
A66
344
A66
  0
DIMSTYLE
105
2515
330
A
100
AcDbSymbolTableRecord
100
AcDbDimStyleTableRecord
  2
SYS
 70
     0
  4
"
 41
1.0
 42
1.0
 43
10.0
 44
1.0
 47
0.1
 48
0.1
 73
     0
 74
     0
 77
     1
 78
     8
 79
     2
140
3.5
141
0.0
143
0.0393701
146
0.71
147
1.5
172
     1
176
   256
177
   256
178
     7
271
     2
272
     2
283
     0
284
     8
340
11
371
    -1
372
    -1
1001
ACAD_DSTYLE_DIMJOGGED_JOGANGLE_SYMBOL
1070
   384
1040
0.7853981633974483
1001
ACAD_DSTYLE_DIMARC_LENGTH_SYMBOL
1070
   379
1070
     1
  0
DIMSTYLE
105
2516
330
A
100
AcDbSymbolTableRecord
100
AcDbDimStyleTableRecord
  2
SYS$3
 70
     0
  4
"
 41
2.0
 42
1.0
 43
10.0
 44
1.0
 47
0.1
 48
0.1
 73
     0
 77
     1
 78
     8
 79
     2
140
3.2
141
0.0
143
0.0393701
146
0.71
147
1.0
176
   256
177
   256
178
     2
271
     2
272
     2
283
     0
284
     8
288
     1
340
11
342
A66
371
    -1
372
    -1
1001
ACAD_DSTYLE_DIMJOGGED_JOGANGLE_SYMBOL
1070
   384
1040
0.7853981633974483
1001
ACAD_DSTYLE_DIMARC_LENGTH_SYMBOL
1070
   379
1070
     1
  0
DIMSTYLE
105
2517
330
A
100
AcDbSymbolTableRecord
100
AcDbDimStyleTableRecord
  2
SYS$4
 70
     0
  4
"
 41
2.0
 42
1.0
 43
10.0
 44
1.0
 47
0.1
 48
0.1
 73
     0
 77
     1
 78
     8
 79
     2
140
3.2
141
0.0
143
0.0393701
146
0.71
147
1.0
173
     1
176
   256
177
   256
178
     2
271
     2
272
     2
283
     0
284
     8
288
     1
340
11
344
A66
371
    -1
372
    -1
1001
ACAD_DSTYLE_DIMJOGGED_JOGANGLE_SYMBOL
1070
   384
1040
0.7853981633974483
1001
ACAD_DSTYLE_DIMARC_LENGTH_SYMBOL
1070
   379
1070
     1
  0
DIMSTYLE
105
2518
330
A
100
AcDbSymbolTableRecord
100
AcDbDimStyleTableRecord
  2
SYS$6
 70
     0
  4
"
 41
2.0
 42
1.0
 43
10.0
 44
1.0
 47
0.1
 48
0.1
 73
     0
 74
     0
 78
     8
 79
     2
140
3.5
141
0.0
143
0.0393701
146
0.71
147
1.5
172
     1
176
   256
177
   256
178
     2
271
     2
272
     2
283
     0
284
     8
340
11
341
A66
371
    -1
372
    -1
1001
ACAD_DSTYLE_DIMJOGGED_JOGANGLE_SYMBOL
1070
   384
1040
0.7853981633974483
1001
ACAD_DSTYLE_DIMARC_LENGTH_SYMBOL
1070
   379
1070
     1
  0
DIMSTYLE
105
2519
330
A
100
AcDbSymbolTableRecord
100
AcDbDimStyleTableRecord
  2
SYS$7
 70
     0
  4
"
 41
2.0
 42
1.0
 43
10.0
 44
1.0
 47
0.1
 48
0.1
 73
     0
 74
     0
 77
     1
 78
     8
 79
     2
140
3.2
141
0.0
143
0.0393701
146
0.71
147
1.0
172
     1
176
   256
177
   256
178
     2
271
     2
272
     2
283
     0
284
     8
340
11
341
A66
342
A66
371
    -1
372
    -1
1001
ACAD_DSTYLE_DIMJOGGED_JOGANGLE_SYMBOL
1070
   384
1040
0.7853981633974483
1001
ACAD_DSTYLE_DIMARC_LENGTH_SYMBOL
1070
   379
1070
     1
  0
DIMSTYLE
105
251A
330
A
100
AcDbSymbolTableRecord
100
AcDbDimStyleTableRecord
  2
SYS$SF
 70
     0
  4
"
 41
2.5
 42
1.0
 43
10.0
 44
1.0
 47
0.1
 48
0.1
 73
     0
 74
     0
 75
     1
 76
     1
 77
     1
 78
     8
 79
     2
140
3.5
141
0.0
143
0.0393701
146
0.71
147
1.5
172
     1
176
   256
177
   256
178
     2
271
     2
272
     3
283
     0
284
     8
340
11
341
6C4
342
6C4
371
    -1
372
    -1
1001
ACAD_DSTYLE_DIMJOGGED_JOGANGLE_SYMBOL
1070
   384
1040
0.7853981633974483
1001
ACAD_DSTYLE_DIMARC_LENGTH_SYMBOL
1070
   379
1070
     1
  0
DIMSTYLE
105
251B
330
A
100
AcDbSymbolTableRecord
100
AcDbDimStyleTableRecord
  2
SYS$SH
 70
     0
  4
"
 41
2.5
 42
1.0
 43
10.0
 44
1.0
 47
0.1
 48
0.1
 73
     0
 74
     0
 75
     1
 76
     1
 77
     1
 78
     8
 79
     2
140
3.5
141
0.0
143
0.0393701
144
2.0
146
0.71
147
1.5
172
     1
173
     1
176
   256
177
   256
178
     2
271
     2
272
     3
283
     0
284
     8
340
11
341
6C4
343
72
344
6C4
371
    -1
372
    -1
1001
ACAD_DSTYLE_DIMJOGGED_JOGANGLE_SYMBOL
1070
   384
1040
0.7853981633974483
1001
ACAD_DSTYLE_DIMARC_LENGTH_SYMBOL
1070
   379
1070
     1
  0
DIMSTYLE
105
2A59
102
{ACAD_REACTORS
330
54F19
102
}
330
A
100
AcDbSymbolTableRecord
100
AcDbDimStyleTableRecord
  2
SYS$2
 70
     0
  4
"
 41
1.0
 42
1.0
 43
10.0
 44
1.0
 47
0.1
 48
0.1
 73
     0
 74
     0
 77
     1
 78
     8
 79
     2
140
3.2
141
0.0
143
0.0393701
146
0.71
147
1.0
172
     1
176
   256
177
   256
178
     2
271
     2
272
     2
283
     0
284
     8
340
11
342
6C4
371
    -1
372
    -1
1001
ACAD_DSTYLE_DIMJOGGED_JOGANGLE_SYMBOL
1070
   384
1040
0.7853981633974483
1001
ACAD_DSTYLE_DIMARC_LENGTH_SYMBOL
1070
   379
1070
     1
  0
DIMSTYLE
105
2AAB
102
{ACAD_REACTORS
330
54BCC
330
54C14
330
54C33
330
54C9D
330
54CBC
330
54CE4
330
55030
102
}
330
A
100
AcDbSymbolTableRecord
100
AcDbDimStyleTableRecord
  2
SYS$0
 70
     0
  4
"
 41
1.0
 42
1.0
 43
10.0
 44
1.0
 47
0.1
 48
0.1
 73
     0
 74
     0
 77
     1
 78
     8
 79
     2
140
3.200000000000001
141
0.0
143
0.0393701
146
0.71
147
1.0
172
     1
176
   256
177
   256
178
     2
271
     2
272
     2
283
     0
284
     8
340
11
341
A66
342
6C4
371
    -1
372
    -1
1001
ACAD_DSTYLE_DIMJOGGED_JOGANGLE_SYMBOL
1070
   384
1040
0.7853981633974483
1001
ACAD_DSTYLE_DIMARC_LENGTH_SYMBOL
1070
   379
1070
     1
  0
DIMSTYLE
105
AF99
330
A
100
AcDbSymbolTableRecord
100
AcDbDimStyleTableRecord
  2
AM_ISO
 70
     0
  4
"
 41
2.5
 42
1.0
 43
10.0
 44
1.0
 47
0.1
 48
0.1
 73
     0
 74
     0
 77
     1
 78
     8
 79
     2
140
3.5
141
0.0
143
0.0393701
146
0.71
147
1.5
172
     1
176
   256
177
   256
178
     2
271
     2
272
     3
274
     4
283
     0
284
     8
340
11
371
    -1
372
    -1
  0
DIMSTYLE
105
AF9A
330
A
100
AcDbSymbolTableRecord
100
AcDbDimStyleTableRecord
  2
AM_ISO$3
 70
     0
  4
"
 41
2.5
 42
1.0
 43
10.0
 44
1.0
 47
0.1
 48
0.1
 73
     0
 77
     1
 78
     8
 79
     2
140
3.5
141
0.0
143
0.0393701
146
0.71
147
1.5
176
   256
177
   256
178
     2
271
     2
272
     3
274
     4
283
     0
284
     8
288
     1
289
     0
340
11
371
    -1
372
    -1
  0
DIMSTYLE
105
AF9B
330
A
100
AcDbSymbolTableRecord
100
AcDbDimStyleTableRecord
  2
AM_ISO$4
 70
     0
  4
"
 41
2.5
 42
1.0
 43
10.0
 44
1.0
 47
0.1
 48
0.1
 73
     0
 77
     1
 78
     8
 79
     2
140
3.5
141
0.0
143
0.0393701
146
0.71
147
1.5
176
   256
177
   256
178
     2
271
     2
272
     3
274
     4
283
     0
284
     8
288
     1
289
     0
340
11
371
    -1
372
    -1
  0
DIMSTYLE
105
AF9C
330
A
100
AcDbSymbolTableRecord
100
AcDbDimStyleTableRecord
  2
AM_ISO$6
 70
     0
  4
"
 41
2.5
 42
1.0
 43
10.0
 44
1.0
 47
0.1
 48
0.1
 73
     0
 74
     0
 78
     8
 79
     2
140
3.5
141
0.0
143
0.0393701
146
0.71
147
1.5
172
     1
176
   256
177
   256
178
     2
271
     2
272
     3
274
     4
283
     0
284
     8
340
11
371
    -1
372
    -1
  0
DIMSTYLE
105
AF9D
330
A
100
AcDbSymbolTableRecord
100
AcDbDimStyleTableRecord
  2
AM_ISO$7
 70
     0
  4
"
 41
2.5
 42
1.0
 43
10.0
 44
1.0
 47
0.1
 48
0.1
 73
     0
 74
     0
 77
     1
 78
     8
 79
     2
140
5.0
141
0.0
143
0.0393701
146
0.71
147
1.5
172
     1
176
   256
177
   256
178
     2
271
     2
272
     3
274
     4
283
     0
284
     8
340
11
371
    -1
372
    -1
  0
DIMSTYLE
105
AF9E
330
A
100
AcDbSymbolTableRecord
100
AcDbDimStyleTableRecord
  2
AM_ISO$SF
 70
     0
  4
"
 41
2.5
 42
1.0
 43
10.0
 44
1.0
 47
0.1
 48
0.1
 73
     0
 74
     0
 75
     1
 76
     1
 77
     1
 78
     8
 79
     2
140
3.5
141
0.0
143
0.0393701
146
0.71
147
1.5
172
     1
176
   256
177
   256
178
     2
271
     2
272
     3
274
     4
283
     0
284
     8
340
11
371
    -1
372
    -1
  0
DIMSTYLE
105
AF9F
330
A
100
AcDbSymbolTableRecord
100
AcDbDimStyleTableRecord
  2
AM_ISO$SH
 70
     0
  4
"
 41
2.5
 42
1.0
 43
10.0
 44
1.0
 47
0.1
 48
0.1
 73
     0
 74
     0
 75
     1
 76
     1
 77
     1
 78
     8
 79
     2
140
3.5
141
0.0
143
0.0393701
144
2.0
146
0.71
147
1.5
172
     1
173
     1
176
   256
177
   256
178
     2
271
     2
272
     3
274
     4
283
     0
284
     8
340
11
343
72
371
    -1
372
    -1
  0
DIMSTYLE
105
B658
330
A
100
AcDbSymbolTableRecord
100
AcDbDimStyleTableRecord
  2
AM_ANSI
 70
     0
  4
mm
 41
0.1
 42
0.05
 43
0.5
 44
0.1
 47
0.1
 48
0.1
 78
     7
 79
     2
140
0.12
141
0.0
146
0.71
147
0.06
176
   256
177
   256
178
     2
274
     4
284
     7
340
11
371
    -1
372
    -1
  0
DIMSTYLE
105
CA4B
330
A
100
AcDbSymbolTableRecord
100
AcDbDimStyleTableRecord
  2
原寸
 70
     0
 41
2.5
 42
1.0
 43
10.0
 44
0.7
 73
     0
 74
     0
 77
     3
 78
     8
 79
     2
140
3.5
141
0.0
147
1.0
172
     1
179
     1
271
     2
272
     2
340
CA48
341
A66
342
A66
  0
DIMSTYLE
105
1D542
330
A
100
AcDbSymbolTableRecord
100
AcDbDimStyleTableRecord
  2
DIMSTYLE
 70
     0
 41
1.0
 42
2.54
 44
2.54
 73
     0
 74
     0
140
3.2
147
1.6
173
     1
279
     2
340
11
  0
DIMSTYLE
105
1D543
330
A
100
AcDbSymbolTableRecord
100
AcDbDimStyleTableRecord
  2
AM_ANSI$3
 70
     0
  4
mm
 41
0.1
 42
0.05
 43
0.5
 44
0.1
 47
0.1
 48
0.1
 78
     7
 79
     2
140
0.12
141
0.0
146
0.71
147
0.06
176
   256
177
   256
178
     2
274
     4
284
     7
288
     1
289
     0
340
11
371
    -1
372
    -1
1001
ACAD_DSTYLE_DIMARC_LENGTH_SYMBOL
1070
   379
1070
     1
  0
DIMSTYLE
105
1D544
330
A
100
AcDbSymbolTableRecord
100
AcDbDimStyleTableRecord
  2
AM_ANSI$4
 70
     0
  4
mm
 41
0.1
 42
0.05
 43
0.5
 44
0.1
 47
0.1
 48
0.1
 78
     7
 79
     2
140
0.12
141
0.0
146
0.71
147
0.06
176
   256
177
   256
178
     2
274
     4
284
     7
288
     1
289
     0
340
11
371
    -1
372
    -1
1001
ACAD_DSTYLE_DIMARC_LENGTH_SYMBOL
1070
   379
1070
     1
  0
DIMSTYLE
105
1D545
330
A
100
AcDbSymbolTableRecord
100
AcDbDimStyleTableRecord
  2
AM_ANSI$7
 70
     0
  4
mm
 41
0.1
 42
0.05
 43
0.5
 44
0.1
 47
0.1
 48
0.1
 78
     7
 79
     2
140
0.24
141
0.0
146
0.71
147
0.06
176
   256
177
   256
178
     2
274
     4
284
     7
340
11
371
    -1
372
    -1
1001
ACAD_DSTYLE_DIMARC_LENGTH_SYMBOL
1070
   379
1070
     1
  0
DIMSTYLE
105
1D546
330
A
100
AcDbSymbolTableRecord
100
AcDbDimStyleTableRecord
  2
AM_ANSI$SF
 70
     0
  4
mm
 41
0.1
 42
0.05
 43
0.5
 44
0.1
 47
0.1
 48
0.1
 75
     1
 76
     1
 78
     7
 79
     2
140
0.12
141
0.0
146
0.71
147
0.06
176
   256
177
   256
178
     2
274
     4
284
     7
340
11
371
    -1
372
    -1
1001
ACAD_DSTYLE_DIMARC_LENGTH_SYMBOL
1070
   379
1070
     1
  0
DIMSTYLE
105
1D547
330
A
100
AcDbSymbolTableRecord
100
AcDbDimStyleTableRecord
  2
AM_ANSI$SH
 70
     0
  4
mm
 41
0.1
 42
0.05
 43
0.5
 44
0.1
 47
0.1
 48
0.1
 75
     1
 76
     1
 78
     7
 79
     2
140
0.12
141
0.0
146
0.71
147
0.06
173
     1
176
   256
177
   256
178
     2
274
     4
284
     7
340
11
343
72
371
    -1
372
    -1
1001
ACAD_DSTYLE_DIMARC_LENGTH_SYMBOL
1070
   379
1070
     1
  0
DIMSTYLE
105
1DA90
330
A
100
AcDbSymbolTableRecord
100
AcDbDimStyleTableRecord
  2
SYSORG4P0
 70
     0
  4
"
 41
1.0
 42
1.0
 43
10.0
 44
1.0
 47
0.2
 48
0.2000000002
 71
     1
 73
     0
 74
     0
 77
     1
 78
     8
 79
     2
140
3.5
141
0.0
143
0.0393701
144
3.999999999999793
146
0.6
147
1.5
172
     1
176
   256
177
   256
178
     7
271
     2
272
     2
283
     0
284
     8
340
11
341
A66
342
6C4
371
    -1
372
    -1
  0
DIMSTYLE
105
1DA91
330
A
100
AcDbSymbolTableRecord
100
AcDbDimStyleTableRecord
  2
SYSORG2P0
 70
     0
  4
"
 41
1.0
 42
1.0
 43
10.0
 44
1.0
 47
0.2
 48
0.2000000002
 71
     1
 73
     0
 74
     0
 77
     1
 78
     8
 79
     2
140
3.5
141
0.0
143
0.0393701
144
2.000000119209307
146
0.6
147
1.5
172
     1
176
   256
177
   256
178
     7
271
     2
272
     2
283
     0
284
     8
340
11
341
A66
342
6C4
371
    -1
372
    -1
  0
DIMSTYLE
105
1DA92
330
A
100
AcDbSymbolTableRecord
100
AcDbDimStyleTableRecord
  2
SYSORG0P5
 70
     0
  4
"
 41
1.0
 42
1.0
 43
10.0
 44
1.0
 47
0.1
 48
0.1
 73
     0
 74
     0
 77
     1
 78
     8
 79
     2
140
3.5
141
0.0
143
0.0393701
144
0.5
146
0.71
147
1.5
172
     1
176
   256
177
   256
178
     7
271
     2
272
     2
283
     0
284
     8
340
11
371
    -1
372
    -1
  0
DIMSTYLE
105
32EB5
330
A
100
AcDbSymbolTableRecord
100
AcDbDimStyleTableRecord
  2
SYS0000
 70
     0
  4
"
 41
2.5
 42
1.0
 43
10.0
 44
1.0
 47
0.1
 48
0.1
 73
     0
 74
     0
 77
     1
 78
     8
 79
     2
140
3.5
141
0.0
143
0.0393701
146
0.71
147
1.5
172
     1
176
   256
177
   256
178
     2
271
     1
272
     3
283
     0
284
     8
340
11
341
6C4
342
32DFB
371
    -1
372
    -1
  0
DIMSTYLE
105
425A4
330
A
100
AcDbSymbolTableRecord
100
AcDbDimStyleTableRecord
  2
DIMSTYLE$0
 70
     0
 41
1.0
 42
2.54
 44
2.54
 73
     0
 74
     0
140
3.2
147
1.6
173
     1
279
     2
340
11
  0
DIMSTYLE
105
53A5A
330
A
100
AcDbSymbolTableRecord
100
AcDbDimStyleTableRecord
  2
AM_ISO$0
 70
     0
  4
"
 41
0.8
 42
1.0
 43
10.0
 44
1.0
 47
0.1
 48
0.1
 73
     0
 74
     0
 77
     1
 78
     8
 79
     2
140
3.2
141
0.0
143
0.0393701
146
0.71
147
0.9999999999999996
172
     1
176
   256
177
   256
178
     2
271
     2
272
     2
283
     0
284
     8
340
11
341
6C4
342
6C4
371
    -1
372
    -1
  0
DIMSTYLE
105
53A5B
330
A
100
AcDbSymbolTableRecord
100
AcDbDimStyleTableRecord
  2
SYS_STANDARD
 70
     0
  4
"
 41
1.0
 42
1.0
 43
7.0
 44
1.0
 47
0.1
 48
0.1
 73
     0
 74
     0
 77
     1
 78
     8
 79
     2
140
3.0
141
0.0
143
0.0393701
146
0.71
147
0.4999999999999992
172
     1
176
   256
177
   256
178
     2
271
     2
272
     2
283
     0
284
     8
340
11
341
A66
342
6C4
371
    -1
372
    -1
  0
DIMSTYLE
105
53A5C
330
A
100
AcDbSymbolTableRecord
100
AcDbDimStyleTableRecord
  2
SYS_STANDARD$0
 70
     0
  4
"
 41
1.0
 42
1.0
 43
6.0
 44
1.0
 47
0.1
 48
0.1
 73
     0
 74
     0
 77
     1
 78
     8
 79
     2
140
2.5
141
0.0
143
0.0393701
146
0.71
147
0.4999999999999992
176
     7
177
     7
178
     7
271
     2
272
     2
283
     0
284
     8
340
11
341
A66
342
6C4
371
    -1
372
    -1
  0
DIMSTYLE
105
53A5D
330
A
100
AcDbSymbolTableRecord
100
AcDbDimStyleTableRecord
  2
SYS_STANDARD$3
 70
     0
  4
"
 41
2.5
 42
1.0
 43
7.0
 44
1.0
 47
0.1
 48
0.1
 73
     0
 77
     1
 78
     8
 79
     2
140
2.5
141
0.0
143
0.0393701
146
0.71
147
0.4999999999999992
172
     1
176
     7
177
     7
178
     7
271
     2
272
     2
283
     0
284
     8
340
11
341
A66
342
A66
371
    -1
372
    -1
  0
DIMSTYLE
105
53A5E
330
A
100
AcDbSymbolTableRecord
100
AcDbDimStyleTableRecord
  2
SYS_STANDARD$4
 70
     0
  4
"
 41
2.5
 42
1.0
 43
7.0
 44
1.0
 47
0.1
 48
0.1
 73
     0
 77
     1
 78
     8
 79
     2
140
2.5
141
0.0
143
0.0393701
146
0.71
147
0.4999999999999992
172
     1
173
     1
176
     7
177
     7
178
     7
271
     2
272
     2
283
     0
284
     8
340
11
341
A66
343
6C4
344
A66
371
    -1
372
    -1
  0
DIMSTYLE
105
53A5F
330
A
100
AcDbSymbolTableRecord
100
AcDbDimStyleTableRecord
  2
SYS_STANDARD$2
 70
     0
  4
"
 41
1.0
 42
1.0
 43
6.0
 44
1.0
 47
0.1
 48
0.1
 73
     0
 77
     1
 78
     8
 79
     2
140
2.5
141
0.0
143
0.0393701
146
0.71
147
0.4999999999999992
172
     1
176
     7
177
   256
178
     7
271
     2
272
     2
283
     0
284
     8
340
11
341
A66
342
6C4
371
    -1
372
    -1
  0
DIMSTYLE
105
53A60
330
A
100
AcDbSymbolTableRecord
100
AcDbDimStyleTableRecord
  2
H2.5 部品図
 70
     0
 41
2.5
 42
0.625
 43
3.75
 44
1.25
 73
     0
 74
     0
 77
     1
 78
     8
140
2.5
141
2.5
143
0.03937007874016
147
0.625
171
     3
172
     1
179
     2
271
     2
272
     2
274
     3
278
    44
283
     0
284
     8
340
11
341
A66
342
A66
  0
DIMSTYLE
105
53A61
330
A
100
AcDbSymbolTableRecord
100
AcDbDimStyleTableRecord
  2
H5 組立図
 70
     0
 41
2.5
 42
0.625
 43
3.75
 44
1.25
 73
     0
 74
     0
 77
     1
 78
     8
140
5.0
141
2.5
143
0.03937007874016
147
0.625
171
     3
172
     1
271
     2
272
     2
274
     3
278
    44
283
     0
284
     8
340
11
341
A66
342
A66
  0
DIMSTYLE
105
542A6
330
A
100
AcDbSymbolTableRecord
100
AcDbDimStyleTableRecord
  2
ISO-25
 70
     0
 41
2.5
 42
0.625
 43
3.75
 44
1.25
 73
     0
 74
     0
 77
     1
 78
     8
140
2.5
141
2.5
143
0.03937007874016
147
0.625
171
     3
172
     1
271
     2
272
     2
274
     3
278
    44
283
     0
284
     8
340
11
  0
DIMSTYLE
105
542A7
330
A
100
AcDbSymbolTableRecord
100
AcDbDimStyleTableRecord
  2
H6 外観図
 70
     0
 41
2.5
 42
0.625
 43
3.75
 44
1.25
 73
     0
 74
     0
 77
     1
 78
     8
140
6.0
141
2.5
143
0.03937007874016
147
0.625
171
     3
172
     1
271
     2
272
     2
274
     3
278
    44
283
     0
284
     8
340
11
341
A66
342
A66
  0
ENDTAB
  0
TABLE
  2
BLOCK_RECORD
  5
1
330
0
100
AcDbSymbolTable
 70
    23
  0
BLOCK_RECORD
  5
1F
102
{ACAD_XDICTIONARY
360
8A
102
}
330
1
100
AcDbSymbolTableRecord
100
AcDbBlockTableRecord
  2
*Model_Space
340
22
  0
BLOCK_RECORD
  5
1B
330
1
100
AcDbSymbolTableRecord
100
AcDbBlockTableRecord
  2
*Paper_Space
340
1E
  0
BLOCK_RECORD
  5
23
330
1
100
AcDbSymbolTableRecord
100
AcDbBlockTableRecord
  2
*Paper_Space0
340
26
  0
BLOCK_RECORD
  5
72
330
1
100
AcDbSymbolTableRecord
100
AcDbBlockTableRecord
  2
GENAXEH
340
0
  0
BLOCK_RECORD
  5
6C4
330
1
100
AcDbSymbolTableRecord
100
AcDbBlockTableRecord
  2
_Dot
340
0
102
{BLKREFS
331
54FB0
331
54FB1
331
55099
331
5509A
331
550A3
331
550A4
331
550AC
331
550AD
331
550B5
331
550B6
331
550CB
331
550CC
331
550D4
331
550D5
331
550DD
331
550DE
331
550E6
331
550E7
331
550EF
331
550F0
331
550F9
331
550FA
331
55104
331
55105
331
5510B
331
5510C
331
5515B
331
5515C
102
}
  0
BLOCK_RECORD
  5
A66
330
1
100
AcDbSymbolTableRecord
100
AcDbBlockTableRecord
  2
_OPEN30
340
0
  0
BLOCK_RECORD
  5
32DFB
330
1
100
AcDbSymbolTableRecord
100
AcDbBlockTableRecord
  2
_DotSmall
340
0
  0
BLOCK_RECORD
  5
54BCD
330
1
100
AcDbSymbolTableRecord
100
AcDbBlockTableRecord
  2
*D6
340
0
  0
BLOCK_RECORD
  5
54C15
330
1
100
AcDbSymbolTableRecord
100
AcDbBlockTableRecord
  2
*D7
340
0
  0
BLOCK_RECORD
  5
54C34
330
1
100
AcDbSymbolTableRecord
100
AcDbBlockTableRecord
  2
*D8
340
0
  0
BLOCK_RECORD
  5
54C9E
330
1
100
AcDbSymbolTableRecord
100
AcDbBlockTableRecord
  2
*D9
340
0
  0
BLOCK_RECORD
  5
54CBD
330
1
100
AcDbSymbolTableRecord
100
AcDbBlockTableRecord
  2
*D10
340
0
  0
BLOCK_RECORD
  5
54CE5
330
1
100
AcDbSymbolTableRecord
100
AcDbBlockTableRecord
  2
*D11
340
0
  0
BLOCK_RECORD
  5
54F1A
330
1
100
AcDbSymbolTableRecord
100
AcDbBlockTableRecord
  2
*D18
340
0
  0
BLOCK_RECORD
  5
55031
330
1
100
AcDbSymbolTableRecord
100
AcDbBlockTableRecord
  2
*D19
340
0
  0
BLOCK_RECORD
  5
551AB
330
1
100
AcDbSymbolTableRecord
100
AcDbBlockTableRecord
  2
*S21
340
0
  0
BLOCK_RECORD
  5
551B5
330
1
100
AcDbSymbolTableRecord
100
AcDbBlockTableRecord
  2
*S22
340
0
  0
ENDTAB
  0
ENDSEC
  0
SECTION
  2
BLOCKS
  0
BLOCK
  5
20
330
1F
100
AcDbEntity
  8
0
100
AcDbBlockBegin
  2
*Model_Space
 70
     0
 10
0.0
 20
0.0
 30
0.0
  3
*Model_Space
  1

  0
ENDBLK
  5
21
330
1F
100
AcDbEntity
  8
0
100
AcDbBlockEnd
  0
BLOCK
  5
1C
330
1B
100
AcDbEntity
 67
     1
  8
0
100
AcDbBlockBegin
  2
*Paper_Space
 70
     0
 10
0.0
 20
0.0
 30
0.0
  3
*Paper_Space
  1

  0
ENDBLK
  5
1D
330
1B
100
AcDbEntity
 67
     1
  8
0
100
AcDbBlockEnd
  0
BLOCK
  5
24
330
23
100
AcDbEntity
 67
     1
  8
0
100
AcDbBlockBegin
  2
*Paper_Space0
 70
     0
 10
0.0
 20
0.0
 30
0.0
  3
*Paper_Space0
  1

  0
ENDBLK
  5
25
330
23
100
AcDbEntity
 67
     1
  8
0
100
AcDbBlockEnd
  0
BLOCK
  5
74
330
72
100
AcDbEntity
  8
0
100
AcDbBlockBegin
  2
GENAXEH
 70
     0
 10
0.0
 20
0.0
 30
0.0
  3
GENAXEH
  1

  0
LINE
  5
73
330
72
100
AcDbEntity
  8
0
100
AcDbLine
 10
-1.0
 20
0.0
 30
0.0
 11
1.0
 21
0.0
 31
0.0
  0
ENDBLK
  5
75
330
72
100
AcDbEntity
  8
0
100
AcDbBlockEnd
  0
BLOCK
  5
6C7
330
6C4
100
AcDbEntity
  8
0
100
AcDbBlockBegin
  2
_Dot
 70
     0
 10
0.0
 20
0.0
 30
0.0
  3
_Dot
  1

  0
LWPOLYLINE
  5
6C5
330
6C4
100
AcDbEntity
  8
0
  6
ByBlock
 62
     0
100
AcDbPolyline
 90
        2
 70
     1
 43
0.5
 10
-0.25
 20
0.0
 42
1.0
 10
0.25
 20
0.0
 42
1.0
  0
LINE
  5
6C6
330
6C4
100
AcDbEntity
  8
0
  6
ByBlock
 62
     0
370
    -2
100
AcDbLine
 10
-0.5
 20
0.0
 30
0.0
 11
-1.0
 21
0.0
 31
0.0
  0
ENDBLK
  5
6C8
330
6C4
100
AcDbEntity
  8
0
100
AcDbBlockEnd
  0
BLOCK
  5
A6A
330
A66
100
AcDbEntity
  8
0
100
AcDbBlockBegin
  2
_OPEN30
 70
     0
 10
0.0
 20
0.0
 30
0.0
  3
_OPEN30
  1

  0
LINE
  5
A67
330
A66
100
AcDbEntity
  8
0
  6
ByBlock
 62
     0
100
AcDbLine
 10
-1.0
 20
0.26794919
 30
0.0
 11
0.0
 21
0.0
 31
0.0
  0
LINE
  5
A68
330
A66
100
AcDbEntity
  8
0
  6
ByBlock
 62
     0
100
AcDbLine
 10
0.0
 20
0.0
 30
0.0
 11
-1.0
 21
-0.26794919
 31
0.0
  0
LINE
  5
A69
330
A66
100
AcDbEntity
  8
0
  6
ByBlock
 62
     0
100
AcDbLine
 10
0.0
 20
0.0
 30
0.0
 11
-1.0
 21
0.0
 31
0.0
  0
ENDBLK
  5
A6B
330
A66
100
AcDbEntity
  8
0
100
AcDbBlockEnd
  0
BLOCK
  5
32DFC
330
32DFB
100
AcDbEntity
  8
0
100
AcDbBlockBegin
  2
_DotSmall
 70
     0
 10
0.0
 20
0.0
 30
0.0
  3
_DotSmall
  1

  0
LWPOLYLINE
  5
32DFD
330
32DFB
100
AcDbEntity
  8
0
  6
ByBlock
 62
     0
100
AcDbPolyline
 90
        2
 70
     1
 43
0.5
 10
-0.0625
 20
0.0
 42
1.0
 10
0.0625
 20
0.0
 42
1.0
  0
ENDBLK
  5
32DFE
330
32DFB
100
AcDbEntity
  8
0
100
AcDbBlockEnd
  0
BLOCK
  5
54BD7
330
54BCD
100
AcDbEntity
  8
0
 48
0.5
100
AcDbBlockBegin
  2
*D6
 70
     1
 10
0.0
 20
0.0
 30
0.0
  3
*D6
  1

  0
LINE
  5
550D1
330
54BCD
100
AcDbEntity
  8
AM_5
100
AcDbLine
 10
6760.230645723471
 20
-84.06845736700779
 30
0.0
 11
6822.017520786246
 21
-84.0684573670078
 31
0.0
  0
LINE
  5
550D2
330
54BCD
100
AcDbEntity
  8
AM_5
100
AcDbLine
 10
6789.230645723468
 20
-486.5684573670082
 30
0.0
 11
6822.017520786246
 21
-486.5684573670082
 31
0.0
  0
LINE
  5
550D3
330
54BCD
100
AcDbEntity
  8
AM_5
100
AcDbLine
 10
6817.017520786247
 20
-89.0684573670078
 30
0.0
 11
6817.017520786247
 21
-481.5684573670082
 31
0.0
  0
INSERT
  5
550D4
330
54BCD
100
AcDbEntity
  8
AM_5
100
AcDbBlockReference
  2
_Dot
 10
6817.017520786247
 20
-84.0684573670078
 30
0.0
 41
5.0
 42
5.0
 43
5.0
 50
90.0
  0
INSERT
  5
550D5
330
54BCD
100
AcDbEntity
  8
AM_5
100
AcDbBlockReference
  2
_Dot
 10
6817.017520786247
 20
-486.5684573670082
 30
0.0
 41
5.0
 42
5.0
 43
5.0
 50
270.0
  0
MTEXT
  5
550D6
330
54BCD
100
AcDbEntity
  8
AM_5
 62
     2
100
AcDbMText
 10
6805.767520786247
 20
-285.3184573670069
 30
0.0
 40
12.5
 41
0.0
 71
     5
 72
     1
  1
402.5
 11
0.0000000000000001
 21
1.0
 31
0.0
 73
     1
 44
1.0
  0
POINT
  5
550D7
330
54BCD
100
AcDbEntity
  8
Defpoints
 62
     0
100
AcDbPoint
 10
6755.230645723471
 20
-84.06845736700779
 30
0.0
  0
POINT
  5
550D8
330
54BCD
100
AcDbEntity
  8
Defpoints
 62
     0
100
AcDbPoint
 10
6784.230645723468
 20
-486.5684573670082
 30
0.0
  0
POINT
  5
550D9
330
54BCD
100
AcDbEntity
  8
Defpoints
 62
     0
100
AcDbPoint
 10
6817.017520786247
 20
-486.5684573670082
 30
0.0
  0
ENDBLK
  5
54BD8
330
54BCD
100
AcDbEntity
  8
0
 48
0.5
100
AcDbBlockEnd
  0
BLOCK
  5
54C1F
330
54C15
100
AcDbEntity
  8
0
 48
0.5
100
AcDbBlockBegin
  2
*D7
 70
     1
 10
0.0
 20
0.0
 30
0.0
  3
*D7
  1

  0
LINE
  5
550DA
330
54C15
100
AcDbEntity
  8
AM_5
100
AcDbLine
 10
6786.230645723468
 20
-489.5684573670082
 30
0.0
 11
6786.230645723468
 21
-511.5684573670096
 31
0.0
  0
LINE
  5
550DB
330
54C15
100
AcDbEntity
  8
AM_5
100
AcDbLine
 10
6436.230645723468
 20
-452.3950627659514
 30
0.0
 11
6436.230645723468
 21
-511.5684573670096
 31
0.0
  0
LINE
  5
550DC
330
54C15
100
AcDbEntity
  8
AM_5
100
AcDbLine
 10
6781.230645723468
 20
-506.5684573670096
 30
0.0
 11
6441.230645723468
 21
-506.5684573670096
 31
0.0
  0
INSERT
  5
550DD
330
54C15
100
AcDbEntity
  8
AM_5
100
AcDbBlockReference
  2
_Dot
 10
6786.230645723468
 20
-506.5684573670096
 30
0.0
 41
5.0
 42
5.0
 43
5.0
  0
INSERT
  5
550DE
330
54C15
100
AcDbEntity
  8
AM_5
100
AcDbBlockReference
  2
_Dot
 10
6436.230645723468
 20
-506.5684573670096
 30
0.0
 41
5.0
 42
5.0
 43
5.0
 50
180.0
  0
MTEXT
  5
550DF
330
54C15
100
AcDbEntity
  8
AM_5
 62
     2
100
AcDbMText
 10
6611.230645723468
 20
-495.3184573670096
 30
0.0
 40
12.5
 41
0.0
 71
     5
 72
     1
  1
350
 73
     1
 44
1.0
  0
POINT
  5
550E0
330
54C15
100
AcDbEntity
  8
Defpoints
 62
     0
100
AcDbPoint
 10
6786.230645723468
 20
-484.5684573670082
 30
0.0
  0
POINT
  5
550E1
330
54C15
100
AcDbEntity
  8
Defpoints
 62
     0
100
AcDbPoint
 10
6436.230645723468
 20
-447.3950627659514
 30
0.0
  0
POINT
  5
550E2
330
54C15
100
AcDbEntity
  8
Defpoints
 62
     0
100
AcDbPoint
 10
6436.230645723468
 20
-506.5684573670096
 30
0.0
  0
ENDBLK
  5
54C20
330
54C15
100
AcDbEntity
  8
0
 48
0.5
100
AcDbBlockEnd
  0
BLOCK
  5
54C3E
330
54C34
100
AcDbEntity
  8
0
 48
0.5
100
AcDbBlockBegin
  2
*D8
 70
     1
 10
0.0
 20
0.0
 30
0.0
  3
*D8
  1

  0
LINE
  5
550E3
330
54C34
100
AcDbEntity
  8
AM_5
100
AcDbLine
 10
6786.230645723468
 20
-489.5684573670082
 30
0.0
 11
6786.230645723468
 21
-541.5684573670091
 31
0.0
  0
LINE
  5
550E4
330
54C34
100
AcDbEntity
  8
AM_5
100
AcDbLine
 10
6417.230645723467
 20
-427.0684573670082
 30
0.0
 11
6417.230645723467
 21
-541.5684573670091
 31
0.0
  0
LINE
  5
550E5
330
54C34
100
AcDbEntity
  8
AM_5
100
AcDbLine
 10
6781.230645723468
 20
-536.5684573670091
 30
0.0
 11
6422.230645723466
 21
-536.5684573670091
 31
0.0
  0
INSERT
  5
550E6
330
54C34
100
AcDbEntity
  8
AM_5
100
AcDbBlockReference
  2
_Dot
 10
6786.230645723468
 20
-536.5684573670091
 30
0.0
 41
5.0
 42
5.0
 43
5.0
  0
INSERT
  5
550E7
330
54C34
100
AcDbEntity
  8
AM_5
100
AcDbBlockReference
  2
_Dot
 10
6417.230645723467
 20
-536.5684573670091
 30
0.0
 41
5.0
 42
5.0
 43
5.0
 50
180.0
  0
MTEXT
  5
550E8
330
54C34
100
AcDbEntity
  8
AM_5
 62
     2
100
AcDbMText
 10
6601.730645723467
 20
-525.3184573670091
 30
0.0
 40
12.5
 41
0.0
 71
     5
 72
     1
  1
369
 73
     1
 44
1.0
  0
POINT
  5
550E9
330
54C34
100
AcDbEntity
  8
Defpoints
 62
     0
100
AcDbPoint
 10
6786.230645723468
 20
-484.5684573670082
 30
0.0
  0
POINT
  5
550EA
330
54C34
100
AcDbEntity
  8
Defpoints
 62
     0
100
AcDbPoint
 10
6417.230645723467
 20
-422.0684573670082
 30
0.0
  0
POINT
  5
550EB
330
54C34
100
AcDbEntity
  8
Defpoints
 62
     0
100
AcDbPoint
 10
6417.230645723467
 20
-536.5684573670091
 30
0.0
  0
ENDBLK
  5
54C3F
330
54C34
100
AcDbEntity
  8
0
 48
0.5
100
AcDbBlockEnd
  0
BLOCK
  5
54CA8
330
54C9E
100
AcDbEntity
  8
0
 48
0.5
100
AcDbBlockBegin
  2
*D9
 70
     1
 10
0.0
 20
0.0
 30
0.0
  3
*D9
  1

  0
LINE
  5
550EC
330
54C9E
100
AcDbEntity
  8
AM_5
100
AcDbLine
 10
5534.783553804253
 20
-497.5684573670086
 30
0.0
 11
5534.783553804253
 21
-541.5684573670037
 31
0.0
  0
LINE
  5
550ED
330
54C9E
100
AcDbEntity
  8
AM_5
100
AcDbLine
 10
6253.572859926969
 20
-497.5684573670086
 30
0.0
 11
6253.572859926969
 21
-541.5684573670037
 31
0.0
  0
LINE
  5
550EE
330
54C9E
100
AcDbEntity
  8
AM_5
100
AcDbLine
 10
5539.783553804253
 20
-536.5684573670036
 30
0.0
 11
6248.572859926969
 21
-536.5684573670036
 31
0.0
  0
INSERT
  5
550EF
330
54C9E
100
AcDbEntity
  8
AM_5
100
AcDbBlockReference
  2
_Dot
 10
5534.783553804253
 20
-536.5684573670036
 30
0.0
 41
5.0
 42
5.0
 43
5.0
 50
180.0
  0
INSERT
  5
550F0
330
54C9E
100
AcDbEntity
  8
AM_5
100
AcDbBlockReference
  2
_Dot
 10
6253.572859926969
 20
-536.5684573670036
 30
0.0
 41
5.0
 42
5.0
 43
5.0
  0
MTEXT
  5
550F1
330
54C9E
100
AcDbEntity
  8
AM_5
 62
     2
100
AcDbMText
 10
5894.178206865611
 20
-525.3184573670036
 30
0.0
 40
12.5
 41
0.0
 71
     5
 72
     1
  1
台座の取付ピッチ
 73
     1
 44
1.0
  0
POINT
  5
550F2
330
54C9E
100
AcDbEntity
  8
Defpoints
 62
     0
100
AcDbPoint
 10
5534.783553804253
 20
-492.5684573670086
 30
0.0
  0
POINT
  5
550F3
330
54C9E
100
AcDbEntity
  8
Defpoints
 62
     0
100
AcDbPoint
 10
6253.572859926969
 20
-492.5684573670086
 30
0.0
  0
POINT
  5
550F4
330
54C9E
100
AcDbEntity
  8
Defpoints
 62
     0
100
AcDbPoint
 10
6253.572859926969
 20
-536.5684573670036
 30
0.0
  0
ENDBLK
  5
54CA9
330
54C9E
100
AcDbEntity
  8
0
 48
0.5
100
AcDbBlockEnd
  0
BLOCK
  5
54CC7
330
54CBD
100
AcDbEntity
  8
0
 48
0.5
100
AcDbBlockBegin
  2
*D10
 70
     1
 10
0.0
 20
0.0
 30
0.0
  3
*D10
  1

  0
LINE
  5
550F5
330
54CBD
100
AcDbEntity
  8
AM_5
100
AcDbLine
 10
5664.484787914392
 20
-149.768457367009
 30
0.0
 11
5691.310888056245
 21
-149.768457367009
 31
0.0
  0
LINE
  5
550F6
330
54CBD
100
AcDbEntity
  8
AM_5
100
AcDbLine
 10
5664.484787914392
 20
-115.7684573670092
 30
0.0
 11
5691.310888056245
 21
-115.7684573670092
 31
0.0
  0
LINE
  5
550F7
330
54CBD
100
AcDbEntity
  8
AM_5
100
AcDbLine
 10
5686.310888056245
 20
-144.768457367009
 30
0.0
 11
5686.310888056245
 21
-120.7684573670092
 31
0.0
  0
LINE
  5
550F8
330
54CBD
100
AcDbEntity
  8
AM_5
100
AcDbLine
 10
5686.310888056245
 20
-115.7684573670092
 30
0.0
 11
5686.310888056245
 21
-37.23303698579852
 31
0.0
  0
INSERT
  5
550F9
330
54CBD
100
AcDbEntity
  8
AM_5
100
AcDbBlockReference
  2
_Dot
 10
5686.310888056245
 20
-149.768457367009
 30
0.0
 41
5.0
 42
5.0
 43
5.0
 50
270.0
  0
INSERT
  5
550FA
330
54CBD
100
AcDbEntity
  8
AM_5
100
AcDbBlockReference
  2
_Dot
 10
5686.310888056245
 20
-115.7684573670092
 30
0.0
 41
5.0
 42
5.0
 43
5.0
 50
90.0
  0
MTEXT
  5
550FB
330
54CBD
100
AcDbEntity
  8
AM_5
 62
     2
100
AcDbMText
 10
5675.060888056245
 20
-59.27470365246427
 30
0.0
 40
12.5
 41
0.0
 71
     5
 72
     1
  1
30以上
 11
0.0000000000000001
 21
1.0
 31
0.0
 73
     1
 44
1.0
  0
POINT
  5
550FC
330
54CBD
100
AcDbEntity
  8
Defpoints
 62
     0
100
AcDbPoint
 10
5659.484787914392
 20
-149.768457367009
 30
0.0
  0
POINT
  5
550FD
330
54CBD
100
AcDbEntity
  8
Defpoints
 62
     0
100
AcDbPoint
 10
5659.484787914392
 20
-115.7684573670092
 30
0.0
  0
POINT
  5
550FE
330
54CBD
100
AcDbEntity
  8
Defpoints
 62
     0
100
AcDbPoint
 10
5686.310888056245
 20
-115.7684573670092
 30
0.0
  0
ENDBLK
  5
54CC8
330
54CBD
100
AcDbEntity
  8
0
 48
0.5
100
AcDbBlockEnd
  0
BLOCK
  5
54CEF
330
54CE5
100
AcDbEntity
  8
0
 48
0.5
100
AcDbBlockBegin
  2
*D11
 70
     1
 10
0.0
 20
0.0
 30
0.0
  3
*D11
  1

  0
LINE
  5
550FF
330
54CE5
100
AcDbEntity
  8
AM_5
100
AcDbLine
 10
5510.183553804252
 20
-144.0684573670151
 30
0.0
 11
5510.183553804252
 21
-215.5926438817396
 31
0.0
  0
LINE
  5
55100
330
54CE5
100
AcDbEntity
  8
AM_5
100
AcDbLine
 10
5520.183553804251
 20
-170.7684573670099
 30
0.0
 11
5520.183553804251
 21
-215.5926438817396
 31
0.0
  0
LINE
  5
55101
330
54CE5
100
AcDbEntity
  8
AM_5
100
AcDbLine
 10
5505.183553804252
 20
-210.5926438817396
 30
0.0
 11
5500.183553804252
 21
-210.5926438817396
 31
0.0
  0
LINE
  5
55102
330
54CE5
100
AcDbEntity
  8
AM_5
100
AcDbLine
 10
5525.18355380425
 20
-210.5926438817396
 30
0.0
 11
5573.016887137583
 21
-210.5926438817396
 31
0.0
  0
LINE
  5
55103
330
54CE5
100
AcDbEntity
  8
AM_5
100
AcDbLine
 10
5510.183553804252
 20
-210.5926438817396
 30
0.0
 11
5520.183553804251
 21
-210.5926438817396
 31
0.0
  0
INSERT
  5
55104
330
54CE5
100
AcDbEntity
  8
AM_5
100
AcDbBlockReference
  2
_Dot
 10
5510.183553804252
 20
-210.5926438817396
 30
0.0
 41
5.0
 42
5.0
 43
5.0
  0
INSERT
  5
55105
330
54CE5
100
AcDbEntity
  8
AM_5
100
AcDbBlockReference
  2
_Dot
 10
5520.183553804251
 20
-210.5926438817396
 30
0.0
 41
5.0
 42
5.0
 43
5.0
 50
180.0
  0
MTEXT
  5
55106
330
54CE5
100
AcDbEntity
  8
AM_5
 62
     2
100
AcDbMText
 10
5551.600220470917
 20
-199.3426438817396
 30
0.0
 40
12.5
 41
0.0
 71
     5
 72
     1
  1
10以上
 73
     1
 44
1.0
  0
POINT
  5
55107
330
54CE5
100
AcDbEntity
  8
Defpoints
 62
     0
100
AcDbPoint
 10
5510.183553804252
 20
-139.068457367015
 30
0.0
  0
POINT
  5
55108
330
54CE5
100
AcDbEntity
  8
Defpoints
 62
     0
100
AcDbPoint
 10
5520.183553804251
 20
-165.7684573670099
 30
0.0
  0
POINT
  5
55109
330
54CE5
100
AcDbEntity
  8
Defpoints
 62
     0
100
AcDbPoint
 10
5520.183553804251
 20
-210.5926438817396
 30
0.0
  0
ENDBLK
  5
54CF0
330
54CE5
100
AcDbEntity
  8
0
 48
0.5
100
AcDbBlockEnd
  0
BLOCK
  5
54F26
330
54F1A
100
AcDbEntity
  8
0
 48
0.5
100
AcDbBlockBegin
  2
*D18
 70
     1
 10
0.0
 20
0.0
 30
0.0
  3
*D18
  1

  0
ARC
  5
5510A
330
54F1A
100
AcDbEntity
  8
AM_5
100
AcDbCircle
 10
6755.230645723468
 20
-422.0684573670077
 30
0.0
 40
93.117716221785
100
AcDbArc
 50
93.07689380787548
 51
176.9231061921244
  0
INSERT
  5
5510B
330
54F1A
100
AcDbEntity
  8
AM_5
100
AcDbBlockReference
  2
_Dot
 10
6755.230645723468
 20
-328.9507411452232
 30
0.0
 41
5.0
 42
5.0
 43
5.0
 50
1.538446903937742
  0
INSERT
  5
5510C
330
54F1A
100
AcDbEntity
  8
AM_5
100
AcDbBlockReference
  2
_Dot
 10
6662.112929501684
 20
-422.0684573670077
 30
0.0
 41
5.0
 42
5.0
 43
5.0
 50
268.4615530960622
  0
MTEXT
  5
5510D
330
54F1A
100
AcDbEntity
  8
AM_5
 62
     2
100
AcDbMText
 10
6681.431525846091
 20
-348.2693374896321
 30
0.0
 40
12.5
 41
0.0
 71
     5
 72
     1
  1
90\U+00B0
 11
0.7071067811865476
 21
0.7071067811865475
 31
0.0
 73
     1
 44
1.0
  0
POINT
  5
5510E
330
54F1A
100
AcDbEntity
  8
Defpoints
 62
     0
100
AcDbPoint
 10
6708.671787612574
 20
-341.4261495765513
 30
0.0
  0
POINT
  5
5510F
330
54F1A
100
AcDbEntity
  8
Defpoints
 62
     0
100
AcDbPoint
 10
6414.233907410625
 20
-422.0684573670077
 30
0.0
  0
POINT
  5
55110
330
54F1A
100
AcDbEntity
  8
Defpoints
 62
     0
100
AcDbPoint
 10
6755.230645723468
 20
-79.10733045920733
 30
0.0
  0
POINT
  5
55111
330
54F1A
100
AcDbEntity
  8
Defpoints
 62
     0
100
AcDbPoint
 10
6755.230645723468
 20
-442.0684573670087
 30
0.0
  0
POINT
  5
55112
330
54F1A
100
AcDbEntity
  8
Defpoints
 62
     0
100
AcDbPoint
 10
6790.876928399554
 20
-422.0684573670077
 30
0.0
  0
ENDBLK
  5
54F27
330
54F1A
100
AcDbEntity
  8
0
 48
0.5
100
AcDbBlockEnd
  0
BLOCK
  5
5503B
330
55031
100
AcDbEntity
  8
0
 48
0.5
100
AcDbBlockBegin
  2
*D19
 70
     1
 10
0.0
 20
0.0
 30
0.0
  3
*D19
  1

  0
LINE
  5
55158
330
55031
100
AcDbEntity
  8
AM_5
100
AcDbLine
 10
6755.230645723468
 20
-74.10733045920688
 30
0.0
 11
6755.230645723468
 21
-48.52705320648329
 31
0.0
  0
LINE
  5
55159
330
55031
100
AcDbEntity
  8
AM_5
100
AcDbLine
 10
6786.230645723468
 20
-354.5684573670083
 30
0.0
 11
6786.230645723468
 21
-48.52705320648329
 31
0.0
  0
LINE
  5
5515A
330
55031
100
AcDbEntity
  8
AM_5
100
AcDbLine
 10
6760.230645723467
 20
-53.52705320648329
 30
0.0
 11
6781.230645723468
 21
-53.52705320648329
 31
0.0
  0
INSERT
  5
5515B
330
55031
100
AcDbEntity
  8
AM_5
100
AcDbBlockReference
  2
_Dot
 10
6755.230645723468
 20
-53.52705320648329
 30
0.0
 41
5.0
 42
5.0
 43
5.0
 50
180.0
  0
INSERT
  5
5515C
330
55031
100
AcDbEntity
  8
AM_5
100
AcDbBlockReference
  2
_Dot
 10
6786.230645723468
 20
-53.52705320648329
 30
0.0
 41
5.0
 42
5.0
 43
5.0
  0
MTEXT
  5
5515D
330
55031
100
AcDbEntity
  8
AM_5
 62
     2
100
AcDbMText
 10
6770.730645723467
 20
-42.27705320648328
 30
0.0
 40
12.5
 41
0.0
 71
     5
 72
     1
  1
31
 73
     1
 44
1.0
  0
POINT
  5
5515E
330
55031
100
AcDbEntity
  8
Defpoints
 62
     0
100
AcDbPoint
 10
6755.230645723468
 20
-79.10733045920688
 30
0.0
  0
POINT
  5
5515F
330
55031
100
AcDbEntity
  8
Defpoints
 62
     0
100
AcDbPoint
 10
6786.230645723468
 20
-359.5684573670082
 30
0.0
  0
POINT
  5
55160
330
55031
100
AcDbEntity
  8
Defpoints
 62
     0
100
AcDbPoint
 10
6786.230645723468
 20
-53.52705320648329
 30
0.0
  0
ENDBLK
  5
5503C
330
55031
100
AcDbEntity
  8
0
 48
0.5
100
AcDbBlockEnd
  0
BLOCK
  5
551B2
330
551AB
100
AcDbEntity
  8
0
 48
0.5
100
AcDbBlockBegin
  2
*S21
 70
     1
 10
0.0
 20
0.0
 30
0.0
  3
*S21
  1

  0
LINE
  5
551AC
330
551AB
100
AcDbEntity
  8
AM_5
 62
     3
 48
0.5
100
AcDbLine
 10
5506.855804588112
 20
-72.34518957646969
 30
0.0
 11
5593.682471254779
 21
-72.34518957646969
 31
0.0
  0
LINE
  5
551AD
330
551AB
100
AcDbEntity
  8
AM_5
 62
     3
 48
0.5
100
AcDbLine
 10
5593.682471254779
 20
-72.34518957646969
 30
0.0
 11
5647.519412847113
 21
-143.3922979740924
 31
0.0
  0
LINE
  5
551AE
330
551AB
100
AcDbEntity
  8
AM_5
  6
Continuous
 62
     3
 48
0.5
100
AcDbLine
 10
5647.519412847113
 20
-143.3922979740924
 30
0.0
 11
5652.351036942192
 21
-149.7684573670062
 31
0.0
  0
LINE
  5
551AF
330
551AB
100
AcDbEntity
  8
AM_5
  6
Continuous
 62
     3
 48
0.5
100
AcDbLine
 10
5645.810926102471
 20
-144.6869277367536
 30
0.0
 11
5652.351036942192
 21
-149.7684573670062
 31
0.0
  0
LINE
  5
551B0
330
551AB
100
AcDbEntity
  8
AM_5
  6
Continuous
 62
     3
 48
0.5
100
AcDbLine
 10
5652.351036942192
 20
-149.7684573670062
 30
0.0
 11
5649.227899591755
 21
-142.0976682114313
 31
0.0
  0
MTEXT
  5
551B1
330
551AB
100
AcDbEntity
  8
AM_5
 62
     2
100
AcDbMText
 10
5590.482471254779
 20
-68.33739760419712
 30
0.0
 40
12.8
 41
0.0
 71
     9
 72
     5
  1
（カーテンレール）
 73
     1
 44
1.0
  0
ENDBLK
  5
551B3
330
551AB
100
AcDbEntity
  8
0
 48
0.5
100
AcDbBlockEnd
  0
BLOCK
  5
551BC
330
551B5
100
AcDbEntity
  8
0
 48
0.5
100
AcDbBlockBegin
  2
*S22
 70
     1
 10
0.0
 20
0.0
 30
0.0
  3
*S22
  1

  0
LINE
  5
551B6
330
551B5
100
AcDbEntity
  8
AM_5
 62
     3
 48
0.5
100
AcDbLine
 10
5660.276020398995
 20
-312.9678540064952
 30
0.0
 11
5627.209353732327
 21
-312.9678540064952
 31
0.0
  0
LINE
  5
551B7
330
551B5
100
AcDbEntity
  8
AM_5
 62
     3
 48
0.5
100
AcDbLine
 10
5627.209353732327
 20
-312.9678540064952
 30
0.0
 11
5608.164906063637
 21
-337.69603222951
 31
0.0
  0
LINE
  5
551B8
330
551B5
100
AcDbEntity
  8
AM_5
  6
Continuous
 62
     3
 48
0.5
100
AcDbLine
 10
5608.164906063637
 20
-337.69603222951
 30
0.0
 11
5603.283553804253
 21
-344.0342023218791
 31
0.0
  0
LINE
  5
551B9
330
551B5
100
AcDbEntity
  8
AM_5
  6
Continuous
 62
     3
 48
0.5
100
AcDbLine
 10
5606.466598521305
 20
-336.3880778455033
 30
0.0
 11
5603.283553804253
 21
-344.0342023218791
 31
0.0
  0
LINE
  5
551BA
330
551B5
100
AcDbEntity
  8
AM_5
  6
Continuous
 62
     3
 48
0.5
100
AcDbLine
 10
5603.283553804253
 20
-344.0342023218791
 30
0.0
 11
5609.86321360597
 21
-339.0039866135168
 31
0.0
  0
MTEXT
  5
551BB
330
551B5
100
AcDbEntity
  8
AM_5
 62
     2
100
AcDbMText
 10
5630.409353732328
 20
-310.3021515700757
 30
0.0
 40
12.8
 41
0.0
 71
     7
 72
     5
  1
（額縁）
 73
     1
 44
1.0
  0
ENDBLK
  5
551BD
330
551B5
100
AcDbEntity
  8
0
 48
0.5
100
AcDbBlockEnd
  0
ENDSEC
  0
SECTION
  2
ENTITIES
  0
AMDTACMWBLOCKBOMENTITY
  5
1EB3A
330
1F
100
AcDbEntity
  8
AM_6
 92
        8
310
0800000000000000
  0
AMDTACMWBLOCKBOMENTITY
  5
1EB3B
330
1F
100
AcDbEntity
  8
AM_5
 92
        8
310
0800000000000000
  0
AMDTACMWBLOCKBOMENTITY
  5
1EB3C
330
1F
100
AcDbEntity
  8
AM_5
 92
        8
310
0800000000000000
  0
AMDTACMWBLOCKBOMENTITY
  5
1EB3D
330
1F
100
AcDbEntity
  8
AM_5
 92
        8
310
0800000000000000
  0
AMDTACMWBLOCKBOMENTITY
  5
1EB3E
330
1F
100
AcDbEntity
  8
AM_5
 92
        8
310
0800000000000000
  0
AMDTACMWBLOCKBOMENTITY
  5
1EB3F
330
1F
100
AcDbEntity
  8
AM_5
 92
        8
310
0800000000000000
  0
AMDTACMWBLOCKBOMENTITY
  5
1EB40
330
1F
100
AcDbEntity
  8
AM_5
 92
        8
310
0800000000000000
  0
AMDTACMWBLOCKBOMENTITY
  5
1EB41
330
1F
100
AcDbEntity
  8
AM_5
 92
        8
310
0800000000000000
  0
ARC
  5
2121D
330
1F
100
AcDbEntity
  8
001本体
 48
0.5
 60
     1
100
AcDbCircle
 10
4762.519581199091
 20
-2259.06618040198
 30
0.0
 40
17.0
100
AcDbArc
 50
113.1764439438205
 51
176.107466317104
  0
AMDTACMWBLOCKBOMENTITY
  5
214E3
330
1F
100
AcDbEntity
  8
AM_5
 92
        8
310
0800000000000000
  0
AMDTACMWBLOCKBOMENTITY
  5
21FF0
330
1F
100
AcDbEntity
  8
AM_5
 92
        8
310
0800000000000000
  0
AMDTACMWBLOCKBOMENTITY
  5
21FF1
330
1F
100
AcDbEntity
  8
AM_5
 92
        8
310
0800000000000000
  0
AMDTACMWBLOCKBOMENTITY
  5
21FF2
330
1F
100
AcDbEntity
  8
AM_5
 92
        8
310
0800000000000000
  0
AMDTACMWBLOCKBOMENTITY
  5
21FF3
330
1F
100
AcDbEntity
  8
AM_5
 92
        8
310
0800000000000000
  0
AMDTACMWBLOCKBOMENTITY
  5
2627D
330
1F
100
AcDbEntity
  8
AM_6
 92
        8
310
0800000000000000
  0
AMDTACMWBLOCKBOMENTITY
  5
2627E
330
1F
100
AcDbEntity
  8
AM_5
 92
        8
310
0800000000000000
  0
AMDTACMWBLOCKBOMENTITY
  5
2627F
330
1F
100
AcDbEntity
  8
AM_5
 92
        8
310
0800000000000000
  0
AMDTACMWBLOCKBOMENTITY
  5
26280
330
1F
100
AcDbEntity
  8
AM_5
 92
        8
310
0800000000000000
  0
AMDTACMWBLOCKBOMENTITY
  5
26281
330
1F
100
AcDbEntity
  8
AM_5
 92
        8
310
0800000000000000
  0
AMDTACMWBLOCKBOMENTITY
  5
26282
330
1F
100
AcDbEntity
  8
AM_5
 92
        8
310
0800000000000000
  0
AMDTACMWBLOCKBOMENTITY
  5
26283
330
1F
100
AcDbEntity
  8
AM_5
 92
        8
310
0800000000000000
  0
LINE
  5
540AE
330
1F
100
AcDbEntity
  8
AM_7
 48
2.0
370
     9
100
AcDbLine
 10
6414.233907410625
 20
-422.0684573670082
 30
0.0
 11
6790.876928399554
 21
-422.0684573670082
 31
0.0
  0
LINE
  5
540AF
330
1F
100
AcDbEntity
  8
AM_0
  6
ByBlock
100
AcDbLine
 10
6786.230645723468
 20
-359.5684573670082
 30
0.0
 11
6786.230645723468
 21
-484.5684573670082
 31
0.0
  0
ARC
  5
540B0
330
1F
100
AcDbEntity
  8
AM_0
100
AcDbCircle
 10
6784.230645723468
 20
-484.5684573670082
 30
0.0
 40
2.0
100
AcDbArc
 50
270.0
 51
0.0
  0
LINE
  5
540B1
330
1F
100
AcDbEntity
  8
AM_0
  6
ByBlock
100
AcDbLine
 10
6782.230645723469
 20
-357.5684573670082
 30
0.0
 11
6782.230645723469
 21
-486.5684573670082
 31
0.0
  0
ARC
  5
540B2
330
1F
100
AcDbEntity
  8
AM_0
  6
ByBlock
100
AcDbCircle
 10
6755.230645723468
 20
-422.0684573670082
 30
0.0
 40
25.0
100
AcDbArc
 50
303.463040967207
 51
53.13010235412992
  0
LINE
  5
540B3
330
1F
100
AcDbEntity
  8
01 台座
100
AcDbLine
 10
6740.027849927955
 20
-406.8656615714957
 30
0.0
 11
6740.230645723468
 21
-406.6628657759852
 31
0.0
  0
LINE
  5
540B4
330
1F
100
AcDbEntity
  8
01 台座
100
AcDbLine
 10
6784.230645723468
 20
-357.5684573670082
 30
0.0
 11
6782.230645723469
 21
-357.5684573670082
 31
0.0
  0
ARC
  5
540B5
330
1F
100
AcDbEntity
  8
01 台座
100
AcDbCircle
 10
6784.230645723468
 20
-359.5684573670082
 30
0.0
 40
2.0
100
AcDbArc
 50
0.0
 51
90.0
  0
LINE
  5
540B6
330
1F
100
AcDbEntity
  8
AM_0
100
AcDbLine
 10
6784.230645723468
 20
-486.5684573670082
 30
0.0
 11
6782.230645723469
 21
-486.5684573670082
 31
0.0
  0
LINE
  5
540B7
330
1F
100
AcDbEntity
  8
AM_0
100
AcDbLine
 10
6763.922131078172
 20
-437.8310105335772
 30
0.0
 11
6769.015619893224
 21
-442.9244993486285
 31
0.0
  0
LINE
  5
540B8
330
1F
100
AcDbEntity
  8
AM_7
 48
2.0
370
     9
100
AcDbLine
 10
6755.230645723468
 20
-79.10733045920688
 30
0.0
 11
6755.230645723468
 21
-442.0684573670082
 31
0.0
  0
LINE
  5
540B9
330
1F
100
AcDbEntity
  8
AM_0
100
AcDbLine
 10
6747.230645723468
 20
-403.0684573670082
 30
0.0
 11
6747.230645723468
 21
-409.3798798265566
 31
0.0
  0
LINE
  5
540BA
330
1F
100
AcDbEntity
  8
AM_0
100
AcDbLine
 10
6763.230645723467
 20
-403.0684573670082
 30
0.0
 11
6763.230645723467
 21
-409.3798798265566
 31
0.0
  0
ARC
  5
540BB
330
1F
100
AcDbEntity
  8
AM_0
100
AcDbCircle
 10
6762.230645723469
 20
-403.0684573670082
 30
0.0
 40
1.0
100
AcDbArc
 50
0.0
 51
90.0
  0
LINE
  5
540BC
330
1F
100
AcDbEntity
  8
AM_0
100
AcDbLine
 10
6770.230645723469
 20
-395.0684573670082
 30
0.0
 11
6770.230645723469
 21
-410.7106406754069
 31
0.0
  0
LINE
  5
540BD
330
1F
100
AcDbEntity
  8
02 アーム下側
100
AcDbLine
 10
6740.230645723468
 20
-395.0684573670082
 30
0.0
 11
6740.230645723468
 21
-410.7106406754069
 31
0.0
  0
ARC
  5
540BE
330
1F
100
AcDbEntity
  8
AM_0
100
AcDbCircle
 10
6755.230645723468
 20
-422.0684573670082
 30
0.0
 40
18.0
100
AcDbArc
 50
150.4081542061083
 51
29.59184579389168
  0
ARC
  5
540BF
330
1F
100
AcDbEntity
  8
AM_0
100
AcDbCircle
 10
6775.230645723468
 20
-410.7106406754069
 30
0.0
 40
5.0
100
AcDbArc
 50
180.0
 51
209.5918457938917
  0
ARC
  5
540C0
330
1F
100
AcDbEntity
  8
02 アーム下側
100
AcDbCircle
 10
6735.230645723468
 20
-410.7106406754069
 30
0.0
 40
5.0
100
AcDbArc
 50
330.4081542061084
 51
0.0
  0
LINE
  5
540C1
330
1F
100
AcDbEntity
  8
AM_0
100
AcDbLine
 10
6770.230645723469
 20
-395.0684573670082
 30
0.0
 11
6740.230645723468
 21
-395.0684573670082
 31
0.0
  0
LINE
  5
540C2
330
1F
100
AcDbEntity
  8
AM_0
100
AcDbLine
 10
6762.230645723469
 20
-402.0684573670082
 30
0.0
 11
6748.230645723468
 21
-402.0684573670082
 31
0.0
  0
ARC
  5
540C3
330
1F
100
AcDbEntity
  8
AM_0
100
AcDbCircle
 10
6748.230645723468
 20
-403.0684573670082
 30
0.0
 40
1.0
100
AcDbArc
 50
90.0
 51
180.0
  0
LINE
  5
540C4
330
1F
100
AcDbEntity
  8
AM_0
100
AcDbLine
 10
6763.922131078172
 20
-437.8310105335772
 30
0.0
 11
6768.293304490232
 21
-442.2021839456361
 31
0.0
  0
LINE
  5
540C5
330
1F
100
AcDbEntity
  8
AM_0
100
AcDbLine
 10
6770.993198890039
 20
-430.7599427217105
 30
0.0
 11
6775.364372302099
 21
-435.1311161337712
 31
0.0
  0
ARC
  5
540C6
330
1F
100
AcDbEntity
  8
AM_0
100
AcDbCircle
 10
6755.230645723468
 20
-422.0684573670064
 30
0.0
 40
24.0
100
AcDbArc
 50
302.9753008193938
 51
327.0246991805843
  0
ARC
  5
540C7
330
1F
100
AcDbEntity
  8
AM_0
100
AcDbCircle
 10
6755.230645723468
 20
-422.0684573670082
 30
0.0
 40
15.0
100
AcDbArc
 50
122.2309526354724
 51
57.76904736452761
  0
ARC
  5
540C8
330
1F
100
AcDbEntity
  8
AM_0
  6
ByBlock
100
AcDbCircle
 10
6800.230645723468
 20
-422.0684573670082
 30
0.0
 40
71.0
100
AcDbArc
 50
147.5288593725573
 51
245.2921207350402
  0
ARC
  5
540C9
330
1F
100
AcDbEntity
  8
07 台座カバー
  6
ByBlock
100
AcDbCircle
 10
6800.230645723468
 20
-422.0684573670082
 30
0.0
 40
71.0
100
AcDbArc
 50
114.7078792649598
 51
115.0838189612289
  0
LINE
  5
540CA
330
1F
100
AcDbEntity
  8
07 台座カバー
  6
ByBlock
100
AcDbLine
 10
6770.553213219966
 20
-357.5684573670082
 30
0.0
 11
6781.230645723468
 21
-357.5684573670082
 31
0.0
  0
LINE
  5
540CB
330
1F
100
AcDbEntity
  8
07 台座カバー
  6
ByBlock
100
AcDbLine
 10
6781.230645723468
 20
-358.468457367006
 30
0.0
 11
6782.230645723469
 21
-358.468457367006
 31
0.0
  0
LINE
  5
540CC
330
1F
100
AcDbEntity
  8
AM_0
  6
ByBlock
100
AcDbLine
 10
6770.553213219966
 20
-486.5684573670082
 30
0.0
 11
6781.230645723468
 21
-486.5684573670082
 31
0.0
  0
LINE
  5
540CD
330
1F
100
AcDbEntity
  8
AM_0
  6
ByBlock
100
AcDbLine
 10
6781.230645723468
 20
-485.6684573670068
 30
0.0
 11
6782.230645723469
 21
-485.6684573670086
 31
0.0
  0
LINE
  5
540CE
330
1F
100
AcDbEntity
  8
AM_0
  6
ByBlock
100
AcDbLine
 10
6782.230645723469
 20
-485.6684573670068
 30
0.0
 11
6782.230645723469
 21
-358.468457367006
 31
0.0
  0
LINE
  5
540CF
330
1F
100
AcDbEntity
  8
AM_0
  6
ByBlock
100
AcDbLine
 10
6781.230645723468
 20
-486.5684573670082
 30
0.0
 11
6781.230645723448
 21
-447.0684573670082
 31
0.0
  0
LINE
  5
540D0
330
1F
100
AcDbEntity
  8
AM_0
  6
ByBlock
100
AcDbLine
 10
6781.230645723468
 20
-397.0684573670064
 30
0.0
 11
6781.230645723468
 21
-357.5684573670082
 31
0.0
  0
LINE
  5
540D1
330
1F
100
AcDbEntity
  8
AM_0
  6
ByBlock
100
AcDbLine
 10
6759.452619895206
 20
-447.0684573670082
 30
0.0
 11
6782.230645723469
 21
-447.0684573670082
 31
0.0
  0
ARC
  5
540D2
330
1F
100
AcDbEntity
  8
AM_0
  6
ByBlock
100
AcDbCircle
 10
6762.340516582163
 20
-442.0684573670082
 30
0.0
 40
5.0
100
AcDbArc
 50
270.0
 51
270.0
  0
LINE
  5
540D3
330
1F
100
AcDbEntity
  8
AM_0
  6
ByBlock
100
AcDbLine
 10
6770.130645723468
 20
-139.0684573670082
 30
0.0
 11
6770.130645723468
 21
-395.0684573670082
 31
0.0
  0
LINE
  5
540D4
330
1F
100
AcDbEntity
  8
AM_0
  6
ByBlock
100
AcDbLine
 10
6740.330645723466
 20
-139.0684573670082
 30
0.0
 11
6740.330645723466
 21
-395.0684573670082
 31
0.0
  0
LINE
  5
540D5
330
1F
100
AcDbEntity
  8
AM_7
370
     9
100
AcDbLine
 10
6780.557251122413
 20
-103.0684573670082
 30
0.0
 11
6729.904040324524
 21
-103.0684573670082
 31
0.0
  0
LINE
  5
540D6
330
1F
100
AcDbEntity
  8
AM_0
  6
ByBlock
100
AcDbLine
 10
6758.175141856249
 20
-446.6073042924622
 30
0.0
 11
6748.924052984804
 21
-438.927487233183
 31
0.0
  0
ARC
  5
540D7
330
1F
100
AcDbEntity
  8
AM_0
  6
ByBlock
100
AcDbCircle
 10
6759.452619895206
 20
-445.0684573670082
 30
0.0
 40
2.0
100
AcDbArc
 50
230.3021445038283
 51
270.0
  0
LINE
  5
540D8
330
1F
100
AcDbEntity
  8
AM_0
  6
ByBlock
100
AcDbLine
 10
6770.230645723469
 20
-397.0684573670082
 30
0.0
 11
6782.230645723469
 21
-397.0684573670082
 31
0.0
  0
CIRCLE
  5
540D9
330
1F
100
AcDbEntity
  8
AM_0
100
AcDbCircle
 10
6755.230645723468
 20
-103.0684573670082
 30
0.0
 40
16.5
  0
LINE
  5
540DA
330
1F
100
AcDbEntity
  8
AM_0
100
AcDbLine
 10
6771.930645723469
 20
-139.0684573670082
 30
0.0
 11
6738.530645723469
 21
-139.0684573670082
 31
0.0
  0
ARC
  5
540DB
330
1F
100
AcDbEntity
  8
AM_0
  6
ByBlock
100
AcDbCircle
 10
6771.930645723469
 20
-138.0684573670082
 30
0.0
 40
1.0
100
AcDbArc
 50
270.0
 51
0.0
  0
LINE
  5
540DC
330
1F
100
AcDbEntity
  8
AM_0
  6
ByBlock
100
AcDbLine
 10
6772.930645723469
 20
-86.53897942768935
 30
0.0
 11
6772.930645723469
 21
-138.0684573670082
 31
0.0
  0
LINE
  5
540DD
330
1F
100
AcDbEntity
  8
AM_0
  6
ByBlock
100
AcDbLine
 10
6737.53064572347
 20
-86.53897942768935
 30
0.0
 11
6737.53064572347
 21
-138.0684573670082
 31
0.0
  0
ARC
  5
540DE
330
1F
100
AcDbEntity
  8
AM_0
  6
ByBlock
100
AcDbCircle
 10
6738.530645723469
 20
-138.0684573670082
 30
0.0
 40
1.0
100
AcDbArc
 50
180.0
 51
270.0
  0
ARC
  5
540DF
330
1F
100
AcDbEntity
  8
AM_0
  6
ByBlock
100
AcDbCircle
 10
6755.230645723471
 20
-180.6305854866409
 30
0.0
 40
96.56212811963316
100
AcDbArc
 50
79.93557451792007
 51
100.0644254820799
  0
ARC
  5
540E0
330
1F
100
AcDbEntity
  8
AM_0
  6
ByBlock
100
AcDbCircle
 10
6771.930645723469
 20
-86.53897942768935
 30
0.0
 40
1.0
100
AcDbArc
 50
0.0
 51
79.93557451792007
  0
ARC
  5
540E1
330
1F
100
AcDbEntity
  8
AM_0
  6
ByBlock
100
AcDbCircle
 10
6738.530645723469
 20
-86.53897942768935
 30
0.0
 40
1.0
100
AcDbArc
 50
100.0644254820799
 51
180.0
  0
CIRCLE
  5
540E2
330
1F
100
AcDbEntity
  8
AM_0
  6
ByBlock
100
AcDbCircle
 10
6755.230645723468
 20
-129.0684573670082
 30
0.0
 40
3.5
  0
CIRCLE
  5
540E3
330
1F
100
AcDbEntity
  8
AM_0
100
AcDbCircle
 10
6755.230645723468
 20
-129.0684573670082
 30
0.0
 40
7.0
  0
LINE
  5
540E4
330
1F
100
AcDbEntity
  8
AM_0
100
AcDbLine
 10
6770.130645723468
 20
-395.0684573670082
 30
0.0
 11
6740.330645723466
 21
-395.0684573670082
 31
0.0
  0
LINE
  5
540E5
330
1F
100
AcDbEntity
  8
AM_0
100
AcDbLine
 10
6747.730645723468
 20
-403.0684573670064
 30
0.0
 11
6747.730645723468
 21
-409.6587837210158
 31
0.0
  0
ARC
  5
540E6
330
1F
100
AcDbEntity
  8
AM_0
100
AcDbCircle
 10
6748.230645723468
 20
-403.0684573670064
 30
0.0
 40
0.5
100
AcDbArc
 50
90.0
 51
180.0
  0
LINE
  5
540E7
330
1F
100
AcDbEntity
  8
AM_0
100
AcDbLine
 10
6762.730645723468
 20
-403.0684573670064
 30
0.0
 11
6762.730645723468
 21
-409.6587837210158
 31
0.0
  0
LINE
  5
540E8
330
1F
100
AcDbEntity
  8
AM_0
100
AcDbLine
 10
6762.230645723469
 20
-402.5684573670064
 30
0.0
 11
6748.230645723468
 21
-402.5684573670064
 31
0.0
  0
ARC
  5
540E9
330
1F
100
AcDbEntity
  8
AM_0
100
AcDbCircle
 10
6762.230645723469
 20
-403.0684573670064
 30
0.0
 40
0.5
100
AcDbArc
 50
0.0
 51
90.0
  0
ARC
  5
540EA
330
1F
100
AcDbEntity
  8
AM_0
100
AcDbCircle
 10
6755.230645723468
 20
-422.0684573670064
 30
0.0
 40
14.5
100
AcDbArc
 50
121.1473899214689
 51
58.8526100785311
  0
LINE
  5
540EB
330
1F
100
AcDbEntity
  8
AM_11
  6
想像線1
370
     9
100
AcDbLine
 10
6728.230645723468
 20
-407.0684573670082
 30
0.0
 11
6743.872829031866
 21
-407.0684573670082
 31
0.0
  0
LINE
  5
540EC
330
1F
100
AcDbEntity
  8
AM_11
  6
想像線1
370
     9
100
AcDbLine
 10
6728.230645723468
 20
-437.0684573670082
 30
0.0
 11
6743.872829031866
 21
-437.0684573670082
 31
0.0
  0
LINE
  5
540ED
330
1F
100
AcDbEntity
  8
AM_11
  6
想像線1
 48
3.0
370
     9
100
AcDbLine
 10
6472.230645723469
 20
-407.1684573670085
 30
0.0
 11
6728.230645723468
 21
-407.1684573670068
 31
0.0
  0
LINE
  5
540EE
330
1F
100
AcDbEntity
  8
AM_11
  6
想像線1
 48
3.0
370
     9
100
AcDbLine
 10
6472.230645723468
 20
-436.9684573670078
 30
0.0
 11
6728.230645723468
 21
-436.9684573670061
 31
0.0
  0
LINE
  5
540EF
330
1F
100
AcDbEntity
  8
AM_7
100
AcDbLine
 10
6436.230645723468
 20
-396.7418519680643
 30
0.0
 11
6436.230645723468
 21
-447.3950627659514
 31
0.0
  0
CIRCLE
  5
540F0
330
1F
100
AcDbEntity
  8
AM_11
  6
想像線1
370
     9
100
AcDbCircle
 10
6436.230645723468
 20
-422.0684573670082
 30
0.0
 40
16.5
  0
LINE
  5
540F1
330
1F
100
AcDbEntity
  8
AM_11
  6
想像線1
370
     9
100
AcDbLine
 10
6472.230645723469
 20
-405.3684573670075
 30
0.0
 11
6472.230645723468
 21
-438.7684573670071
 31
0.0
  0
ARC
  5
540F2
330
1F
100
AcDbEntity
  8
AM_11
  6
想像線1
370
     9
100
AcDbCircle
 10
6471.23064572347
 20
-405.3684573670075
 30
0.0
 40
1.0
100
AcDbArc
 50
0.0
 51
90.0
  0
LINE
  5
540F3
330
1F
100
AcDbEntity
  8
AM_11
  6
想像線1
370
     9
100
AcDbLine
 10
6419.701167784151
 20
-404.3684573670075
 30
0.0
 11
6471.23064572347
 21
-404.3684573670075
 31
0.0
  0
LINE
  5
540F4
330
1F
100
AcDbEntity
  8
AM_11
  6
想像線1
370
     9
100
AcDbLine
 10
6419.701167784151
 20
-439.7684573670071
 30
0.0
 11
6471.230645723469
 21
-439.7684573670071
 31
0.0
  0
ARC
  5
540F5
330
1F
100
AcDbEntity
  8
AM_11
  6
想像線1
370
     9
100
AcDbCircle
 10
6471.230645723469
 20
-438.7684573670071
 30
0.0
 40
1.0
100
AcDbArc
 50
270.0
 51
0.0
  0
ARC
  5
540F6
330
1F
100
AcDbEntity
  8
AM_11
  6
想像線1
370
     9
100
AcDbCircle
 10
6513.7927738431
 20
-422.0684573670046
 30
0.0
 40
96.56212811963316
100
AcDbArc
 50
169.9355745179351
 51
190.0644254820648
  0
ARC
  5
540F7
330
1F
100
AcDbEntity
  8
AM_11
  6
想像線1
370
     9
100
AcDbCircle
 10
6419.701167784151
 20
-405.3684573670075
 30
0.0
 40
1.0
100
AcDbArc
 50
90.0
 51
169.9355745179351
  0
ARC
  5
540F8
330
1F
100
AcDbEntity
  8
AM_11
  6
想像線1
370
     9
100
AcDbCircle
 10
6419.701167784151
 20
-438.7684573670071
 30
0.0
 40
1.0
100
AcDbArc
 50
190.0644254820648
 51
270.0
  0
CIRCLE
  5
540F9
330
1F
100
AcDbEntity
  8
AM_11
  6
想像線1
370
     9
100
AcDbCircle
 10
6462.230645723469
 20
-422.0684573670082
 30
0.0
 40
3.5
  0
CIRCLE
  5
540FA
330
1F
100
AcDbEntity
  8
AM_11
  6
想像線1
370
     9
100
AcDbCircle
 10
6462.230645723469
 20
-422.0684573670082
 30
0.0
 40
7.0
  0
LINE
  5
540FB
330
1F
100
AcDbEntity
  8
AM_11
  6
想像線1
370
     9
100
AcDbLine
 10
6728.230645723468
 20
-407.1684573670068
 30
0.0
 11
6728.230645723468
 21
-436.9684573670061
 31
0.0
  0
LINE
  5
5424C
330
1F
100
AcDbEntity
  8
size
100
AcDbLine
 10
7211.729796026673
 20
654.2240801299968
 30
0.0
 11
5111.729796026673
 21
654.2240801299968
 31
0.0
1001
GENIUS_GENREC_14
1002
{
1000
PYDIR
1011
5111.729796026673
1021
654.2240801299968
1031
0.0
1002
}
1002
{
1000
PXDIR
1011
7211.729796026673
1021
-830.7759198700033
1031
0.0
1002
}
1002
{
1000
PORI
1011
5111.729796026673
1021
-830.7759198700033
1031
0.0
1002
}
1002
{
1000
PINS
1011
6161.729796026673
1021
-88.27591987000323
1031
0.0
1002
}
1002
{
1000
HVAL
1000
297
1002
}
1002
{
1000
H
1070
     2
1002
}
1002
{
1000
WVAL
1000
420
1002
}
1002
{
1000
W
1070
     2
1002
}
1002
{
1000
C
1070
     4
1002
}
1001
GENIUS_GENOBJ-N-REC_13
1002
{
1000
OWNER
1000
GEN
1002
}
1001
GENIUS_GENODEF_13
1002
{
1000
HIER
1070
     0
1002
}
1002
{
1000
MANEDIT
1070
     0
1002
}
1002
{
1000
NOSEL
1070
     0
1002
}
1002
{
1000
BEHIND
1070
     0
1002
}
1002
{
1000
OTHER
1070
     0
1002
}
1002
{
1000
REACTOR
1002
}
  0
LINE
  5
5424D
330
1F
100
AcDbEntity
  8
size
100
AcDbLine
 10
5111.729796026673
 20
-830.7759198700033
 30
0.0
 11
7211.729796026673
 21
-830.7759198700033
 31
0.0
1001
GENIUS_GENREC_14
1002
{
1000
PYDIR
1011
5111.729796026673
1021
654.2240801299968
1031
0.0
1002
}
1002
{
1000
PXDIR
1011
7211.729796026673
1021
-830.7759198700033
1031
0.0
1002
}
1002
{
1000
PORI
1011
5111.729796026673
1021
-830.7759198700033
1031
0.0
1002
}
1002
{
1000
PINS
1011
6161.729796026673
1021
-88.27591987000323
1031
0.0
1002
}
1002
{
1000
HVAL
1000
297
1002
}
1002
{
1000
H
1070
     2
1002
}
1002
{
1000
WVAL
1000
420
1002
}
1002
{
1000
W
1070
     2
1002
}
1002
{
1000
C
1070
     4
1002
}
1001
GENIUS_GENOBJ-N-REC_13
1002
{
1000
OWNER
1000
GEN
1002
}
1001
GENIUS_GENODEF_13
1002
{
1000
HIER
1070
     0
1002
}
1002
{
1000
MANEDIT
1070
     0
1002
}
1002
{
1000
NOSEL
1070
     0
1002
}
1002
{
1000
BEHIND
1070
     0
1002
}
1002
{
1000
OTHER
1070
     0
1002
}
1002
{
1000
REACTOR
1002
}
  0
LINE
  5
5424E
330
1F
100
AcDbEntity
  8
size
100
AcDbLine
 10
7211.729796026673
 20
-830.7759198700033
 30
0.0
 11
7211.729796026673
 21
654.2240801299968
 31
0.0
1001
GENIUS_GENREC_14
1002
{
1000
PYDIR
1011
5111.729796026673
1021
654.2240801299968
1031
0.0
1002
}
1002
{
1000
PXDIR
1011
7211.729796026673
1021
-830.7759198700033
1031
0.0
1002
}
1002
{
1000
PORI
1011
5111.729796026673
1021
-830.7759198700033
1031
0.0
1002
}
1002
{
1000
PINS
1011
6161.729796026673
1021
-88.27591987000323
1031
0.0
1002
}
1002
{
1000
HVAL
1000
297
1002
}
1002
{
1000
H
1070
     2
1002
}
1002
{
1000
WVAL
1000
420
1002
}
1002
{
1000
W
1070
     2
1002
}
1002
{
1000
C
1070
     4
1002
}
1001
GENIUS_GENOBJ-N-REC_13
1002
{
1000
OWNER
1000
GEN
1002
}
1001
GENIUS_GENODEF_13
1002
{
1000
HIER
1070
     0
1002
}
1002
{
1000
MANEDIT
1070
     0
1002
}
1002
{
1000
NOSEL
1070
     0
1002
}
1002
{
1000
BEHIND
1070
     0
1002
}
1002
{
1000
OTHER
1070
     0
1002
}
1002
{
1000
REACTOR
1002
}
  0
LINE
  5
5424F
330
1F
100
AcDbEntity
  8
size
100
AcDbLine
 10
5111.729796026673
 20
654.2240801299968
 30
0.0
 11
5111.729796026673
 21
-830.7759198700033
 31
0.0
1001
GENIUS_GENREC_14
1002
{
1000
PYDIR
1011
5111.729796026673
1021
654.2240801299968
1031
0.0
1002
}
1002
{
1000
PXDIR
1011
7211.729796026673
1021
-830.7759198700033
1031
0.0
1002
}
1002
{
1000
PORI
1011
5111.729796026673
1021
-830.7759198700033
1031
0.0
1002
}
1002
{
1000
PINS
1011
6161.729796026673
1021
-88.27591987000323
1031
0.0
1002
}
1002
{
1000
HVAL
1000
297
1002
}
1002
{
1000
H
1070
     2
1002
}
1002
{
1000
WVAL
1000
420
1002
}
1002
{
1000
W
1070
     2
1002
}
1002
{
1000
C
1070
     4
1002
}
1001
GENIUS_GENOBJ-N-REC_13
1002
{
1000
OWNER
1000
GEN
1002
}
1001
GENIUS_GENODEF_13
1002
{
1000
HIER
1070
     0
1002
}
1002
{
1000
MANEDIT
1070
     0
1002
}
1002
{
1000
NOSEL
1070
     0
1002
}
1002
{
1000
BEHIND
1070
     0
1002
}
1002
{
1000
OTHER
1070
     0
1002
}
1002
{
1000
REACTOR
1002
}
  0
LINE
  5
54250
330
1F
100
AcDbEntity
  8
waku
100
AcDbLine
 10
7154.229796026673
 20
-788.2759198700032
 30
0.0
 11
7154.229796026673
 21
611.7240801299967
 31
0.0
1001
GENIUS_GENREC_14
1002
{
1000
PYDIR
1011
5111.729796026673
1021
654.2240801299968
1031
0.0
1002
}
1002
{
1000
PXDIR
1011
7211.729796026673
1021
-830.7759198700033
1031
0.0
1002
}
1002
{
1000
PORI
1011
5111.729796026673
1021
-830.7759198700033
1031
0.0
1002
}
1002
{
1000
PINS
1011
6161.729796026673
1021
-88.27591987000323
1031
0.0
1002
}
1002
{
1000
HVAL
1000
297
1002
}
1002
{
1000
H
1070
     2
1002
}
1002
{
1000
WVAL
1000
420
1002
}
1002
{
1000
W
1070
     2
1002
}
1002
{
1000
C
1070
     4
1002
}
1001
GENIUS_GENOBJ-N-REC_13
1002
{
1000
OWNER
1000
GEN
1002
}
1001
GENIUS_GENODEF_13
1002
{
1000
HIER
1070
     0
1002
}
1002
{
1000
MANEDIT
1070
     0
1002
}
1002
{
1000
NOSEL
1070
     0
1002
}
1002
{
1000
BEHIND
1070
     0
1002
}
1002
{
1000
OTHER
1070
     0
1002
}
1002
{
1000
REACTOR
1002
}
  0
LINE
  5
54251
330
1F
100
AcDbEntity
  8
waku
100
AcDbLine
 10
5169.229796026673
 20
611.7240801299967
 30
0.0
 11
5169.229796026673
 21
-788.2759198700032
 31
0.0
1001
GENIUS_GENREC_14
1002
{
1000
PYDIR
1011
5111.729796026673
1021
654.2240801299968
1031
0.0
1002
}
1002
{
1000
PXDIR
1011
7211.729796026673
1021
-830.7759198700033
1031
0.0
1002
}
1002
{
1000
PORI
1011
5111.729796026673
1021
-830.7759198700033
1031
0.0
1002
}
1002
{
1000
PINS
1011
6161.729796026673
1021
-88.27591987000323
1031
0.0
1002
}
1002
{
1000
HVAL
1000
297
1002
}
1002
{
1000
H
1070
     2
1002
}
1002
{
1000
WVAL
1000
420
1002
}
1002
{
1000
W
1070
     2
1002
}
1002
{
1000
C
1070
     4
1002
}
1001
GENIUS_GENOBJ-N-REC_13
1002
{
1000
OWNER
1000
GEN
1002
}
1001
GENIUS_GENODEF_13
1002
{
1000
HIER
1070
     0
1002
}
1002
{
1000
MANEDIT
1070
     0
1002
}
1002
{
1000
NOSEL
1070
     0
1002
}
1002
{
1000
BEHIND
1070
     0
1002
}
1002
{
1000
OTHER
1070
     0
1002
}
1002
{
1000
REACTOR
1002
}
  0
LINE
  5
54252
330
1F
100
AcDbEntity
  8
waku
100
AcDbLine
 10
7154.229796026673
 20
611.7240801299967
 30
0.0
 11
5169.229796026673
 21
611.7240801299967
 31
0.0
1001
GENIUS_GENREC_14
1002
{
1000
PYDIR
1011
5111.729796026673
1021
654.2240801299968
1031
0.0
1002
}
1002
{
1000
PXDIR
1011
7211.729796026673
1021
-830.7759198700033
1031
0.0
1002
}
1002
{
1000
PORI
1011
5111.729796026673
1021
-830.7759198700033
1031
0.0
1002
}
1002
{
1000
PINS
1011
6161.729796026673
1021
-88.27591987000323
1031
0.0
1002
}
1002
{
1000
HVAL
1000
297
1002
}
1002
{
1000
H
1070
     2
1002
}
1002
{
1000
WVAL
1000
420
1002
}
1002
{
1000
W
1070
     2
1002
}
1002
{
1000
C
1070
     4
1002
}
1001
GENIUS_GENOBJ-N-REC_13
1002
{
1000
OWNER
1000
GEN
1002
}
1001
GENIUS_GENODEF_13
1002
{
1000
HIER
1070
     0
1002
}
1002
{
1000
MANEDIT
1070
     0
1002
}
1002
{
1000
NOSEL
1070
     0
1002
}
1002
{
1000
BEHIND
1070
     0
1002
}
1002
{
1000
OTHER
1070
     0
1002
}
1002
{
1000
REACTOR
1002
}
  0
LINE
  5
54253
330
1F
100
AcDbEntity
  8
waku
100
AcDbLine
 10
5169.229796026673
 20
-788.2759198700032
 30
0.0
 11
7154.229796026673
 21
-788.2759198700032
 31
0.0
  0
LINE
  5
54254
330
1F
100
AcDbEntity
  8
AM_2
100
AcDbLine
 10
5269.229796026674
 20
611.7240801299986
 30
0.0
 11
5269.229796026696
 21
91.72408013002018
 31
0.0
  0
LINE
  5
54255
330
1F
100
AcDbEntity
  8
AM_2
100
AcDbLine
 10
5169.229796026673
 20
571.7240801299985
 30
0.0
 11
5813.243514598362
 21
571.7240801299986
 31
0.0
  0
LINE
  5
54256
330
1F
100
AcDbEntity
  8
AM_2
100
AcDbLine
 10
5169.229796026673
 20
531.7240801299986
 30
0.0
 11
5813.243514598362
 21
531.7240801299986
 31
0.0
  0
LINE
  5
54257
330
1F
100
AcDbEntity
  8
AM_2
100
AcDbLine
 10
5269.229796026674
 20
491.7240801299985
 30
0.0
 11
5813.243514598362
 21
491.7240801299985
 31
0.0
  0
LINE
  5
54258
330
1F
100
AcDbEntity
  8
AM_2
100
AcDbLine
 10
5269.229796026681
 20
411.7240801299986
 30
0.0
 11
5813.243514598362
 21
411.7240801299983
 31
0.0
  0
LINE
  5
54259
330
1F
100
AcDbEntity
  8
AM_0
100
AcDbLine
 10
5169.229796026673
 20
611.7240801299986
 30
0.0
 11
5813.243514598362
 21
611.7240801299986
 31
0.0
  0
LINE
  5
5425A
330
1F
100
AcDbEntity
  8
AM_1
100
AcDbLine
 10
5813.243514598362
 20
611.7240801299986
 30
0.0
 11
5813.243514598362
 21
91.72408013002041
 31
0.0
  0
LINE
  5
5425B
330
1F
100
AcDbEntity
  8
AM_2
100
AcDbLine
 10
5269.22979602669
 20
251.724080130004
 30
0.0
 11
5813.243514598362
 21
251.7240801300038
 31
0.0
  0
LINE
  5
5425C
330
1F
100
AcDbEntity
  8
AM_0
 48
10.0
100
AcDbLine
 10
5169.229796026668
 20
183.574131620101
 30
0.0
 11
5169.229796026686
 21
291.7240801299931
 31
0.0
  0
LINE
  5
5425E
330
1F
100
AcDbEntity
  8
AM_0
100
AcDbLine
 10
5169.229796026673
 20
611.7240801299986
 30
0.0
 11
5169.229796026678
 21
411.7240801299986
 31
0.0
  0
MTEXT
  5
5425F
330
1F
100
AcDbEntity
  8
104
100
AcDbMText
 10
5219.229796026677
 20
511.7240801299986
 30
0.0
 40
16.0
 41
100.0000000000091
 71
     5
 72
     5
  1
材　質
 73
     1
 44
1.0
1001
ACAD
1000
ACAD_MTEXT_DEFINED_HEIGHT_BEGIN
1070
    46
1040
120.0
1000
ACAD_MTEXT_DEFINED_HEIGHT_END
  0
MTEXT
  5
54260
330
1F
100
AcDbEntity
  8
104
100
AcDbMText
 10
5219.229796026674
 20
551.7240801299985
 30
0.0
 40
16.0
 41
100.0
 71
     5
 72
     5
  1
品　番
 73
     1
 44
1.0
1001
ACAD
1000
ACAD_MTEXT_DEFINED_HEIGHT_BEGIN
1070
    46
1040
16.0
1000
ACAD_MTEXT_DEFINED_HEIGHT_END
  0
MTEXT
  5
54261
330
1F
100
AcDbEntity
  8
104
100
AcDbMText
 10
5219.229796026674
 20
591.7240801299985
 30
0.0
 40
16.0
 41
100.0
 71
     5
 72
     5
  1
品　名
 73
     1
 44
1.0
1001
ACAD
1000
ACAD_MTEXT_DEFINED_HEIGHT_BEGIN
1070
    46
1040
16.0
1000
ACAD_MTEXT_DEFINED_HEIGHT_END
  0
MTEXT
  5
54262
330
1F
100
AcDbEntity
  8
104
100
AcDbMText
 10
5269.229796026674
 20
591.7240801299985
 30
0.0
 40
16.0
 41
474.0137185716849
 71
     4
 72
     5
  1
　室内物干ユニット　フレクリーンPro30 アウトセット
 73
     1
 44
1.0
1001
ACAD
1000
ACAD_MTEXT_DEFINED_HEIGHT_BEGIN
1070
    46
1040
16.0
1000
ACAD_MTEXT_DEFINED_HEIGHT_END
  0
MTEXT
  5
54263
330
1F
100
AcDbEntity
  8
104
100
AcDbMText
 10
5269.229796026674
 20
551.7240801299985
 30
0.0
 40
16.0
 41
474.0137185716849
 71
     4
 72
     5
  1
　品番表参照
 73
     1
 44
1.0
1001
ACAD
1000
ACAD_MTEXT_DEFINED_HEIGHT_BEGIN
1070
    46
1040
16.0
1000
ACAD_MTEXT_DEFINED_HEIGHT_END
  0
MTEXT
  5
54264
330
1F
100
AcDbEntity
  8
104
100
AcDbMText
 10
5269.229796026674
 20
511.7240801299986
 30
0.0
 40
16.0
 41
474.0137185716849
 71
     4
 72
     5
  1
　アーム：アルミニウム合金 粉体塗装
 73
     1
 44
1.0
1001
ACAD
1000
ACAD_MTEXT_DEFINED_HEIGHT_BEGIN
1070
    46
1040
16.0
1000
ACAD_MTEXT_DEFINED_HEIGHT_END
  0
MTEXT
  5
54265
330
1F
100
AcDbEntity
  8
104
100
AcDbMText
 10
5269.229796026674
 20
471.7240801299985
 30
0.0
 40
16.0
 41
474.0137185716849
 71
     4
 72
     5
  1
　台座：アルミニウム合金 粉体塗装
 73
     1
 44
1.0
1001
ACAD
1000
ACAD_MTEXT_DEFINED_HEIGHT_BEGIN
1070
    46
1040
16.0
1000
ACAD_MTEXT_DEFINED_HEIGHT_END
  0
MTEXT
  5
54267
330
1F
100
AcDbEntity
  8
104
100
AcDbMText
 10
5269.229796026671
 20
271.724080130004
 30
0.0
 40
16.0
 41
474.0137185716849
 71
     4
 72
     5
  1
　竿取付け用　　　　　　M4×12 サラ小ネジ + SUS：4本
 73
     1
 44
1.0
1001
ACAD
1000
ACAD_MTEXT_DEFINED_HEIGHT_BEGIN
1070
    46
1040
16.0
1000
ACAD_MTEXT_DEFINED_HEIGHT_END
  0
LINE
  5
54268
330
1F
100
AcDbEntity
  8
AM_2
100
AcDbLine
 10
5169.229796026675
 20
291.7240801299986
 30
0.0
 11
5813.243514598362
 21
291.7240801299986
 31
0.0
  0
MTEXT
  5
54269
330
1F
100
AcDbEntity
  8
104
100
AcDbMText
 10
5269.229796026674
 20
391.7240801299986
 30
0.0
 40
16.0
 41
474.0137185716849
 71
     4
 72
     5
  1
　棒：ステンレス
 73
     1
 44
1.0
1001
ACAD
1000
ACAD_MTEXT_DEFINED_HEIGHT_BEGIN
1070
    46
1040
16.0
1000
ACAD_MTEXT_DEFINED_HEIGHT_END
  0
MTEXT
  5
5426C
330
1F
100
AcDbEntity
  8
104
100
AcDbMText
 10
5219.229796026675
 20
271.7240801300022
 30
0.0
 40
16.0
 41
99.9999999999909
 71
     5
 72
     5
  1
セットビス
 73
     1
 44
1.0
1001
ACAD
1000
ACAD_MTEXT_DEFINED_HEIGHT_BEGIN
1070
    46
1040
39.99999999999455
1000
ACAD_MTEXT_DEFINED_HEIGHT_END
  0
LINE
  5
54477
330
1F
100
AcDbEntity
  8
AM_7
 48
2.0
100
AcDbLine
 10
5582.201593556955
 20
-422.0684573670086
 30
0.0
 11
5487.36551405155
 21
-422.0684573670086
 31
0.0
  0
LINE
  5
54478
330
1F
100
AcDbEntity
  8
AM_0
  6
ByBlock
100
AcDbLine
 10
5511.783553804253
 20
-362.0684573670087
 30
0.0
 11
5511.783553804253
 21
-482.0684573670087
 31
0.0
  0
LINE
  5
54479
330
1F
100
AcDbEntity
  8
AM_0
  6
ByBlock
100
AcDbLine
 10
5558.283553804253
 20
-476.5684573670086
 30
0.0
 11
5558.283553804253
 21
-367.5684573670087
 31
0.0
  0
LINE
  5
5447A
330
1F
100
AcDbEntity
  8
AM_0
  6
ByBlock
100
AcDbLine
 10
5548.283553804253
 20
-486.5684573670087
 30
0.0
 11
5516.283553804253
 21
-486.5684573670087
 31
0.0
  0
LINE
  5
5447B
330
1F
100
AcDbEntity
  8
AM_0
  6
ByBlock
100
AcDbLine
 10
5548.283553804253
 20
-357.5684573670087
 30
0.0
 11
5516.283553804253
 21
-357.5684573670087
 31
0.0
  0
ARC
  5
5447C
330
1F
100
AcDbEntity
  8
AM_0
  6
ByBlock
100
AcDbCircle
 10
5548.283553804253
 20
-476.5684573670101
 30
0.0
 40
10.0
100
AcDbArc
 50
270.0
 51
0.0
  0
ARC
  5
5447D
330
1F
100
AcDbEntity
  8
AM_0
  6
ByBlock
100
AcDbCircle
 10
5548.283553804253
 20
-367.5684573670087
 30
0.0
 40
10.0
100
AcDbArc
 50
0.0
 51
90.0
  0
ARC
  5
5447E
330
1F
100
AcDbEntity
  8
AM_0
  6
ByBlock
100
AcDbCircle
 10
5516.28355380425
 20
-362.0684573670083
 30
0.0
 40
4.5
100
AcDbArc
 50
89.99999999997395
 51
180.0
  0
ARC
  5
5447F
330
1F
100
AcDbEntity
  8
AM_0
  6
ByBlock
100
AcDbCircle
 10
5516.283553804253
 20
-482.0684573670087
 30
0.0
 40
4.5
100
AcDbArc
 50
180.0
 51
270.0
  0
LINE
  5
54480
330
1F
100
AcDbEntity
  8
AM_0
  6
ByBlock
100
AcDbLine
 10
5492.383553804218
 20
-139.0684573670101
 30
0.0
 11
5492.383553804253
 21
-395.0684573670087
 31
0.0
  0
LINE
  5
54481
330
1F
100
AcDbEntity
  8
AM_0
  6
ByBlock
100
AcDbLine
 10
5489.583553804216
 20
-85.06845736700871
 30
0.0
 11
5489.583553804216
 21
-138.0684573670087
 31
0.0
  0
LINE
  5
54482
330
1F
100
AcDbEntity
  8
AM_0
  6
ByBlock
100
AcDbLine
 10
5488.583553804216
 20
-122.0684573670087
 30
0.0
 11
5488.583553804216
 21
-136.0684573670087
 31
0.0
  0
LINE
  5
54483
330
1F
100
AcDbEntity
  8
AM_0
  6
ByBlock
100
AcDbLine
 10
5510.183553804252
 20
-139.068457367015
 30
0.0
 11
5510.183553804252
 21
-395.0684573670087
 31
0.0
  0
LINE
  5
54484
330
1F
100
AcDbEntity
  8
AM_0
  6
ByBlock
100
AcDbLine
 10
5512.983553804252
 20
-85.06845736700871
 30
0.0
 11
5512.983553804254
 21
-138.068457367016
 31
0.0
  0
ARC
  5
54485
330
1F
100
AcDbEntity
  8
AM_0
  6
ByBlock
100
AcDbCircle
 10
5511.983553804253
 20
-138.068457367016
 30
0.0
 40
1.0
100
AcDbArc
 50
269.9999999999739
 51
0.0
  0
LINE
  5
54486
330
1F
100
AcDbEntity
  8
AM_0
  6
ByBlock
100
AcDbLine
 10
5517.983553804252
 20
-88.06845736701006
 30
0.0
 11
5517.983553804246
 21
-118.0684573670101
 31
0.0
  0
ARC
  5
54487
330
1F
100
AcDbEntity
  8
AM_0
  6
ByBlock
100
AcDbCircle
 10
5516.983553804251
 20
-88.06845736701006
 30
0.0
 40
1.0
100
AcDbArc
 50
0.0
 51
90.0
  0
LINE
  5
54488
330
1F
100
AcDbEntity
  8
AM_0
  6
ByBlock
100
AcDbLine
 10
5487.883553804244
 20
-132.0684573670087
 30
0.0
 11
5488.583553804216
 21
-132.0684573670087
 31
0.0
  0
LINE
  5
54489
330
1F
100
AcDbEntity
  8
AM_0
  6
ByBlock
100
AcDbLine
 10
5484.883553804245
 20
-126.0684573670087
 30
0.0
 11
5488.583553804216
 21
-126.0684573670087
 31
0.0
  0
LINE
  5
5448A
330
1F
100
AcDbEntity
  8
AM_0
100
AcDbLine
 10
5517.983553804246
 20
-115.768457367009
 30
0.0
 11
5651.858435378313
 21
-115.7684573670094
 31
0.0
  0
LINE
  5
5448B
330
1F
100
AcDbEntity
  8
AM_0
100
AcDbLine
 10
5517.983553804252
 20
-90.36845736701025
 30
0.0
 11
5647.174852337577
 21
-90.36845736701025
 31
0.0
  0
LINE
  5
5448C
330
1F
100
AcDbEntity
  8
AM_7
 48
2.0
370
     9
100
AcDbLine
 10
6306.365245466228
 20
-103.06845736701
 30
0.0
 11
5480.485959703388
 21
-103.0684573670087
 31
0.0
  0
LINE
  5
5448D
330
1F
100
AcDbEntity
  8
AM_0
100
AcDbLine
 10
6270.37285992696
 20
-117.768457367008
 30
0.0
 11
6068.212710965621
 21
-117.7684573670085
 31
0.0
  0
LINE
  5
5448E
330
1F
100
AcDbEntity
  8
AM_0
100
AcDbLine
 10
6270.37285992696
 20
-88.36845736701025
 30
0.0
 11
6064.932024461035
 21
-88.36845736700956
 31
0.0
  0
LINE
  5
5448F
330
1F
100
AcDbEntity
  8
AM_0
  6
ByBlock
100
AcDbLine
 10
5487.883553804244
 20
-132.0684573670087
 30
0.0
 11
5487.883553804222
 21
-548.2684573670089
 31
0.0
  0
LINE
  5
54490
330
1F
100
AcDbEntity
  8
AM_0
  6
ByBlock
100
AcDbLine
 10
5481.883553804244
 20
-129.0684573670087
 30
0.0
 11
5481.883553804212
 21
-548.2684573670089
 31
0.0
  0
ARC
  5
54491
330
1F
100
AcDbEntity
  8
AM_0
  6
ByBlock
100
AcDbCircle
 10
5484.883553804245
 20
-129.0684573670087
 30
0.0
 40
3.000000000000453
100
AcDbArc
 50
90.0
 51
180.0
  0
LINE
  5
54492
330
1F
100
AcDbEntity
  8
AM_0
  6
ByBlock
100
AcDbLine
 10
5578.283553804253
 20
-168.0684573670087
 30
0.0
 11
5578.283553804253
 21
-220.8954077773042
 31
0.0
  0
LINE
  5
54493
330
1F
100
AcDbEntity
  8
AM_0
  6
ByBlock
100
AcDbLine
 10
5603.283553804253
 20
-168.0684573670087
 30
0.0
 11
5603.283553804253
 21
-220.8954077773042
 31
0.0
  0
LINE
  5
54494
330
1F
100
AcDbEntity
  8
AM_0
  6
ByBlock
100
AcDbLine
 10
5578.283553804253
 20
-168.0684573670101
 30
0.0
 11
5893.796963515997
 21
-168.0684573670094
 31
0.0
  0
LINE
  5
54495
330
1F
100
AcDbEntity
  8
AM_0
  6
ByBlock
100
AcDbLine
 10
5603.283553804253
 20
-193.0684573670087
 30
0.0
 11
5900.226999356163
 21
-193.0684573670087
 31
0.0
  0
LINE
  5
54496
330
1F
100
AcDbEntity
  8
AM_0
  6
ByBlock
100
AcDbLine
 10
5488.939836088654
 20
-86.56845736700871
 30
0.0
 11
5489.583553804216
 21
-86.56845736700871
 31
0.0
  0
LINE
  5
54497
330
1F
100
AcDbEntity
  8
AM_0
  6
ByBlock
100
AcDbLine
 10
5511.983553804253
 20
-139.068457367016
 30
0.0
 11
5490.583553804215
 21
-139.0684573670087
 31
0.0
  0
ARC
  5
54498
330
1F
100
AcDbEntity
  8
AM_0
  6
ByBlock
100
AcDbCircle
 10
5490.583553804215
 20
-138.0684573670087
 30
0.0
 40
1.0
100
AcDbArc
 50
180.0
 51
270.0
  0
LINE
  5
54499
330
1F
100
AcDbEntity
  8
AM_0
  6
ByBlock
100
AcDbLine
 10
5516.983553804251
 20
-87.06845736701007
 30
0.0
 11
5513.983553804251
 21
-87.06845736701007
 31
0.0
  0
ARC
  5
5449A
330
1F
100
AcDbEntity
  8
AM_0
  6
ByBlock
100
AcDbCircle
 10
5513.983553804251
 20
-86.0684573670087
 30
0.0
 40
1.0
100
AcDbArc
 50
180.0
 51
270.0
  0
LINE
  5
5449B
330
1F
100
AcDbEntity
  8
AM_0
  6
ByBlock
100
AcDbLine
 10
5490.583553804212
 20
-84.06845736700871
 30
0.0
 11
5511.983553804252
 21
-84.06845736700871
 31
0.0
  0
ARC
  5
5449C
330
1F
100
AcDbEntity
  8
AM_0
  6
ByBlock
100
AcDbCircle
 10
5511.983553804252
 20
-85.06845736700871
 30
0.0
 40
1.0
100
AcDbArc
 50
0.0
 51
90.0
  0
ARC
  5
5449D
330
1F
100
AcDbEntity
  8
AM_0
  6
ByBlock
100
AcDbCircle
 10
5490.583553804212
 20
-85.06845736700871
 30
0.0
 40
1.0
100
AcDbArc
 50
90.0
 51
180.0
  0
LINE
  5
5449E
330
1F
100
AcDbEntity
  8
AM_0
  6
ByBlock
100
AcDbLine
 10
5489.583553804212
 20
-85.06845736700871
 30
0.0
 11
5489.583553804212
 21
-85.06845736700871
 31
0.0
  0
ARC
  5
5449F
330
1F
100
AcDbEntity
  8
AM_0
  6
ByBlock
100
AcDbCircle
 10
5518.583553804216
 20
-103.0684573670087
 30
0.0
 40
35.0
100
AcDbArc
 50
153.9347815174209
 51
206.0652184825791
  0
ARC
  5
544A0
330
1F
100
AcDbEntity
  8
AM_0
  6
ByBlock
100
AcDbCircle
 10
5488.939836088651
 20
-117.5684573670087
 30
0.0
 40
2.0
100
AcDbArc
 50
206.0652184825791
 51
270.0
  0
ARC
  5
544A1
330
1F
100
AcDbEntity
  8
AM_0
  6
ByBlock
100
AcDbCircle
 10
5488.939836088654
 20
-88.5684573670087
 30
0.0
 40
2.0
100
AcDbArc
 50
90.0
 51
153.9347815174209
  0
LINE
  5
544A2
330
1F
100
AcDbEntity
  8
AM_0
  6
ByBlock
100
AcDbLine
 10
5488.939836088651
 20
-119.5684573670087
 30
0.0
 11
5489.583553804216
 21
-119.5684573670087
 31
0.0
  0
LINE
  5
544A3
330
1F
100
AcDbEntity
  8
AM_0
100
AcDbLine
 10
5489.583553804216
 20
-122.0684573670087
 30
0.0
 11
5488.583553804216
 21
-122.0684573670087
 31
0.0
  0
LINE
  5
544A4
330
1F
100
AcDbEntity
  8
AM_0
100
AcDbLine
 10
5489.583553804216
 20
-136.0684573670087
 30
0.0
 11
5488.583553804216
 21
-136.0684573670087
 31
0.0
  0
LINE
  5
54502
330
1F
100
AcDbEntity
  8
AM_0
100
AcDbLine
 10
5510.283553804253
 20
-395.0684573670087
 30
0.0
 11
5507.083553804253
 21
-395.0684573670087
 31
0.0
  0
LINE
  5
54503
330
1F
100
AcDbEntity
  8
AM_0
100
AcDbLine
 10
5495.483553804254
 20
-395.0684573670087
 30
0.0
 11
5492.283553804253
 21
-395.0684573670087
 31
0.0
  0
LINE
  5
54504
330
1F
100
AcDbEntity
  8
AM_0
100
AcDbLine
 10
5511.783553804253
 20
-438.0684573670087
 30
0.0
 11
5510.283553804253
 21
-438.0684573670087
 31
0.0
  0
LINE
  5
54505
330
1F
100
AcDbEntity
  8
AM_0
100
AcDbLine
 10
5511.783553804253
 20
-406.06845736701
 30
0.0
 11
5510.283553804253
 21
-406.06845736701
 31
0.0
  0
LINE
  5
54506
330
1F
100
AcDbEntity
  8
AM_0
100
AcDbLine
 10
5509.283553804253
 20
-440.0684573670087
 30
0.0
 11
5493.283553804253
 21
-440.0684573670087
 31
0.0
  0
LINE
  5
54507
330
1F
100
AcDbEntity
  8
AM_0
100
AcDbLine
 10
5492.283553804253
 20
-395.0684573670087
 30
0.0
 11
5492.283553804253
 21
-439.0684573670086
 31
0.0
  0
ARC
  5
54508
330
1F
100
AcDbEntity
  8
AM_0
100
AcDbCircle
 10
5493.283553804253
 20
-439.0684573670086
 30
0.0
 40
1.0
100
AcDbArc
 50
180.0
 51
270.0
  0
LINE
  5
54509
330
1F
100
AcDbEntity
  8
AM_0
100
AcDbLine
 10
5510.283553804253
 20
-395.0684573670087
 30
0.0
 11
5510.283553804253
 21
-439.0684573670086
 31
0.0
  0
ARC
  5
5450A
330
1F
100
AcDbEntity
  8
AM_0
100
AcDbCircle
 10
5509.283553804253
 20
-439.0684573670086
 30
0.0
 40
1.0
100
AcDbArc
 50
270.0
 51
0.0
  0
LINE
  5
5450B
330
1F
100
AcDbEntity
  8
AM_0
100
AcDbLine
 10
5510.283553804253
 20
-410.5358947723379
 30
0.0
 11
5492.283553804253
 21
-410.5358947723389
 31
0.0
  0
LINE
  5
5450C
330
1F
100
AcDbEntity
  8
AM_0
  6
ByBlock
100
AcDbLine
 10
5510.183553804253
 20
-395.0684573670087
 30
0.0
 11
5492.383553804253
 21
-395.0684573670087
 31
0.0
  0
LINE
  5
5450D
330
1F
100
AcDbEntity
  8
AM_0
100
AcDbLine
 10
5492.383553804253
 20
-395.0684573670087
 30
0.0
 11
5510.183553804252
 21
-395.0684573670087
 31
0.0
  0
ARC
  5
54539
330
1F
100
AcDbEntity
  8
AM_0
  6
ByBlock
100
AcDbCircle
 10
5484.883553804216
 20
-555.6434149940059
 30
0.0
 40
8.0
100
AcDbArc
 50
112.7990312718752
 51
67.20096872812482
  0
LINE
  5
5453A
330
1F
100
AcDbEntity
  8
AM_0
  6
ByBlock
100
AcDbLine
 10
5481.783553804216
 20
-548.2684573670089
 30
0.0
 11
5487.983553804216
 21
-548.2684573670089
 31
0.0
  0
LINE
  5
5453C
330
1F
100
AcDbEntity
  8
AM_0
  6
ByBlock
100
AcDbLine
 10
6298.772859926994
 20
-85.06845736701189
 30
0.0
 11
6298.772859926994
 21
-138.0684573670114
 31
0.0
  0
LINE
  5
5453D
330
1F
100
AcDbEntity
  8
AM_0
  6
ByBlock
100
AcDbLine
 10
6299.772859926994
 20
-122.0684573670119
 30
0.0
 11
6299.772859926994
 21
-136.0684573670119
 31
0.0
  0
LINE
  5
5453E
330
1F
100
AcDbEntity
  8
AM_0
  6
ByBlock
100
AcDbLine
 10
6270.37285992696
 20
-88.06845736701189
 30
0.0
 11
6270.372859926958
 21
-118.0684573670082
 31
0.0
  0
ARC
  5
5453F
330
1F
100
AcDbEntity
  8
AM_0
  6
ByBlock
100
AcDbCircle
 10
6271.372859926958
 20
-88.06845736701189
 30
0.0
 40
1.0
100
AcDbArc
 50
90.0
 51
180.0
  0
LINE
  5
54540
330
1F
100
AcDbEntity
  8
AM_0
  6
ByBlock
100
AcDbLine
 10
6299.416577642556
 20
-86.56845736701189
 30
0.0
 11
6298.772859926994
 21
-86.56845736701189
 31
0.0
  0
LINE
  5
54541
330
1F
100
AcDbEntity
  8
AM_0
  6
ByBlock
100
AcDbLine
 10
6276.372859927025
 20
-139.0684573670114
 30
0.0
 11
6297.772859926994
 21
-139.0684573670114
 31
0.0
  0
ARC
  5
54542
330
1F
100
AcDbEntity
  8
AM_0
  6
ByBlock
100
AcDbCircle
 10
6297.772859926994
 20
-138.0684573670114
 30
0.0
 40
1.0
100
AcDbArc
 50
270.0
 51
0.0
  0
LINE
  5
54543
330
1F
100
AcDbEntity
  8
AM_0
  6
ByBlock
100
AcDbLine
 10
6271.372859926958
 20
-87.06845736701188
 30
0.0
 11
6274.372859926958
 21
-87.06845736701188
 31
0.0
  0
ARC
  5
54544
330
1F
100
AcDbEntity
  8
AM_0
  6
ByBlock
100
AcDbCircle
 10
6274.372859926958
 20
-86.06845736701188
 30
0.0
 40
1.0
100
AcDbArc
 50
270.0
 51
0.0
  0
LINE
  5
54545
330
1F
100
AcDbEntity
  8
AM_0
  6
ByBlock
100
AcDbLine
 10
6297.772859926998
 20
-84.06845736701189
 30
0.0
 11
6276.372859926956
 21
-84.06845736701189
 31
0.0
  0
ARC
  5
54546
330
1F
100
AcDbEntity
  8
AM_0
  6
ByBlock
100
AcDbCircle
 10
6276.372859926956
 20
-85.06845736701189
 30
0.0
 40
1.0
100
AcDbArc
 50
90.0
 51
180.0
  0
ARC
  5
54547
330
1F
100
AcDbEntity
  8
AM_0
  6
ByBlock
100
AcDbCircle
 10
6297.772859926998
 20
-85.06845736701189
 30
0.0
 40
1.0
100
AcDbArc
 50
0.0
 51
90.0
  0
LINE
  5
54548
330
1F
100
AcDbEntity
  8
AM_0
  6
ByBlock
100
AcDbLine
 10
6298.772859926999
 20
-85.06845736701189
 30
0.0
 11
6298.772859926999
 21
-85.06845736701189
 31
0.0
  0
ARC
  5
54549
330
1F
100
AcDbEntity
  8
AM_0
  6
ByBlock
100
AcDbCircle
 10
6269.772859926995
 20
-103.0684573670114
 30
0.0
 40
35.0
100
AcDbArc
 50
333.9347815174209
 51
26.06521848257913
  0
ARC
  5
5454A
330
1F
100
AcDbEntity
  8
AM_0
  6
ByBlock
100
AcDbCircle
 10
6299.416577642558
 20
-117.5684573670114
 30
0.0
 40
2.0
100
AcDbArc
 50
270.0
 51
333.9347815174209
  0
ARC
  5
5454B
330
1F
100
AcDbEntity
  8
AM_0
  6
ByBlock
100
AcDbCircle
 10
6299.416577642556
 20
-88.56845736701144
 30
0.0
 40
2.0
100
AcDbArc
 50
26.06521848257913
 51
90.0
  0
LINE
  5
5454C
330
1F
100
AcDbEntity
  8
AM_0
  6
ByBlock
100
AcDbLine
 10
6299.416577642558
 20
-119.5684573670114
 30
0.0
 11
6298.772859926994
 21
-119.5684573670114
 31
0.0
  0
LINE
  5
5454D
330
1F
100
AcDbEntity
  8
AM_0
100
AcDbLine
 10
6298.772859926994
 20
-122.0684573670119
 30
0.0
 11
6299.772859926994
 21
-122.0684573670119
 31
0.0
  0
LINE
  5
5454E
330
1F
100
AcDbEntity
  8
AM_0
100
AcDbLine
 10
6298.772859926994
 20
-136.0684573670119
 30
0.0
 11
6299.772859926994
 21
-136.0684573670119
 31
0.0
  0
LINE
  5
5454F
330
1F
100
AcDbEntity
  8
AM_0
  6
ByBlock
100
AcDbLine
 10
6275.372859927036
 20
-85.06845736701189
 30
0.0
 11
6275.372859927025
 21
-138.0684573670114
 31
0.0
  0
ARC
  5
54550
330
1F
100
AcDbEntity
  8
AM_0
  6
ByBlock
100
AcDbCircle
 10
6276.372859927025
 20
-138.0684573670114
 30
0.0
 40
1.0
100
AcDbArc
 50
180.0
 51
270.0
  0
LINE
  5
54555
330
1F
100
AcDbEntity
  8
AM_7
 48
2.0
100
AcDbLine
 10
6206.154820174269
 20
-422.0684573670086
 30
0.0
 11
6300.990899679671
 21
-422.0684573670086
 31
0.0
  0
LINE
  5
54556
330
1F
100
AcDbEntity
  8
AM_0
  6
ByBlock
100
AcDbLine
 10
6276.57285992697
 20
-362.0684573670087
 30
0.0
 11
6276.57285992697
 21
-482.0684573670087
 31
0.0
  0
LINE
  5
54557
330
1F
100
AcDbEntity
  8
AM_0
  6
ByBlock
100
AcDbLine
 10
6230.07285992697
 20
-476.5684573670086
 30
0.0
 11
6230.07285992697
 21
-367.5684573670087
 31
0.0
  0
LINE
  5
54558
330
1F
100
AcDbEntity
  8
AM_0
  6
ByBlock
100
AcDbLine
 10
6240.07285992697
 20
-486.5684573670087
 30
0.0
 11
6272.07285992697
 21
-486.5684573670087
 31
0.0
  0
LINE
  5
54559
330
1F
100
AcDbEntity
  8
AM_0
  6
ByBlock
100
AcDbLine
 10
6240.07285992697
 20
-357.5684573670087
 30
0.0
 11
6272.07285992697
 21
-357.5684573670087
 31
0.0
  0
ARC
  5
5455A
330
1F
100
AcDbEntity
  8
AM_0
  6
ByBlock
100
AcDbCircle
 10
6240.07285992697
 20
-476.5684573670101
 30
0.0
 40
10.0
100
AcDbArc
 50
180.0
 51
270.0
  0
ARC
  5
5455B
330
1F
100
AcDbEntity
  8
AM_0
  6
ByBlock
100
AcDbCircle
 10
6240.07285992697
 20
-367.5684573670087
 30
0.0
 40
10.0
100
AcDbArc
 50
90.0
 51
180.0
  0
ARC
  5
5455C
330
1F
100
AcDbEntity
  8
AM_0
  6
ByBlock
100
AcDbCircle
 10
6272.07285992697
 20
-362.0684573670083
 30
0.0
 40
4.5
100
AcDbArc
 50
0.0
 51
90.0
  0
ARC
  5
5455D
330
1F
100
AcDbEntity
  8
AM_0
  6
ByBlock
100
AcDbCircle
 10
6272.07285992697
 20
-482.0684573670087
 30
0.0
 40
4.5
100
AcDbArc
 50
270.0
 51
0.0
  0
LINE
  5
5455E
330
1F
100
AcDbEntity
  8
AM_0
  6
ByBlock
100
AcDbLine
 10
6295.972859927004
 20
-139.0684573670114
 30
0.0
 11
6295.972859926967
 21
-395.0684573670087
 31
0.0
  0
LINE
  5
5455F
330
1F
100
AcDbEntity
  8
AM_0
  6
ByBlock
100
AcDbLine
 10
6278.17285992697
 20
-139.0684573670114
 30
0.0
 11
6278.17285992697
 21
-395.0684573670087
 31
0.0
  0
LINE
  5
54560
330
1F
100
AcDbEntity
  8
AM_0
  6
ByBlock
100
AcDbLine
 10
6210.07285992697
 20
-168.0684573670087
 30
0.0
 11
6210.07285992697
 21
-485.4341521152933
 31
0.0
  0
LINE
  5
54561
330
1F
100
AcDbEntity
  8
AM_0
  6
ByBlock
100
AcDbLine
 10
6185.07285992697
 20
-168.0684573670087
 30
0.0
 11
6185.07285992697
 21
-485.4341521152933
 31
0.0
  0
LINE
  5
54563
330
1F
100
AcDbEntity
  8
AM_0
100
AcDbLine
 10
6278.072859926968
 20
-395.0684573670087
 30
0.0
 11
6281.272859926969
 21
-395.0684573670087
 31
0.0
  0
LINE
  5
54564
330
1F
100
AcDbEntity
  8
AM_0
100
AcDbLine
 10
6292.872859926967
 20
-395.0684573670087
 30
0.0
 11
6296.072859926968
 21
-395.0684573670087
 31
0.0
  0
LINE
  5
54565
330
1F
100
AcDbEntity
  8
AM_0
100
AcDbLine
 10
6276.57285992697
 20
-438.0684573670087
 30
0.0
 11
6278.072859926968
 21
-438.0684573670087
 31
0.0
  0
LINE
  5
54566
330
1F
100
AcDbEntity
  8
AM_0
100
AcDbLine
 10
6276.57285992697
 20
-406.06845736701
 30
0.0
 11
6278.072859926968
 21
-406.06845736701
 31
0.0
  0
LINE
  5
54567
330
1F
100
AcDbEntity
  8
AM_0
100
AcDbLine
 10
6279.072859926969
 20
-440.0684573670087
 30
0.0
 11
6295.072859926969
 21
-440.0684573670087
 31
0.0
  0
LINE
  5
54568
330
1F
100
AcDbEntity
  8
AM_0
100
AcDbLine
 10
6296.072859926968
 20
-395.0684573670087
 30
0.0
 11
6296.072859926968
 21
-439.0684573670086
 31
0.0
  0
ARC
  5
54569
330
1F
100
AcDbEntity
  8
AM_0
100
AcDbCircle
 10
6295.072859926969
 20
-439.0684573670086
 30
0.0
 40
1.0
100
AcDbArc
 50
270.0
 51
0.0
  0
LINE
  5
5456A
330
1F
100
AcDbEntity
  8
AM_0
100
AcDbLine
 10
6278.072859926968
 20
-395.0684573670087
 30
0.0
 11
6278.072859926968
 21
-439.0684573670086
 31
0.0
  0
ARC
  5
5456B
330
1F
100
AcDbEntity
  8
AM_0
100
AcDbCircle
 10
6279.072859926969
 20
-439.0684573670086
 30
0.0
 40
1.0
100
AcDbArc
 50
180.0
 51
270.0
  0
LINE
  5
5456C
330
1F
100
AcDbEntity
  8
AM_0
100
AcDbLine
 10
6278.072859926968
 20
-410.5358947723379
 30
0.0
 11
6296.072859926968
 21
-410.5358947723389
 31
0.0
  0
LINE
  5
5456D
330
1F
100
AcDbEntity
  8
AM_0
  6
ByBlock
100
AcDbLine
 10
6278.172859926968
 20
-395.0684573670087
 30
0.0
 11
6295.972859926967
 21
-395.0684573670087
 31
0.0
  0
LINE
  5
5456E
330
1F
100
AcDbEntity
  8
AM_0
100
AcDbLine
 10
6295.972859926967
 20
-395.0684573670087
 30
0.0
 11
6278.17285992697
 21
-395.0684573670087
 31
0.0
  0
LINE
  5
54571
330
1F
100
AcDbEntity
  8
AM_7
 48
2.0
100
AcDbLine
 10
5534.783553804253
 20
-351.66012385873
 30
0.0
 11
5534.783553804253
 21
-492.5684573670086
 31
0.0
  0
LINE
  5
54572
330
1F
100
AcDbEntity
  8
AM_7
 48
2.0
100
AcDbLine
 10
6253.572859926969
 20
-351.66012385873
 30
0.0
 11
6253.572859926969
 21
-492.5684573670086
 31
0.0
  0
MTEXT
  5
54576
330
1F
100
AcDbEntity
  8
104
100
AcDbMText
 10
5544.233553804252
 20
-304.2023492056324
 30
0.0
 40
12.5
 41
67.0794387047499
 71
     5
 72
     5
  1
（壁）
 73
     1
 44
1.0
  0
MTEXT
  5
5457B
330
1F
100
AcDbEntity
  8
104
100
AcDbMText
 10
5472.175295496114
 20
-574.6858079159774
 30
0.0
 40
12.5
 41
163.0861758372011
 71
     1
 72
     5
  1
＊操作棒は現場の状況に応じ、\P　左右任意の方向に取付
 73
     1
 44
1.0
  0
MTEXT
  5
5457C
330
1F
100
AcDbEntity
  8
104
100
AcDbMText
 10
5697.580375674673
 20
-42.54518614379776
 30
0.0
 40
12.5
 41
211.8672430520964
 71
     1
 72
     5
  1
＊カーテンレールに ぶつからないように\P　逃げてください。
 73
     1
 44
1.0
  0
MTEXT
  5
5457D
330
1F
100
AcDbEntity
  8
104
100
AcDbMText
 10
5518.303234417413
 20
-226.4007251976514
 30
0.0
 40
12.5
 41
304.1545103210737
 71
     1
 72
     5
  1
＊カーテンレールに ぶつからないように\P　カーテンレールの長さを調整してください。
 73
     1
 44
1.0
  0
ARC
  5
5459B
330
1F
100
AcDbEntity
  8
AM_0
  6
ByBlock
100
AcDbCircle
 10
5516.983553804251
 20
-118.0684573670087
 30
0.0
 40
1.0
100
AcDbArc
 50
270.0
 51
0.0
  0
LINE
  5
5459C
330
1F
100
AcDbEntity
  8
AM_0
  6
ByBlock
100
AcDbLine
 10
5516.983553804251
 20
-119.06845736701
 30
0.0
 11
5513.983553804251
 21
-119.06845736701
 31
0.0
  0
ARC
  5
5459D
330
1F
100
AcDbEntity
  8
AM_0
  6
ByBlock
100
AcDbCircle
 10
5513.983553804251
 20
-120.06845736701
 30
0.0
 40
1.0
100
AcDbArc
 50
90.0
 51
180.0
  0
ARC
  5
5459E
330
1F
100
AcDbEntity
  8
AM_0
  6
ByBlock
100
AcDbCircle
 10
6271.372859926958
 20
-118.0684573670082
 30
0.0
 40
1.0
100
AcDbArc
 50
180.0
 51
270.0
  0
LINE
  5
5459F
330
1F
100
AcDbEntity
  8
AM_0
  6
ByBlock
100
AcDbLine
 10
6271.372859926958
 20
-119.0684573670082
 30
0.0
 11
6274.372859926958
 21
-119.0684573670082
 31
0.0
  0
ARC
  5
545A0
330
1F
100
AcDbEntity
  8
AM_0
  6
ByBlock
100
AcDbCircle
 10
6274.372859926958
 20
-120.0684573670082
 30
0.0
 40
1.0
100
AcDbArc
 50
0.0
 51
90.0
  0
LINE
  5
545A5
330
1F
100
AcDbEntity
  8
AM_0
  6
ByBlock
100
AcDbLine
 10
5512.983553804254
 20
-126.0684573670087
 30
0.0
 11
5514.383553804243
 21
-126.0684573670087
 31
0.0
  0
LINE
  5
545A6
330
1F
100
AcDbEntity
  8
AM_0
  6
ByBlock
100
AcDbLine
 10
5512.983553804254
 20
-132.0684573670087
 30
0.0
 11
5514.383553804243
 21
-132.0684573670087
 31
0.0
  0
LINE
  5
545A7
330
1F
100
AcDbEntity
  8
AM_0
100
AcDbLine
 10
5828.554658115429
 20
-85.06845736700871
 30
0.0
 11
5809.554658115428
 21
-85.06845736700871
 31
0.0
  0
LINE
  5
545A8
330
1F
100
AcDbEntity
  8
AM_0
100
AcDbLine
 10
5809.554658115428
 20
-86.56845736700871
 30
0.0
 11
5808.054658115428
 21
-86.56845736700871
 31
0.0
  0
LINE
  5
545A9
330
1F
100
AcDbEntity
  8
AM_0
100
AcDbLine
 10
5838.554658115428
 20
-86.0684573670087
 30
0.0
 11
5834.554658115428
 21
-86.0684573670087
 31
0.0
  0
LINE
  5
545AA
330
1F
100
AcDbEntity
  8
AM_0
100
AcDbLine
 10
5806.554658115428
 20
-85.06845736700871
 30
0.0
 11
5806.554658115429
 21
-121.06845736701
 31
0.0
  0
LINE
  5
545AB
330
1F
100
AcDbEntity
  8
AM_0
100
AcDbLine
 10
5808.054658115428
 20
-85.06845736700871
 30
0.0
 11
5808.054658115428
 21
-121.06845736701
 31
0.0
  0
LINE
  5
545AC
330
1F
100
AcDbEntity
  8
AM_0
100
AcDbLine
 10
5789.054658115428
 20
-85.06845736700871
 30
0.0
 11
5789.054658115428
 21
-121.06845736701
 31
0.0
  0
LINE
  5
545AD
330
1F
100
AcDbEntity
  8
AM_0
100
AcDbLine
 10
5778.054658115427
 20
-87.0684573670087
 30
0.0
 11
5778.054658115427
 21
-119.06845736701
 31
0.0
  0
LINE
  5
545AE
330
1F
100
AcDbEntity
  8
AM_0
100
AcDbLine
 10
5779.054658115429
 20
-86.0684573670087
 30
0.0
 11
5779.054658115429
 21
-120.06845736701
 31
0.0
  0
LINE
  5
545AF
330
1F
100
AcDbEntity
  8
AM_0
100
AcDbLine
 10
5783.054658115428
 20
-86.0684573670087
 30
0.0
 11
5783.054658115428
 21
-120.06845736701
 31
0.0
  0
LINE
  5
545B0
330
1F
100
AcDbEntity
  8
AM_0
100
AcDbLine
 10
5809.554658115428
 20
-85.06845736700871
 30
0.0
 11
5809.554658115429
 21
-121.06845736701
 31
0.0
  0
LINE
  5
545B1
330
1F
100
AcDbEntity
  8
AM_0
100
AcDbLine
 10
5828.554658115428
 20
-85.06845736700825
 30
0.0
 11
5828.554658115429
 21
-121.0684573670082
 31
0.0
  0
LINE
  5
545B2
330
1F
100
AcDbEntity
  8
AM_0
100
AcDbLine
 10
5839.554658115428
 20
-87.06845736701007
 30
0.0
 11
5839.554658115428
 21
-119.0684573670082
 31
0.0
  0
LINE
  5
545B3
330
1F
100
AcDbEntity
  8
AM_0
100
AcDbLine
 10
5838.554658115428
 20
-86.0684573670087
 30
0.0
 11
5839.554658115428
 21
-87.06845736701007
 31
0.0
  0
LINE
  5
545B4
330
1F
100
AcDbEntity
  8
AM_0
100
AcDbLine
 10
5838.554658115428
 20
-86.0684573670087
 30
0.0
 11
5838.554658115429
 21
-120.0684573670082
 31
0.0
  0
LINE
  5
545B5
330
1F
100
AcDbEntity
  8
AM_0
100
AcDbLine
 10
5834.554658115428
 20
-86.0684573670087
 30
0.0
 11
5834.554658115429
 21
-120.06845736701
 31
0.0
  0
LINE
  5
545B6
330
1F
100
AcDbEntity
  8
AM_0
100
AcDbLine
 10
5811.054658115427
 20
-85.06845736700871
 30
0.0
 11
5811.054658115427
 21
-121.06845736701
 31
0.0
  0
LINE
  5
545B7
330
1F
100
AcDbEntity
  8
AM_0
  6
ByBlock
100
AcDbLine
 10
5828.554658115428
 20
-85.06845736700871
 30
0.0
 11
5834.554658115428
 21
-86.0684573670087
 31
0.0
  0
LINE
  5
545B8
330
1F
100
AcDbEntity
  8
AM_0
100
AcDbLine
 10
5789.054658115428
 20
-85.06845736700871
 30
0.0
 11
5808.054658115428
 21
-85.06845736700871
 31
0.0
  0
LINE
  5
545B9
330
1F
100
AcDbEntity
  8
AM_0
100
AcDbLine
 10
5779.054658115427
 20
-86.0684573670087
 30
0.0
 11
5783.054658115428
 21
-86.0684573670087
 31
0.0
  0
LINE
  5
545BA
330
1F
100
AcDbEntity
  8
AM_0
100
AcDbLine
 10
5779.054658115427
 20
-86.0684573670087
 30
0.0
 11
5778.054658115427
 21
-87.06845736701007
 31
0.0
  0
LINE
  5
545BB
330
1F
100
AcDbEntity
  8
AM_0
  6
ByBlock
100
AcDbLine
 10
5789.054658115428
 20
-85.06845736700871
 30
0.0
 11
5783.054658115428
 21
-86.0684573670087
 31
0.0
  0
LINE
  5
545BC
330
1F
100
AcDbEntity
  8
AM_0
100
AcDbLine
 10
5828.554658115429
 20
-121.06845736701
 30
0.0
 11
5809.554658115428
 21
-121.06845736701
 31
0.0
  0
LINE
  5
545BD
330
1F
100
AcDbEntity
  8
AM_0
100
AcDbLine
 10
5809.554658115429
 20
-119.56845736701
 30
0.0
 11
5808.054658115428
 21
-119.56845736701
 31
0.0
  0
LINE
  5
545BE
330
1F
100
AcDbEntity
  8
AM_0
100
AcDbLine
 10
5838.554658115428
 20
-120.06845736701
 30
0.0
 11
5834.554658115428
 21
-120.06845736701
 31
0.0
  0
LINE
  5
545BF
330
1F
100
AcDbEntity
  8
AM_0
100
AcDbLine
 10
5838.554658115428
 20
-120.06845736701
 30
0.0
 11
5839.554658115428
 21
-119.06845736701
 31
0.0
  0
LINE
  5
545C0
330
1F
100
AcDbEntity
  8
AM_0
  6
ByBlock
100
AcDbLine
 10
5828.554658115428
 20
-121.06845736701
 30
0.0
 11
5834.554658115428
 21
-120.06845736701
 31
0.0
  0
LINE
  5
545C1
330
1F
100
AcDbEntity
  8
AM_0
100
AcDbLine
 10
5789.054658115428
 20
-121.06845736701
 30
0.0
 11
5808.054658115428
 21
-121.06845736701
 31
0.0
  0
LINE
  5
545C2
330
1F
100
AcDbEntity
  8
AM_0
100
AcDbLine
 10
5779.054658115427
 20
-120.06845736701
 30
0.0
 11
5783.054658115428
 21
-120.06845736701
 31
0.0
  0
LINE
  5
545C3
330
1F
100
AcDbEntity
  8
AM_0
100
AcDbLine
 10
5779.054658115427
 20
-120.06845736701
 30
0.0
 11
5778.054658115427
 21
-119.06845736701
 31
0.0
  0
LINE
  5
545C4
330
1F
100
AcDbEntity
  8
AM_0
  6
ByBlock
100
AcDbLine
 10
5789.054658115428
 20
-121.06845736701
 30
0.0
 11
5783.054658115428
 21
-120.06845736701
 31
0.0
  0
LINE
  5
545EB
330
1F
100
AcDbEntity
  8
AM_0
  6
ByBlock
100
AcDbLine
 10
5520.183553804251
 20
-148.7684573670099
 30
0.0
 11
5520.183553804251
 21
-165.7684573670099
 31
0.0
  0
LINE
  5
545EC
330
1F
100
AcDbEntity
  8
AM_0
  6
ByBlock
100
AcDbLine
 10
5535.183553804251
 20
-148.7684573670099
 30
0.0
 11
5535.183553804251
 21
-165.7684573670099
 31
0.0
  0
LINE
  5
545ED
330
1F
100
AcDbEntity
  8
AM_0
  6
ByBlock
100
AcDbLine
 10
5582.283553804251
 20
-131.7684573670099
 30
0.0
 11
5582.283553804251
 21
-152.768457367009
 31
0.0
  0
LINE
  5
545EE
330
1F
100
AcDbEntity
  8
AM_0
  6
ByBlock
100
AcDbLine
 10
5599.283553804253
 20
-131.7684573670099
 30
0.0
 11
5599.283553804253
 21
-152.768457367009
 31
0.0
  0
LINE
  5
545EF
330
1F
100
AcDbEntity
  8
AM_0
  6
ByBlock
100
AcDbLine
 10
5582.283553804251
 20
-131.7684573670099
 30
0.0
 11
5599.283553804253
 21
-131.7684573670099
 31
0.0
  0
LINE
  5
545F0
330
1F
100
AcDbEntity
  8
AM_0
  6
ByBlock
100
AcDbLine
 10
5582.283553804251
 20
-145.7684573670099
 30
0.0
 11
5599.283553804253
 21
-145.7684573670099
 31
0.0
  0
LINE
  5
545F1
330
1F
100
AcDbEntity
  8
AM_0
  6
ByBlock
100
AcDbLine
 10
5535.183553804251
 20
-154.7684573670089
 30
0.0
 11
5890.764282779007
 21
-154.7684573670131
 31
0.0
  0
LINE
  5
545F2
330
1F
100
AcDbEntity
  8
AM_0
  6
ByBlock
100
AcDbLine
 10
5520.183553804251
 20
-152.768457367009
 30
0.0
 11
5535.183553804251
 21
-152.768457367009
 31
0.0
  0
LINE
  5
545F3
330
1F
100
AcDbEntity
  8
AM_0
  6
ByBlock
100
AcDbLine
 10
5582.283553804251
 20
-152.768457367009
 30
0.0
 11
5599.283553804253
 21
-152.768457367009
 31
0.0
  0
LINE
  5
545F4
330
1F
100
AcDbEntity
  8
AM_0
  6
ByBlock
100
AcDbLine
 10
5535.183553804251
 20
-149.7684573670099
 30
0.0
 11
5582.283553804251
 21
-149.768457367009
 31
0.0
  0
LINE
  5
545F5
330
1F
100
AcDbEntity
  8
AM_0
  6
ByBlock
100
AcDbLine
 10
5599.283553804253
 20
-149.768457367009
 30
0.0
 11
5891.382133537059
 21
-149.7684573670008
 31
0.0
  0
LINE
  5
545F6
330
1F
100
AcDbEntity
  8
AM_0
  6
ByBlock
100
AcDbLine
 10
5520.183553804251
 20
-148.768457367009
 30
0.0
 11
5535.183553804251
 21
-148.7684573670099
 31
0.0
  0
LINE
  5
545F7
330
1F
100
AcDbEntity
  8
AM_0
  6
ByBlock
100
AcDbLine
 10
5535.183553804251
 20
-164.7684573670099
 30
0.0
 11
5892.655231347836
 21
-164.7684573670099
 31
0.0
  0
LINE
  5
545F8
330
1F
100
AcDbEntity
  8
AM_0
  6
ByBlock
100
AcDbLine
 10
5520.183553804251
 20
-165.7684573670099
 30
0.0
 11
5535.183553804251
 21
-165.7684573670099
 31
0.0
  0
CIRCLE
  5
545F9
330
1F
100
AcDbEntity
  8
AM_0
  6
ByBlock
100
AcDbCircle
 10
5590.783553804253
 20
-138.7684573670099
 30
0.0
 40
2.0
  0
LINE
  5
545FA
330
1F
100
AcDbEntity
  8
AM_0
  6
ByBlock
100
AcDbLine
 10
5529.68355380425
 20
-170.7684573670099
 30
0.0
 11
5529.683553804249
 21
-176.7684573670099
 31
0.0
  0
LINE
  5
545FB
330
1F
100
AcDbEntity
  8
AM_0
  6
ByBlock
100
AcDbLine
 10
5525.683553804249
 20
-170.7684573670099
 30
0.0
 11
5525.683553804249
 21
-176.768457367009
 31
0.0
  0
ARC
  5
545FC
330
1F
100
AcDbEntity
  8
AM_0
  6
ByBlock
100
AcDbCircle
 10
5527.68355380425
 20
-170.7684573670099
 30
0.0
 40
2.0
100
AcDbArc
 50
0.0
 51
180.0
  0
ARC
  5
545FD
330
1F
100
AcDbEntity
  8
AM_0
  6
ByBlock
100
AcDbCircle
 10
5527.68355380425
 20
-176.768457367009
 30
0.0
 40
2.0
100
AcDbArc
 50
180.0
 51
0.0
  0
ARC
  5
545FE
330
1F
100
AcDbEntity
  8
AM_0
  6
ByBlock
100
AcDbCircle
 10
5527.68355380425
 20
-176.768457367009
 30
0.0
 40
4.0
100
AcDbArc
 50
185.1119003507944
 51
354.8880996492056
  0
LINE
  5
545FF
330
1F
100
AcDbEntity
  8
AM_0
  6
ByBlock
100
AcDbLine
 10
5522.683553804251
 20
-165.7684573670099
 30
0.0
 11
5523.699463482033
 21
-177.1248620589272
 31
0.0
  0
LINE
  5
54600
330
1F
100
AcDbEntity
  8
AM_0
  6
ByBlock
100
AcDbLine
 10
5532.68355380425
 20
-165.7684573670099
 30
0.0
 11
5531.667644126466
 21
-177.1248620589272
 31
0.0
  0
LINE
  5
54604
330
1F
100
AcDbEntity
  8
AM_0
  6
ByBlock
100
AcDbLine
 10
5515.383553804245
 20
-124.0684573670087
 30
0.0
 11
5515.383553804241
 21
-134.0684573670082
 31
0.0
  0
LINE
  5
54605
330
1F
100
AcDbEntity
  8
AM_0
  6
ByBlock
100
AcDbLine
 10
5514.383553804243
 20
-124.0684573670087
 30
0.0
 11
5514.383553804242
 21
-134.0684573670082
 31
0.0
  0
LINE
  5
54606
330
1F
100
AcDbEntity
  8
AM_0
  6
ByBlock
100
AcDbLine
 10
5516.383553804244
 20
-124.0684573670087
 30
0.0
 11
5516.383553804242
 21
-134.0684573670082
 31
0.0
  0
LINE
  5
54607
330
1F
100
AcDbEntity
  8
AM_0
100
AcDbLine
 10
5516.383553804242
 20
-134.0684573670087
 30
0.0
 11
5514.383553804242
 21
-134.0684573670082
 31
0.0
  0
LINE
  5
54608
330
1F
100
AcDbEntity
  8
AM_0
100
AcDbLine
 10
5516.383553804244
 20
-124.0684573670087
 30
0.0
 11
5514.383553804243
 21
-124.0684573670087
 31
0.0
  0
LINE
  5
54609
330
1F
100
AcDbEntity
  8
AM_0
 62
     7
100
AcDbLine
 10
5516.383553804244
 20
-124.4496552134919
 30
0.0
 11
5516.383553804244
 21
-133.6872595205264
 31
0.0
  0
LINE
  5
5460A
330
1F
100
AcDbEntity
  8
AM_0
 62
     7
100
AcDbLine
 10
5516.383553804244
 20
-133.6872595205264
 30
0.0
 11
5519.968553187416
 21
-133.6872595205264
 31
0.0
  0
LINE
  5
5460B
330
1F
100
AcDbEntity
  8
AM_0
 62
     7
100
AcDbLine
 10
5519.968553187416
 20
-124.4496552134919
 30
0.0
 11
5516.383553804244
 21
-124.4496552134919
 31
0.0
  0
LINE
  5
5460C
330
1F
100
AcDbEntity
  8
AM_0
 62
     7
100
AcDbLine
 10
5520.383553804243
 20
-125.1684573670091
 30
0.0
 11
5519.968553187416
 21
-124.4496552134919
 31
0.0
  0
LINE
  5
5460D
330
1F
100
AcDbEntity
  8
AM_0
 62
     7
100
AcDbLine
 10
5520.383553804243
 20
-132.9684573670083
 30
0.0
 11
5520.383553804243
 21
-125.1684573670091
 31
0.0
  0
LINE
  5
5460E
330
1F
100
AcDbEntity
  8
AM_0
 62
     7
100
AcDbLine
 10
5519.968553187416
 20
-133.6872595205264
 30
0.0
 11
5520.383553804243
 21
-132.9684573670083
 31
0.0
  0
LINE
  5
5460F
330
1F
100
AcDbEntity
  8
AM_0
 62
     7
100
AcDbLine
 10
5519.968553187416
 20
-131.3778584437677
 30
0.0
 11
5516.383553804244
 21
-131.3778584437677
 31
0.0
  0
LINE
  5
54610
330
1F
100
AcDbEntity
  8
AM_0
 62
     7
100
AcDbLine
 10
5519.968553187416
 20
-126.759056290251
 30
0.0
 11
5516.383553804244
 21
-126.759056290251
 31
0.0
  0
ARC
  5
54611
330
1F
100
AcDbEntity
  8
AM_0
 62
     7
100
AcDbCircle
 10
5513.750360235283
 20
-129.0684573670087
 30
0.0
 40
6.633193568960272
100
AcDbArc
 50
339.6252931268711
 51
20.37470687312898
  0
ARC
  5
54612
330
1F
100
AcDbEntity
  8
AM_0
 62
     7
100
AcDbCircle
 10
5518.569630180692
 20
-132.5325589821468
 30
0.0
 40
1.813923623549355
100
AcDbArc
 50
339.5369837252861
 51
39.53698372524206
  0
ARC
  5
54613
330
1F
100
AcDbEntity
  8
AM_0
 62
     7
100
AcDbCircle
 10
5518.569630180692
 20
-125.604355751871
 30
0.0
 40
1.81392362354935
100
AcDbArc
 50
320.4630162747579
 51
20.46301627471393
  0
ARC
  5
54614
330
1F
100
AcDbEntity
  8
AM_0
  6
ByBlock
100
AcDbCircle
 10
5520.383553804243
 20
-129.0684573670087
 30
0.0
 40
3.899999999999636
100
AcDbArc
 50
270.0
 51
90.0
  0
LINE
  5
54615
330
1F
100
AcDbEntity
  8
AM_0
  6
ByBlock
100
AcDbLine
 10
6268.172859926972
 20
-148.7684573670099
 30
0.0
 11
6268.17285992697
 21
-165.7684573670099
 31
0.0
  0
LINE
  5
54616
330
1F
100
AcDbEntity
  8
AM_0
  6
ByBlock
100
AcDbLine
 10
6253.172859926969
 20
-148.7684573670099
 30
0.0
 11
6253.172859926969
 21
-165.7684573670099
 31
0.0
  0
LINE
  5
54617
330
1F
100
AcDbEntity
  8
AM_0
  6
ByBlock
100
AcDbLine
 10
6206.072859926969
 20
-131.7684573670099
 30
0.0
 11
6206.072859926969
 21
-152.768457367009
 31
0.0
  0
LINE
  5
54618
330
1F
100
AcDbEntity
  8
AM_0
  6
ByBlock
100
AcDbLine
 10
6189.072859926968
 20
-131.7684573670099
 30
0.0
 11
6189.072859926968
 21
-152.768457367009
 31
0.0
  0
LINE
  5
54619
330
1F
100
AcDbEntity
  8
AM_0
  6
ByBlock
100
AcDbLine
 10
6206.072859926969
 20
-131.7684573670099
 30
0.0
 11
6189.072859926968
 21
-131.7684573670099
 31
0.0
  0
LINE
  5
5461A
330
1F
100
AcDbEntity
  8
AM_0
  6
ByBlock
100
AcDbLine
 10
6206.072859926969
 20
-145.7684573670099
 30
0.0
 11
6189.072859926968
 21
-145.7684573670099
 31
0.0
  0
LINE
  5
5461B
330
1F
100
AcDbEntity
  8
AM_0
  6
ByBlock
100
AcDbLine
 10
6253.172859926969
 20
-154.7684573670089
 30
0.0
 11
5894.951175616236
 21
-154.7684573670131
 31
0.0
  0
LINE
  5
5461C
330
1F
100
AcDbEntity
  8
AM_0
  6
ByBlock
100
AcDbLine
 10
6268.172859926972
 20
-152.768457367009
 30
0.0
 11
6253.172859926969
 21
-152.768457367009
 31
0.0
  0
LINE
  5
5461D
330
1F
100
AcDbEntity
  8
AM_0
  6
ByBlock
100
AcDbLine
 10
6206.072859926969
 20
-152.768457367009
 30
0.0
 11
6189.072859926968
 21
-152.768457367009
 31
0.0
  0
LINE
  5
5461E
330
1F
100
AcDbEntity
  8
AM_0
  6
ByBlock
100
AcDbLine
 10
6253.172859926969
 20
-149.7684573670099
 30
0.0
 11
6206.072859926969
 21
-149.768457367009
 31
0.0
  0
LINE
  5
5461F
330
1F
100
AcDbEntity
  8
AM_0
  6
ByBlock
100
AcDbLine
 10
6189.072859926968
 20
-149.768457367009
 30
0.0
 11
5895.569026374289
 21
-149.7684573670008
 31
0.0
  0
LINE
  5
54620
330
1F
100
AcDbEntity
  8
AM_0
  6
ByBlock
100
AcDbLine
 10
6268.172859926972
 20
-148.768457367009
 30
0.0
 11
6253.172859926969
 21
-148.7684573670099
 31
0.0
  0
LINE
  5
54621
330
1F
100
AcDbEntity
  8
AM_0
  6
ByBlock
100
AcDbLine
 10
6253.172859926969
 20
-164.7684573670099
 30
0.0
 11
5896.842124185065
 21
-164.7684573670099
 31
0.0
  0
LINE
  5
54622
330
1F
100
AcDbEntity
  8
AM_0
  6
ByBlock
100
AcDbLine
 10
6268.172859926972
 20
-165.7684573670099
 30
0.0
 11
6253.172859926969
 21
-165.7684573670099
 31
0.0
  0
CIRCLE
  5
54623
330
1F
100
AcDbEntity
  8
AM_0
  6
ByBlock
100
AcDbCircle
 10
6197.57285992697
 20
-138.7684573670099
 30
0.0
 40
2.0
  0
LINE
  5
54624
330
1F
100
AcDbEntity
  8
AM_0
  6
ByBlock
100
AcDbLine
 10
6258.672859926972
 20
-170.7684573670099
 30
0.0
 11
6258.672859926972
 21
-176.7684573670099
 31
0.0
  0
LINE
  5
54625
330
1F
100
AcDbEntity
  8
AM_0
  6
ByBlock
100
AcDbLine
 10
6262.672859926972
 20
-170.7684573670099
 30
0.0
 11
6262.672859926972
 21
-176.768457367009
 31
0.0
  0
ARC
  5
54626
330
1F
100
AcDbEntity
  8
AM_0
  6
ByBlock
100
AcDbCircle
 10
6260.672859926972
 20
-170.7684573670099
 30
0.0
 40
2.0
100
AcDbArc
 50
0.0
 51
180.0
  0
ARC
  5
54627
330
1F
100
AcDbEntity
  8
AM_0
  6
ByBlock
100
AcDbCircle
 10
6260.672859926972
 20
-176.768457367009
 30
0.0
 40
2.0
100
AcDbArc
 50
180.0
 51
0.0
  0
ARC
  5
54628
330
1F
100
AcDbEntity
  8
AM_0
  6
ByBlock
100
AcDbCircle
 10
6260.672859926972
 20
-176.768457367009
 30
0.0
 40
4.0
100
AcDbArc
 50
185.1119003507944
 51
354.8880996492056
  0
LINE
  5
54629
330
1F
100
AcDbEntity
  8
AM_0
  6
ByBlock
100
AcDbLine
 10
6265.672859926972
 20
-165.7684573670099
 30
0.0
 11
6264.65695024919
 21
-177.1248620589272
 31
0.0
  0
LINE
  5
5462A
330
1F
100
AcDbEntity
  8
AM_0
  6
ByBlock
100
AcDbLine
 10
6255.672859926971
 20
-165.7684573670099
 30
0.0
 11
6256.688769604754
 21
-177.1248620589272
 31
0.0
  0
MTEXT
  5
5462D
330
1F
100
AcDbEntity
  8
104
100
AcDbMText
 10
5758.778869545662
 20
-635.4335554763228
 30
0.0
 40
12.5
 41
205.302323943547
 71
     5
 72
     5
  1
FPS1350
 73
     1
 44
1.0
  0
MTEXT
  5
5462E
330
1F
100
AcDbEntity
  8
104
100
AcDbMText
 10
5894.592052247002
 20
-634.9623630327705
 30
0.0
 40
12.5
 41
201.9228579778337
 71
     5
 72
     5
  1
1030～1450
 73
     1
 44
1.0
  0
LINE
  5
5462F
330
1F
100
AcDbEntity
  8
AM_2
100
AcDbLine
 10
6123.581811354654
 20
-648.0888213218913
 30
0.0
 11
5699.295606546873
 21
-648.0888213218913
 31
0.0
  0
LINE
  5
54630
330
1F
100
AcDbEntity
  8
AM_1
  6
ByBlock
100
AcDbLine
 10
6123.581811354654
 20
-673.0888213218877
 30
0.0
 11
5699.295606546873
 21
-673.0888213218877
 31
0.0
  0
LINE
  5
54631
330
1F
100
AcDbEntity
  8
AM_2
100
AcDbLine
 10
6123.581811354654
 20
-623.0888213218913
 30
0.0
 11
5699.295606546873
 21
-623.0888213218913
 31
0.0
  0
LINE
  5
54632
330
1F
100
AcDbEntity
  8
AM_1
  6
ByBlock
100
AcDbLine
 10
5699.295606546873
 20
-673.0888213218877
 30
0.0
 11
5699.295606546873
 21
-573.0888213218913
 31
0.0
  0
LINE
  5
54633
330
1F
100
AcDbEntity
  8
AM_2
100
AcDbLine
 10
5818.26213254445
 20
-673.0888213218877
 30
0.0
 11
5818.26213254445
 21
-573.0888213218913
 31
0.0
  0
LINE
  5
54634
330
1F
100
AcDbEntity
  8
AM_2
100
AcDbLine
 10
5970.921971949552
 20
-673.0888213218877
 30
0.0
 11
5970.921971949554
 21
-573.0888213218913
 31
0.0
  0
MTEXT
  5
54635
330
1F
100
AcDbEntity
  8
104
100
AcDbMText
 10
5758.778869545662
 20
-660.4335554763211
 30
0.0
 40
12.5
 41
205.302323943547
 71
     5
 72
     5
  1
FPS2000
 73
     1
 44
1.0
  0
MTEXT
  5
54636
330
1F
100
AcDbEntity
  8
104
100
AcDbMText
 10
5894.592052247002
 20
-659.9623630327705
 30
0.0
 40
12.5
 41
201.9228579778337
 71
     5
 72
     5
  1
1450～2000
 73
     1
 44
1.0
  0
MTEXT
  5
54637
330
1F
100
AcDbEntity
  8
104
100
AcDbMText
 10
5758.778869545662
 20
-598.9503381820059
 30
0.0
 40
12.5
 41
205.302323943547
 71
     5
 72
     5
  1
品番
 73
     1
 44
1.0
  0
MTEXT
  5
54638
330
1F
100
AcDbEntity
  8
104
100
AcDbMText
 10
5894.592052247002
 20
-607.0915623198443
 30
0.0
 40
12.5
 41
201.9228579778337
 71
     5
 72
     5
  1
（台座の取付ピッチ）
 73
     1
 44
1.0
  0
LINE
  5
54639
330
1F
100
AcDbEntity
  8
AM_1
  6
ByBlock
100
AcDbLine
 10
6123.581811354654
 20
-673.0888213218877
 30
0.0
 11
6123.581811354654
 21
-573.0888213218913
 31
0.0
  0
MTEXT
  5
5463A
330
1F
100
AcDbEntity
  8
104
100
AcDbMText
 10
6047.251891652104
 20
-634.9623630327705
 30
0.0
 40
12.5
 41
201.9228579778337
 71
     5
 72
     5
  1
943～1363
 73
     1
 44
1.0
  0
MTEXT
  5
5463B
330
1F
100
AcDbEntity
  8
104
100
AcDbMText
 10
6047.251891652104
 20
-659.9623630327705
 30
0.0
 40
12.5
 41
201.9228579778337
 71
     5
 72
     5
  1
1363～1913
 73
     1
 44
1.0
  0
MTEXT
  5
5463C
330
1F
100
AcDbEntity
  8
104
100
AcDbMText
 10
6047.251891652104
 20
-607.0915623198443
 30
0.0
 40
12.5
 41
201.9228579778337
 71
     5
 72
     5
  1
（額縁の内法寸法）
 73
     1
 44
1.0
  0
LINE
  5
5463D
330
1F
100
AcDbEntity
  8
AM_1
  6
ByBlock
100
AcDbLine
 10
6123.581811354654
 20
-573.0888213218913
 30
0.0
 11
5699.295606546873
 21
-573.0888213218913
 31
0.0
  0
MTEXT
  5
5463E
330
1F
100
AcDbEntity
  8
104
100
AcDbMText
 10
5894.592052247002
 20
-588.407329665326
 30
0.0
 40
12.5
 41
201.9228579778337
 71
     5
 72
     5
  1
壁取付けの場合
 73
     1
 44
1.0
  0
MTEXT
  5
5463F
330
1F
100
AcDbEntity
  8
104
100
AcDbMText
 10
6047.251891652104
 20
-588.407329665326
 30
0.0
 40
12.5
 41
201.9228579778337
 71
     5
 72
     5
  1
窓枠取付けの場合
 73
     1
 44
1.0
  0
MTEXT
  5
5468C
330
1F
100
AcDbEntity
  8
104
100
AcDbMText
 10
5269.229796026674
 20
431.7240801299986
 30
0.0
 40
16.0
 41
474.0137185716849
 71
     4
 72
     5
  1
　台座カバー：ABS樹脂
 73
     1
 44
1.0
1001
ACAD
1000
ACAD_MTEXT_DEFINED_HEIGHT_BEGIN
1070
    46
1040
16.0
1000
ACAD_MTEXT_DEFINED_HEIGHT_END
  0
LINE
  5
5468D
330
1F
100
AcDbEntity
  8
AM_2
100
AcDbLine
 10
5269.229796026681
 20
451.7240801299985
 30
0.0
 11
5813.243514598362
 21
451.7240801299985
 31
0.0
  0
LINE
  5
5468E
330
1F
100
AcDbEntity
  8
AM_2
100
AcDbLine
 10
5269.229796026681
 20
371.7240801299986
 30
0.0
 11
5813.243514598362
 21
371.7240801299986
 31
0.0
  0
MTEXT
  5
5468F
330
1F
100
AcDbEntity
  8
104
100
AcDbMText
 10
5269.229796026674
 20
351.7240801299986
 30
0.0
 40
16.0
 41
474.0137185716849
 71
     4
 72
     5
  1
　パイプ：ポリプロピレン樹脂被膜鋼管
 73
     1
 44
1.0
1001
ACAD
1000
ACAD_MTEXT_DEFINED_HEIGHT_BEGIN
1070
    46
1040
16.0
1000
ACAD_MTEXT_DEFINED_HEIGHT_END
  0
LINE
  5
54690
330
1F
100
AcDbEntity
  8
AM_2
100
AcDbLine
 10
5269.229796026681
 20
331.7240801299986
 30
0.0
 11
5813.243514598362
 21
331.7240801299986
 31
0.0
  0
MTEXT
  5
54691
330
1F
100
AcDbEntity
  8
104
100
AcDbMText
 10
5269.229796026674
 20
311.7240801299986
 30
0.0
 40
16.0
 41
474.0137185716849
 71
     4
 72
     5
  1
　取付金具：スチール 粉体塗装
 73
     1
 44
1.0
1001
ACAD
1000
ACAD_MTEXT_DEFINED_HEIGHT_BEGIN
1070
    46
1040
16.0
1000
ACAD_MTEXT_DEFINED_HEIGHT_END
  0
SPLINE
  5
546F9
330
1F
100
AcDbEntity
  8
AM_5
100
AcDbSpline
210
0.0
220
0.0
230
1.0
 70
     8
 71
     3
 72
    10
 73
     6
 74
     4
 42
0.0000000001
 43
0.0000000001
 44
0.0000000001
 40
0.0
 40
0.0
 40
0.0
 40
0.0
 40
7.145795881364839
 40
32.05009167645953
 40
39.86678671331159
 40
39.86678671331159
 40
39.86678671331159
 40
39.86678671331159
 10
6067.439527182685
 20
-84.19626113198388
 30
0.0
 10
6066.061667723247
 20
-86.27094628455898
 30
0.0
 10
6059.881737212299
 20
-95.57625676973907
 30
0.0
 10
6072.781900555462
 20
-109.8649714800588
 30
0.0
 10
6067.324362080064
 20
-119.7962296787226
 30
0.0
 10
6066.020614460281
 20
-122.1687011319832
 30
0.0
 11
6067.439527182685
 21
-84.19626113198388
 31
0.0
 11
6064.128684709396
 21
-90.52877413198599
 31
0.0
 11
6069.016173742593
 21
-114.9487741319849
 31
0.0
 11
6066.020614460281
 21
-122.1687011319832
 31
0.0
  0
SPLINE
  5
54761
330
1F
100
AcDbEntity
  8
AM_5
100
AcDbSpline
210
0.0
220
0.0
230
1.0
 70
     8
 71
     3
 72
    10
 73
     6
 74
     4
 42
0.0000000001
 43
0.0000000001
 44
0.0000000001
 40
0.0
 40
0.0
 40
0.0
 40
0.0
 40
7.145795881364839
 40
32.05009167645953
 40
39.86678671331159
 40
39.86678671331159
 40
39.86678671331159
 40
39.86678671331159
 10
6063.252634345453
 20
-84.19626113198388
 30
0.0
 10
6061.874774886016
 20
-86.27094628455898
 30
0.0
 10
6055.694844375066
 20
-95.57625676973907
 30
0.0
 10
6068.595007718228
 20
-109.8649714800588
 30
0.0
 10
6063.137469242832
 20
-119.7962296787226
 30
0.0
 10
6061.83372162305
 20
-122.1687011319832
 30
0.0
 11
6063.252634345453
 21
-84.19626113198388
 31
0.0
 11
6059.941791872165
 21
-90.52877413198599
 31
0.0
 11
6064.829280905362
 21
-114.9487741319849
 31
0.0
 11
6061.83372162305
 21
-122.1687011319832
 31
0.0
  0
LINE
  5
54762
330
1F
100
AcDbEntity
  8
AM_0
100
AcDbLine
 10
6060.745131623804
 20
-88.36845736700956
 30
0.0
 11
5839.554658115428
 21
-88.36845736700889
 31
0.0
  0
LINE
  5
54763
330
1F
100
AcDbEntity
  8
AM_0
100
AcDbLine
 10
6064.025818128389
 20
-117.7684573670085
 30
0.0
 11
5839.554658115428
 21
-117.768457367009
 31
0.0
  0
SPLINE
  5
54764
330
1F
100
AcDbEntity
  8
AM_5
100
AcDbSpline
210
0.0
220
0.0
230
1.0
 70
     8
 71
     3
 72
    10
 73
     6
 74
     4
 42
0.0000000001
 43
0.0000000001
 44
0.0000000001
 40
0.0
 40
0.0
 40
0.0
 40
0.0
 40
7.145795881363996
 40
32.05009167645869
 40
39.86678671331145
 40
39.86678671331145
 40
39.86678671331145
 40
39.86678671331145
 10
5654.630303105765
 20
-84.19626113198342
 30
0.0
 10
5653.252443646327
 20
-86.27094628455854
 30
0.0
 10
5647.072513135377
 20
-95.57625676973959
 30
0.0
 10
5659.972676478543
 20
-109.864971480059
 30
0.0
 10
5654.515138003145
 20
-119.7962296787222
 30
0.0
 10
5653.211390383361
 20
-122.1687011319827
 30
0.0
 11
5654.630303105765
 21
-84.19626113198342
 31
0.0
 11
5651.319460632478
 21
-90.52877413198553
 31
0.0
 11
5656.206949665675
 21
-114.9487741319844
 31
0.0
 11
5653.211390383361
 21
-122.1687011319827
 31
0.0
  0
SPLINE
  5
54765
330
1F
100
AcDbEntity
  8
AM_5
100
AcDbSpline
210
0.0
220
0.0
230
1.0
 70
     8
 71
     3
 72
    10
 73
     6
 74
     4
 42
0.0000000001
 43
0.0000000001
 44
0.0000000001
 40
0.0
 40
0.0
 40
0.0
 40
0.0
 40
7.145795881363996
 40
32.05009167645869
 40
39.86678671331145
 40
39.86678671331145
 40
39.86678671331145
 40
39.86678671331145
 10
5650.443410268533
 20
-84.19626113198342
 30
0.0
 10
5649.065550809096
 20
-86.27094628455854
 30
0.0
 10
5642.885620298146
 20
-95.57625676973959
 30
0.0
 10
5655.785783641311
 20
-109.864971480059
 30
0.0
 10
5650.328245165913
 20
-119.7962296787222
 30
0.0
 10
5649.02449754613
 20
-122.1687011319827
 30
0.0
 11
5650.443410268533
 21
-84.19626113198342
 31
0.0
 11
5647.132567795246
 21
-90.52877413198553
 31
0.0
 11
5652.020056828444
 21
-114.9487741319844
 31
0.0
 11
5649.02449754613
 21
-122.1687011319827
 31
0.0
  0
LINE
  5
54766
330
1F
100
AcDbEntity
  8
AM_0
100
AcDbLine
 10
5651.361745174807
 20
-90.36845736701025
 30
0.0
 11
5778.054658115427
 21
-90.36845736701025
 31
0.0
  0
LINE
  5
54767
330
1F
100
AcDbEntity
  8
AM_0
100
AcDbLine
 10
5656.045328215545
 20
-115.7684573670094
 30
0.0
 11
5778.054658115427
 21
-115.7684573670099
 31
0.0
  0
SPLINE
  5
54769
330
1F
100
AcDbEntity
  8
AM_5
100
AcDbSpline
210
0.0
220
0.0
230
1.0
 70
     8
 71
     3
 72
    10
 73
     6
 74
     4
 42
0.0000000001
 43
0.0000000001
 44
0.0000000001
 40
0.0
 40
0.0
 40
0.0
 40
0.0
 40
12.86243258645595
 40
57.69016501762627
 40
71.76021608396053
 40
71.76021608396053
 40
71.76021608396053
 40
71.76021608396053
 10
5897.265537812784
 20
-138.6585041439441
 30
0.0
 10
5894.785390785796
 20
-142.3929374185793
 30
0.0
 10
5883.661515866089
 20
-159.1424962919044
 30
0.0
 10
5906.88180988378
 20
-184.8621827704793
 30
0.0
 10
5897.058240628068
 20
-202.7384475280737
 30
0.0
 10
5894.711494912458
 20
-207.0088961439426
 30
0.0
 11
5897.265537812784
 21
-138.6585041439441
 31
0.0
 11
5891.306021360865
 21
-150.0570275439479
 31
0.0
 11
5900.103501620621
 21
-194.0130275439457
 31
0.0
 11
5894.711494912458
 21
-207.0088961439426
 31
0.0
  0
SPLINE
  5
5476A
330
1F
100
AcDbEntity
  8
AM_5
100
AcDbSpline
210
0.0
220
0.0
230
1.0
 70
     8
 71
     3
 72
    10
 73
     6
 74
     4
 42
0.0000000001
 43
0.0000000001
 44
0.0000000001
 40
0.0
 40
0.0
 40
0.0
 40
0.0
 40
12.86243258645637
 40
57.69016501762687
 40
71.76021608396148
 40
71.76021608396148
 40
71.76021608396148
 40
71.76021608396148
 10
5901.452430650016
 20
-138.6585041439441
 30
0.0
 10
5898.972283623027
 20
-142.3929374185793
 30
0.0
 10
5887.848408703319
 20
-159.1424962919039
 30
0.0
 10
5911.068702721014
 20
-184.8621827704797
 30
0.0
 10
5901.245133465298
 20
-202.7384475280737
 30
0.0
 10
5898.898387749689
 20
-207.0088961439426
 30
0.0
 11
5901.452430650016
 21
-138.6585041439441
 31
0.0
 11
5895.492914198095
 21
-150.0570275439479
 31
0.0
 11
5904.290394457852
 21
-194.0130275439457
 31
0.0
 11
5898.898387749689
 21
-207.0088961439426
 31
0.0
  0
LINE
  5
5476B
330
1F
100
AcDbEntity
  8
AM_0
  6
ByBlock
100
AcDbLine
 10
5904.413892193392
 20
-193.0684573670087
 30
0.0
 11
6185.07285992697
 21
-193.0684573670087
 31
0.0
  0
LINE
  5
5476C
330
1F
100
AcDbEntity
  8
AM_0
  6
ByBlock
100
AcDbLine
 10
5897.983856353226
 20
-168.0684573670094
 30
0.0
 11
6210.07285992697
 21
-168.0684573670087
 31
0.0
  0
CIRCLE
  5
5476D
330
1F
100
AcDbEntity
  8
104
100
AcDbCircle
 10
5576.49797853895
 20
270.6052076606693
 30
0.0
 40
8.251321363073657
  0
MTEXT
  5
5476E
330
1F
100
AcDbEntity
  8
104
100
AcDbMText
 10
5269.229796026673
 20
231.7240801300095
 30
0.0
 40
16.0
 41
474.0137185716849
 71
     4
 72
     5
  1
　壁・取付金具取付け用　M5×10 トラス小ネジ + SUS：6本
 73
     1
 44
1.0
1001
ACAD
1000
ACAD_MTEXT_DEFINED_HEIGHT_BEGIN
1070
    46
1040
16.0
1000
ACAD_MTEXT_DEFINED_HEIGHT_END
  0
CIRCLE
  5
5476F
330
1F
100
AcDbEntity
  8
104
100
AcDbCircle
 10
5589.961238845625
 20
230.6052076606747
 30
0.0
 40
8.251321363073657
  0
LINE
  5
54770
330
1F
100
AcDbEntity
  8
AM_2
100
AcDbLine
 10
5269.22979602669
 20
211.7240801300095
 30
0.0
 11
5813.243514598362
 21
211.7240801300095
 31
0.0
  0
MTEXT
  5
54771
330
1F
100
AcDbEntity
  8
104
100
AcDbMText
 10
5269.229796026673
 20
191.7240801300149
 30
0.0
 40
16.0
 41
649.3757580253095
 71
     4
 72
     5
  1
　　　　　　　　　　　　ST4.8×25 サラタッピンネジ（頭部塗装）+ SUS：8本
 73
     1
 44
1.0
1001
ACAD
1000
ACAD_MTEXT_DEFINED_HEIGHT_BEGIN
1070
    46
1040
16.0
1000
ACAD_MTEXT_DEFINED_HEIGHT_END
  0
CIRCLE
  5
54772
330
1F
100
AcDbEntity
  8
104
100
AcDbCircle
 10
5712.55029652551
 20
190.6052076606802
 30
0.0
 40
8.251321363073657
  0
LINE
  5
549A9
330
1F
100
AcDbEntity
  8
AM_2
100
AcDbLine
 10
5269.22979602669
 20
171.7240801300149
 30
0.0
 11
5813.243514598362
 21
171.7240801300152
 31
0.0
  0
MTEXT
  5
549B0
330
1F
100
AcDbEntity
  8
104
100
AcDbMText
 10
5269.229796026673
 20
151.7240801300206
 30
0.0
 40
16.0
 41
649.3757580253095
 71
     4
 72
     5
  1
　　　　　　　　　　　　ST4.8×35 トラスタッピンネジ + SUS：4本
 73
     1
 44
1.0
1001
ACAD
1000
ACAD_MTEXT_DEFINED_HEIGHT_BEGIN
1070
    46
1040
16.0
1000
ACAD_MTEXT_DEFINED_HEIGHT_END
  0
CIRCLE
  5
549B1
330
1F
100
AcDbEntity
  8
104
100
AcDbCircle
 10
5652.503506575701
 20
150.6052076606859
 30
0.0
 40
8.251321363073657
  0
MTEXT
  5
549B2
330
1F
100
AcDbEntity
  8
104
100
AcDbMText
 10
5269.229796026673
 20
111.7240801300263
 30
0.0
 40
16.0
 41
649.3757580253095
 71
     4
 72
     5
  1
　　　　　　　　　　　　ST4.8×50 トラスタッピンネジ + SUS：6本
 73
     1
 44
1.0
1001
ACAD
1000
ACAD_MTEXT_DEFINED_HEIGHT_BEGIN
1070
    46
1040
16.0
1000
ACAD_MTEXT_DEFINED_HEIGHT_END
  0
CIRCLE
  5
549B3
330
1F
100
AcDbEntity
  8
104
100
AcDbCircle
 10
5652.503506575701
 20
110.6052076606915
 30
0.0
 40
8.251321363073657
  0
LINE
  5
549B5
330
1F
100
AcDbEntity
  8
AM_2
100
AcDbLine
 10
5269.22979602669
 20
131.7240801300149
 30
0.0
 11
5813.243514598362
 21
131.7240801300149
 31
0.0
  0
LINE
  5
549B6
330
1F
100
AcDbEntity
  8
AM_1
100
AcDbLine
 10
5169.229796026673
 20
91.72408013002018
 30
0.0
 11
5813.243514598362
 21
91.72408013002041
 31
0.0
  0
DIMENSION
  5
54BCC
330
1F
100
AcDbEntity
  8
AM_5
100
AcDbDimension
  2
*D6
 10
6817.017520786247
 20
-486.5684573670082
 30
0.0
 11
6805.767520786247
 21
-285.3184573670069
 31
0.0
 70
    32
 71
     5
 42
402.5000000000004
  3
SYS$0
100
AcDbAlignedDimension
 13
6755.230645723471
 23
-84.06845736700779
 33
0.0
 14
6784.230645723468
 24
-486.5684573670082
 34
0.0
 50
90.0
100
AcDbRotatedDimension
1001
ACAD
1000
DSTYLE
1002
{
1070
    40
1040
5.0
1070
   140
1040
2.5
1070
   271
1070
     1
1002
}
  0
DIMENSION
  5
54C14
330
1F
100
AcDbEntity
  8
AM_5
100
AcDbDimension
  2
*D7
 10
6436.230645723468
 20
-506.5684573670096
 30
0.0
 11
6611.230645723468
 21
-495.3184573670096
 31
0.0
 70
    32
 71
     5
 42
350.0
  3
SYS$0
100
AcDbAlignedDimension
 13
6786.230645723468
 23
-484.5684573670082
 33
0.0
 14
6436.230645723468
 24
-447.3950627659514
 34
0.0
100
AcDbRotatedDimension
1001
ACAD
1000
DSTYLE
1002
{
1070
    40
1040
5.0
1070
   144
1040
1.0
1070
   140
1040
2.5
1070
   271
1070
     1
1002
}
  0
DIMENSION
  5
54C33
330
1F
100
AcDbEntity
  8
AM_5
100
AcDbDimension
  2
*D8
 10
6417.230645723467
 20
-536.5684573670091
 30
0.0
 11
6601.730645723467
 21
-525.3184573670091
 31
0.0
 70
    32
 71
     5
 42
369.0000000000018
  3
SYS$0
100
AcDbAlignedDimension
 13
6786.230645723468
 23
-484.5684573670082
 33
0.0
 14
6417.230645723467
 24
-422.0684573670082
 34
0.0
100
AcDbRotatedDimension
1001
ACAD
1000
DSTYLE
1002
{
1070
    40
1040
5.0
1070
   144
1040
1.0
1070
   140
1040
2.5
1070
   271
1070
     1
1002
}
  0
DIMENSION
  5
54C9D
330
1F
100
AcDbEntity
  8
AM_5
100
AcDbDimension
  2
*D9
 10
6253.572859926969
 20
-536.5684573670036
 30
0.0
 11
5894.178206865611
 21
-525.3184573670036
 31
0.0
 70
    32
  1
台座の取付ピッチ
 71
     5
 42
718.7893061227168
  3
SYS$0
100
AcDbAlignedDimension
 13
5534.783553804253
 23
-492.5684573670086
 33
0.0
 14
6253.572859926969
 24
-492.5684573670086
 34
0.0
100
AcDbRotatedDimension
1001
ACAD
1000
DSTYLE
1002
{
1070
    40
1040
5.0
1070
   144
1040
1.0
1070
   140
1040
2.5
1070
   271
1070
     1
1002
}
  0
DIMENSION
  5
54CBC
330
1F
100
AcDbEntity
  8
AM_5
100
AcDbDimension
  2
*D10
 10
5686.310888056245
 20
-115.7684573670092
 30
0.0
 11
5686.310888056245
 21
-59.27470365246427
 31
0.0
 70
   160
  1
30以上
 71
     5
 42
33.99999999999977
  3
SYS$0
100
AcDbAlignedDimension
 13
5659.484787914392
 23
-149.768457367009
 33
0.0
 14
5659.484787914392
 24
-115.7684573670092
 34
0.0
 50
90.0
100
AcDbRotatedDimension
1001
ACAD
1000
DSTYLE
1002
{
1070
    40
1040
5.0
1070
   144
1040
1.0
1070
   140
1040
2.5
1070
   271
1070
     1
1002
}
  0
DIMENSION
  5
54CE4
330
1F
100
AcDbEntity
  8
AM_5
100
AcDbDimension
  2
*D11
 10
5520.183553804251
 20
-210.5926438817396
 30
0.0
 11
5551.600220470917
 21
-210.5926438817396
 31
0.0
 70
   160
  1
<>以上
 71
     5
 42
9.999999999998181
  3
SYS$0
100
AcDbAlignedDimension
 13
5510.183553804252
 23
-139.068457367015
 33
0.0
 14
5520.183553804251
 24
-165.7684573670099
 34
0.0
 50
359.999999999974
100
AcDbRotatedDimension
1001
ACAD
1000
DSTYLE
1002
{
1070
    40
1040
5.0
1070
   144
1040
1.0
1070
   140
1040
2.5
1070
   271
1070
     1
1002
}
  0
DIMENSION
  5
54F19
330
1F
100
AcDbEntity
  8
AM_5
100
AcDbDimension
  2
*D18
 10
6790.876928399554
 20
-422.0684573670082
 30
0.0
 11
6681.431525846091
 21
-348.2693374896308
 31
0.0
 70
    34
 71
     5
 42
1.570796326794895
  3
SYS$2
100
AcDb2LineAngularDimension
 13
6755.230645723468
 23
-79.10733045920688
 33
0.0
 14
6755.230645723468
 24
-442.0684573670082
 34
0.0
 15
6414.233907410625
 25
-422.0684573670082
 35
0.0
 16
6708.671787612574
 26
-341.4261495765513
 36
0.0
1001
ACAD
1000
DSTYLE
1002
{
1070
    40
1040
5.0
1070
   140
1040
2.5
1070
   271
1070
     1
1002
}
  0
DIMENSION
  5
55030
330
1F
100
AcDbEntity
  8
AM_5
100
AcDbDimension
  2
*D19
 10
6786.230645723468
 20
-53.52705320648329
 30
0.0
 11
6770.730645723467
 21
-42.27705320648328
 31
0.0
 70
    32
 71
     5
 42
31.0
  3
SYS$0
100
AcDbAlignedDimension
 13
6755.230645723468
 23
-79.10733045920688
 33
0.0
 14
6786.230645723468
 24
-359.5684573670082
 34
0.0
100
AcDbRotatedDimension
1001
ACAD
1000
DSTYLE
1002
{
1070
    40
1040
5.0
1070
   140
1040
2.5
1070
   271
1070
     1
1002
}
  0
INSERT
  5
55079
330
1F
100
AcDbEntity
  8
AM_5
 48
0.5
100
AcDbBlockReference
  2
*S21
 10
0.0
 20
0.0
 30
0.0
  0
LINE
  5
55090
330
1F
100
AcDbEntity
  8
AM_0
  6
ByBlock
100
AcDbLine
 10
5603.283553804253
 20
-268.4291984897582
 30
0.0
 11
5603.283553804253
 21
-485.4341521152933
 31
0.0
  0
LINE
  5
55091
330
1F
100
AcDbEntity
  8
AM_0
  6
ByBlock
100
AcDbLine
 10
5578.283553804253
 20
-268.4291984897582
 30
0.0
 11
5578.283553804253
 21
-485.4341521152933
 31
0.0
  0
INSERT
  5
55092
330
1F
100
AcDbEntity
  8
AM_5
 48
0.5
100
AcDbBlockReference
  2
*S22
 10
0.0
 20
0.0
 30
0.0
  0
ENDSEC
  0
SECTION
  2
OBJECTS
  0
DICTIONARY
  5
C
330
0
100
AcDbDictionary
281
     1
  3
ACAD_2007HEADERVARS_RT
350
551BF
  3
ACAD_BGPLOT_KEY
350
AB06
  3
ACAD_COLOR
350
A91D
  3
ACAD_GROUP
350
D
  3
ACAD_LAYOUT
350
1A
  3
ACAD_MATERIAL
350
A91C
  3
ACAD_MLINESTYLE
350
17
  3
ACAD_PLOTSETTINGS
350
19
  3
ACAD_PLOTSTYLENAME
350
E
  3
ACAD_TABLESTYLE
350
AAB9
  3
ACAD_VISUALSTYLE
350
B0F1
  3
AcAsAppObject
350
3DA1
  3
ACASGREF_MASTER
350
3DE9
  3
AcDbVariableDictionary
350
34
  3
AcmDictionary
350
47
  3
AD_GREF_MODULE
350
3DEA
  3
AD_MAPI_MODULE
350
3E06
  3
AMG
350
2B
  3
AMGSNAPSETTINGS
350
7D
  3
ASE_INDEX_DICTIONARY
350
B331
  3
MAPISURF_MODULE
350
3DEB
  0
DICTIONARY
  5
3F95
330
2
100
AcDbDictionary
280
     1
281
     1
  3
ACAD_LAYERFILTERS
360
3F9CB
  3
ACAD_LAYERSTATES
360
3F96
  3
ACLYDICTIONARY
360
3F9CA
  3
AMLAYER_GROUPCOLORS
360
AAB4
  0
DICTIONARY
  5
8A
330
1F
100
AcDbDictionary
280
     1
281
     1
  3
ACAD_SORTENTS
360
B1BA
  0
DICTIONARY
  5
551BF
102
{ACAD_REACTORS
330
C
102
}
330
C
100
AcDbDictionary
281
     1
  3
DIMARCSYM
350
551C0
  0
DICTIONARY
  5
AB06
102
{ACAD_REACTORS
330
C
102
}
330
C
100
AcDbDictionary
280
     1
281
     1
  0
DICTIONARY
  5
A91D
102
{ACAD_REACTORS
330
C
102
}
330
C
100
AcDbDictionary
281
     1
  0
DICTIONARY
  5
D
102
{ACAD_REACTORS
330
C
102
}
330
C
100
AcDbDictionary
281
     1
  0
DICTIONARY
  5
1A
102
{ACAD_REACTORS
330
C
102
}
330
C
100
AcDbDictionary
281
     1
  3
Model
350
22
  3
ﾚｲｱｳﾄ1
350
1E
  3
ﾚｲｱｳﾄ2
350
26
  0
DICTIONARY
  5
A91C
102
{ACAD_REACTORS
330
C
102
}
330
C
100
AcDbDictionary
281
     1
  3
ByBlock
350
B0EF
  3
ByLayer
350
B0EE
  3
Global
350
B0F0
  0
DICTIONARY
  5
17
102
{ACAD_REACTORS
330
C
102
}
330
C
100
AcDbDictionary
281
     1
  3
Standard
350
18
  0
DICTIONARY
  5
19
102
{ACAD_REACTORS
330
C
102
}
330
C
100
AcDbDictionary
281
     1
  0
ACDBDICTIONARYWDFLT
  5
E
102
{ACAD_REACTORS
330
C
102
}
330
C
100
AcDbDictionary
281
     1
  3
Normal
350
F
100
AcDbDictionaryWithDefault
340
F
  0
DICTIONARY
  5
AAB9
102
{ACAD_REACTORS
330
C
102
}
330
C
100
AcDbDictionary
281
     1
  3
Standard
350
AABA
  0
DICTIONARY
  5
B0F1
102
{ACAD_REACTORS
330
C
102
}
330
C
100
AcDbDictionary
281
     1
  3
2dWireframe
350
B0F7
  3
3D Hidden
350
B0F9
  3
3dWireframe
350
B0F8
  3
Basic
350
B0F6
  3
Brighten
350
B0FD
  3
ColorChange
350
B101
  3
Conceptual
350
B0FA
  3
Dim
350
B0FC
  3
Facepattern
350
B100
  3
Flat
350
B0F2
  3
FlatWithEdges
350
B0F3
  3
Gouraud
350
B0F4
  3
GouraudWithEdges
350
B0F5
  3
Linepattern
350
B0FF
  3
Realistic
350
B0FB
  3
Thicken
350
B0FE
  0
ACAD_PROXY_OBJECT
  5
3DA1
102
{ACAD_REACTORS
330
C
102
}
330
C
100
AcDbProxyObject
 90
      499
 91
      576
 95
   917527
 70
     0
 93
       10
310
407F
 94
        0
  0
ACAD_PROXY_OBJECT
  5
3DE9
102
{ACAD_REACTORS
330
C
102
}
330
C
100
AcDbProxyObject
 90
      499
 91
      581
 95
   917527
 70
     0
 93
       34
310
010000407F
 94
        0
  0
DICTIONARY
  5
34
102
{ACAD_REACTORS
330
C
102
}
330
C
100
AcDbDictionary
281
     1
  3
CTABLESTYLE
350
AAF3
  3
DIMASSOC
350
A10C
  3
FIELDEVAL
350
AB07
  3
HPORIGIN
350
EB56
  3
INDEXCTL
350
35
  3
SORTENTS
350
194C
  0
DICTIONARY
  5
47
102
{ACAD_REACTORS
330
C
102
}
330
C
100
AcDbDictionary
281
     1
  3
AcmBOM
350
7E8
  3
AcmStdDictionary
350
4C
  3
AMDTSECTSYM_ARROWCOLOR
350
A929
  0
ACAD_PROXY_OBJECT
  5
3DEA
102
{ACAD_REACTORS
330
C
102
}
330
C
100
AcDbProxyObject
 90
      499
 91
      582
 95
   917527
 70
     0
 93
      114
310
00000043800000000000000000003F
 94
        0
  0
ACAD_PROXY_OBJECT
  5
3E06
102
{ACAD_REACTORS
330
C
102
}
330
C
100
AcDbProxyObject
 90
      499
 91
      594
 95
   917527
 70
     0
 93
       34
310
05000044FF
 94
        0
  0
DICTIONARY
  5
2B
102
{ACAD_REACTORS
330
C
102
}
330
C
100
AcDbDictionary
281
     1
  0
DICTIONARY
  5
7D
102
{ACAD_REACTORS
330
C
102
}
330
C
100
AcDbDictionary
281
     1
  0
DICTIONARY
  5
B331
102
{ACAD_REACTORS
330
C
102
}
330
C
100
AcDbDictionary
281
     1
  3
ASEBlockHierarchyIndexRecord
350
B332
1001
DCO15
1040
1594111214.218
  0
ACAD_PROXY_OBJECT
  5
3DEB
102
{ACAD_REACTORS
330
C
102
}
330
C
100
AcDbProxyObject
 90
      499
 91
      583
 95
   917527
 70
     0
 93
        8
310
047E
 94
        0
  0
DICTIONARY
  5
3F9CB
102
{ACAD_REACTORS
330
3F95
102
}
330
3F95
100
AcDbDictionary
281
     1
  0
DICTIONARY
  5
3F96
102
{ACAD_REACTORS
330
3F95
102
}
330
3F95
100
AcDbDictionary
281
     1
  3
20011210
350
3FB7
  0
DICTIONARY
  5
3F9CA
102
{ACAD_REACTORS
330
3F95
102
}
330
3F95
100
AcDbDictionary
281
     1
1001
ACAD
1000
<All
  0
DICTIONARY
  5
AAB4
102
{ACAD_REACTORS
330
3F95
102
}
330
3F95
100
AcDbDictionary
280
     1
281
     1
  0
SORTENTSTABLE
  5
B1BA
102
{ACAD_REACTORS
330
8A
102
}
330
8A
100
AcDbSortentsTable
330
1F
331
54635
  5
5463D
331
54636
  5
5463E
331
54637
  5
5463F
331
54CE4
  5
54DEF
331
540C8
  5
540C8
331
540C9
  5
540C9
331
540E0
  5
540E0
331
540CA
  5
540CA
331
540E1
  5
540E1
331
540CB
  5
540CB
331
540E2
  5
540E2
331
54260
  5
54260
331
540CC
  5
540CC
331
540E3
  5
540E3
331
54261
  5
54261
331
540AE
  5
540AE
331
540CD
  5
540CD
331
540E4
  5
540E4
331
54262
  5
54262
331
540AF
  5
540AF
331
540CE
  5
540CE
331
540E5
  5
540E5
331
54490
  5
54494
331
54263
  5
54263
331
540B0
  5
540B0
331
540CF
  5
540CF
331
540E6
  5
540E6
331
54491
  5
54495
331
54508
  5
54510
331
54264
  5
54264
331
540B1
  5
540B1
331
540D0
  5
540D0
331
540E7
  5
540E7
331
54492
  5
54496
331
54509
  5
54511
331
54550
  5
5455C
331
54265
  5
54265
331
540B2
  5
540B2
331
540D1
  5
540D1
331
540E8
  5
540E8
331
54493
  5
54498
331
5450A
  5
54512
331
54568
  5
54570
331
540B3
  5
540B3
331
540D2
  5
540D2
331
540E9
  5
540E9
331
54494
  5
5449A
331
5450B
  5
54513
331
54569
  5
54571
331
545A0
  5
545AC
331
54267
  5
54267
331
540B4
  5
540B4
331
540D3
  5
540D3
331
540EA
  5
540EA
331
54495
  5
5449C
331
5450C
  5
54540
331
5456A
  5
54572
331
545C0
  5
545C9
331
1EB3A
  5
1EB3A
331
54268
  5
54268
331
540B5
  5
540B5
331
540D4
  5
540D4
331
540EB
  5
540EB
331
54477
  5
54477
331
54496
  5
5449E
331
5450D
  5
54541
331
5456B
  5
54577
331
545C1
  5
545CA
331
54600
  5
5460B
331
1EB3B
  5
1EB3B
331
54269
  5
54269
331
540B6
  5
540B6
331
540D5
  5
540D5
331
540EC
  5
540EC
331
54478
  5
54478
331
54497
  5
5449F
331
54555
  5
5455D
331
5456C
  5
5457B
331
545C2
  5
545CB
331
1EB3C
  5
1EB3C
331
540B7
  5
540B7
331
540D6
  5
540D6
331
540ED
  5
540ED
331
54479
  5
54479
331
54498
  5
544A0
331
54556
  5
5455E
331
5456D
  5
5457C
331
545C3
  5
545F1
331
1EB3D
  5
1EB3D
331
5424C
  5
5424C
331
540B8
  5
540B8
331
540D7
  5
540D7
331
540EE
  5
540EE
331
5447A
  5
5447A
331
54499
  5
544A1
331
54557
  5
5455F
331
5456E
  5
5457D
331
545A5
  5
545AD
331
545C4
  5
545F2
331
1EB3E
  5
1EB3E
331
54558
  5
54560
331
5424D
  5
5424D
331
540D8
  5
540D8
331
540B9
  5
540B9
331
540EF
  5
540EF
331
5426C
  5
5426C
331
5447B
  5
5447B
331
5449A
  5
544A2
331
54539
  5
54542
331
545A6
  5
545AE
331
54604
  5
5460C
331
1EB3F
  5
1EB3F
331
54559
  5
54561
331
5424E
  5
5424E
331
540D9
  5
540D9
331
540BA
  5
540BA
331
540F0
  5
540F0
331
5447C
  5
5447C
331
5449B
  5
544A3
331
5453A
  5
54543
331
545A7
  5
545AF
331
54605
  5
5460D
331
1EB40
  5
1EB40
331
5424F
  5
5424F
331
540DA
  5
540DA
331
540BB
  5
540BB
331
540F1
  5
540F1
331
5447D
  5
5447D
331
5449C
  5
544A4
331
5455A
  5
54563
331
54571
  5
54582
331
545A8
  5
545B0
331
54606
  5
5460E
331
26280
  5
26280
331
1EB41
  5
1EB41
331
5453C
  5
54544
331
54250
  5
54250
331
540DB
  5
540DB
331
540BC
  5
540BC
331
540F2
  5
540F2
331
5447E
  5
5447E
331
5449D
  5
544EA
331
5455B
  5
54564
331
54572
  5
54583
331
545A9
  5
545B1
331
54607
  5
5460F
331
26281
  5
26281
331
54251
  5
54251
331
540DC
  5
540DC
331
540BD
  5
540BD
331
540F3
  5
540F3
331
5447F
  5
5447F
331
5449E
  5
544EB
331
5453D
  5
54545
331
5455C
  5
54565
331
545AA
  5
545B2
331
54608
  5
54610
331
26282
  5
26282
331
545AB
  5
545B3
331
54252
  5
54252
331
540DD
  5
540DD
331
540BE
  5
540BE
331
540F4
  5
540F4
331
54480
  5
54480
331
5449F
  5
544EC
331
5453E
  5
54546
331
5455D
  5
54566
331
54609
  5
54611
331
26283
  5
26283
331
54618
  5
54620
331
545EB
  5
545F3
331
54253
  5
54253
331
540DE
  5
540DE
331
540BF
  5
540BF
331
540F5
  5
540F5
331
54481
  5
54481
331
544A0
  5
544ED
331
5453F
  5
54547
331
5455E
  5
54567
331
545AC
  5
545B4
331
5460A
  5
54612
331
54619
  5
54621
331
54638
  5
5468C
331
545EC
  5
545F4
331
54540
  5
54548
331
54254
  5
54254
331
540C0
  5
540C0
331
540DF
  5
540DF
331
540F6
  5
540F6
331
54482
  5
54482
331
544A1
  5
544EE
331
5455F
  5
54568
331
54576
  5
54595
331
545AD
  5
545B5
331
5460B
  5
54613
331
5461A
  5
54622
331
54639
  5
5468D
331
545ED
  5
545F5
331
54541
  5
54549
331
54255
  5
54255
331
540C1
  5
540C1
331
540F7
  5
540F7
331
54483
  5
54483
331
544A2
  5
544EF
331
54560
  5
54569
331
545AE
  5
545B6
331
5460C
  5
54614
331
5461B
  5
54623
331
5463A
  5
5468E
331
54761
  5
5476A
331
549B0
  5
549B2
331
545EE
  5
545F6
331
54256
  5
54256
331
540C2
  5
540C2
331
540F8
  5
540F8
331
54484
  5
54484
331
544A3
  5
54508
331
54542
  5
5454A
331
54561
  5
5456A
331
545AF
  5
545B7
331
5460D
  5
54615
331
54762
  5
54492
331
5461C
  5
54624
331
5463B
  5
5468F
331
549B1
  5
549B3
331
545EF
  5
545F7
331
54257
  5
54257
331
540C3
  5
540C3
331
540F9
  5
540F9
331
54485
  5
54485
331
544A4
  5
54509
331
54543
  5
5454B
331
545B0
  5
545B8
331
5460E
  5
54616
331
54763
  5
54490
331
5461D
  5
54625
331
5463C
  5
54690
331
549B2
  5
549B5
331
545F0
  5
545F8
331
54258
  5
54258
331
540C4
  5
540C4
331
540FA
  5
540FA
331
54486
  5
54486
331
54544
  5
5454C
331
54563
  5
5456B
331
545B1
  5
545B9
331
5460F
  5
54617
331
5461E
  5
54626
331
5463D
  5
54691
331
54764
  5
5476B
331
549B3
  5
549B6
331
21FF0
  5
2215D
331
545F1
  5
545F9
331
54259
  5
54259
331
540C5
  5
540C5
331
540FB
  5
540FB
331
54487
  5
54487
331
54545
  5
5454D
331
54564
  5
5456C
331
5457B
  5
5459C
331
545B2
  5
545BA
331
54610
  5
54618
331
5461F
  5
54627
331
5463E
  5
546F9
331
54765
  5
5476C
331
21FF1
  5
2215E
331
545F2
  5
545FA
331
5425A
  5
5425A
331
540C6
  5
540C6
331
54488
  5
54488
331
54546
  5
5454E
331
54565
  5
5456D
331
5457C
  5
545A1
331
545B3
  5
545BB
331
54611
  5
54619
331
54766
  5
5448D
331
54620
  5
54628
331
5463F
  5
54761
331
549B5
  5
54BCC
331
54C33
  5
54CBC
331
214E3
  5
2154A
331
21FF2
  5
22406
331
545F3
  5
545FB
331
5425B
  5
5425B
331
540C7
  5
540C7
331
54489
  5
54489
331
54547
  5
5454F
331
54566
  5
5456E
331
5457D
  5
545A5
331
545B4
  5
545BC
331
54612
  5
5461A
331
54767
  5
5448B
331
54621
  5
54629
331
549B6
  5
54C14
331
21FF3
  5
22408
331
545F4
  5
545FC
331
5425C
  5
5425C
331
5448A
  5
5448A
331
54548
  5
54550
331
54567
  5
5456F
331
545B5
  5
545BD
331
54613
  5
5461B
331
54622
  5
5462A
331
54CBC
  5
54DD0
331
5448B
  5
5448C
331
54502
  5
5450A
331
54549
  5
54551
331
545B6
  5
545BE
331
545F5
  5
545FD
331
54614
  5
5461C
331
54623
  5
5462B
331
54769
  5
5476D
331
5425E
  5
5425E
331
5448C
  5
5448E
331
54503
  5
5450B
331
5454A
  5
54552
331
545B7
  5
545BF
331
545F6
  5
545FE
331
54615
  5
5461D
331
54624
  5
5462C
331
5476A
  5
5476E
331
5425F
  5
5425F
331
5448D
  5
5448F
331
54504
  5
5450C
331
5454B
  5
54557
331
545B8
  5
545C0
331
545F7
  5
545FF
331
54616
  5
5461E
331
5476B
  5
5449D
331
54625
  5
5462D
331
5468C
  5
54762
331
5448E
  5
54491
331
54505
  5
5450D
331
5454C
  5
54558
331
545B9
  5
545C1
331
545F8
  5
54600
331
54617
  5
5461F
331
5476C
  5
5449B
331
54626
  5
5462E
331
5468D
  5
54763
331
55079
  5
5508F
331
5448F
  5
54493
331
54506
  5
5450E
331
5454D
  5
54559
331
5459B
  5
545A6
331
545BA
  5
545C2
331
545F9
  5
54601
331
54627
  5
5462F
331
5468E
  5
54764
331
5476D
  5
5476F
331
54BCC
  5
54C33
331
54507
  5
5450F
331
5454E
  5
5455A
331
5459C
  5
545A7
331
545BB
  5
545C3
331
545FA
  5
54604
331
54628
  5
54630
331
5468F
  5
54765
331
5476E
  5
54770
331
54C14
  5
54C9D
331
5454F
  5
5455B
331
5459D
  5
545A8
331
545BC
  5
545C4
331
545FB
  5
54605
331
54629
  5
54633
331
54690
  5
54766
331
5476F
  5
54771
331
2121D
  5
21225
331
5459E
  5
545A9
331
545BD
  5
545C6
331
545FC
  5
54606
331
5462A
  5
54634
331
54691
  5
54767
331
54770
  5
54772
331
5459F
  5
545AB
331
545BE
  5
545C7
331
545FD
  5
54607
331
54771
  5
549A9
331
545BF
  5
545C8
331
545FE
  5
54608
331
54772
  5
549B0
331
54F19
  5
55079
331
545FF
  5
5460A
331
5462D
  5
54635
331
55090
  5
54499
331
5462E
  5
54636
331
55091
  5
54497
331
5462F
  5
54637
331
54630
  5
54638
331
2627D
  5
2627D
331
54631
  5
54639
331
2627E
  5
2627E
331
54632
  5
5463A
331
546F9
  5
54769
331
54C9D
  5
54CE4
331
2627F
  5
2627F
331
54633
  5
5463B
331
549A9
  5
549B1
331
55030
  5
5508E
331
54634
  5
5463C
  0
XRECORD
  5
551C0
102
{ACAD_REACTORS
330
551BF
102
}
330
551BF
100
AcDbXrecord
280
     1
 70
     1
  0
LAYOUT
  5
22
102
{ACAD_REACTORS
330
1A
102
}
330
1A
100
AcDbPlotSettings
  1

  2
Adobe PDF
  4
A3
  6

 40
3.174999952316284
 41
3.174999952316284
 42
3.17498779296875
 43
3.17498779296875
 44
297.0318298339844
 45
420.1583251953125
 46
0.0
 47
1.371553106741487
 48
2961.729796026673
 49
-814.3733937239884
140
5061.729796026673
141
670.6266062760114
142
1.0
143
5.108678235040438
 70
  3764
 72
     1
 73
     1
 74
     4
  7
monochrome.ctb
 75
     0
147
0.1957453482078783
 76
     1
 77
     2
 78
   300
148
-2961.729796026673
149
814.3733937239884
100
AcDbLayout
  1
Model
 70
     1
 71
     0
 10
0.0
 20
0.0
 11
12.0
 21
9.0
 12
0.0
 22
0.0
 32
0.0
 14
0.0
 24
0.0
 34
0.0
 15
0.0
 25
0.0
 35
0.0
146
0.0
 13
0.0
 23
0.0
 33
0.0
 16
1.0
 26
0.0
 36
0.0
 17
0.0
 27
1.0
 37
0.0
 76
     0
330
1F
331
B0EC
1001
ACAD_PSEXT
1000
Adobe PDF
1000
Adobe PDF Converter
1000
My Documents\*.pdf
1000

1070
     0
  0
LAYOUT
  5
1E
102
{ACAD_REACTORS
330
1A
102
}
330
1A
100
AcDbPlotSettings
  1

  2
\\ML370\XEROX
  4
A4
  6

 40
3.174999952316284
 41
3.174999952316284
 42
3.175003051757812
 43
3.17498779296875
 44
209.8674926757813
 45
296.6719970703125
 46
0.0
 47
0.0
 48
0.0
 49
0.0
140
0.0
141
0.0
142
1.0
143
1.0
 70
   688
 72
     1
 73
     1
 74
     5
  7
monochrome.ctb
 75
    16
147
1.0
 76
     0
 77
     2
 78
   300
148
0.0
149
0.0
100
AcDbLayout
  1
ﾚｲｱｳﾄ1
 70
     1
 71
     1
 10
-3.17498779296875
 20
-3.174999952316284
 11
293.4970092773438
 21
206.692492723465
 12
0.0
 22
0.0
 32
0.0
 14
1.000000000000000E+20
 24
1.000000000000000E+20
 34
1.000000000000000E+20
 15
-1.000000000000000E+20
 25
-1.000000000000000E+20
 35
-1.000000000000000E+20
146
0.0
 13
0.0
 23
0.0
 33
0.0
 16
1.0
 26
0.0
 36
0.0
 17
0.0
 27
1.0
 37
0.0
 76
     0
330
1B
  0
LAYOUT
  5
26
102
{ACAD_REACTORS
330
1A
102
}
330
1A
100
AcDbPlotSettings
  1

  2
\\ML370\XEROX
  4

  6

 40
0.0
 41
0.0
 42
0.0
 43
0.0
 44
0.0
 45
0.0
 46
0.0
 47
0.0
 48
0.0
 49
0.0
140
0.0
141
0.0
142
1.0
143
1.0
 70
   688
 72
     0
 73
     0
 74
     5
  7
monochrome.ctb
 75
    16
147
1.0
 76
     0
 77
     2
 78
   300
148
0.0
149
0.0
100
AcDbLayout
  1
ﾚｲｱｳﾄ2
 70
     1
 71
     2
 10
0.0
 20
0.0
 11
12.0
 21
9.0
 12
0.0
 22
0.0
 32
0.0
 14
0.0
 24
0.0
 34
0.0
 15
0.0
 25
0.0
 35
0.0
146
0.0
 13
0.0
 23
0.0
 33
0.0
 16
1.0
 26
0.0
 36
0.0
 17
0.0
 27
1.0
 37
0.0
 76
     0
330
23
  0
MATERIAL
  5
B0EF
102
{ACAD_XDICTIONARY
360
551C5
102
}
102
{ACAD_REACTORS
330
A91C
102
}
330
A91C
100
AcDbMaterial
  1
ByBlock
  0
MATERIAL
  5
B0EE
102
{ACAD_XDICTIONARY
360
551C3
102
}
102
{ACAD_REACTORS
330
A91C
102
}
330
A91C
100
AcDbMaterial
  1
ByLayer
  0
MATERIAL
  5
B0F0
102
{ACAD_XDICTIONARY
360
551C7
102
}
102
{ACAD_REACTORS
330
A91C
102
}
330
A91C
100
AcDbMaterial
  1
Global
  0
MLINESTYLE
  5
18
102
{ACAD_REACTORS
330
17
102
}
330
17
100
AcDbMlineStyle
  2
STANDARD
 70
     0
  3

 62
   256
 51
90.0
 52
90.0
 71
     2
 49
0.5
 62
   256
  6
BYLAYER
 49
-0.5
 62
   256
  6
BYLAYER
  0
ACDBPLACEHOLDER
  5
F
102
{ACAD_REACTORS
330
E
102
}
330
E
  0
TABLESTYLE
  5
AABA
102
{ACAD_XDICTIONARY
360
551C1
102
}
102
{ACAD_REACTORS
330
AAB9
102
}
330
AAB9
100
AcDbTableStyle
  3
Standard
 70
     0
 71
     0
 40
1.5
 41
1.5
280
     0
281
     0
  7
STANDARD
140
4.5
170
     2
 62
     0
 63
     7
283
     0
274
    -2
284
     1
 64
     0
275
    -2
285
     1
 65
     0
276
    -2
286
     1
 66
     0
277
    -2
287
     1
 67
     0
278
    -2
288
     1
 68
     0
279
    -2
289
     1
 69
     0
  7
STANDARD
140
6.0
170
     5
 62
     0
 63
     7
283
     0
274
    -2
284
     1
 64
     0
275
    -2
285
     1
 65
     0
276
    -2
286
     1
 66
     0
277
    -2
287
     1
 67
     0
278
    -2
288
     1
 68
     0
279
    -2
289
     1
 69
     0
  7
STANDARD
140
4.5
170
     5
 62
     0
 63
     7
283
     0
274
    -2
284
     1
 64
     0
275
    -2
285
     1
 65
     0
276
    -2
286
     1
 66
     0
277
    -2
287
     1
 67
     0
278
    -2
288
     1
 68
     0
279
    -2
289
     1
 69
     0
  0
VISUALSTYLE
  5
B0F7
102
{ACAD_REACTORS
330
B0F1
102
}
330
B0F1
100
AcDbVisualStyle
  2
2dWireframe
 70
     4
 71
     0
 72
     2
 73
     0
 90
        0
 40
-0.6
 41
-30.0
 62
     5
 63
     7
421
 16777215
 74
     1
 91
        4
 64
     7
 65
   257
 75
     1
175
     1
 42
1.0
 92
        0
 66
   257
 43
1.0
 76
     1
 77
     6
 78
     2
 67
     7
 79
     5
170
     0
171
     0
290
     0
174
     0
 93
        1
 44
0.0
173
     0
291
     0
 45
0.0
1001
ACAD
1000
AcDbSavedByObjectVersion
1070
     0
  0
VISUALSTYLE
  5
B0F9
102
{ACAD_REACTORS
330
B0F1
102
}
330
B0F1
100
AcDbVisualStyle
  2
3D Hidden
 70
     6
 71
     1
 72
     2
 73
     2
 90
        0
 40
-0.6
 41
-30.0
 62
     5
 63
     7
421
 16777215
 74
     2
 91
        2
 64
     7
 65
   257
 75
     2
175
     1
 42
40.0
 92
        0
 66
   257
 43
1.0
 76
     1
 77
     6
 78
     2
 67
     7
 79
     3
170
     0
171
     0
290
     0
174
     0
 93
        1
 44
0.0
173
     0
291
     0
 45
0.0
1001
ACAD
1000
AcDbSavedByObjectVersion
1070
     0
  0
VISUALSTYLE
  5
B0F8
102
{ACAD_REACTORS
330
B0F1
102
}
330
B0F1
100
AcDbVisualStyle
  2
3dWireframe
 70
     5
 71
     0
 72
     2
 73
     0
 90
        0
 40
-0.6
 41
-30.0
 62
     5
 63
     7
421
 16777215
 74
     1
 91
        4
 64
     7
 65
   257
 75
     1
175
     1
 42
1.0
 92
        0
 66
   257
 43
1.0
 76
     1
 77
     6
 78
     2
 67
     7
 79
     5
170
     0
171
     0
290
     0
174
     0
 93
        1
 44
0.0
173
     0
291
     0
 45
0.0
1001
ACAD
1000
AcDbSavedByObjectVersion
1070
     0
  0
VISUALSTYLE
  5
B0F6
102
{ACAD_REACTORS
330
B0F1
102
}
330
B0F1
100
AcDbVisualStyle
  2
Basic
 70
     7
 71
     1
 72
     0
 73
     1
 90
        0
 40
-0.6
 41
-30.0
 62
     5
 63
     7
421
 16777215
 74
     0
 91
        4
 64
     7
 65
   257
 75
     1
175
     1
 42
1.0
 92
        8
 66
     7
 43
1.0
 76
     1
 77
     6
 78
     2
 67
     7
 79
     5
170
     0
171
     0
290
     0
174
     0
 93
        1
 44
0.0
173
     0
291
     1
 45
0.0
1001
ACAD
1000
AcDbSavedByObjectVersion
1070
     0
  0
VISUALSTYLE
  5
B0FD
102
{ACAD_REACTORS
330
B0F1
102
}
330
B0F1
100
AcDbVisualStyle
  2
Brighten
 70
    12
 71
     2
 72
     2
 73
     0
 90
        0
 40
-0.6
 41
-30.0
 62
     5
 63
     7
421
 16777215
 74
     1
 91
        4
 64
     7
 65
   257
 75
     1
175
     1
 42
1.0
 92
        8
 66
     7
 43
1.0
 76
     1
 77
     6
 78
     2
 67
     7
 79
     5
170
     0
171
     0
290
     0
174
     0
 93
        1
 44
50.0
173
     0
291
     1
 45
0.0
1001
ACAD
1000
AcDbSavedByObjectVersion
1070
     0
  0
VISUALSTYLE
  5
B101
102
{ACAD_REACTORS
330
B0F1
102
}
330
B0F1
100
AcDbVisualStyle
  2
ColorChange
 70
    16
 71
     2
 72
     2
 73
     3
 90
        0
 40
-0.6
 41
-30.0
 62
     5
 63
     8
421
  8421504
 74
     1
 91
        4
 64
     7
 65
   257
 75
     1
175
     1
 42
1.0
 92
        8
 66
     8
424
  8421504
 43
1.0
 76
     1
 77
     6
 78
     2
 67
     7
 79
     5
170
     0
171
     0
290
     0
174
     0
 93
        1
 44
0.0
173
     0
291
     1
 45
0.0
1001
ACAD
1000
AcDbSavedByObjectVersion
1070
     0
  0
VISUALSTYLE
  5
B0FA
102
{ACAD_REACTORS
330
B0F1
102
}
330
B0F1
100
AcDbVisualStyle
  2
Conceptual
 70
     9
 71
     3
 72
     2
 73
     0
 90
        0
 40
-0.6
 41
-30.0
 62
     5
 63
     7
421
 16777215
 74
     2
 91
        2
 64
     7
 65
   257
 75
     1
175
     1
 42
40.0
 92
        8
 66
     7
 43
1.0
 76
     1
 77
     6
 78
     2
 67
     7
 79
     3
170
     0
171
     0
290
     0
174
     0
 93
        1
 44
0.0
173
     0
291
     0
 45
0.0
1001
ACAD
1000
AcDbSavedByObjectVersion
1070
     0
  0
VISUALSTYLE
  5
B0FC
102
{ACAD_REACTORS
330
B0F1
102
}
330
B0F1
100
AcDbVisualStyle
  2
Dim
 70
    11
 71
     2
 72
     2
 73
     0
 90
        0
 40
-0.6
 41
-30.0
 62
     5
 63
     7
421
 16777215
 74
     1
 91
        4
 64
     7
 65
   257
 75
     1
175
     1
 42
1.0
 92
        8
 66
     7
 43
1.0
 76
     1
 77
     6
 78
     2
 67
     7
 79
     5
170
     0
171
     0
290
     0
174
     0
 93
        1
 44
-50.0
173
     0
291
     1
 45
0.0
1001
ACAD
1000
AcDbSavedByObjectVersion
1070
     0
  0
VISUALSTYLE
  5
B100
102
{ACAD_REACTORS
330
B0F1
102
}
330
B0F1
100
AcDbVisualStyle
  2
Facepattern
 70
    15
 71
     2
 72
     2
 73
     0
 90
        0
 40
-0.6
 41
-30.0
 62
     5
 63
     7
421
 16777215
 74
     1
 91
        4
 64
     7
 65
   257
 75
     1
175
     1
 42
1.0
 92
        8
 66
     7
 43
1.0
 76
     1
 77
     6
 78
     2
 67
     7
 79
     5
170
     0
171
     0
290
     0
174
     0
 93
        1
 44
0.0
173
     0
291
     1
 45
0.0
1001
ACAD
1000
AcDbSavedByObjectVersion
1070
     0
  0
VISUALSTYLE
  5
B0F2
102
{ACAD_REACTORS
330
B0F1
102
}
330
B0F1
100
AcDbVisualStyle
  2
Flat
 70
     0
 71
     2
 72
     1
 73
     1
 90
        2
 40
-0.6
 41
30.0
 62
     5
 63
     7
421
 16777215
 74
     0
 91
        4
 64
     7
 65
   257
 75
     1
175
     1
 42
1.0
 92
        8
 66
     7
 43
1.0
 76
     1
 77
     6
 78
     2
 67
     7
 79
     5
170
     0
171
     0
290
     0
174
     0
 93
       13
 44
0.0
173
     0
291
     1
 45
0.0
1001
ACAD
1000
AcDbSavedByObjectVersion
1070
     0
  0
VISUALSTYLE
  5
B0F3
102
{ACAD_REACTORS
330
B0F1
102
}
330
B0F1
100
AcDbVisualStyle
  2
FlatWithEdges
 70
     1
 71
     2
 72
     1
 73
     1
 90
        2
 40
-0.6
 41
30.0
 62
     5
 63
     7
421
 16777215
 74
     1
 91
        4
 64
     7
 65
   257
 75
     1
175
     1
 42
1.0
 92
        0
 66
   257
 43
1.0
 76
     1
 77
     6
 78
     2
 67
     7
 79
     5
170
     0
171
     0
290
     0
174
     0
 93
       13
 44
0.0
173
     0
291
     1
 45
0.0
1001
ACAD
1000
AcDbSavedByObjectVersion
1070
     0
  0
VISUALSTYLE
  5
B0F4
102
{ACAD_REACTORS
330
B0F1
102
}
330
B0F1
100
AcDbVisualStyle
  2
Gouraud
 70
     2
 71
     2
 72
     2
 73
     1
 90
        2
 40
-0.6
 41
30.0
 62
     5
 63
     7
421
 16777215
 74
     0
 91
        4
 64
     7
 65
   257
 75
     1
175
     1
 42
1.0
 92
        0
 66
     7
 43
1.0
 76
     1
 77
     6
 78
     2
 67
     7
 79
     5
170
     0
171
     0
290
     0
174
     0
 93
       13
 44
0.0
173
     0
291
     1
 45
0.0
1001
ACAD
1000
AcDbSavedByObjectVersion
1070
     0
  0
VISUALSTYLE
  5
B0F5
102
{ACAD_REACTORS
330
B0F1
102
}
330
B0F1
100
AcDbVisualStyle
  2
GouraudWithEdges
 70
     3
 71
     2
 72
     2
 73
     1
 90
        2
 40
-0.6
 41
30.0
 62
     5
 63
     7
421
 16777215
 74
     1
 91
        4
 64
     7
 65
   257
 75
     1
175
     1
 42
1.0
 92
        0
 66
   257
 43
1.0
 76
     1
 77
     6
 78
     2
 67
     7
 79
     5
170
     0
171
     0
290
     0
174
     0
 93
       13
 44
0.0
173
     0
291
     1
 45
0.0
1001
ACAD
1000
AcDbSavedByObjectVersion
1070
     0
  0
VISUALSTYLE
  5
B0FF
102
{ACAD_REACTORS
330
B0F1
102
}
330
B0F1
100
AcDbVisualStyle
  2
Linepattern
 70
    14
 71
     2
 72
     2
 73
     0
 90
        0
 40
-0.6
 41
-30.0
 62
     5
 63
     7
421
 16777215
 74
     1
 91
        4
 64
     7
 65
   257
 75
     7
175
     7
 42
1.0
 92
        8
 66
     7
 43
1.0
 76
     1
 77
     6
 78
     2
 67
     7
 79
     5
170
     0
171
     0
290
     0
174
     0
 93
        1
 44
0.0
173
     0
291
     1
 45
0.0
1001
ACAD
1000
AcDbSavedByObjectVersion
1070
     0
  0
VISUALSTYLE
  5
B0FB
102
{ACAD_REACTORS
330
B0F1
102
}
330
B0F1
100
AcDbVisualStyle
  2
Realistic
 70
     8
 71
     2
 72
     2
 73
     0
 90
        0
 40
-0.6
 41
-30.0
 62
     5
 63
     7
421
 16777215
 74
     1
 91
        0
 64
     7
 65
   257
 75
     1
175
     1
 42
1.0
 92
        8
 66
     8
424
  7895160
 43
1.0
 76
     1
 77
     6
 78
     2
 67
     7
 79
     5
170
     0
171
     0
290
     0
174
     0
 93
       13
 44
0.0
173
     0
291
     0
 45
0.0
1001
ACAD
1000
AcDbSavedByObjectVersion
1070
     0
  0
VISUALSTYLE
  5
B0FE
102
{ACAD_REACTORS
330
B0F1
102
}
330
B0F1
100
AcDbVisualStyle
  2
Thicken
 70
    13
 71
     2
 72
     2
 73
     0
 90
        0
 40
-0.6
 41
-30.0
 62
     5
 63
     7
421
 16777215
 74
     1
 91
        4
 64
     7
 65
   257
 75
     1
175
     1
 42
1.0
 92
       12
 66
     7
 43
1.0
 76
     1
 77
     6
 78
     2
 67
     7
 79
     5
170
     0
171
     0
290
     0
174
     0
 93
        1
 44
0.0
173
     0
291
     1
 45
0.0
1001
ACAD
1000
AcDbSavedByObjectVersion
1070
     0
  0
DICTIONARYVAR
  5
AAF3
102
{ACAD_REACTORS
330
34
102
}
330
34
100
DictionaryVariables
280
     0
  1
STANDARD
  0
DICTIONARYVAR
  5
A10C
102
{ACAD_REACTORS
330
34
102
}
330
34
100
DictionaryVariables
280
     0
  1
1
  0
DICTIONARYVAR
  5
AB07
102
{ACAD_REACTORS
330
34
102
}
330
34
100
DictionaryVariables
280
     0
  1
4
  0
DICTIONARYVAR
  5
EB56
102
{ACAD_REACTORS
330
34
102
}
330
34
100
DictionaryVariables
280
     0
  1
0.000000;0.000000
  0
DICTIONARYVAR
  5
35
102
{ACAD_REACTORS
330
34
102
}
330
34
100
DictionaryVariables
280
     0
  1
1
  0
DICTIONARYVAR
  5
194C
102
{ACAD_REACTORS
330
34
102
}
330
34
100
DictionaryVariables
280
     0
  1
96
  0
DICTIONARY
  5
7E8
102
{ACAD_REACTORS
330
47
102
}
330
47
100
AcDbDictionary
281
     1
  0
DICTIONARY
  5
4C
102
{ACAD_REACTORS
330
47
102
}
330
47
100
AcDbDictionary
281
     1
  0
XRECORD
  5
A929
102
{ACAD_REACTORS
330
47
102
}
330
47
100
AcDbXrecord
280
     1
 90
-1023410169
  0
XRECORD
  5
B332
102
{ACAD_REACTORS
330
B331
102
}
330
B331
100
AcDbXrecord
280
     1
  0
XRECORD
  5
3FB7
102
{ACAD_REACTORS
330
3F96
102
}
330
3F96
100
AcDbXrecord
280
     1
 91
        3
330
0
 90
        8
 62
     7
370
    40
331
16
  1
Color_7
330
0
 90
        0
 62
    14
370
    -3
331
16
  1
Color_14
330
0
 90
        8
 62
     7
370
    20
331
16
  1
Color_7
330
6D1
 90
        0
 62
     7
370
    -3
331
16
  1
Color_7
330
0
 90
        8
 62
     7
370
    50
331
16
  1
Color_7
330
0
 90
        8
 62
     2
370
    35
331
16
  1
Color_2
330
0
 90
        8
 62
     7
370
    -3
331
16
  1
Color_7
330
10
 90
        8
 62
     7
370
    -3
331
16
  1
Color_7
  0
DICTIONARY
  5
551C5
330
B0EF
100
AcDbDictionary
280
     1
281
     1
  3
ACAD_XREC_ROUNDTRIP
360
551C6
  0
DICTIONARY
  5
551C3
330
B0EE
100
AcDbDictionary
280
     1
281
     1
  3
ACAD_XREC_ROUNDTRIP
360
551C4
  0
DICTIONARY
  5
551C7
330
B0F0
100
AcDbDictionary
280
     1
281
     1
  3
ACAD_XREC_ROUNDTRIP
360
551C8
  0
DICTIONARY
  5
551C1
330
AABA
100
AcDbDictionary
280
     1
281
     1
  3
ACAD_XREC_ROUNDTRIP
360
551C2
  0
XRECORD
  5
551C6
102
{ACAD_REACTORS
330
551C5
102
}
330
551C5
100
AcDbXrecord
280
     1
102
MATERIAL
148
0.0
149
0.0
149
0.0
 93
        0
 94
       63
282
     0
 72
     1
 77
     1
171
     1
175
     1
179
     1
273
     0
  0
XRECORD
  5
551C4
102
{ACAD_REACTORS
330
551C3
102
}
330
551C3
100
AcDbXrecord
280
     1
102
MATERIAL
148
0.0
149
0.0
149
0.0
 93
        0
 94
       63
282
     0
 72
     1
 77
     1
171
     1
175
     1
179
     1
273
     0
  0
XRECORD
  5
551C8
102
{ACAD_REACTORS
330
551C7
102
}
330
551C7
100
AcDbXrecord
280
     1
102
MATERIAL
148
0.0
149
0.0
149
0.0
 93
        0
 94
       63
282
     0
 72
     1
 77
     1
171
     1
175
     1
179
     1
273
     0
  0
XRECORD
  5
551C2
102
{ACAD_REACTORS
330
551C1
102
}
330
551C1
100
AcDbXrecord
280
     1
102
ACAD_ROUNDTRIP_PRE2007_TABLESTYLE
 90
        4
 91
        0
  1

 92
        4
 93
        0
  2

 94
        4
 95
        0
  3

  0
ENDSEC
  0
EOF
