  0
SECTION
  2
HEADER
  9
$ACADVER
  1
AC1015
  9
$ACADMAINTVER
 70
     6
  9
$DWGCODEPAGE
  3
ANSI_932
  9
$INSBASE
 10
0.0
 20
0.0
 30
0.0
  9
$EXTMIN
 10
0.0
 20
0.0
 30
0.0
  9
$EXTMAX
 10
420.0000007332276
 20
296.9999999999999
 30
0.0
  9
$LIMMIN
 10
1700.85588156276
 20
1647.985052086429
  9
$LIMMAX
 10
1997.85588156276
 20
1857.985052086429
  9
$ORTHOMODE
 70
     0
  9
$REGENMODE
 70
     1
  9
$FILLMODE
 70
     1
  9
$QTEXTMODE
 70
     0
  9
$MIRRTEXT
 70
     0
  9
$LTSCALE
 40
1.0
  9
$ATTMODE
 70
     1
  9
$TEXTSIZE
 40
3.2
  9
$TRACEWID
 40
1.0
  9
$TEXTSTYLE
  7
STANDARD
  9
$CLAYER
  8
AM_6
  9
$CELTYPE
  6
ByLayer
  9
$CECOLOR
 62
   256
  9
$CELTSCALE
 40
1.0
  9
$DISPSILH
 70
     0
  9
$DIMSCALE
 40
1.0
  9
$DIMASZ
 40
1.0
  9
$DIMEXO
 40
1.0
  9
$DIMDLI
 40
10.0
  9
$DIMRND
 40
0.0
  9
$DIMDLE
 40
0.0
  9
$DIMEXE
 40
1.0
  9
$DIMTP
 40
0.1
  9
$DIMTM
 40
0.1
  9
$DIMTXT
 40
3.5
  9
$DIMCEN
 40
0.0
  9
$DIMTSZ
 40
0.0
  9
$DIMTOL
 70
     0
  9
$DIMLIM
 70
     0
  9
$DIMTIH
 70
     0
  9
$DIMTOH
 70
     0
  9
$DIMSE1
 70
     0
  9
$DIMSE2
 70
     0
  9
$DIMTAD
 70
     1
  9
$DIMZIN
 70
     8
  9
$DIMBLK
  1

  9
$DIMASO
 70
     1
  9
$DIMSHO
 70
     1
  9
$DIMPOST
  1

  9
$DIMAPOST
  1
"
  9
$DIMALT
 70
     0
  9
$DIMALTD
 70
     2
  9
$DIMALTF
 40
0.0393701
  9
$DIMLFAC
 40
1.0
  9
$DIMTOFL
 70
     1
  9
$DIMTVP
 40
0.0
  9
$DIMTIX
 70
     0
  9
$DIMSOXD
 70
     0
  9
$DIMSAH
 70
     0
  9
$DIMBLK1
  1

  9
$DIMBLK2
  1

  9
$DIMSTYLE
  2
SYS
  9
$DIMCLRD
 70
   256
  9
$DIMCLRE
 70
   256
  9
$DIMCLRT
 70
     7
  9
$DIMTFAC
 40
0.71
  9
$DIMGAP
 40
1.5
  9
$DIMJUST
 70
     0
  9
$DIMSD1
 70
     0
  9
$DIMSD2
 70
     0
  9
$DIMTOLJ
 70
     0
  9
$DIMTZIN
 70
     8
  9
$DIMALTZ
 70
     0
  9
$DIMALTTZ
 70
     0
  9
$DIMUPT
 70
     0
  9
$DIMDEC
 70
     2
  9
$DIMTDEC
 70
     2
  9
$DIMALTU
 70
     2
  9
$DIMALTTD
 70
     2
  9
$DIMTXSTY
  7
STANDARD
  9
$DIMAUNIT
 70
     0
  9
$DIMADEC
 70
     0
  9
$DIMALTRND
 40
0.0
  9
$DIMAZIN
 70
     2
  9
$DIMDSEP
 70
    46
  9
$DIMATFIT
 70
     3
  9
$DIMFRAC
 70
     0
  9
$DIMLDRBLK
  1

  9
$DIMLUNIT
 70
     2
  9
$DIMLWD
 70
    -1
  9
$DIMLWE
 70
    -1
  9
$DIMTMOVE
 70
     0
  9
$LUNITS
 70
     2
  9
$LUPREC
 70
     2
  9
$SKETCHINC
 40
1.0
  9
$FILLETRAD
 40
0.0
  9
$AUNITS
 70
     0
  9
$AUPREC
 70
     0
  9
$MENU
  1
.
  9
$ELEVATION
 40
0.0
  9
$PELEVATION
 40
0.0
  9
$THICKNESS
 40
0.0
  9
$LIMCHECK
 70
     0
  9
$CHAMFERA
 40
0.0
  9
$CHAMFERB
 40
0.0
  9
$CHAMFERC
 40
20.0
  9
$CHAMFERD
 40
0.0
  9
$SKPOLY
 70
     0
  9
$TDCREATE
 40
2455832.44041522
  9
$TDUCREATE
 40
2455832.06541522
  9
$TDUPDATE
 40
2459741.923448935
  9
$TDUUPDATE
 40
2459741.548448935
  9
$TDINDWG
 40
0.2333040509
  9
$TDUSRTIMER
 40
0.2333026273
  9
$USRTIMER
 70
     1
  9
$ANGBASE
 50
0.0
  9
$ANGDIR
 70
     0
  9
$PDMODE
 70
     0
  9
$PDSIZE
 40
-3.0
  9
$PLINEWID
 40
0.0
  9
$SPLFRAME
 70
     0
  9
$SPLINETYPE
 70
     6
  9
$SPLINESEGS
 70
     8
  9
$HANDSEED
  5
BFD8
  9
$SURFTAB1
 70
     6
  9
$SURFTAB2
 70
     6
  9
$SURFTYPE
 70
     6
  9
$SURFU
 70
     6
  9
$SURFV
 70
     6
  9
$UCSBASE
  2

  9
$UCSNAME
  2

  9
$UCSORG
 10
0.0
 20
0.0
 30
0.0
  9
$UCSXDIR
 10
1.0
 20
0.0
 30
0.0
  9
$UCSYDIR
 10
0.0
 20
1.0
 30
0.0
  9
$UCSORTHOREF
  2

  9
$UCSORTHOVIEW
 70
     0
  9
$UCSORGTOP
 10
0.0
 20
0.0
 30
0.0
  9
$UCSORGBOTTOM
 10
0.0
 20
0.0
 30
0.0
  9
$UCSORGLEFT
 10
0.0
 20
0.0
 30
0.0
  9
$UCSORGRIGHT
 10
0.0
 20
0.0
 30
0.0
  9
$UCSORGFRONT
 10
0.0
 20
0.0
 30
0.0
  9
$UCSORGBACK
 10
0.0
 20
0.0
 30
0.0
  9
$PUCSBASE
  2

  9
$PUCSNAME
  2

  9
$PUCSORG
 10
0.0
 20
0.0
 30
0.0
  9
$PUCSXDIR
 10
1.0
 20
0.0
 30
0.0
  9
$PUCSYDIR
 10
0.0
 20
1.0
 30
0.0
  9
$PUCSORTHOREF
  2

  9
$PUCSORTHOVIEW
 70
     0
  9
$PUCSORGTOP
 10
0.0
 20
0.0
 30
0.0
  9
$PUCSORGBOTTOM
 10
0.0
 20
0.0
 30
0.0
  9
$PUCSORGLEFT
 10
0.0
 20
0.0
 30
0.0
  9
$PUCSORGRIGHT
 10
0.0
 20
0.0
 30
0.0
  9
$PUCSORGFRONT
 10
0.0
 20
0.0
 30
0.0
  9
$PUCSORGBACK
 10
0.0
 20
0.0
 30
0.0
  9
$USERI1
 70
     0
  9
$USERI2
 70
     0
  9
$USERI3
 70
     0
  9
$USERI4
 70
     0
  9
$USERI5
 70
     0
  9
$USERR1
 40
0.0
  9
$USERR2
 40
0.0
  9
$USERR3
 40
0.0
  9
$USERR4
 40
0.0
  9
$USERR5
 40
0.0
  9
$WORLDVIEW
 70
     1
  9
$SHADEDGE
 70
     3
  9
$SHADEDIF
 70
    70
  9
$TILEMODE
 70
     1
  9
$MAXACTVP
 70
    64
  9
$PINSBASE
 10
0.0
 20
0.0
 30
0.0
  9
$PLIMCHECK
 70
     0
  9
$PEXTMIN
 10
1.000000000000000E+20
 20
1.000000000000000E+20
 30
1.000000000000000E+20
  9
$PEXTMAX
 10
-1.000000000000000E+20
 20
-1.000000000000000E+20
 30
-1.000000000000000E+20
  9
$PLIMMIN
 10
-3.17498779296875
 20
-3.174999952316284
  9
$PLIMMAX
 10
293.4970092773438
 20
206.692492723465
  9
$UNITMODE
 70
     0
  9
$VISRETAIN
 70
     1
  9
$PLINEGEN
 70
     0
  9
$PSLTSCALE
 70
     1
  9
$TREEDEPTH
 70
  3020
  9
$CMLSTYLE
  2
Standard
  9
$CMLJUST
 70
     0
  9
$CMLSCALE
 40
20.0
  9
$PROXYGRAPHICS
 70
     1
  9
$MEASUREMENT
 70
     1
  9
$CELWEIGHT
370
    -1
  9
$ENDCAPS
280
     0
  9
$JOINSTYLE
280
     0
  9
$LWDISPLAY
290
     0
  9
$INSUNITS
 70
     4
  9
$HYPERLINKBASE
  1

  9
$STYLESHEET
  1
monochrome.ctb
  9
$XEDIT
290
     1
  9
$CEPSNTYPE
380
     0
  9
$PSTYLEMODE
290
     1
  9
$FINGERPRINTGUID
  2
{0D6FE5EF-8AFE-40E8-A6D4-1919F0FEA2C4}
  9
$VERSIONGUID
  2
{26A15757-473D-4D12-844D-610D6E0CAB70}
  9
$EXTNAMES
290
     1
  9
$PSVPSCALE
 40
0.0
  9
$OLESTARTUP
290
     0
  0
ENDSEC
  0
SECTION
  2
CLASSES
  0
CLASS
  1
ACDBDICTIONARYWDFLT
  2
AcDbDictionaryWithDefault
  3
ObjectDBX Classes
 90
        0
280
     0
281
     0
  0
CLASS
  1
ACDBPLACEHOLDER
  2
AcDbPlaceHolder
  3
ObjectDBX Classes
 90
        0
280
     0
281
     0
  0
CLASS
  1
LAYOUT
  2
AcDbLayout
  3
ObjectDBX Classes
 90
        0
280
     0
281
     0
  0
CLASS
  1
AMGSETTINGSOBJ
  2
AmgSettingsObj
  3
AmgSettingsObj|...|...
 90
        0
280
     0
281
     0
  0
CLASS
  1
ACME_DOCUMENT
  2
AcMeDbDoc
  3
AcMeServices
 90
        0
280
     1
281
     0
  0
CLASS
  1
ACMESCOPE
  2
AcMeScope
  3
AcMeScope|...|...
 90
        0
280
     0
281
     0
  0
CLASS
  1
ACMECOMMANDHISTORY
  2
AcMeCommandHistory
  3
AcMeServices
 90
        0
280
     1
281
     0
  0
CLASS
  1
DICTIONARYVAR
  2
AcDbDictionaryVar
  3
ObjectDBX Classes
 90
        0
280
     0
281
     0
  0
CLASS
  1
ACIMSYSVARMAN
  2
AcImSysVarManager
  3
AcImSysVarManager|...|...
 90
        0
280
     0
281
     0
  0
CLASS
  1
ACIMREALSYSVAR
  2
AcImRealSysVar
  3
AcMeServices
 90
        0
280
     1
281
     0
  0
CLASS
  1
ACIMINTSYSVAR
  2
AcImIntSysVar
  3
AcImIntSysVar|...|...
 90
        0
280
     0
281
     0
  0
CLASS
  1
ACMEDRAWINGMAN
  2
AcMeDrawingMan
  3
AcMeServices
 90
        0
280
     1
281
     0
  0
CLASS
  1
ACMEVIEW
  2
AcMeView
  3
AcMeServices
 90
        0
280
     1
281
     0
  0
CLASS
  1
ACDBENTITYCACHE
  2
AcMeEntityCache
  3
AcMeServices
 90
        0
280
     1
281
     0
  0
CLASS
  1
GSMANAGER
  2
AcMeGSManager
  3
AcMeServices
 90
        0
280
     1
281
     0
  0
CLASS
  1
AMDTINTERNALREACTOR
  2
AmdtInternalReactor
  3
AcMeServices
 90
        0
280
     1
281
     0
  0
CLASS
  1
ACMESTATEMGR
  2
AcMeStateMgr
  3
AcMeStateMgr|...|...
 90
        0
280
     0
281
     0
  0
CLASS
  1
ACGREFMASTER
  2
AcGrefMaster
  3
AcAttribServices
 90
        0
280
     1
281
     0
  0
CLASS
  1
ACME_DATABASE
  2
AcMeDbDatabase
  3
AcMeServices
 90
        0
280
     1
281
     0
  0
CLASS
  1
ACRFINSADJUSTERMGR
  2
AcRfInsAdjusterMgr
  3
AcMeServices
 90
        0
280
     1
281
     0
  0
CLASS
  1
ACGREFACADMASTER
  2
AcGrefacadMaster
  3
AcGrefServices
 90
        0
280
     1
281
     0
  0
CLASS
  1
AMIMASTER
  2
AmiMaster
  3
AmiServices
 90
        0
280
     1
281
     0
  0
CLASS
  1
ACMDATADICTIONARY
  2
AcmDataDictionary
  3
AcmDataDictionary|...|...
 90
        0
280
     0
281
     0
  0
CLASS
  1
ACMDATAENTRYBLOCK
  2
AcmDataEntryBlock
  3
AcmDataEntryBlock|...|...
 90
        0
280
     0
281
     0
  0
CLASS
  1
ACIMSTRSYSVAR
  2
AcImStrSysVar
  3
AcImStrSysVar|...|...
 90
        0
280
     0
281
     0
  0
CLASS
  1
ACMSTANDARDISO
  2
AcmStandardISO
  3
AcmStandardISO|...|...
 90
        0
280
     0
281
     0
  0
CLASS
  1
AMGOBJPROPCFG
  2
AmgObjPropCfg
  3
AmgObjPropCfg|...|...
 90
        0
280
     0
281
     0
  0
CLASS
  1
AMDTEDGESTANDARDISO
  2
AmdtEdgeStdISO
  3
AmdtEdgeStdISO|...|...
 90
        0
280
     0
281
     0
  0
CLASS
  1
ACMSURFSTANDARDISO
  2
AcmSurfTextStdISO
  3
AcmSurfTextStdISO|...|...
 90
        0
280
     0
281
     0
  0
CLASS
  1
ACMFCFSTANDARDISO
  2
AcmFCFStdISO
  3
AcmFCFStdISO|...|...
 90
        0
280
     0
281
     0
  0
CLASS
  1
ACMWELDSTANDARDISO
  2
AcmWeldingStdISO
  3
AcmWeldingStdISO|...|...
 90
        0
280
     0
281
     0
  0
CLASS
  1
ACMIDSTANDARDISO
  2
AcmIdStdISO
  3
AcmIdStdISO|...|...
 90
        0
280
     0
281
     0
  0
CLASS
  1
ACMDATUMSTANDARDISO
  2
AcmDatumStdISO
  3
AcmDatumStdISO|...|...
 90
        0
280
     0
281
     0
  0
CLASS
  1
ACMBOMSTANDARDISO
  2
AcmBOMStdISO
  3
AcmBOMStdISO|...|...
 90
        0
280
     0
281
     0
  0
CLASS
  1
ACMDETAILSTANDARDISO
  2
AmdtDetailSymStdISO
  3
AmdtDetailSymStdISO|...|...
 90
        0
280
     0
281
     0
  0
CLASS
  1
ACMSECTIONSTANDARDISO
  2
AmdtSectionSymStdISO
  3
AmdtSectionSymStdISO|...|...
 90
        0
280
     0
281
     0
  0
CLASS
  1
ACMCENTERLINESTANDARDISO
  2
AmdtCenterLineStdISO
  3
AmdtCenterLineStdISO|...|...
 90
        0
280
     0
281
     0
  0
CLASS
  1
ACAMGLAYSTD
  2
AcAmgLayStd
  3
AcAmgLayStd|...|...
 90
        0
280
     0
281
     0
  0
CLASS
  1
ACAMGDIMSTD
  2
AcAmgDimStd
  3
AcAmgDimStd|...|...
 90
        0
280
     0
281
     0
  0
CLASS
  1
ACAMGTITLESTD
  2
AcAmgTitleStd
  3
AcAmgTitleStd|...|...
 90
        0
280
     0
281
     0
  0
CLASS
  1
ACAMGFILTERDAT
  2
AcAmgFilterDat
  3
"AcadM|Product Description: AutoCAD Mechanical|Company: Autodesk"
 90
        0
280
     1
281
     0
  0
CLASS
  1
LAYER_INDEX
  2
AcDbLayerIndex
  3
ObjectDBX Classes
 90
        0
280
     0
281
     0
  0
CLASS
  1
IDBUFFER
  2
AcDbIdBuffer
  3
ObjectDBX Classes
 90
        0
280
     0
281
     0
  0
CLASS
  1
PLOTSETTINGS
  2
AcDbPlotSettings
  3
ObjectDBX Classes
 90
        0
280
     0
281
     0
  0
CLASS
  1
AMDTFORMULAUPDATEDISPATCHER
  2
AmdtFormulaUpdateDispatcher
  3
AcMeServices
 90
        0
280
     1
281
     0
  0
CLASS
  1
ACMSTANDARDANSI
  2
AcmStandardANSI
  3
AcmStandardANSI|...|...
 90
        0
280
     0
281
     0
  0
CLASS
  1
ACMSURFSTANDARDANSI
  2
AcmSurfTextStdANSI
  3
AcmSurfTextStdANSI|...|...
 90
        0
280
     0
281
     0
  0
CLASS
  1
ACMFCFSTANDARDANSI
  2
AcmFCFStdANSI
  3
AcmFCFStdANSI|...|...
 90
        0
280
     0
281
     0
  0
CLASS
  1
ACMWELDSTANDARDANSI
  2
AcmWeldingStdANSI
  3
AcmWeldingStdANSI|...|...
 90
        0
280
     0
281
     0
  0
CLASS
  1
ACMIDSTANDARDANSI
  2
AcmIdStdANSI
  3
AcmIdStdANSI|...|...
 90
        0
280
     0
281
     0
  0
CLASS
  1
ACMDATUMSTANDARDANSI
  2
AcmDatumStdANSI
  3
AcmDatumStdANSI|...|...
 90
        0
280
     0
281
     0
  0
CLASS
  1
ACMBOMSTANDARDANSI
  2
AcmBOMStdANSI
  3
AcmBOMStdANSI|...|...
 90
        0
280
     0
281
     0
  0
CLASS
  1
ACMDETAILSTANDARDANSI
  2
AmdtDetailSymStdANSI
  3
AmdtDetailSymStdANSI|...|...
 90
        0
280
     0
281
     0
  0
CLASS
  1
ACMSECTIONSTANDARDANSI
  2
AmdtSectionSymStdANSI
  3
AmdtSectionSymStdANSI|...|...
 90
        0
280
     0
281
     0
  0
CLASS
  1
ACMCENTERLINESTANDARDANSI
  2
AmdtCenterLineStdANSI
  3
AmdtCenterLineStdANSI|...|...
 90
        0
280
     0
281
     0
  0
CLASS
  1
ACMBOM
  2
AcmBom
  3
AcmBom|...|...
 90
        0
280
     0
281
     0
  0
CLASS
  1
ACMDATAENTRYPART
  2
AcmDataEntryPart
  3
AcmDataEntryPart|...|...
 90
        0
280
     0
281
     0
  0
CLASS
  1
ACMPARTREF
  2
AcmPartRef
  3
AcmPartRef|...|...
 90
        0
280
     0
281
     1
  0
CLASS
  1
ACDBCIRCARCRES
  2
AcDbCircArcRes
  3
AcDbCircArcRes|...|...
 90
        0
280
     0
281
     0
  0
CLASS
  1
ACMBOMROW
  2
AcmBomRow
  3
AcmBomRow|...|...
 90
        0
280
     0
281
     0
  0
CLASS
  1
ACMBALLOON
  2
AcmBalloon
  3
AcmBalloon|...|...
 90
        0
280
     0
281
     1
  0
CLASS
  1
AMDTNOTE
  2
AmdtNote
  3
AmdtNote|...|...
 90
        0
280
     0
281
     1
  0
CLASS
  1
STDPART2D
  2
AmgStdPart
  3
AmgStdPart|...|...
 90
        0
280
     0
281
     1
  0
CLASS
  1
ACDBSTDPARTRES_LINE
  2
AcDbStdPartRes_Line
  3
AcDbStdPartRes_Line|...|...
 90
        0
280
     0
281
     0
  0
CLASS
  1
ACMDATAENTRY
  2
AcmDataEntry
  3
AcmDataEntry|...|...
 90
        0
280
     0
281
     0
  0
CLASS
  1
ACDBOPPOLYLINERES
  2
AcDbOpPolylineRes
  3
AcDbOpPolylineRes|...|...
 90
        0
280
     0
281
     0
  0
CLASS
  1
ACMPARTLIST
  2
AcmPartList
  3
AcmPartList|...|...
 90
        0
280
     0
281
     1
  0
CLASS
  1
ACDBLINERES
  2
AcDbLineRes
  3
AcDbLineRes|...|...
 90
        0
280
     0
281
     0
  0
CLASS
  1
ACRFINSADJ
  2
AcRfInsAdjuster
  3
AcRfInsAdjuster|...|...
 90
        0
280
     0
281
     0
  0
CLASS
  1
AM_DRAWING_MGR
  2
AcDmDwgMgr
  3
AcMechDwgViewMgmt
 90
        0
280
     1
281
     0
  0
CLASS
  1
AM_DWG_DOCUMENT
  2
AcDmDwgDocument
  3
AcMechDwgViewMgmt
 90
        0
280
     1
281
     0
  0
CLASS
  1
AM_DWG_SHEET
  2
AcDmSheet
  3
AcMechDwgViewMgmt
 90
        0
280
     1
281
     0
  0
CLASS
  1
AM_VIEWDIMPARMAP
  2
AcDmViewDimParMap
  3
AcMechDwgViewMgmt
 90
        0
280
     1
281
     0
  0
CLASS
  1
AM_DWGMGR_NAME
  2
AcDmDwgMgrName
  3
AcMechDwgViewMgmt
 90
        0
280
     1
281
     0
  0
CLASS
  1
AMDTMENUSTATEMGR
  2
AmdtMenuStateMgr
  3
McadcomServices
 90
        0
280
     1
281
     0
  0
CLASS
  1
AMDTMCOMMENUSTATE
  2
AmdtMcomMenuState
  3
McadcomServices
 90
        0
280
     1
281
     0
  0
CLASS
  1
ASAPP
  2
AcAsAppObject
  3
AutoSurfServices
 90
        0
280
     1
281
     0
  0
CLASS
  1
IM_STATIC_MAN
  2
AcImStaticVarManager
  3
AcMeServices
 90
        0
280
     1
281
     0
  0
CLASS
  1
ACIMDBLSTATICVAR
  2
AcImDblStaticVar
  3
AcMeServices
 90
        0
280
     1
281
     0
  0
CLASS
  1
ACIMSTRSTATICVAR
  2
AcImStrStaticVar
  3
AcMeServices
 90
        0
280
     1
281
     0
  0
CLASS
  1
ACIMINTSTATICVAR
  2
AcImIntStaticVar
  3
AcMeServices
 90
        0
280
     1
281
     0
  0
CLASS
  1
ACASGREFMASTER
  2
AcAsGrefMaster
  3
AutoSurfResolverServices
 90
        0
280
     1
281
     0
  0
CLASS
  1
ACADGREFMODULE
  2
AcAdGrefModule
  3
AdGrefServices
 90
        0
280
     1
281
     0
  0
CLASS
  1
AMDTMAPISURFMOUDULE
  2
AmdtMApiSurfModule
  3
MApiSurfServices
 90
        0
280
     1
281
     0
  0
CLASS
  1
MAPIAMMOUDLE
  2
MApiAmModule
  3
MApiAmServices
 90
        0
280
     1
281
     0
  0
CLASS
  1
AMDTADMENUSTATE
  2
AmdtAdMenuState
  3
DesignerServices
 90
        0
280
     1
281
     0
  0
CLASS
  1
ADAPPL
  2
AcAdAppl
  3
DesignerServices
 90
        0
280
     1
281
     0
  0
CLASS
  1
DEPMGR
  2
AcAdDepMgr
  3
DesignerServices
 90
        0
280
     1
281
     0
  0
CLASS
  1
PARAMMGR
  2
AcAdParamMgr
  3
DesignerServices
 90
        0
280
     1
281
     0
  0
CLASS
  1
PARAMSCOPE
  2
AcAdParamScope
  3
DesignerServices
 90
        0
280
     1
281
     0
  0
CLASS
  1
NAMEDAPPL
  2
AcAdNamedAppl
  3
DesignerServices
 90
        0
280
     1
281
     0
  0
CLASS
  1
ADHNTMPLT
  2
AdHoleNoteTemplateMgr
  3
DesignerServices
 90
        0
280
     1
281
     0
  0
CLASS
  1
AM_HNTEMPLATE_MGR_NAME
  2
AdHoleNoteTemplateMgrName
  3
DesignerServices
 90
        0
280
     1
281
     0
  0
CLASS
  1
AMDTDMMENUSTATE
  2
AmdtDmMenuState
  3
AcMechDwgViewMgmt
 90
        0
280
     1
281
     0
  0
CLASS
  1
MAPIADMODULE
  2
MApiAdModule
  3
MApiAdServices
 90
        0
280
     1
281
     0
  0
CLASS
  1
AMDTAMMENUSTATE
  2
AmdtAmMenuState
  3
DesignerAssemblies
 90
        0
280
     1
281
     0
  0
CLASS
  1
ACAMPROJECT
  2
AcAmProject
  3
AcAmProject|...|...
 90
        0
280
     0
281
     0
  0
CLASS
  1
ACAMGRCOMPDEF
  2
AcAmGrCompDef
  3
AcAmGrCompDef|...|...
 90
        0
280
     0
281
     0
  0
CLASS
  1
ACCMCONTEXT
  2
AcCmContext
  3
DesignerAssemblies
 90
        0
280
     1
281
     0
  0
CLASS
  1
ACAMCOMPDEF
  2
AcAmCompDef
  3
AcAmCompDef|...|...
 90
        0
280
     0
281
     0
  0
CLASS
  1
ACAMCOMPDEFMGR
  2
AcAmCompDefMgr
  3
AcAmCompDefMgr|...|...
 90
        0
280
     0
281
     0
  0
CLASS
  1
ACAMCONTEXTMGR
  2
AcAmContextMgr
  3
AcAmContextMgr|...|...
 90
        0
280
     0
281
     0
  0
CLASS
  1
ACAMCONTEXTMODELER
  2
AcAmContextModeler
  3
AcAmContextModeler|...|...
 90
        0
280
     0
281
     0
  0
CLASS
  1
CATALOGSTATE
  2
AcAmCatalogState
  3
DesignerAssemblies
 90
        0
280
     1
281
     0
  0
CLASS
  1
ACAMGRCOMPDEFSET
  2
AcAmGrCompDefSet
  3
DesignerAssemblies
 90
        0
280
     1
281
     0
  0
CLASS
  1
AMDTBROWSERDBTAB
  2
AmdtBrowserDbTab
  3
McadcomServices
 90
        0
280
     1
281
     0
  0
CLASS
  1
CBROWSERAPPOBJECT
  2
CBrowserAppObject
  3
McadcomServices
 90
        0
280
     1
281
     0
  0
CLASS
  1
DM_PLACEHOLDER
  2
AcDmSelsetPlaceholder
  3
AcMechDwgViewMgmt
 90
        0
280
     1
281
     0
  0
CLASS
  1
ACMPICKOBJ
  2
AcmPickEnt
  3
"AcmSymBB|Product Description: AutoCAD Mechanical|Company: Autodesk"
 90
        0
280
     1
281
     1
  0
CLASS
  1
ACMNOTESTANDARDISO
  2
AmdtNoteStdISO
  3
AmdtNoteStdISO|...|...
 90
        0
280
     0
281
     0
  0
CLASS
  1
ACMNOTESTANDARDANSI
  2
AmdtNoteStdANSI
  3
AmdtNoteStdANSI|...|...
 90
        0
280
     0
281
     0
  0
CLASS
  1
ACMTHREADLINESTANDARDISO
  2
AmdtThreadLineStdISO
  3
AmdtThreadLineStdISO|...|...
 90
        0
280
     0
281
     0
  0
CLASS
  1
ACMTHREADLINESTANDARDANSI
  2
AmdtThreadLineStdANSI
  3
AmdtThreadLineStdANSI|...|...
 90
        0
280
     0
281
     0
  0
CLASS
  1
TABLESTYLE
  2
AcDbTableStyle
  3
ObjectDBX Classes
 90
     4095
280
     0
281
     0
  0
CLASS
  1
SORTENTSTABLE
  2
AcDbSortentsTable
  3
ObjectDBX Classes
 90
        0
280
     0
281
     0
  0
CLASS
  1
MATERIAL
  2
AcDbMaterial
  3
ObjectDBX Classes
 90
     1153
280
     0
281
     0
  0
CLASS
  1
VISUALSTYLE
  2
AcDbVisualStyle
  3
ObjectDBX Classes
 90
     4095
280
     0
281
     0
  0
CLASS
  1
ACRFATTGENMGR
  2
AcRfAttGeneralMgr
  3
AcAttribServices
 90
        0
280
     1
281
     0
  0
CLASS
  1
ACRFOBJATTMGR
  2
AcRfObjAttGroupMgr
  3
AcAttribServices
 90
        0
280
     1
281
     0
  0
CLASS
  1
ACRFMCADAPIATTHOLDER
  2
AcRfMCADAPIAttHolder
  3
AcAttribServices
 90
        0
280
     1
281
     0
  0
CLASS
  1
AMDTSYSATTR
  2
AmdtSystemAttribute
  3
AmdtSystemAttribute|...|...
 90
        0
280
     0
281
     0
  0
CLASS
  1
ACMTAPERSTANDARDISO
  2
AcmTaperStdISO
  3
AcmTaperStdISO|...|...
 90
        0
280
     0
281
     0
  0
CLASS
  1
CAMSSTRUCTBTNSTATE
  2
StructBtnState
  3
L"DesignerAssemblies"
 90
        0
280
     1
281
     0
  0
CLASS
  1
DIMASSOC
  2
AcDbDimAssoc
  3
"AcDbDimAssoc|Product Desc:     AcDim ARX App For Dimension|Company:          Autodesk, Inc.|WEB Address:      www.autodesk.com"
 90
        0
280
     0
281
     0
  0
CLASS
  1
AMDTNOTETEMPLATEDB
  2
AmdtNoteTemplateDB
  3
AmdtNoteTemplateDB|...|...
 90
        0
280
     0
281
     0
  0
CLASS
  1
ACMTAPERSTANDARDANSI
  2
AcmTaperStdANSI
  3
AcmTaperStdANSI|...|...
 90
        0
280
     0
281
     0
  0
CLASS
  1
ACAMGHOLECHARTSTDANSI
  2
AcAmgHoleChartStdANSI
  3
AcAmgHoleChartStdANSI|...|...
 90
        0
280
     0
281
     0
  0
CLASS
  1
ACDBLINERES
  2
AcDbDimensionRes
  3
AcDbDimensionRes|...|...
 90
        0
280
     0
281
     0
  0
CLASS
  1
SCALE
  2
AcDbScale
  3
ObjectDBX Classes
 90
     1153
280
     0
281
     0
  0
CLASS
  1
ACDBSECTIONVIEWSTYLE
  2
AcDbSectionViewStyle
  3
ObjectDBX Classes
 90
     1025
280
     0
281
     0
  0
CLASS
  1
ACDBDETAILVIEWSTYLE
  2
AcDbDetailViewStyle
  3
ObjectDBX Classes
 90
     1025
280
     0
281
     0
  0
CLASS
  1
MLEADERSTYLE
  2
AcDbMLeaderStyle
  3
ACDB_MLEADERSTYLE_CLASS
 90
     4095
280
     0
281
     0
  0
ENDSEC
  0
SECTION
  2
TABLES
  0
TABLE
  2
VPORT
  5
8
102
{ACAD_XDICTIONARY
360
BF98
102
}
330
0
100
AcDbSymbolTable
 70
     1
  0
VPORT
  5
B0EC
330
8
100
AcDbSymbolTableRecord
100
AcDbViewportTableRecord
  2
*Active
 70
     0
 10
0.0
 20
0.0
 11
1.0
 21
1.0
 12
210.0000003666138
 22
148.5
 13
0.0
 23
0.0
 14
2.5
 24
2.5
 15
10.0
 25
10.0
 16
0.0
 26
0.0
 36
1.0
 17
0.0
 27
0.0
 37
0.0
 40
299.7595818815331
 41
1.993095512082854
 42
50.0
 43
-1370.695619172059
 44
-1370.695619172059
 50
0.0
 51
0.0
 71
    16
 72
   100
 73
     1
 74
     3
 75
     0
 76
     0
 77
     0
 78
     0
281
     0
 65
     0
110
0.0
120
0.0
130
0.0
111
1.0
121
0.0
131
0.0
112
0.0
122
1.0
132
0.0
 79
     0
146
0.0
  0
ENDTAB
  0
TABLE
  2
LTYPE
  5
5
330
0
100
AcDbSymbolTable
 70
    34
  0
LTYPE
  5
14
330
5
100
AcDbSymbolTableRecord
100
AcDbLinetypeTableRecord
  2
ByBlock
 70
     0
  3

 72
    65
 73
     0
 40
0.0
  0
LTYPE
  5
15
330
5
100
AcDbSymbolTableRecord
100
AcDbLinetypeTableRecord
  2
ByLayer
 70
     0
  3

 72
    65
 73
     0
 40
0.0
  0
LTYPE
  5
16
330
5
100
AcDbSymbolTableRecord
100
AcDbLinetypeTableRecord
  2
Continuous
 70
     0
  3
Solid line
 72
    65
 73
     0
 40
0.0
  0
LTYPE
  5
4F
330
5
100
AcDbSymbolTableRecord
100
AcDbLinetypeTableRecord
  2
AM_ISO02W050
 70
     0
  3
__ __ __ __ __ __ __ __ __ __ __ __ __ __ __
 72
    65
 73
     2
 40
7.5
 49
6.0
 74
     0
 49
-1.5
 74
     0
  0
LTYPE
  5
52
330
5
100
AcDbSymbolTableRecord
100
AcDbLinetypeTableRecord
  2
Amconstr
 70
     0
  3
_______________________
 72
    65
 73
     2
 40
9999.0
 49
9999.0
 74
     0
 49
0.0
 74
     0
  0
LTYPE
  5
64
330
5
100
AcDbSymbolTableRecord
100
AcDbLinetypeTableRecord
  2
ACISOWELD
 70
     0
  3
_ _ _ _ _
 72
    65
 73
     2
 40
2.0
 49
2.0
 74
     0
 49
-1.0
 74
     0
  0
LTYPE
  5
65
330
5
100
AcDbSymbolTableRecord
100
AcDbLinetypeTableRecord
  2
ACISOTGB
 70
     0
  3
__ . . __ . .
 72
    65
 73
     6
 40
9.0
 49
4.0
 74
     0
 49
-1.0
 74
     0
 49
1.0
 74
     0
 49
-1.0
 74
     0
 49
1.0
 74
     0
 49
-1.0
 74
     0
  0
LTYPE
  5
66
330
5
100
AcDbSymbolTableRecord
100
AcDbLinetypeTableRecord
  2
ACISOTGL
 70
     0
  3
_ _ _ _ _
 72
    65
 73
     2
 40
3.0
 49
2.0
 74
     0
 49
-1.0
 74
     0
  0
LTYPE
  5
69
330
5
100
AcDbSymbolTableRecord
100
AcDbLinetypeTableRecord
  2
CENTER
 70
     0
  3
__ . __
 72
    65
 73
     4
 40
7.0
 49
4.0
 74
     0
 49
-1.0
 74
     0
 49
1.0
 74
     0
 49
-1.0
 74
     0
  0
LTYPE
  5
A6E
330
5
100
AcDbSymbolTableRecord
100
AcDbLinetypeTableRecord
  2
PHANTOM2
 70
     0
  3
Phantom (.5x) ___ _ _ ___ _ _ ___ _ _ ___ _ _
 72
    65
 73
     6
 40
31.75
 49
15.875
 74
     0
 49
-3.175
 74
     0
 49
3.175
 74
     0
 49
-3.175
 74
     0
 49
3.175
 74
     0
 49
-3.175
 74
     0
  0
LTYPE
  5
4DED
330
5
100
AcDbSymbolTableRecord
100
AcDbLinetypeTableRecord
  2
中線
 70
     0
  3
___________________
 72
    65
 73
     2
 40
2.0
 49
1.0
 74
     0
 49
1.0
 74
     0
  0
LTYPE
  5
4DF6
330
5
100
AcDbSymbolTableRecord
100
AcDbLinetypeTableRecord
  2
細線
 70
     0
  3
___________________
 72
    65
 73
     2
 40
2.0
 49
1.0
 74
     0
 49
1.0
 74
     0
  0
LTYPE
  5
4DF7
330
5
100
AcDbSymbolTableRecord
100
AcDbLinetypeTableRecord
  2
太線
 70
     0
  3
___________________
 72
    65
 73
     2
 40
2.0
 49
1.0
 74
     0
 49
1.0
 74
     0
  0
LTYPE
  5
4EA7
330
5
100
AcDbSymbolTableRecord
100
AcDbLinetypeTableRecord
  2
文字
 70
     0
  3
_________________
 72
    65
 73
     2
 40
2.0
 49
1.0
 74
     0
 49
1.0
 74
     0
  0
LTYPE
  5
4EA9
330
5
100
AcDbSymbolTableRecord
100
AcDbLinetypeTableRecord
  2
寸法線
 70
     0
  3
________________
 72
    65
 73
     2
 40
2.0
 49
1.0
 74
     0
 49
1.0
 74
     0
  0
LTYPE
  5
4F12
330
5
100
AcDbSymbolTableRecord
100
AcDbLinetypeTableRecord
  2
ハッチング
 70
     0
  3
_________________
 72
    65
 73
     2
 40
2.0
 49
1.0
 74
     0
 49
1.0
 74
     0
  0
LTYPE
  5
5180
330
5
100
AcDbSymbolTableRecord
100
AcDbLinetypeTableRecord
  2
陰線1
 70
     0
  3
__ __ __ __
 72
    65
 73
     2
 40
4.0
 49
2.2
 74
     0
 49
-1.8
 74
     0
  0
LTYPE
  5
5182
330
5
100
AcDbSymbolTableRecord
100
AcDbLinetypeTableRecord
  2
切断線
 70
     0
  3
/\/-/\/-/\/-/\/-/\/-/\/
 72
    65
 73
     2
 40
11.0001
 49
0.0001
 74
     4
 75
   135
340
56
 46
0.04
 50
0.0
 44
0.0
 45
0.0
 49
-11.0
 74
     0
  0
LTYPE
  5
5183
330
5
100
AcDbSymbolTableRecord
100
AcDbLinetypeTableRecord
  2
想像線1
 70
     0
  3
__ __ __ _____ __ __ ____
 72
    65
 73
     6
 40
14.5
 49
6.0
 74
     0
 49
-1.5
 74
     0
 49
2.0
 74
     0
 49
-1.5
 74
     0
 49
2.0
 74
     0
 49
-1.5
 74
     0
  0
LTYPE
  5
5185
330
5
100
AcDbSymbolTableRecord
100
AcDbLinetypeTableRecord
  2
中心線1
 70
     0
  3
___ _ ___ _ ___
 72
    65
 73
     4
 40
18.0
 49
12.0
 74
     0
 49
-2.0
 74
     0
 49
2.0
 74
     0
 49
-2.0
 74
     0
  0
LTYPE
  5
5188
330
5
100
AcDbSymbolTableRecord
100
AcDbLinetypeTableRecord
  2
補助線
 70
     0
  3
______________
 72
    65
 73
     2
 40
2.0
 49
1.0
 74
     0
 49
1.0
 74
     0
  0
LTYPE
  5
6427
330
5
100
AcDbSymbolTableRecord
100
AcDbLinetypeTableRecord
  2
HIDDEN
 70
     0
  3
Hidden __ __ __ __ __ __ __ __ __ __ __ __ __ _
 72
    65
 73
     2
 40
0.375
 49
0.25
 74
     0
 49
-0.125
 74
     0
  0
LTYPE
  5
AC81
330
5
100
AcDbSymbolTableRecord
100
AcDbLinetypeTableRecord
  2
破断線
 70
     0
  3
/\/-/\/-/\/-/\/-/\/-/\/
 72
    65
 73
     2
 40
0.4401
 49
0.0001
 74
     4
 75
   136
340
AC80
 46
0.0016
 50
0.0
 44
0.0
 45
0.0
 49
-0.44
 74
     0
  0
LTYPE
  5
AC9E
330
5
100
AcDbSymbolTableRecord
100
AcDbLinetypeTableRecord
  2
Amzigzag
 70
     0
  3
/\/-/\/-/\/-/\/-/\/-/\/
 72
    65
 73
     2
 40
11.0001
 49
0.0001
 74
     4
 75
   135
340
56
 46
0.04
 50
0.0
 44
0.0
 45
0.0
 49
-11.0
 74
     0
  0
LTYPE
  5
AF0F
330
5
100
AcDbSymbolTableRecord
100
AcDbLinetypeTableRecord
  2
genzigzag
 70
     0
  3
/\/-/\/-/\/-/\/-/\/-/\/
 72
    65
 73
     2
 40
12.0001
 49
0.0001
 74
     4
 75
   135
340
AC80
 46
2.0
 50
0.0
 44
0.0
 45
0.0
 49
-12.0
 74
     0
  0
LTYPE
  5
AF95
330
5
100
AcDbSymbolTableRecord
100
AcDbLinetypeTableRecord
  2
AM_ISO08W050
 70
     0
  3
____ . ____ . ____ . ____ . ____ . ____ . ____
 72
    65
 73
     4
 40
18.0
 49
12.0
 74
     0
 49
-1.5
 74
     0
 49
3.0
 74
     0
 49
-1.5
 74
     0
  0
LTYPE
  5
AF96
330
5
100
AcDbSymbolTableRecord
100
AcDbLinetypeTableRecord
  2
AM_ISO09W050
 70
     0
  3
_____ . . _____ . . _____ . . ____ .. ____
 72
    65
 73
     6
 40
22.5
 49
12.0
 74
     0
 49
-1.5
 74
     0
 49
3.0
 74
     0
 49
-1.5
 74
     0
 49
3.0
 74
     0
 49
-1.5
 74
     0
  0
LTYPE
  5
AF97
330
5
100
AcDbSymbolTableRecord
100
AcDbLinetypeTableRecord
  2
AM_ISO08W050x2
 70
     0
  3
__ . __ . __ . __ . __ . __
 72
    65
 73
     4
 40
9.0
 49
6.0
 74
     0
 49
-0.75
 74
     0
 49
1.5
 74
     0
 49
-0.75
 74
     0
  0
LTYPE
  5
AF98
330
5
100
AcDbSymbolTableRecord
100
AcDbLinetypeTableRecord
  2
AM_ISO02W050x2
 70
     0
  3
 _ _ _ _ _ _ _ _ _ _ _ _
 72
    65
 73
     2
 40
3.75
 49
3.0
 74
     0
 49
-0.75
 74
     0
  0
LTYPE
  5
B608
330
5
100
AcDbSymbolTableRecord
100
AcDbLinetypeTableRecord
  2
DASHED
 70
     0
  3
__ __ __ __ __ __ __ __ __ __ __ __ __ __ __
 72
    65
 73
     2
 40
3.5
 49
2.0
 74
     0
 49
-1.5
 74
     0
  0
LTYPE
  5
B609
330
5
100
AcDbSymbolTableRecord
100
AcDbLinetypeTableRecord
  2
PHANTOM
 70
     0
  3
_____ _ _ _____ _ _ _____ _ _ _____ _ _ ____  
 72
    65
 73
     6
 40
15.5
 49
8.0
 74
     0
 49
-1.5
 74
     0
 49
1.5
 74
     0
 49
-1.5
 74
     0
 49
1.5
 74
     0
 49
-1.5
 74
     0
  0
LTYPE
  5
B60A
330
5
100
AcDbSymbolTableRecord
100
AcDbLinetypeTableRecord
  2
CENTER2
 70
     0
  3
Center (.5x) ___ _ ___ _ ___ _ ___ _ ___ _ ___
 72
    65
 73
     4
 40
1.125
 49
0.75
 74
     0
 49
-0.125
 74
     0
 49
0.125
 74
     0
 49
-0.125
 74
     0
  0
LTYPE
  5
B60B
330
5
100
AcDbSymbolTableRecord
100
AcDbLinetypeTableRecord
  2
HIDDEN2
 70
     0
  3
Hidden (.5x) _ _ _ _ _ _ _ _ _ _ _ _ _ _ _ _ _
 72
    65
 73
     2
 40
0.1875
 49
0.125
 74
     0
 49
-0.0625
 74
     0
  0
LTYPE
  5
B60C
330
5
100
AcDbSymbolTableRecord
100
AcDbLinetypeTableRecord
  2
Amzigzag2
 70
     0
  3
/\/-/\/-/\/-/\/-/\/-/\/
 72
    65
 73
     2
 40
0.4401
 49
0.0001
 74
     4
 75
   135
340
56
 46
0.0016
 50
0.0
 44
0.0
 45
0.0
 49
-0.4400000000000001
 74
     0
  0
LTYPE
  5
B60D
330
5
100
AcDbSymbolTableRecord
100
AcDbLinetypeTableRecord
  2
ACANSTGB
 70
     0
  3
__ . . __ . .
 72
    65
 73
     6
 40
0.35433070866
 49
0.15748031496
 74
     0
 49
-0.03937007874
 74
     0
 49
0.03937007874
 74
     0
 49
-0.03937007874
 74
     0
 49
0.03937007874
 74
     0
 49
-0.03937007874
 74
     0
  0
LTYPE
  5
B60E
330
5
100
AcDbSymbolTableRecord
100
AcDbLinetypeTableRecord
  2
ACANSTGL
 70
     0
  3
_ _ _ _ _
 72
    65
 73
     2
 40
0.11811023622
 49
0.07874015748
 74
     0
 49
-0.03937007874
 74
     0
  0
ENDTAB
  0
TABLE
  2
LAYER
  5
2
102
{ACAD_XDICTIONARY
360
3F95
102
}
330
0
100
AcDbSymbolTable
 70
    20
  0
LAYER
  5
10
330
2
100
AcDbSymbolTableRecord
100
AcDbLayerTableRecord
  2
0
 70
     0
 62
     7
  6
Continuous
370
    -3
390
F
  0
LAYER
  5
6D1
330
2
100
AcDbSymbolTableRecord
100
AcDbLayerTableRecord
  2
Defpoints
 70
     0
 62
     7
  6
Continuous
290
     0
370
    -3
390
F
  0
LAYER
  5
5F85
330
2
100
AcDbSymbolTableRecord
100
AcDbLayerTableRecord
  2
AM_0
 70
     0
 62
     7
  6
中線
370
    30
390
F
1001
AcAecLayerStandard
1000

1000

  0
LAYER
  5
AC9F
330
2
100
AcDbSymbolTableRecord
100
AcDbLayerTableRecord
  2
size
 70
     0
 62
     5
  6
Continuous
290
     0
370
    25
390
F
  0
LAYER
  5
ACA0
330
2
100
AcDbSymbolTableRecord
100
AcDbLayerTableRecord
  2
waku
 70
     0
 62
     7
  6
Continuous
370
    35
390
F
  0
LAYER
  5
ACA1
330
2
100
AcDbSymbolTableRecord
100
AcDbLayerTableRecord
  2
AM_6
 70
     0
 62
     2
  6
文字
370
    13
390
F
1001
AcAecLayerStandard
1000

1000

  0
LAYER
  5
ACC8
330
2
100
AcDbSymbolTableRecord
100
AcDbLayerTableRecord
  2
hyomoji
 70
     0
 62
     2
  6
Continuous
370
    13
390
F
  0
LAYER
  5
ACC9
330
2
100
AcDbSymbolTableRecord
100
AcDbLayerTableRecord
  2
hyosen1
 70
     0
 62
     1
  6
Continuous
370
    25
390
F
  0
LAYER
  5
ACCA
330
2
100
AcDbSymbolTableRecord
100
AcDbLayerTableRecord
  2
hyosen2
 70
     0
 62
     1
  6
Continuous
370
    13
390
F
  0
LAYER
  5
AD60
330
2
100
AcDbSymbolTableRecord
100
AcDbLayerTableRecord
  2
AM_1
 70
     0
 62
    30
  6
太線
370
    40
390
F
1001
AcAecLayerStandard
1000

1000

  0
LAYER
  5
AD64
330
2
100
AcDbSymbolTableRecord
100
AcDbLayerTableRecord
  2
AM_2
 70
     0
 62
     1
  6
細線
370
    13
390
F
1001
AcAecLayerStandard
1000

1000

  0
LAYER
  5
AD67
330
2
100
AcDbSymbolTableRecord
100
AcDbLayerTableRecord
  2
AM_3
 70
     0
 62
     6
  6
陰線1
370
    13
390
F
1001
AcAecLayerStandard
1000

1000

  0
LAYER
  5
AD68
330
2
100
AcDbSymbolTableRecord
100
AcDbLayerTableRecord
  2
AM_5
 70
     0
 62
     3
  6
寸法線
370
    13
390
F
1001
AcAecLayerStandard
1000

1000

  0
LAYER
  5
AD69
330
2
100
AcDbSymbolTableRecord
100
AcDbLayerTableRecord
  2
AM_7
 70
     0
 62
     4
  6
中心線1
370
    13
390
F
1001
AcAecLayerStandard
1000

1000

  0
LAYER
  5
AD6A
330
2
100
AcDbSymbolTableRecord
100
AcDbLayerTableRecord
  2
AM_8
 70
     0
 62
     1
  6
ハッチング
370
    13
390
F
1001
AcAecLayerStandard
1000

1000

  0
LAYER
  5
AD6E
330
2
100
AcDbSymbolTableRecord
100
AcDbLayerTableRecord
  2
AM_10
 70
     0
 62
     7
  6
切断線
370
    13
390
F
1001
AcAecLayerStandard
1000

1000

  0
LAYER
  5
AD6F
330
2
100
AcDbSymbolTableRecord
100
AcDbLayerTableRecord
  2
AM_11
 70
     0
 62
     2
  6
想像線1
370
    13
390
F
1001
AcAecLayerStandard
1000

1000

  0
LAYER
  5
B1B6
330
2
100
AcDbSymbolTableRecord
100
AcDbLayerTableRecord
  2
AM_CL
 70
     0
 62
     1
  6
Amconstr
370
    15
390
F
1001
AcAecLayerStandard
1000

1000

  0
LAYER
  5
B2EB
330
2
100
AcDbSymbolTableRecord
100
AcDbLayerTableRecord
  2
AM_14
 70
     0
 62
     5
  6
細線
370
     9
390
F
1001
AcAecLayerStandard
1000

1000

  0
LAYER
  5
B2EC
330
2
100
AcDbSymbolTableRecord
100
AcDbLayerTableRecord
  2
AM_15
 70
     0
 62
     6
  6
陰線1
370
     9
390
F
1001
AcAecLayerStandard
1000

1000

  0
ENDTAB
  0
TABLE
  2
STYLE
  5
3
330
0
100
AcDbSymbolTable
 70
     8
  0
STYLE
  5
11
330
3
100
AcDbSymbolTableRecord
100
AcDbTextStyleTableRecord
  2
STANDARD
 70
     0
 40
0.0
 41
0.7
 50
0.0
 71
     0
 42
3.2
  3
romans.shx
  4
extfont.shx
  0
STYLE
  5
56
330
3
100
AcDbSymbolTableRecord
100
AcDbTextStyleTableRecord
  2

 70
     1
 40
0.0
 41
1.0
 50
0.0
 71
     0
 42
2.5
  3
ltypeshp.shx
  4

  0
STYLE
  5
58
330
3
100
AcDbSymbolTableRecord
100
AcDbTextStyleTableRecord
  2
ACISOTS
 70
     0
 40
1.0
 41
1.0
 50
0.0
 71
     0
 42
2.5
  3
isocp.shx
  4
extfont.shx
  0
STYLE
  5
63
330
3
100
AcDbSymbolTableRecord
100
AcDbTextStyleTableRecord
  2
ACISOGDT
 70
     0
 40
0.0
 41
1.0
 50
0.0
 71
     0
 42
2.5
  3
amgdt.shx
  4

  0
STYLE
  5
A74
330
3
100
AcDbSymbolTableRecord
100
AcDbTextStyleTableRecord
  2
DIM
 70
     0
 40
0.0
 41
1.0
 50
0.0
 71
     0
 42
2.5
  3
monotxt.shx
  4
extfont.shx
  0
STYLE
  5
AC80
330
3
100
AcDbSymbolTableRecord
100
AcDbTextStyleTableRecord
  2

 70
     1
 40
0.0
 41
1.0
 50
0.0
 71
     0
 42
3.2
  3
genltshp.shx
  4

  0
STYLE
  5
B60F
330
3
100
AcDbSymbolTableRecord
100
AcDbTextStyleTableRecord
  2
ACANSTS
 70
     0
 40
1.0
 41
1.0
 50
0.0
 71
     0
 42
3.2
  3
romans.shx
  4
extfont.shx
  0
STYLE
  5
B610
330
3
100
AcDbSymbolTableRecord
100
AcDbTextStyleTableRecord
  2
ACANSGDT
 70
     0
 40
0.0
 41
1.0
 50
0.0
 71
     0
 42
3.2
  3
amgdt.shx
  4

  0
ENDTAB
  0
TABLE
  2
VIEW
  5
6
330
0
100
AcDbSymbolTable
 70
     6
  0
VIEW
  5
AE1
330
6
100
AcDbSymbolTableRecord
100
AcDbViewTableRecord
  2
AM_VIEW1
 70
     0
 40
129.7276464542651
 10
1775.10588156276
 20
1793.121228859297
 41
148.5
 11
0.0
 21
0.0
 31
1.0
 12
0.0
 22
0.0
 32
0.0
 42
50.0
 43
-1370.695619172059
 44
-1370.695619172059
 50
0.0
 71
    16
281
     0
 72
     0
  0
VIEW
  5
AE2
330
6
100
AcDbSymbolTableRecord
100
AcDbViewTableRecord
  2
AM_VIEW2
 70
     0
 40
129.7276464542651
 10
1923.60588156276
 20
1793.121228859297
 41
148.5
 11
0.0
 21
0.0
 31
1.0
 12
0.0
 22
0.0
 32
0.0
 42
50.0
 43
-1370.695619172059
 44
-1370.695619172059
 50
0.0
 71
    16
281
     0
 72
     0
  0
VIEW
  5
AE3
330
6
100
AcDbSymbolTableRecord
100
AcDbViewTableRecord
  2
AM_VIEW3
 70
     0
 40
129.7276464542651
 10
1775.10588156276
 20
1712.848875313562
 41
148.5
 11
0.0
 21
0.0
 31
1.0
 12
0.0
 22
0.0
 32
0.0
 42
50.0
 43
-1370.695619172059
 44
-1370.695619172059
 50
0.0
 71
    16
281
     0
 72
     0
  0
VIEW
  5
AE4
330
6
100
AcDbSymbolTableRecord
100
AcDbViewTableRecord
  2
AM_VIEW4
 70
     0
 40
129.7276464542651
 10
1923.60588156276
 20
1712.848875313562
 41
148.5
 11
0.0
 21
0.0
 31
1.0
 12
0.0
 22
0.0
 32
0.0
 42
50.0
 43
-1370.695619172059
 44
-1370.695619172059
 50
0.0
 71
    16
281
     0
 72
     0
  0
VIEW
  5
AE5
330
6
100
AcDbSymbolTableRecord
100
AcDbViewTableRecord
  2
AM_VIEW5
 70
     0
 40
129.7276464542651
 10
1849.35588156276
 20
1752.985052086429
 41
148.5
 11
0.0
 21
0.0
 31
1.0
 12
0.0
 22
0.0
 32
0.0
 42
50.0
 43
-1370.695619172059
 44
-1370.695619172059
 50
0.0
 71
    16
281
     0
 72
     0
  0
VIEW
  5
AE6
330
6
100
AcDbSymbolTableRecord
100
AcDbViewTableRecord
  2
AM_VIEW6
 70
     0
 40
259.4526983556011
 10
1849.35588156276
 20
1752.985052086429
 41
296.99703
 11
0.0
 21
0.0
 31
1.0
 12
0.0
 22
0.0
 32
0.0
 42
50.0
 43
-1370.695619172059
 44
-1370.695619172059
 50
0.0
 71
    16
281
     0
 72
     0
  0
ENDTAB
  0
TABLE
  2
UCS
  5
7
330
0
100
AcDbSymbolTable
 70
     0
  0
ENDTAB
  0
TABLE
  2
APPID
  5
9
330
0
100
AcDbSymbolTable
 70
    76
  0
APPID
  5
12
330
9
100
AcDbSymbolTableRecord
100
AcDbRegAppTableRecord
  2
ACAD
 70
     0
  0
APPID
  5
30
330
9
100
AcDbSymbolTableRecord
100
AcDbRegAppTableRecord
  2
MCAD_NO_VIS
 70
     0
  0
APPID
  5
31
330
9
100
AcDbSymbolTableRecord
100
AcDbRegAppTableRecord
  2
ACAD_TEMP_GRAPHIC
 70
     0
  0
APPID
  5
44
330
9
100
AcDbSymbolTableRecord
100
AcDbRegAppTableRecord
  2
ACATTRIBSERVICES
 70
     0
  0
APPID
  5
7A1
330
9
100
AcDbSymbolTableRecord
100
AcDbRegAppTableRecord
  2
GENIUS_GENDIMSH_14
 70
     0
  0
APPID
  5
A49
330
9
100
AcDbSymbolTableRecord
100
AcDbRegAppTableRecord
  2
GENIUS_GENREC_14
 70
     0
  0
APPID
  5
A4A
330
9
100
AcDbSymbolTableRecord
100
AcDbRegAppTableRecord
  2
GENIUS_GENOBJ-N-REC_13
 70
     0
  0
APPID
  5
A4B
330
9
100
AcDbSymbolTableRecord
100
AcDbRegAppTableRecord
  2
GENIUS_GENODEF_13
 70
     0
  0
APPID
  5
A4C
330
9
100
AcDbSymbolTableRecord
100
AcDbRegAppTableRecord
  2
DCO15
 70
     0
  0
APPID
  5
ADC
330
9
100
AcDbSymbolTableRecord
100
AcDbRegAppTableRecord
  2
GENIUS_GENOLIS_13
 70
     0
  0
APPID
  5
ADD
330
9
100
AcDbSymbolTableRecord
100
AcDbRegAppTableRecord
  2
GENIUS_GENOENT_13
 70
     0
  0
APPID
  5
ADE
330
9
100
AcDbSymbolTableRecord
100
AcDbRegAppTableRecord
  2
GENIUS_GENOBJ-N-TIT_13
 70
     0
  0
APPID
  5
ADF
330
9
100
AcDbSymbolTableRecord
100
AcDbRegAppTableRecord
  2
GENIUS_GENTITLE_13
 70
     0
  0
APPID
  5
AE0
330
9
100
AcDbSymbolTableRecord
100
AcDbRegAppTableRecord
  2
GENIUS_GENOREF_13
 70
     0
  0
APPID
  5
AE7
330
9
100
AcDbSymbolTableRecord
100
AcDbRegAppTableRecord
  2
GENIUS_GENSCREG_15
 70
     0
  0
APPID
  5
AE8
330
9
100
AcDbSymbolTableRecord
100
AcDbRegAppTableRecord
  2
GENIUS_GENOBJ-N-SDF_13
 70
     0
  0
APPID
  5
FAF
330
9
100
AcDbSymbolTableRecord
100
AcDbRegAppTableRecord
  2
GENIUS_GENBLLY_14
 70
     0
  0
APPID
  5
FB0
330
9
100
AcDbSymbolTableRecord
100
AcDbRegAppTableRecord
  2
GENIUS_GENTRA_14
 70
     0
  0
APPID
  5
1285
330
9
100
AcDbSymbolTableRecord
100
AcDbRegAppTableRecord
  2
GENIUS_GENDTOL_13
 70
     0
  0
APPID
  5
142D
330
9
100
AcDbSymbolTableRecord
100
AcDbRegAppTableRecord
  2
GENIUS_GENOBJ-N-CEN_13
 70
     0
  0
APPID
  5
1AB5
330
9
100
AcDbSymbolTableRecord
100
AcDbRegAppTableRecord
  2
GENIUS_GENOBJ-N-CRS_13
 70
     0
  0
APPID
  5
1B36
330
9
100
AcDbSymbolTableRecord
100
AcDbRegAppTableRecord
  2
GENIUS_GENOBJ-N-HTC_13
 70
     0
  0
APPID
  5
1B37
330
9
100
AcDbSymbolTableRecord
100
AcDbRegAppTableRecord
  2
GENIUS_GENHATCH_13
 70
     0
  0
APPID
  5
216D
330
9
100
AcDbSymbolTableRecord
100
AcDbRegAppTableRecord
  2
GENIUS_GENOBJ-N-FIL_13
 70
     0
  0
APPID
  5
2356
330
9
100
AcDbSymbolTableRecord
100
AcDbRegAppTableRecord
  2
GEVID990412420
 70
     0
  0
APPID
  5
2357
330
9
100
AcDbSymbolTableRecord
100
AcDbRegAppTableRecord
  2
GEVDC
 70
     0
  0
APPID
  5
2358
330
9
100
AcDbSymbolTableRecord
100
AcDbRegAppTableRecord
  2
GEVCON
 70
     0
  0
APPID
  5
235B
330
9
100
AcDbSymbolTableRecord
100
AcDbRegAppTableRecord
  2
GEVRADREF
 70
     0
  0
APPID
  5
2360
330
9
100
AcDbSymbolTableRecord
100
AcDbRegAppTableRecord
  2
GENIUS_GENBH_13
 70
     0
  0
APPID
  5
2362
330
9
100
AcDbSymbolTableRecord
100
AcDbRegAppTableRecord
  2
GENIUS_GENOBJ-NBEHI-BHF_13
 70
     0
  0
APPID
  5
2364
330
9
100
AcDbSymbolTableRecord
100
AcDbRegAppTableRecord
  2
GENIUS_GENOBJ-NBEHI-BHB_13
 70
     0
  0
APPID
  5
2379
330
9
100
AcDbSymbolTableRecord
100
AcDbRegAppTableRecord
  2
GENIUS_GENOBJ-F-SCPASSM_13
 70
     0
  0
APPID
  5
3D74
330
9
100
AcDbSymbolTableRecord
100
AcDbRegAppTableRecord
  2
GENIUS_GENDIM_13
 70
     0
  0
APPID
  5
3D76
330
9
100
AcDbSymbolTableRecord
100
AcDbRegAppTableRecord
  2
GENIUS_GE3DTOL_13
 70
     0
  0
APPID
  5
3D9C
330
9
100
AcDbSymbolTableRecord
100
AcDbRegAppTableRecord
  2
AD_DRAW
 70
     0
  0
APPID
  5
3DE8
330
9
100
AcDbSymbolTableRecord
100
AcDbRegAppTableRecord
  2
ASURF_PCURVE_APPNAME
 70
     0
  0
APPID
  5
3DED
330
9
100
AcDbSymbolTableRecord
100
AcDbRegAppTableRecord
  2
AMG_3D2D_5.0
 70
     0
  0
APPID
  5
3E1B
330
9
100
AcDbSymbolTableRecord
100
AcDbRegAppTableRecord
  2
DESIGNERASSEMBLIES
 70
     0
  0
APPID
  5
3E20
330
9
100
AcDbSymbolTableRecord
100
AcDbRegAppTableRecord
  2
ACADM_DIM_EDIT
 70
     0
  0
APPID
  5
3E21
330
9
100
AcDbSymbolTableRecord
100
AcDbRegAppTableRecord
  2
AMDT_DM_ADJ
 70
     0
  0
APPID
  5
4143
330
9
100
AcDbSymbolTableRecord
100
AcDbRegAppTableRecord
  2
GENIUS_GENFIL_13
 70
     0
  0
APPID
  5
4144
330
9
100
AcDbSymbolTableRecord
100
AcDbRegAppTableRecord
  2
GENIUS_GENOBJ-N-CHA_13
 70
     0
  0
APPID
  5
4E17
330
9
100
AcDbSymbolTableRecord
100
AcDbRegAppTableRecord
  2
GEVID1008153417
 70
     0
  0
APPID
  5
4E58
330
9
100
AcDbSymbolTableRecord
100
AcDbRegAppTableRecord
  2
GEVID1008153418
 70
     0
  0
APPID
  5
4E5E
330
9
100
AcDbSymbolTableRecord
100
AcDbRegAppTableRecord
  2
GEVID1008153419
 70
     0
  0
APPID
  5
4E64
330
9
100
AcDbSymbolTableRecord
100
AcDbRegAppTableRecord
  2
GEVID1008153420
 70
     0
  0
APPID
  5
4E75
330
9
100
AcDbSymbolTableRecord
100
AcDbRegAppTableRecord
  2
GEVID1008153421
 70
     0
  0
APPID
  5
4EB7
330
9
100
AcDbSymbolTableRecord
100
AcDbRegAppTableRecord
  2
GENIUS_AMGTXT_16
 70
     0
  0
APPID
  5
7645
330
9
100
AcDbSymbolTableRecord
100
AcDbRegAppTableRecord
  2
GENIUS_GENOBJ-N-DIM_13
 70
     0
  0
APPID
  5
AAD0
330
9
100
AcDbSymbolTableRecord
100
AcDbRegAppTableRecord
  2
ACAD_DSTYLE_DIMARC_LENGTH_SYMBOL
 70
     0
  0
APPID
  5
AAD1
330
9
100
AcDbSymbolTableRecord
100
AcDbRegAppTableRecord
  2
ACAD_DSTYLE_DIMJOGGED_JOGANGLE_SYMBOL
 70
     0
  0
APPID
  5
AAFD
330
9
100
AcDbSymbolTableRecord
100
AcDbRegAppTableRecord
  2
ACAD_PSEXT
 70
     0
  0
APPID
  5
AD61
330
9
100
AcDbSymbolTableRecord
100
AcDbRegAppTableRecord
  2
AcAecLayerStandard
 70
     0
  0
APPID
  5
AEE3
330
9
100
AcDbSymbolTableRecord
100
AcDbRegAppTableRecord
  2
ACAD_EXEMPT_FROM_CAD_STANDARDS
 70
     0
  0
APPID
  5
B1BE
330
9
100
AcDbSymbolTableRecord
100
AcDbRegAppTableRecord
  2
GENIUS_GENCEN_19
 70
     0
  0
APPID
  5
BECB
330
9
100
AcDbSymbolTableRecord
100
AcDbRegAppTableRecord
  2
HC_SUPERPART
 70
     0
  0
APPID
  5
BECC
330
9
100
AcDbSymbolTableRecord
100
AcDbRegAppTableRecord
  2
HC_SP4BLOCK
 70
     0
  0
APPID
  5
BECD
330
9
100
AcDbSymbolTableRecord
100
AcDbRegAppTableRecord
  2
HC_XDATA_SPRING
 70
     0
  0
APPID
  5
BECE
330
9
100
AcDbSymbolTableRecord
100
AcDbRegAppTableRecord
  2
HCCAD_FRAME
 70
     0
  0
APPID
  5
BECF
330
9
100
AcDbSymbolTableRecord
100
AcDbRegAppTableRecord
  2
GENIUS_GENOBJ-N-ZOO_13
 70
     0
  0
APPID
  5
BED0
330
9
100
AcDbSymbolTableRecord
100
AcDbRegAppTableRecord
  2
GENIUS_GENSYMENT_13
 70
     0
  0
APPID
  5
BED1
330
9
100
AcDbSymbolTableRecord
100
AcDbRegAppTableRecord
  2
GENIUS_GENSCSYM_13
 70
     0
  0
APPID
  5
BED2
330
9
100
AcDbSymbolTableRecord
100
AcDbRegAppTableRecord
  2
GENIUS_GENOBJ-N-REV_13
 70
     0
  0
APPID
  5
BED3
330
9
100
AcDbSymbolTableRecord
100
AcDbRegAppTableRecord
  2
GENIUS_GENOBJ-N-RSSYM_13
 70
     0
  0
APPID
  5
BED4
330
9
100
AcDbSymbolTableRecord
100
AcDbRegAppTableRecord
  2
GENIUS_GENREV_15
 70
     0
  0
APPID
  5
BED5
330
9
100
AcDbSymbolTableRecord
100
AcDbRegAppTableRecord
  2
HRA
 70
     0
  0
APPID
  5
BED6
330
9
100
AcDbSymbolTableRecord
100
AcDbRegAppTableRecord
  2
HTIT
 70
     0
  0
APPID
  5
BED7
330
9
100
AcDbSymbolTableRecord
100
AcDbRegAppTableRecord
  2
GENIUS_GENZOO_17
 70
     0
  0
APPID
  5
BED8
330
9
100
AcDbSymbolTableRecord
100
AcDbRegAppTableRecord
  2
GENIUS_GENCRS_20
 70
     0
  0
APPID
  5
BED9
330
9
100
AcDbSymbolTableRecord
100
AcDbRegAppTableRecord
  2
GENIUS_GENOBJ-N-CRC_13
 70
     0
  0
APPID
  5
BEDA
330
9
100
AcDbSymbolTableRecord
100
AcDbRegAppTableRecord
  2
GENIUS_GENCRC_14
 70
     0
  0
APPID
  5
BEDB
330
9
100
AcDbSymbolTableRecord
100
AcDbRegAppTableRecord
  2
GENIUS_GENOBJ-N-DIMLI_13
 70
     0
  0
APPID
  5
BEDC
330
9
100
AcDbSymbolTableRecord
100
AcDbRegAppTableRecord
  2
GENIUS_GENOBJ-N-FITL_13
 70
     0
  0
APPID
  5
BEDD
330
9
100
AcDbSymbolTableRecord
100
AcDbRegAppTableRecord
  2
GENIUS_GENFITL_13
 70
     0
  0
APPID
  5
BEDE
330
9
100
AcDbSymbolTableRecord
100
AcDbRegAppTableRecord
  2
GENLAYCOLOR
 70
     0
  0
APPID
  5
BF04
330
9
100
AcDbSymbolTableRecord
100
AcDbRegAppTableRecord
  2
ACAD_MLEADERVER
 70
     0
  0
ENDTAB
  0
TABLE
  2
DIMSTYLE
  5
A
330
0
100
AcDbSymbolTable
 70
    24
100
AcDbDimStyleTable
  0
DIMSTYLE
105
A76
330
A
100
AcDbSymbolTableRecord
100
AcDbDimStyleTableRecord
  2
STANDARD
 70
     0
 41
3.0
 42
1.0
 43
7.0
 44
2.0
 73
     0
 74
     0
 77
     1
140
2.8
141
0.0
143
0.0394
147
0.7
171
     4
172
     1
173
     1
176
     3
177
     3
271
     3
178
     2
271
     3
272
     3
273
     8
274
     4
289
     0
340
A74
341
A66
343
A66
344
A66
  0
DIMSTYLE
105
2515
330
A
100
AcDbSymbolTableRecord
100
AcDbDimStyleTableRecord
  2
SYS
 70
     0
  4
"
 41
1.0
 42
1.0
 43
10.0
 44
1.0
 47
0.1
 48
0.1
 73
     0
 74
     0
 77
     1
 78
     8
 79
     2
140
3.5
141
0.0
143
0.0393701
146
0.71
147
1.5
172
     1
176
   256
177
   256
271
     2
178
     7
271
     2
272
     2
283
     0
284
     8
340
11
371
    -1
372
    -1
1001
ACAD_DSTYLE_DIMJOGGED_JOGANGLE_SYMBOL
1070
   384
1040
0.7853981633974483
1001
ACAD_DSTYLE_DIMARC_LENGTH_SYMBOL
1070
   379
1070
     1
  0
DIMSTYLE
105
2516
102
{ACAD_REACTORS
330
BE59
330
BE20
102
}
330
A
100
AcDbSymbolTableRecord
100
AcDbDimStyleTableRecord
  2
SYS$3
 70
     0
  4
"
 41
2.0
 42
1.0
 43
10.0
 44
1.0
 47
0.1
 48
0.1
 73
     0
 77
     1
 78
     8
 79
     2
140
3.5
141
0.0
143
0.0393701
146
0.71
147
1.5
176
   256
177
   256
271
     2
178
     2
271
     2
272
     2
283
     0
284
     8
288
     1
340
11
342
A66
371
    -1
372
    -1
1001
ACAD_DSTYLE_DIMJOGGED_JOGANGLE_SYMBOL
1070
   384
1040
0.7853981633974483
1001
ACAD_DSTYLE_DIMARC_LENGTH_SYMBOL
1070
   379
1070
     1
  0
DIMSTYLE
105
2517
330
A
100
AcDbSymbolTableRecord
100
AcDbDimStyleTableRecord
  2
SYS$4
 70
     0
  4
"
 41
2.0
 42
1.0
 43
10.0
 44
1.0
 47
0.1
 48
0.1
 73
     0
 77
     1
 78
     8
 79
     2
140
3.5
141
0.0
143
0.0393701
146
0.71
147
1.5
173
     1
176
   256
177
   256
271
     2
178
     2
271
     2
272
     2
283
     0
284
     8
288
     1
340
11
344
A66
371
    -1
372
    -1
1001
ACAD_DSTYLE_DIMJOGGED_JOGANGLE_SYMBOL
1070
   384
1040
0.7853981633974483
1001
ACAD_DSTYLE_DIMARC_LENGTH_SYMBOL
1070
   379
1070
     1
  0
DIMSTYLE
105
2518
330
A
100
AcDbSymbolTableRecord
100
AcDbDimStyleTableRecord
  2
SYS$6
 70
     0
  4
"
 41
2.0
 42
1.0
 43
10.0
 44
1.0
 47
0.1
 48
0.1
 73
     0
 74
     0
 78
     8
 79
     2
140
3.5
141
0.0
143
0.0393701
146
0.71
147
1.5
172
     1
176
   256
177
   256
271
     2
178
     2
271
     2
272
     2
283
     0
284
     8
340
11
341
A66
371
    -1
372
    -1
1001
ACAD_DSTYLE_DIMJOGGED_JOGANGLE_SYMBOL
1070
   384
1040
0.7853981633974483
1001
ACAD_DSTYLE_DIMARC_LENGTH_SYMBOL
1070
   379
1070
     1
  0
DIMSTYLE
105
2519
330
A
100
AcDbSymbolTableRecord
100
AcDbDimStyleTableRecord
  2
SYS$7
 70
     0
  4
"
 41
2.0
 42
1.0
 43
10.0
 44
1.0
 47
0.1
 48
0.1
 73
     0
 74
     0
 77
     1
 78
     8
 79
     2
140
5.0
141
0.0
143
0.0393701
146
0.71
147
1.5
172
     1
176
   256
177
   256
271
     2
178
     2
271
     2
272
     2
283
     0
284
     8
340
11
341
A66
342
A66
371
    -1
372
    -1
1001
ACAD_DSTYLE_DIMJOGGED_JOGANGLE_SYMBOL
1070
   384
1040
0.7853981633974483
1001
ACAD_DSTYLE_DIMARC_LENGTH_SYMBOL
1070
   379
1070
     1
  0
DIMSTYLE
105
251A
330
A
100
AcDbSymbolTableRecord
100
AcDbDimStyleTableRecord
  2
SYS$SF
 70
     0
  4
"
 41
2.5
 42
1.0
 43
10.0
 44
1.0
 47
0.1
 48
0.1
 73
     0
 74
     0
 75
     1
 76
     1
 77
     1
 78
     8
 79
     2
140
3.5
141
0.0
143
0.0393701
146
0.71
147
1.5
172
     1
176
   256
177
   256
271
     2
178
     2
271
     2
272
     3
283
     0
284
     8
340
11
341
6C4
342
6C4
371
    -1
372
    -1
1001
ACAD_DSTYLE_DIMJOGGED_JOGANGLE_SYMBOL
1070
   384
1040
0.7853981633974483
1001
ACAD_DSTYLE_DIMARC_LENGTH_SYMBOL
1070
   379
1070
     1
  0
DIMSTYLE
105
251B
330
A
100
AcDbSymbolTableRecord
100
AcDbDimStyleTableRecord
  2
SYS$SH
 70
     0
  4
"
 41
2.5
 42
1.0
 43
10.0
 44
1.0
 47
0.1
 48
0.1
 73
     0
 74
     0
 75
     1
 76
     1
 77
     1
 78
     8
 79
     2
140
3.5
141
0.0
143
0.0393701
144
2.0
146
0.71
147
1.5
172
     1
173
     1
176
   256
177
   256
271
     2
178
     2
271
     2
272
     3
283
     0
284
     8
340
11
341
6C4
343
72
344
6C4
371
    -1
372
    -1
1001
ACAD_DSTYLE_DIMJOGGED_JOGANGLE_SYMBOL
1070
   384
1040
0.7853981633974483
1001
ACAD_DSTYLE_DIMARC_LENGTH_SYMBOL
1070
   379
1070
     1
  0
DIMSTYLE
105
2A59
102
{ACAD_REACTORS
330
BDC4
102
}
330
A
100
AcDbSymbolTableRecord
100
AcDbDimStyleTableRecord
  2
SYS$2
 70
     0
  4
"
 41
1.0
 42
1.0
 43
10.0
 44
1.0
 47
0.1
 48
0.1
 73
     0
 74
     0
 77
     1
 78
     8
 79
     2
140
3.5
141
0.0
143
0.0393701
146
0.71
147
1.5
172
     1
176
   256
177
   256
271
     2
178
     2
271
     2
272
     2
283
     0
284
     8
340
11
342
6C4
371
    -1
372
    -1
1001
ACAD_DSTYLE_DIMJOGGED_JOGANGLE_SYMBOL
1070
   384
1040
0.7853981633974483
1001
ACAD_DSTYLE_DIMARC_LENGTH_SYMBOL
1070
   379
1070
     1
  0
DIMSTYLE
105
2AAB
102
{ACAD_REACTORS
330
BBA3
330
BC35
330
BB2C
330
BC4B
330
BB4B
330
BBE3
330
BB73
330
BB89
330
BBCB
102
}
330
A
100
AcDbSymbolTableRecord
100
AcDbDimStyleTableRecord
  2
SYS$0
 70
     0
  4
"
 41
1.0
 42
1.0
 43
10.0
 44
1.0
 47
0.1
 48
0.1
 73
     0
 74
     0
 77
     1
 78
     8
 79
     2
140
3.200000000000001
141
0.0
143
0.0393701
146
0.71
147
1.5
172
     1
176
   256
177
   256
271
     2
178
     2
271
     2
272
     2
283
     0
284
     8
340
11
341
A66
342
6C4
371
    -1
372
    -1
1001
ACAD_DSTYLE_DIMJOGGED_JOGANGLE_SYMBOL
1070
   384
1040
0.7853981633974483
1001
ACAD_DSTYLE_DIMARC_LENGTH_SYMBOL
1070
   379
1070
     1
  0
DIMSTYLE
105
AF99
330
A
100
AcDbSymbolTableRecord
100
AcDbDimStyleTableRecord
  2
AM_ISO
 70
     0
  4
"
 41
2.5
 42
1.0
 43
10.0
 44
1.0
 47
0.1
 48
0.1
 73
     0
 74
     0
 77
     1
 78
     8
 79
     2
140
3.5
141
0.0
143
0.0393701
146
0.71
147
1.5
172
     1
176
   256
177
   256
271
     2
178
     2
271
     2
272
     3
274
     4
283
     0
284
     8
340
11
371
    -1
372
    -1
  0
DIMSTYLE
105
AF9A
330
A
100
AcDbSymbolTableRecord
100
AcDbDimStyleTableRecord
  2
AM_ISO$3
 70
     0
  4
"
 41
2.5
 42
1.0
 43
10.0
 44
1.0
 47
0.1
 48
0.1
 73
     0
 77
     1
 78
     8
 79
     2
140
3.5
141
0.0
143
0.0393701
146
0.71
147
1.5
176
   256
177
   256
271
     2
178
     2
271
     2
272
     3
274
     4
283
     0
284
     8
288
     1
289
     0
340
11
371
    -1
372
    -1
  0
DIMSTYLE
105
AF9B
330
A
100
AcDbSymbolTableRecord
100
AcDbDimStyleTableRecord
  2
AM_ISO$4
 70
     0
  4
"
 41
2.5
 42
1.0
 43
10.0
 44
1.0
 47
0.1
 48
0.1
 73
     0
 77
     1
 78
     8
 79
     2
140
3.5
141
0.0
143
0.0393701
146
0.71
147
1.5
176
   256
177
   256
271
     2
178
     2
271
     2
272
     3
274
     4
283
     0
284
     8
288
     1
289
     0
340
11
371
    -1
372
    -1
  0
DIMSTYLE
105
AF9C
330
A
100
AcDbSymbolTableRecord
100
AcDbDimStyleTableRecord
  2
AM_ISO$6
 70
     0
  4
"
 41
2.5
 42
1.0
 43
10.0
 44
1.0
 47
0.1
 48
0.1
 73
     0
 74
     0
 78
     8
 79
     2
140
3.5
141
0.0
143
0.0393701
146
0.71
147
1.5
172
     1
176
   256
177
   256
271
     2
178
     2
271
     2
272
     3
274
     4
283
     0
284
     8
340
11
371
    -1
372
    -1
  0
DIMSTYLE
105
AF9D
330
A
100
AcDbSymbolTableRecord
100
AcDbDimStyleTableRecord
  2
AM_ISO$7
 70
     0
  4
"
 41
2.5
 42
1.0
 43
10.0
 44
1.0
 47
0.1
 48
0.1
 73
     0
 74
     0
 77
     1
 78
     8
 79
     2
140
5.0
141
0.0
143
0.0393701
146
0.71
147
1.5
172
     1
176
   256
177
   256
271
     2
178
     2
271
     2
272
     3
274
     4
283
     0
284
     8
340
11
371
    -1
372
    -1
  0
DIMSTYLE
105
AF9E
330
A
100
AcDbSymbolTableRecord
100
AcDbDimStyleTableRecord
  2
AM_ISO$SF
 70
     0
  4
"
 41
2.5
 42
1.0
 43
10.0
 44
1.0
 47
0.1
 48
0.1
 73
     0
 74
     0
 75
     1
 76
     1
 77
     1
 78
     8
 79
     2
140
3.5
141
0.0
143
0.0393701
146
0.71
147
1.5
172
     1
176
   256
177
   256
271
     2
178
     2
271
     2
272
     3
274
     4
283
     0
284
     8
340
11
371
    -1
372
    -1
  0
DIMSTYLE
105
AF9F
330
A
100
AcDbSymbolTableRecord
100
AcDbDimStyleTableRecord
  2
AM_ISO$SH
 70
     0
  4
"
 41
2.5
 42
1.0
 43
10.0
 44
1.0
 47
0.1
 48
0.1
 73
     0
 74
     0
 75
     1
 76
     1
 77
     1
 78
     8
 79
     2
140
3.5
141
0.0
143
0.0393701
144
2.0
146
0.71
147
1.5
172
     1
173
     1
176
   256
177
   256
271
     2
178
     2
271
     2
272
     3
274
     4
283
     0
284
     8
340
11
343
72
371
    -1
372
    -1
  0
DIMSTYLE
105
B611
330
A
100
AcDbSymbolTableRecord
100
AcDbDimStyleTableRecord
  2
DIMSTYLE
 70
     0
 41
1.0
 42
2.54
 44
2.54
 73
     0
 74
     0
140
3.2
147
1.6
173
     1
178
     0
279
     2
340
11
  0
DIMSTYLE
105
B612
330
A
100
AcDbSymbolTableRecord
100
AcDbDimStyleTableRecord
  2
AM_ANSI
 70
     0
  4
mm
 41
0.1
 42
0.05
 43
0.5
 44
0.1
 47
0.1
 48
0.1
 78
     7
 79
     2
140
0.12
141
0.0
146
0.71
147
0.06
176
   256
177
   256
178
     2
274
     4
284
     7
340
11
371
    -1
372
    -1
  0
DIMSTYLE
105
B613
330
A
100
AcDbSymbolTableRecord
100
AcDbDimStyleTableRecord
  2
AM_ANSI$3
 70
     0
  4
mm
 41
0.1
 42
0.05
 43
0.5
 44
0.1
 47
0.1
 48
0.1
 78
     7
 79
     2
140
0.12
141
0.0
146
0.71
147
0.06
176
   256
177
   256
178
     2
274
     4
284
     7
288
     1
289
     0
340
11
371
    -1
372
    -1
  0
DIMSTYLE
105
B614
330
A
100
AcDbSymbolTableRecord
100
AcDbDimStyleTableRecord
  2
AM_ANSI$4
 70
     0
  4
mm
 41
0.1
 42
0.05
 43
0.5
 44
0.1
 47
0.1
 48
0.1
 78
     7
 79
     2
140
0.12
141
0.0
146
0.71
147
0.06
176
   256
177
   256
178
     2
274
     4
284
     7
288
     1
289
     0
340
11
371
    -1
372
    -1
  0
DIMSTYLE
105
B615
330
A
100
AcDbSymbolTableRecord
100
AcDbDimStyleTableRecord
  2
AM_ANSI$7
 70
     0
  4
mm
 41
0.1
 42
0.05
 43
0.5
 44
0.1
 47
0.1
 48
0.1
 78
     7
 79
     2
140
0.24
141
0.0
146
0.71
147
0.06
176
   256
177
   256
178
     2
274
     4
284
     7
340
11
371
    -1
372
    -1
  0
DIMSTYLE
105
B616
330
A
100
AcDbSymbolTableRecord
100
AcDbDimStyleTableRecord
  2
AM_ANSI$SF
 70
     0
  4
mm
 41
0.1
 42
0.05
 43
0.5
 44
0.1
 47
0.1
 48
0.1
 75
     1
 76
     1
 78
     7
 79
     2
140
0.12
141
0.0
146
0.71
147
0.06
176
   256
177
   256
178
     2
274
     4
284
     7
340
11
371
    -1
372
    -1
  0
DIMSTYLE
105
B617
330
A
100
AcDbSymbolTableRecord
100
AcDbDimStyleTableRecord
  2
AM_ANSI$SH
 70
     0
  4
mm
 41
0.1
 42
0.05
 43
0.5
 44
0.1
 47
0.1
 48
0.1
 75
     1
 76
     1
 78
     7
 79
     2
140
0.12
141
0.0
146
0.71
147
0.06
173
     1
176
   256
177
   256
178
     2
274
     4
284
     7
340
11
343
72
371
    -1
372
    -1
  0
ENDTAB
  0
TABLE
  2
BLOCK_RECORD
  5
1
330
0
100
AcDbSymbolTable
 70
    26
  0
BLOCK_RECORD
  5
1F
102
{ACAD_XDICTIONARY
360
8A
102
}
330
1
100
AcDbSymbolTableRecord
100
AcDbBlockTableRecord
  2
*Model_Space
340
22
  0
BLOCK_RECORD
  5
1B
330
1
100
AcDbSymbolTableRecord
100
AcDbBlockTableRecord
  2
*Paper_Space
340
1E
  0
BLOCK_RECORD
  5
23
330
1
100
AcDbSymbolTableRecord
100
AcDbBlockTableRecord
  2
*Paper_Space0
340
26
  0
BLOCK_RECORD
  5
72
330
1
100
AcDbSymbolTableRecord
100
AcDbBlockTableRecord
  2
GENAXEH
340
0
  0
BLOCK_RECORD
  5
6C4
330
1
100
AcDbSymbolTableRecord
100
AcDbBlockTableRecord
  2
_Dot
340
0
102
{BLKREFS
331
BD73
331
BD74
331
BD7C
331
BD7D
331
BD85
331
BD86
331
BD90
331
BD91
331
BD99
331
BD9A
331
BDA3
331
BDA4
331
BDAC
331
BDAD
331
BDB5
331
BDB6
331
BC5B
331
BC5C
331
BDDF
331
BDE0
102
}
  0
BLOCK_RECORD
  5
A66
330
1
100
AcDbSymbolTableRecord
100
AcDbBlockTableRecord
  2
_OPEN30
340
0
  0
BLOCK_RECORD
  5
3E12
330
1
100
AcDbSymbolTableRecord
100
AcDbBlockTableRecord
  2
*U4
340
0
  0
BLOCK_RECORD
  5
BB2D
330
1
100
AcDbSymbolTableRecord
100
AcDbBlockTableRecord
  2
*D5
340
0
  0
BLOCK_RECORD
  5
BB4C
330
1
100
AcDbSymbolTableRecord
100
AcDbBlockTableRecord
  2
*D6
340
0
  0
BLOCK_RECORD
  5
BB74
330
1
100
AcDbSymbolTableRecord
100
AcDbBlockTableRecord
  2
*D7
340
0
  0
BLOCK_RECORD
  5
BB8A
330
1
100
AcDbSymbolTableRecord
100
AcDbBlockTableRecord
  2
*D8
340
0
  0
BLOCK_RECORD
  5
BBA4
330
1
100
AcDbSymbolTableRecord
100
AcDbBlockTableRecord
  2
*D9
340
0
  0
BLOCK_RECORD
  5
BBCC
330
1
100
AcDbSymbolTableRecord
100
AcDbBlockTableRecord
  2
*D10
340
0
  0
BLOCK_RECORD
  5
BBE4
330
1
100
AcDbSymbolTableRecord
100
AcDbBlockTableRecord
  2
*D11
340
0
  0
BLOCK_RECORD
  5
BC36
330
1
100
AcDbSymbolTableRecord
100
AcDbBlockTableRecord
  2
*D12
340
0
  0
BLOCK_RECORD
  5
BC4C
330
1
100
AcDbSymbolTableRecord
100
AcDbBlockTableRecord
  2
*D13
340
0
  0
BLOCK_RECORD
  5
BCB0
330
1
100
AcDbSymbolTableRecord
100
AcDbBlockTableRecord
  2
GENDOT
340
0
102
{BLKREFS
331
BE7C
331
BE7D
331
BEA0
331
BEA1
102
}
  0
BLOCK_RECORD
  5
BDC5
330
1
100
AcDbSymbolTableRecord
100
AcDbBlockTableRecord
  2
*D17
340
0
  0
BLOCK_RECORD
  5
BE21
330
1
100
AcDbSymbolTableRecord
100
AcDbBlockTableRecord
  2
*D18
340
0
  0
BLOCK_RECORD
  5
BE5A
330
1
100
AcDbSymbolTableRecord
100
AcDbBlockTableRecord
  2
*D19
340
0
  0
BLOCK_RECORD
  5
BEE6
330
1
100
AcDbSymbolTableRecord
100
AcDbBlockTableRecord
  2
_ACMFILLED
340
0
  0
BLOCK_RECORD
  5
BEED
330
1
100
AcDbSymbolTableRecord
100
AcDbBlockTableRecord
  2
_ACMOPEN30
340
0
  0
BLOCK_RECORD
  5
BEF9
330
1
100
AcDbSymbolTableRecord
100
AcDbBlockTableRecord
  2
_ACMFILLEDHALF
340
0
  0
BLOCK_RECORD
  5
BF76
330
1
100
AcDbSymbolTableRecord
100
AcDbBlockTableRecord
  2
*S23
340
0
102
{BLKREFS
331
0
102
}
  0
BLOCK_RECORD
  5
BF7F
330
1
100
AcDbSymbolTableRecord
100
AcDbBlockTableRecord
  2
*S24
340
0
102
{BLKREFS
331
0
102
}
  0
BLOCK_RECORD
  5
BF88
330
1
100
AcDbSymbolTableRecord
100
AcDbBlockTableRecord
  2
*S25
340
0
102
{BLKREFS
331
0
102
}
  0
ENDTAB
  0
ENDSEC
  0
SECTION
  2
BLOCKS
  0
BLOCK
  5
20
330
1F
100
AcDbEntity
  8
0
100
AcDbBlockBegin
  2
*Model_Space
 70
     0
 10
0.0
 20
0.0
 30
0.0
  3
*Model_Space
  1

  0
ENDBLK
  5
21
330
1F
100
AcDbEntity
  8
0
100
AcDbBlockEnd
  0
BLOCK
  5
1C
330
1B
100
AcDbEntity
 67
     1
  8
0
100
AcDbBlockBegin
  2
*Paper_Space
 70
     0
 10
0.0
 20
0.0
 30
0.0
  3
*Paper_Space
  1

  0
ENDBLK
  5
1D
330
1B
100
AcDbEntity
 67
     1
  8
0
100
AcDbBlockEnd
  0
BLOCK
  5
24
330
23
100
AcDbEntity
  8
0
100
AcDbBlockBegin
  2
*Paper_Space0
 70
     0
 10
0.0
 20
0.0
 30
0.0
  3
*Paper_Space0
  1

  0
ENDBLK
  5
25
330
23
100
AcDbEntity
  8
0
100
AcDbBlockEnd
  0
BLOCK
  5
74
330
72
100
AcDbEntity
  8
0
100
AcDbBlockBegin
  2
GENAXEH
 70
     0
 10
0.0
 20
0.0
 30
0.0
  3
GENAXEH
  1

  0
LINE
  5
73
330
72
100
AcDbEntity
  8
0
100
AcDbLine
 10
-1.0
 20
0.0
 30
0.0
 11
1.0
 21
0.0
 31
0.0
  0
ENDBLK
  5
75
330
72
100
AcDbEntity
  8
0
100
AcDbBlockEnd
  0
BLOCK
  5
6C7
330
6C4
100
AcDbEntity
  8
0
100
AcDbBlockBegin
  2
_Dot
 70
     0
 10
0.0
 20
0.0
 30
0.0
  3
_Dot
  1

  0
LWPOLYLINE
  5
6C5
330
6C4
100
AcDbEntity
  8
0
  6
ByBlock
 62
     0
100
AcDbPolyline
 90
        2
 70
     1
 43
0.5
 10
-0.25
 20
0.0
 42
1.0
 10
0.25
 20
0.0
 42
1.0
  0
LINE
  5
6C6
330
6C4
100
AcDbEntity
  8
0
  6
ByBlock
 62
     0
370
    -2
100
AcDbLine
 10
-0.5
 20
0.0
 30
0.0
 11
-1.0
 21
0.0
 31
0.0
  0
ENDBLK
  5
6C8
330
6C4
100
AcDbEntity
  8
0
100
AcDbBlockEnd
  0
BLOCK
  5
A6A
330
A66
100
AcDbEntity
  8
0
100
AcDbBlockBegin
  2
_OPEN30
 70
     0
 10
0.0
 20
0.0
 30
0.0
  3
_OPEN30
  1

  0
LINE
  5
A67
330
A66
100
AcDbEntity
  8
0
  6
ByBlock
 62
     0
100
AcDbLine
 10
-1.0
 20
0.26794919
 30
0.0
 11
0.0
 21
0.0
 31
0.0
  0
LINE
  5
A68
330
A66
100
AcDbEntity
  8
0
  6
ByBlock
 62
     0
100
AcDbLine
 10
0.0
 20
0.0
 30
0.0
 11
-1.0
 21
-0.26794919
 31
0.0
  0
LINE
  5
A69
330
A66
100
AcDbEntity
  8
0
  6
ByBlock
 62
     0
100
AcDbLine
 10
0.0
 20
0.0
 30
0.0
 11
-1.0
 21
0.0
 31
0.0
  0
ENDBLK
  5
A6B
330
A66
100
AcDbEntity
  8
0
100
AcDbBlockEnd
  0
BLOCK
  5
3E13
330
3E12
100
AcDbEntity
  8
0
100
AcDbBlockBegin
  2
*U4
 70
     1
 10
0.0
 20
0.0
 30
0.0
  3
*U4
  1

  0
ENDBLK
  5
3E14
330
3E12
100
AcDbEntity
  8
0
100
AcDbBlockEnd
  0
BLOCK
  5
BB37
330
BB2D
100
AcDbEntity
  8
0
100
AcDbBlockBegin
  2
*D5
 70
     1
 10
0.0
 20
0.0
 30
0.0
  3
*D5
  1

  0
LINE
  5
BD70
330
BB2D
100
AcDbEntity
  8
AM_5
100
AcDbLine
 10
223.3885381857683
 20
219.0274032527727
 30
0.0
 11
223.3885381857683
 21
244.7593042527727
 31
0.0
  0
LINE
  5
BD71
330
BB2D
100
AcDbEntity
  8
AM_5
100
AcDbLine
 10
273.3885391857682
 20
219.0274032527727
 30
0.0
 11
273.3885391857682
 21
244.7593042527727
 31
0.0
  0
LINE
  5
BD72
330
BB2D
100
AcDbEntity
  8
AM_5
100
AcDbLine
 10
224.3885381857683
 20
243.7593042527727
 30
0.0
 11
272.3885391857682
 21
243.7593042527727
 31
0.0
  0
INSERT
  5
BD73
330
BB2D
100
AcDbEntity
  8
AM_5
100
AcDbBlockReference
  2
_Dot
 10
223.3885381857683
 20
243.7593042527727
 30
0.0
 50
180.0
  0
INSERT
  5
BD74
330
BB2D
100
AcDbEntity
  8
AM_5
100
AcDbBlockReference
  2
_Dot
 10
273.3885391857682
 20
243.7593042527727
 30
0.0
  0
MTEXT
  5
BD75
330
BB2D
100
AcDbEntity
  8
AM_5
 62
     2
100
AcDbMText
 10
248.3885386857683
 20
246.8593042527727
 30
0.0
 40
3.200000000000001
 41
0.0
 71
     5
 72
     1
  1
%%c50
 73
     1
 44
1.0
  0
POINT
  5
BD76
330
BB2D
100
AcDbEntity
  8
Defpoints
 62
     0
100
AcDbPoint
 10
223.3885381857683
 20
218.0274032527727
 30
0.0
  0
POINT
  5
BD77
330
BB2D
100
AcDbEntity
  8
Defpoints
 62
     0
100
AcDbPoint
 10
273.3885391857682
 20
218.0274032527727
 30
0.0
  0
POINT
  5
BD78
330
BB2D
100
AcDbEntity
  8
Defpoints
 62
     0
100
AcDbPoint
 10
273.3885391857682
 20
243.7593042527727
 30
0.0
  0
ENDBLK
  5
BB38
330
BB2D
100
AcDbEntity
  8
0
100
AcDbBlockEnd
  0
BLOCK
  5
BB56
330
BB4C
100
AcDbEntity
  8
0
100
AcDbBlockBegin
  2
*D6
 70
     1
 10
0.0
 20
0.0
 30
0.0
  3
*D6
  1

  0
LINE
  5
BD79
330
BB4C
100
AcDbEntity
  8
AM_5
100
AcDbLine
 10
220.3885421857683
 20
217.5164632527727
 30
0.0
 11
220.3885421857683
 21
254.7593042527727
 31
0.0
  0
LINE
  5
BD7A
330
BB4C
100
AcDbEntity
  8
AM_5
100
AcDbLine
 10
276.3885389857683
 20
216.9960132527727
 30
0.0
 11
276.3885389857683
 21
254.7593042527727
 31
0.0
  0
LINE
  5
BD7B
330
BB4C
100
AcDbEntity
  8
AM_5
100
AcDbLine
 10
221.3885421857683
 20
253.7593042527727
 30
0.0
 11
275.3885389857683
 21
253.7593042527727
 31
0.0
  0
INSERT
  5
BD7C
330
BB4C
100
AcDbEntity
  8
AM_5
100
AcDbBlockReference
  2
_Dot
 10
220.3885421857683
 20
253.7593042527727
 30
0.0
 50
180.0
  0
INSERT
  5
BD7D
330
BB4C
100
AcDbEntity
  8
AM_5
100
AcDbBlockReference
  2
_Dot
 10
276.3885389857683
 20
253.7593042527727
 30
0.0
  0
MTEXT
  5
BD7E
330
BB4C
100
AcDbEntity
  8
AM_5
 62
     2
100
AcDbMText
 10
248.3885405857683
 20
256.8593042527727
 30
0.0
 40
3.200000000000001
 41
0.0
 71
     5
 72
     1
  1
56
 73
     1
 44
1.0
  0
POINT
  5
BD7F
330
BB4C
100
AcDbEntity
  8
Defpoints
 62
     0
100
AcDbPoint
 10
220.3885421857683
 20
216.5164632527727
 30
0.0
  0
POINT
  5
BD80
330
BB4C
100
AcDbEntity
  8
Defpoints
 62
     0
100
AcDbPoint
 10
276.3885389857683
 20
215.9960132527727
 30
0.0
  0
POINT
  5
BD81
330
BB4C
100
AcDbEntity
  8
Defpoints
 62
     0
100
AcDbPoint
 10
276.3885389857683
 20
253.7593042527727
 30
0.0
  0
ENDBLK
  5
BB57
330
BB4C
100
AcDbEntity
  8
0
100
AcDbBlockEnd
  0
BLOCK
  5
BB7E
330
BB74
100
AcDbEntity
  8
0
100
AcDbBlockBegin
  2
*D7
 70
     1
 10
0.0
 20
0.0
 30
0.0
  3
*D7
  1

  0
LINE
  5
BD82
330
BB74
100
AcDbEntity
  8
AM_5
100
AcDbLine
 10
215.8885421857683
 20
201.8230432527727
 30
0.0
 11
215.8885421857683
 21
189.6274102527917
 31
0.0
  0
LINE
  5
BD83
330
BB74
100
AcDbEntity
  8
AM_5
100
AcDbLine
 10
280.8885417857683
 20
201.8264632527727
 30
0.0
 11
280.8885417857683
 21
189.6274102527917
 31
0.0
  0
LINE
  5
BD84
330
BB74
100
AcDbEntity
  8
AM_5
100
AcDbLine
 10
216.8885421857683
 20
190.6274102527917
 30
0.0
 11
279.8885417857683
 21
190.6274102527917
 31
0.0
  0
INSERT
  5
BD85
330
BB74
100
AcDbEntity
  8
AM_5
100
AcDbBlockReference
  2
_Dot
 10
215.8885421857683
 20
190.6274102527917
 30
0.0
 50
180.0
  0
INSERT
  5
BD86
330
BB74
100
AcDbEntity
  8
AM_5
100
AcDbBlockReference
  2
_Dot
 10
280.8885417857683
 20
190.6274102527917
 30
0.0
  0
MTEXT
  5
BD87
330
BB74
100
AcDbEntity
  8
AM_5
 62
     2
100
AcDbMText
 10
248.3885419857683
 20
193.7274102527917
 30
0.0
 40
3.200000000000001
 41
0.0
 71
     5
 72
     1
  1
65
 73
     1
 44
1.0
  0
POINT
  5
BD88
330
BB74
100
AcDbEntity
  8
Defpoints
 62
     0
100
AcDbPoint
 10
215.8885421857683
 20
202.8230432527727
 30
0.0
  0
POINT
  5
BD89
330
BB74
100
AcDbEntity
  8
Defpoints
 62
     0
100
AcDbPoint
 10
280.8885417857683
 20
202.8264632527727
 30
0.0
  0
POINT
  5
BD8A
330
BB74
100
AcDbEntity
  8
Defpoints
 62
     0
100
AcDbPoint
 10
280.8885417857683
 20
190.6274102527917
 30
0.0
  0
ENDBLK
  5
BB7F
330
BB74
100
AcDbEntity
  8
0
100
AcDbBlockEnd
  0
BLOCK
  5
BB96
330
BB8A
100
AcDbEntity
  8
0
100
AcDbBlockBegin
  2
*D8
 70
     1
 10
0.0
 20
0.0
 30
0.0
  3
*D8
  1

  0
LINE
  5
BD8B
330
BB8A
100
AcDbEntity
  8
AM_5
100
AcDbLine
 10
314.3885231857682
 20
221.3274032527727
 30
0.0
 11
326.3885231857683
 21
221.3274032527727
 31
0.0
  0
LINE
  5
BD8C
330
BB8A
100
AcDbEntity
  8
AM_5
100
AcDbLine
 10
314.3885231857682
 20
223.6273932527727
 30
0.0
 11
326.3885231857683
 21
223.6273932527726
 31
0.0
  0
LINE
  5
BD8D
330
BB8A
100
AcDbEntity
  8
AM_5
100
AcDbLine
 10
325.3885231857683
 20
220.3274032527727
 30
0.0
 11
325.3885231857683
 21
219.3274032527727
 31
0.0
  0
LINE
  5
BD8E
330
BB8A
100
AcDbEntity
  8
AM_5
100
AcDbLine
 10
325.3885231857683
 20
224.6273932527726
 30
0.0
 11
325.3885231857683
 21
241.2072893403277
 31
0.0
  0
LINE
  5
BD8F
330
BB8A
100
AcDbEntity
  8
AM_5
100
AcDbLine
 10
325.3885231857683
 20
221.3274032527727
 30
0.0
 11
325.3885231857683
 21
223.6273932527726
 31
0.0
  0
INSERT
  5
BD90
330
BB8A
100
AcDbEntity
  8
AM_5
100
AcDbBlockReference
  2
_Dot
 10
325.3885231857683
 20
221.3274032527727
 30
0.0
 50
90.0
  0
INSERT
  5
BD91
330
BB8A
100
AcDbEntity
  8
AM_5
100
AcDbBlockReference
  2
_Dot
 10
325.3885231857683
 20
223.6273932527726
 30
0.0
 50
270.0
  0
MTEXT
  5
BD92
330
BB8A
100
AcDbEntity
  8
AM_5
 62
     2
100
AcDbMText
 10
322.2885231857682
 20
237.3606226736611
 30
0.0
 40
3.200000000000001
 41
0.0
 71
     5
 72
     1
  1
2.3
 11
6.123233995736766E-17
 21
1.0
 31
0.0
 73
     1
 44
1.0
  0
POINT
  5
BD93
330
BB8A
100
AcDbEntity
  8
Defpoints
 62
     0
100
AcDbPoint
 10
313.3885231857682
 20
221.3274032527727
 30
0.0
  0
POINT
  5
BD94
330
BB8A
100
AcDbEntity
  8
Defpoints
 62
     0
100
AcDbPoint
 10
313.3885231857682
 20
223.6273932527727
 30
0.0
  0
POINT
  5
BD95
330
BB8A
100
AcDbEntity
  8
Defpoints
 62
     0
100
AcDbPoint
 10
325.3885231857683
 20
223.6273932527726
 30
0.0
  0
ENDBLK
  5
BB97
330
BB8A
100
AcDbEntity
  8
0
100
AcDbBlockEnd
  0
BLOCK
  5
BBAE
330
BBA4
100
AcDbEntity
  8
0
100
AcDbBlockBegin
  2
*D9
 70
     1
 10
0.0
 20
0.0
 30
0.0
  3
*D9
  1

  0
LINE
  5
BD96
330
BBA4
100
AcDbEntity
  8
AM_5
100
AcDbLine
 10
314.3885231857682
 20
221.3274032527727
 30
0.0
 11
326.3885241857682
 21
221.3274032527727
 31
0.0
  0
LINE
  5
BD97
330
BBA4
100
AcDbEntity
  8
AM_5
100
AcDbLine
 10
297.7885331857683
 20
207.3274032527727
 30
0.0
 11
326.3885241857682
 21
207.3274032527727
 31
0.0
  0
LINE
  5
BD98
330
BBA4
100
AcDbEntity
  8
AM_5
100
AcDbLine
 10
325.3885241857682
 20
220.3274032527727
 30
0.0
 11
325.3885241857682
 21
208.3274032527727
 31
0.0
  0
INSERT
  5
BD99
330
BBA4
100
AcDbEntity
  8
AM_5
100
AcDbBlockReference
  2
_Dot
 10
325.3885241857682
 20
221.3274032527727
 30
0.0
 50
90.0
  0
INSERT
  5
BD9A
330
BBA4
100
AcDbEntity
  8
AM_5
100
AcDbBlockReference
  2
_Dot
 10
325.3885241857682
 20
207.3274032527727
 30
0.0
 50
270.0
  0
MTEXT
  5
BD9B
330
BBA4
100
AcDbEntity
  8
AM_5
 62
     2
100
AcDbMText
 10
322.2885241857682
 20
214.3274032527727
 30
0.0
 40
3.200000000000001
 41
0.0
 71
     5
 72
     1
  1
※14
 11
6.123233995736766E-17
 21
1.0
 31
0.0
 73
     1
 44
1.0
  0
POINT
  5
BD9C
330
BBA4
100
AcDbEntity
  8
Defpoints
 62
     0
100
AcDbPoint
 10
313.3885231857682
 20
221.3274032527727
 30
0.0
  0
POINT
  5
BD9D
330
BBA4
100
AcDbEntity
  8
Defpoints
 62
     0
100
AcDbPoint
 10
296.7885331857683
 20
207.3274032527727
 30
0.0
  0
POINT
  5
BD9E
330
BBA4
100
AcDbEntity
  8
Defpoints
 62
     0
100
AcDbPoint
 10
325.3885241857682
 20
207.3274032527727
 30
0.0
  0
ENDBLK
  5
BBAF
330
BBA4
100
AcDbEntity
  8
0
100
AcDbBlockEnd
  0
BLOCK
  5
BBD7
330
BBCC
100
AcDbEntity
  8
0
100
AcDbBlockBegin
  2
*D10
 70
     1
 10
0.0
 20
0.0
 30
0.0
  3
*D10
  1

  0
LINE
  5
BD9F
330
BBCC
100
AcDbEntity
  8
AM_5
100
AcDbLine
 10
297.7885331857683
 20
207.3274032527727
 30
0.0
 11
326.3885241857683
 21
207.3274032527727
 31
0.0
  0
LINE
  5
BDA0
330
BBCC
100
AcDbEntity
  8
AM_5
100
AcDbLine
 10
279.3776894857683
 20
200.6274102527726
 30
0.0
 11
326.3885241857683
 21
200.6274102527726
 31
0.0
  0
LINE
  5
BDA1
330
BBCC
100
AcDbEntity
  8
AM_5
100
AcDbLine
 10
325.3885241857683
 20
206.3274032527727
 30
0.0
 11
325.3885241857683
 21
201.6274102527726
 31
0.0
  0
LINE
  5
BDA2
330
BBCC
100
AcDbEntity
  8
AM_5
100
AcDbLine
 10
325.3885241857683
 20
200.6274102527726
 30
0.0
 11
325.3885241857683
 21
192.0407435861059
 31
0.0
  0
INSERT
  5
BDA3
330
BBCC
100
AcDbEntity
  8
AM_5
100
AcDbBlockReference
  2
_Dot
 10
325.3885241857683
 20
207.3274032527727
 30
0.0
 50
90.0
  0
INSERT
  5
BDA4
330
BBCC
100
AcDbEntity
  8
AM_5
100
AcDbBlockReference
  2
_Dot
 10
325.3885241857683
 20
200.6274102527726
 30
0.0
 50
270.0
  0
MTEXT
  5
BDA5
330
BBCC
100
AcDbEntity
  8
AM_5
 62
     2
100
AcDbMText
 10
322.2885241857683
 20
195.8340769194394
 30
0.0
 40
3.200000000000001
 41
0.0
 71
     5
 72
     1
  1
6.7
 11
6.123233995736766E-17
 21
1.0
 31
0.0
 73
     1
 44
1.0
  0
POINT
  5
BDA6
330
BBCC
100
AcDbEntity
  8
Defpoints
 62
     0
100
AcDbPoint
 10
296.7885331857683
 20
207.3274032527727
 30
0.0
  0
POINT
  5
BDA7
330
BBCC
100
AcDbEntity
  8
Defpoints
 62
     0
100
AcDbPoint
 10
278.3776894857683
 20
200.6274102527726
 30
0.0
  0
POINT
  5
BDA8
330
BBCC
100
AcDbEntity
  8
Defpoints
 62
     0
100
AcDbPoint
 10
325.3885241857683
 20
200.6274102527726
 30
0.0
  0
ENDBLK
  5
BBD8
330
BBCC
100
AcDbEntity
  8
0
100
AcDbBlockEnd
  0
BLOCK
  5
BBEE
330
BBE4
100
AcDbEntity
  8
0
100
AcDbBlockBegin
  2
*D11
 70
     1
 10
0.0
 20
0.0
 30
0.0
  3
*D11
  1

  0
LINE
  5
BDA9
330
BBE4
100
AcDbEntity
  8
AM_5
100
AcDbLine
 10
297.7885331857683
 20
207.3274032527727
 30
0.0
 11
336.3885241857683
 21
207.3274032527727
 31
0.0
  0
LINE
  5
BDAA
330
BBE4
100
AcDbEntity
  8
AM_5
100
AcDbLine
 10
254.1024721857682
 20
232.2274032527727
 30
0.0
 11
336.3885241857683
 21
232.2274032527726
 31
0.0
  0
LINE
  5
BDAB
330
BBE4
100
AcDbEntity
  8
AM_5
100
AcDbLine
 10
335.3885241857683
 20
208.3274032527727
 30
0.0
 11
335.3885241857683
 21
231.2274032527726
 31
0.0
  0
INSERT
  5
BDAC
330
BBE4
100
AcDbEntity
  8
AM_5
100
AcDbBlockReference
  2
_Dot
 10
335.3885241857683
 20
207.3274032527727
 30
0.0
 50
270.0
  0
INSERT
  5
BDAD
330
BBE4
100
AcDbEntity
  8
AM_5
100
AcDbBlockReference
  2
_Dot
 10
335.3885241857683
 20
232.2274032527726
 30
0.0
 50
90.0
  0
MTEXT
  5
BDAE
330
BBE4
100
AcDbEntity
  8
AM_5
 62
     2
100
AcDbMText
 10
332.2885241857683
 20
219.7774032527727
 30
0.0
 40
3.200000000000001
 41
0.0
 71
     5
 72
     1
  1
（25）
 11
6.123233995736766E-17
 21
1.0
 31
0.0
 73
     1
 44
1.0
  0
POINT
  5
BDAF
330
BBE4
100
AcDbEntity
  8
Defpoints
 62
     0
100
AcDbPoint
 10
296.7885331857683
 20
207.3274032527727
 30
0.0
  0
POINT
  5
BDB0
330
BBE4
100
AcDbEntity
  8
Defpoints
 62
     0
100
AcDbPoint
 10
253.1024721857682
 20
232.2274032527727
 30
0.0
  0
POINT
  5
BDB1
330
BBE4
100
AcDbEntity
  8
Defpoints
 62
     0
100
AcDbPoint
 10
335.3885241857683
 20
232.2274032527726
 30
0.0
  0
ENDBLK
  5
BBEF
330
BBE4
100
AcDbEntity
  8
0
100
AcDbBlockEnd
  0
BLOCK
  5
BC40
330
BC36
100
AcDbEntity
  8
0
100
AcDbBlockBegin
  2
*D12
 70
     1
 10
0.0
 20
0.0
 30
0.0
  3
*D12
  1

  0
LINE
  5
BDB2
330
BC36
100
AcDbEntity
  8
AM_5
100
AcDbLine
 10
248.3885381857683
 20
53.49763825277267
 30
0.0
 11
248.3885381857683
 21
44.49763824277271
 31
0.0
  0
LINE
  5
BDB3
330
BC36
100
AcDbEntity
  8
AM_5
100
AcDbLine
 10
313.3885381857683
 20
88.99763896479338
 30
0.0
 11
313.3885381857683
 21
44.49763824277271
 31
0.0
  0
LINE
  5
BDB4
330
BC36
100
AcDbEntity
  8
AM_5
100
AcDbLine
 10
249.3885381857683
 20
45.49763824277271
 30
0.0
 11
312.3885381857683
 21
45.49763824277271
 31
0.0
  0
INSERT
  5
BDB5
330
BC36
100
AcDbEntity
  8
AM_5
100
AcDbBlockReference
  2
_Dot
 10
248.3885381857683
 20
45.49763824277271
 30
0.0
 50
180.0
  0
INSERT
  5
BDB6
330
BC36
100
AcDbEntity
  8
AM_5
100
AcDbBlockReference
  2
_Dot
 10
313.3885381857683
 20
45.49763824277271
 30
0.0
  0
MTEXT
  5
BDB7
330
BC36
100
AcDbEntity
  8
AM_5
 62
     2
100
AcDbMText
 10
280.8885381857683
 20
48.59763824277271
 30
0.0
 40
3.200000000000001
 41
0.0
 71
     5
 72
     1
  1
65
 73
     1
 44
1.0
  0
POINT
  5
BDB8
330
BC36
100
AcDbEntity
  8
Defpoints
 62
     0
100
AcDbPoint
 10
248.3885381857683
 20
54.49763825277267
 30
0.0
  0
POINT
  5
BDB9
330
BC36
100
AcDbEntity
  8
Defpoints
 62
     0
100
AcDbPoint
 10
313.3885381857683
 20
89.99763896479338
 30
0.0
  0
POINT
  5
BDBA
330
BC36
100
AcDbEntity
  8
Defpoints
 62
     0
100
AcDbPoint
 10
313.3885381857683
 20
45.49763824277271
 30
0.0
  0
ENDBLK
  5
BC41
330
BC36
100
AcDbEntity
  8
0
100
AcDbBlockEnd
  0
BLOCK
  5
BC56
330
BC4C
100
AcDbEntity
  8
0
100
AcDbBlockBegin
  2
*D13
 70
     1
 10
0.0
 20
0.0
 30
0.0
  3
*D13
  1

  0
LINE
  5
BC58
330
BC4C
100
AcDbEntity
  8
AM_5
100
AcDbLine
 10
152.7724765262941
 20
96.24763905277271
 30
0.0
 11
152.7724765262941
 21
128.4976402627727
 31
0.0
  0
LINE
  5
BC59
330
BC4C
100
AcDbEntity
  8
AM_5
100
AcDbLine
 10
96.7724735262941
 20
96.24763905277271
 30
0.0
 11
96.7724735262941
 21
128.4976402627727
 31
0.0
  0
LINE
  5
BC5A
330
BC4C
100
AcDbEntity
  8
AM_5
100
AcDbLine
 10
151.7724765262941
 20
127.4976402627727
 30
0.0
 11
97.7724735262941
 21
127.4976402627727
 31
0.0
  0
INSERT
  5
BC5B
330
BC4C
100
AcDbEntity
  8
AM_5
100
AcDbBlockReference
  2
_Dot
 10
152.7724765262941
 20
127.4976402627727
 30
0.0
  0
INSERT
  5
BC5C
330
BC4C
100
AcDbEntity
  8
AM_5
100
AcDbBlockReference
  2
_Dot
 10
96.7724735262941
 20
127.4976402627727
 30
0.0
 50
180.0
  0
MTEXT
  5
BC5D
330
BC4C
100
AcDbEntity
  8
AM_5
 62
     2
100
AcDbMText
 10
124.7724750262941
 20
130.5976402627727
 30
0.0
 40
3.200000000000001
 41
0.0
 71
     5
 72
     1
  1
56
 73
     1
 44
1.0
  0
POINT
  5
BC5E
330
BC4C
100
AcDbEntity
  8
Defpoints
 62
     0
100
AcDbPoint
 10
152.7724765262941
 20
95.24763905277271
 30
0.0
  0
POINT
  5
BC5F
330
BC4C
100
AcDbEntity
  8
Defpoints
 62
     0
100
AcDbPoint
 10
96.7724735262941
 20
95.24763905277271
 30
0.0
  0
POINT
  5
BC60
330
BC4C
100
AcDbEntity
  8
Defpoints
 62
     0
100
AcDbPoint
 10
96.7724735262941
 20
127.4976402627727
 30
0.0
  0
ENDBLK
  5
BC57
330
BC4C
100
AcDbEntity
  8
0
100
AcDbBlockEnd
  0
BLOCK
  5
BCB3
330
BCB0
100
AcDbEntity
  8
0
100
AcDbBlockBegin
  2
GENDOT
 70
     0
 10
0.0
 20
0.0
 30
0.0
  3
GENDOT
  1

  0
LINE
  5
BCB1
330
BCB0
100
AcDbEntity
  8
0
100
AcDbLine
 10
0.0
 20
0.0
 30
0.0
 11
-1.0
 21
0.0
 31
0.0
  0
LWPOLYLINE
  5
BCB2
330
BCB0
100
AcDbEntity
  8
0
100
AcDbPolyline
 90
        2
 70
     1
 10
-0.125
 20
0.0
 40
0.25
 41
0.25
 42
1.0
 10
0.125
 20
0.0
 40
0.25
 41
0.25
 42
1.0
  0
ENDBLK
  5
BCB4
330
BCB0
100
AcDbEntity
  8
0
100
AcDbBlockEnd
  0
BLOCK
  5
BDD1
330
BDC5
100
AcDbEntity
  8
0
100
AcDbBlockBegin
  2
*D17
 70
     1
 10
0.0
 20
0.0
 30
0.0
  3
*D17
  1

  0
ARC
  5
BDDE
330
BDC5
100
AcDbEntity
  8
AM_5
100
AcDbCircle
 10
248.3885381857683
 20
89.99763925277269
 30
0.0
 40
52.3458865356497
100
AcDbArc
 50
1.094577904737877
 51
88.90542209526204
  0
INSERT
  5
BDDF
330
BDC5
100
AcDbEntity
  8
AM_5
100
AcDbBlockReference
  2
_Dot
 10
300.734424721418
 20
89.99763925277267
 30
0.0
 50
270.5472889523689
  0
INSERT
  5
BDE0
330
BDC5
100
AcDbEntity
  8
AM_5
100
AcDbBlockReference
  2
_Dot
 10
248.3885381857684
 20
142.3435257884224
 30
0.0
 50
179.452711047631
  0
MTEXT
  5
BDE1
330
BDC5
100
AcDbEntity
  8
AM_5
 62
     2
100
AcDbMText
 10
287.7007665612041
 20
129.3098676282085
 30
0.0
 40
3.5
 41
0.0
 71
     5
 72
     1
  1
90°
 11
0.7071067811865476
 21
-0.7071067811865475
 31
0.0
 73
     1
 44
1.0
  0
POINT
  5
BDE2
330
BDC5
100
AcDbEntity
  8
Defpoints
 62
     0
100
AcDbPoint
 10
293.7214057092588
 20
116.1705825205975
 30
0.0
  0
POINT
  5
BDE3
330
BDC5
100
AcDbEntity
  8
Defpoints
 62
     0
100
AcDbPoint
 10
316.3885381857683
 20
89.99763925277267
 30
0.0
  0
POINT
  5
BDE4
330
BDC5
100
AcDbEntity
  8
Defpoints
 62
     0
100
AcDbPoint
 10
248.3885381857683
 20
157.9976462527726
 30
0.0
  0
POINT
  5
BDE5
330
BDC5
100
AcDbEntity
  8
Defpoints
 62
     0
100
AcDbPoint
 10
248.3885381857683
 20
54.49763825277267
 30
0.0
  0
POINT
  5
BDE6
330
BDC5
100
AcDbEntity
  8
Defpoints
 62
     0
100
AcDbPoint
 10
212.8885421857683
 20
89.99763925277266
 30
0.0
  0
ENDBLK
  5
BDD2
330
BDC5
100
AcDbEntity
  8
0
100
AcDbBlockEnd
  0
BLOCK
  5
BE2A
330
BE21
100
AcDbEntity
  8
0
100
AcDbBlockBegin
  2
*D18
 70
     1
 10
0.0
 20
0.0
 30
0.0
  3
*D18
  1

  0
LINE
  5
BE77
330
BE21
100
AcDbEntity
  8
AM_5
100
AcDbLine
 10
76.04662925771572
 20
98.1490341946023
 30
0.0
 11
87.57996259104908
 21
98.14903419460231
 31
0.0
  0
LINE
  5
BE78
330
BE21
100
AcDbEntity
  8
AM_5
100
AcDbLine
 10
87.57996259104908
 20
98.14903419460231
 30
0.0
 11
93.59259794636753
 21
92.81737173940803
 31
0.0
  0
LINE
  5
BE79
330
BE21
100
AcDbEntity
  8
AM_5
100
AcDbLine
 10
99.95234910622068
 20
87.17790676613737
 30
0.0
 11
101.4487611438332
 21
85.85097383125014
 31
0.0
  0
MTEXT
  5
BE7A
330
BE21
100
AcDbEntity
  8
AM_5
 62
     2
100
AcDbMText
 10
79.72162925771572
 20
101.3990341946023
 30
0.0
 40
3.5
 41
0.0
 71
     5
 72
     1
  1
\U+22054.5
 73
     1
 44
1.0
  0
LINE
  5
BE7B
330
BE21
100
AcDbEntity
  8
AM_5
100
AcDbLine
 10
98.45593706860818
 20
88.50483970102458
 30
0.0
 11
95.08900998398003
 21
91.49043880452082
 31
0.0
  0
INSERT
  5
BE7C
330
BE21
100
AcDbEntity
  8
AM_5
100
AcDbBlockReference
  2
GENDOT
 10
98.45593706860818
 20
88.50483970102458
 30
0.0
 41
2.0
 42
2.0
 43
2.0
 50
138.4352157579154
  0
INSERT
  5
BE7D
330
BE21
100
AcDbEntity
  8
AM_5
100
AcDbBlockReference
  2
GENDOT
 10
95.08900998398003
 20
91.49043880452082
 30
0.0
 41
2.0
 42
2.0
 43
2.0
 50
318.4352157579154
  0
POINT
  5
BE7E
330
BE21
100
AcDbEntity
  8
Defpoints
 62
     0
100
AcDbPoint
 10
95.08900998398003
 20
91.49043880452082
 30
0.0
  0
POINT
  5
BE7F
330
BE21
100
AcDbEntity
  8
Defpoints
 62
     0
100
AcDbPoint
 10
98.45593706860818
 20
88.50483970102458
 30
0.0
  0
ENDBLK
  5
BE2B
330
BE21
100
AcDbEntity
  8
0
100
AcDbBlockEnd
  0
BLOCK
  5
BE63
330
BE5A
100
AcDbEntity
  8
0
100
AcDbBlockBegin
  2
*D19
 70
     1
 10
0.0
 20
0.0
 30
0.0
  3
*D19
  1

  0
LINE
  5
BE9B
330
BE5A
100
AcDbEntity
  8
AM_5
100
AcDbLine
 10
82.9819885266195
 20
65.67950579207671
 30
0.0
 11
92.6486551932862
 21
65.67950579207671
 31
0.0
  0
LINE
  5
BE9C
330
BE5A
100
AcDbEntity
  8
AM_5
100
AcDbLine
 10
92.6486551932862
 20
65.67950579207671
 30
0.0
 11
102.8464991667274
 21
73.39940088757957
 31
0.0
  0
LINE
  5
BE9D
330
BE5A
100
AcDbEntity
  8
AM_5
100
AcDbLine
 10
146.6984538858608
 20
106.5958776179659
 30
0.0
 11
148.293070421102
 21
107.8030222263436
 31
0.0
  0
MTEXT
  5
BE9E
330
BE5A
100
AcDbEntity
  8
AM_5
 62
     2
100
AcDbMText
 10
85.72365519328618
 20
68.92950579207671
 30
0.0
 40
3.5
 41
0.0
 71
     5
 72
     1
  1
\U+220551
 73
     1
 44
1.0
  0
LINE
  5
BE9F
330
BE5A
100
AcDbEntity
  8
AM_5
100
AcDbLine
 10
145.1038373506196
 20
105.3887330095882
 30
0.0
 11
104.4411157019686
 21
74.60654549595725
 31
0.0
  0
INSERT
  5
BEA0
330
BE5A
100
AcDbEntity
  8
AM_5
100
AcDbBlockReference
  2
GENDOT
 10
145.1038373506196
 20
105.3887330095882
 30
0.0
 41
2.0
 42
2.0
 43
2.0
 50
217.1261758058715
  0
INSERT
  5
BEA1
330
BE5A
100
AcDbEntity
  8
AM_5
100
AcDbBlockReference
  2
GENDOT
 10
104.4411157019686
 20
74.60654549595725
 30
0.0
 41
2.0
 42
2.0
 43
2.0
 50
37.12617580587152
  0
POINT
  5
BEA2
330
BE5A
100
AcDbEntity
  8
Defpoints
 62
     0
100
AcDbPoint
 10
104.4411157019686
 20
74.60654549595725
 30
0.0
  0
POINT
  5
BEA3
330
BE5A
100
AcDbEntity
  8
Defpoints
 62
     0
100
AcDbPoint
 10
145.1038373506196
 20
105.3887330095882
 30
0.0
  0
ENDBLK
  5
BE64
330
BE5A
100
AcDbEntity
  8
0
100
AcDbBlockEnd
  0
BLOCK
  5
BEE7
330
BEE6
100
AcDbEntity
  8
AM_6
100
AcDbBlockBegin
  2
_ACMFILLED
 70
     0
 10
0.0
 20
0.0
 30
0.0
  3
_ACMFILLED
  1
Acad:XRef
  0
TRACE
  5
BEE9
330
BEE6
100
AcDbEntity
  8
AM_0
 62
     0
100
AcDbTrace
 10
-1.0
 20
0.1666666666666667
 30
0.0
 11
-1.0
 21
-0.1666666666666667
 31
0.0
 12
0.0
 22
0.0
 32
0.0
 13
0.0
 23
0.0
 33
0.0
  0
ENDBLK
  5
BEE8
330
BEE6
100
AcDbEntity
  8
AM_6
100
AcDbBlockEnd
  0
BLOCK
  5
BEEE
330
BEED
100
AcDbEntity
  8
AM_6
100
AcDbBlockBegin
  2
_ACMOPEN30
 70
     0
 10
0.0
 20
0.0
 30
0.0
  3
_ACMOPEN30
  1
Acad:XRef
  0
LINE
  5
BEF0
330
BEED
100
AcDbEntity
  8
AM_0
 62
     0
100
AcDbLine
 10
-1.0
 20
0.0
 30
0.0
 11
0.0
 21
0.0
 31
0.0
  0
LINE
  5
BEF1
330
BEED
100
AcDbEntity
  8
AM_0
 62
     0
100
AcDbLine
 10
-1.0
 20
-0.2679491924311227
 30
0.0
 11
0.0
 21
0.0
 31
0.0
  0
LINE
  5
BEF2
330
BEED
100
AcDbEntity
  8
AM_0
 62
     0
100
AcDbLine
 10
-1.0
 20
0.2679491924311227
 30
0.0
 11
0.0
 21
0.0
 31
0.0
  0
ENDBLK
  5
BEEF
330
BEED
100
AcDbEntity
  8
AM_6
100
AcDbBlockEnd
  0
BLOCK
  5
BEFA
330
BEF9
100
AcDbEntity
  8
0
100
AcDbBlockBegin
  2
_ACMFILLEDHALF
 70
     0
 10
0.0
 20
0.0
 30
0.0
  3
_ACMFILLEDHALF
  1

  0
TRACE
  5
BEFB
330
BEF9
100
AcDbEntity
  8
0
 62
     0
100
AcDbTrace
 10
-0.8
 20
0.0
 30
0.0
 11
-1.0
 21
0.166666666
 31
0.0
 12
0.0
 22
0.0
 32
0.0
 13
0.0
 23
0.0
 33
0.0
  0
LINE
  5
BEFC
330
BEF9
100
AcDbEntity
  8
0
 62
     0
100
AcDbLine
 10
-1.0
 20
0.0
 30
0.0
 11
-0.8
 21
0.0
 31
0.0
  0
ENDBLK
  5
BEFD
330
BEF9
100
AcDbEntity
  8
0
100
AcDbBlockEnd
  0
BLOCK
  5
BF7D
330
BF76
100
AcDbEntity
  8
AM_6
100
AcDbBlockBegin
  2
*S23
 70
     1
 10
0.0
 20
0.0
 30
0.0
  3
*S23
  1
Acad:XRef
  0
LINE
  5
BF77
330
BF76
100
AcDbEntity
  8
AM_5
 62
     3
100
AcDbLine
 10
326.5264182800072
 20
209.5989106706044
 30
0.0
 11
325.3885241857683
 21
211.2436589888271
 31
0.0
  0
LINE
  5
BF78
330
BF76
100
AcDbEntity
  8
AM_5
 62
     3
100
AcDbLine
 10
326.9671272636275
 20
209.9038084742278
 30
0.0
 11
325.3885241857683
 21
211.2436589888271
 31
0.0
  0
LINE
  5
BF79
330
BF76
100
AcDbEntity
  8
AM_5
 62
     3
100
AcDbLine
 10
326.085709296387
 20
209.2940128669809
 30
0.0
 11
325.3885241857683
 21
211.2436589888271
 31
0.0
  0
LINE
  5
BF7A
330
BF76
100
AcDbEntity
  8
AM_5
 62
     3
100
AcDbLine
 10
326.5264182800071
 20
209.5989106706044
 30
0.0
 11
339.6515621364413
 21
190.6274102527727
 31
0.0
  0
LINE
  5
BF7B
330
BF76
100
AcDbEntity
  8
AM_5
 62
     3
100
AcDbLine
 10
339.6515621364413
 20
190.6274102527727
 30
0.0
 11
376.4515621364412
 21
190.6274102527727
 31
0.0
  0
MTEXT
  5
BF7C
330
BF76
100
AcDbEntity
  8
AM_5
 62
     2
370
    -3
100
AcDbMText
 10
376.4515621364412
 20
192.2274102527727
 30
0.0
 40
3.2
 41
0.0
 71
     9
 72
     1
  1
スペーサーの入れ替えにより\P13、14、15を選択可能
 73
     1
 44
1.0
  0
ENDBLK
  5
BF7E
330
BF76
100
AcDbEntity
  8
AM_6
100
AcDbBlockEnd
  0
BLOCK
  5
BF86
330
BF7F
100
AcDbEntity
  8
AM_6
100
AcDbBlockBegin
  2
*S24
 70
     1
 10
0.0
 20
0.0
 30
0.0
  3
*S24
  1
Acad:XRef
  0
LINE
  5
BF80
330
BF7F
100
AcDbEntity
  8
AM_5
 62
     3
100
AcDbLine
 10
310.2524276179995
 20
79.64586438091405
 30
0.0
 11
309.0425984745793
 21
81.23844513043073
 31
0.0
  0
LINE
  5
BF81
330
BF7F
100
AcDbEntity
  8
AM_5
 62
     3
100
AcDbLine
 10
310.6791583437139
 20
79.9700371228731
 30
0.0
 11
309.0425984745793
 21
81.23844513043073
 31
0.0
  0
LINE
  5
BF82
330
BF7F
100
AcDbEntity
  8
AM_5
 62
     3
100
AcDbLine
 10
309.8256968922851
 20
79.321691638955
 30
0.0
 11
309.0425984745793
 21
81.23844513043073
 31
0.0
  0
LINE
  5
BF83
330
BF7F
100
AcDbEntity
  8
AM_5
 62
     3
100
AcDbLine
 10
310.2524276179994
 20
79.64586438091402
 30
0.0
 11
317.6875265508387
 21
69.85853573571552
 31
0.0
  0
LINE
  5
BF84
330
BF7F
100
AcDbEntity
  8
AM_5
 62
     3
100
AcDbLine
 10
317.6875265508387
 20
69.85853573571552
 30
0.0
 11
328.3541932175053
 21
69.85853573571552
 31
0.0
  0
MTEXT
  5
BF85
330
BF7F
100
AcDbEntity
  8
AM_5
 62
     2
370
    -3
100
AcDbMText
 10
320.8875265508387
 20
71.45853573571551
 30
0.0
 40
3.2
 41
0.0
 71
     7
 72
     1
  1
施錠時
 73
     1
 44
1.0
  0
ENDBLK
  5
BF87
330
BF7F
100
AcDbEntity
  8
AM_6
100
AcDbBlockEnd
  0
BLOCK
  5
BF8F
330
BF88
100
AcDbEntity
  8
AM_6
100
AcDbBlockBegin
  2
*S25
 70
     1
 10
0.0
 20
0.0
 30
0.0
  3
*S25
  1
Acad:XRef
  0
LINE
  5
BF89
330
BF88
100
AcDbEntity
  8
AM_5
 62
     3
100
AcDbLine
 10
240.4450904259479
 20
153.9921800198449
 30
0.0
 11
241.7689983859179
 21
152.4930910586662
 31
0.0
  0
LINE
  5
BF8A
330
BF88
100
AcDbEntity
  8
AM_5
 62
     3
100
AcDbLine
 10
240.0434107494175
 20
153.6374399511177
 30
0.0
 11
241.7689983859179
 21
152.4930910586662
 31
0.0
  0
LINE
  5
BF8B
330
BF88
100
AcDbEntity
  8
AM_5
 62
     3
100
AcDbLine
 10
240.846770102478
 20
154.346920088572
 30
0.0
 11
241.7689983859179
 21
152.4930910586662
 31
0.0
  0
LINE
  5
BF8C
330
BF88
100
AcDbEntity
  8
AM_5
 62
     3
100
AcDbLine
 10
240.4450904259478
 20
153.9921800198449
 30
0.0
 11
236.5024290526467
 21
158.4565388129704
 31
0.0
  0
LINE
  5
BF8D
330
BF88
100
AcDbEntity
  8
AM_5
 62
     3
100
AcDbLine
 10
236.5024290526467
 20
158.4565388129704
 30
0.0
 11
225.83576238598
 21
158.4565388129704
 31
0.0
  0
MTEXT
  5
BF8E
330
BF88
100
AcDbEntity
  8
AM_5
 62
     2
370
    -3
100
AcDbMText
 10
233.3024290526467
 20
160.0565388129704
 30
0.0
 40
3.2
 41
0.0
 71
     9
 72
     1
  1
解錠時
 73
     1
 44
1.0
  0
ENDBLK
  5
BF90
330
BF88
100
AcDbEntity
  8
AM_6
100
AcDbBlockEnd
  0
ENDSEC
  0
SECTION
  2
ENTITIES
  0
LINE
  5
B52D
330
1F
100
AcDbEntity
  8
AM_0
100
AcDbLine
 10
11.50000073322758
 20
288.4999999999999
 30
0.0
 11
11.5
 21
105.4999999999999
 31
0.0
  0
LINE
  5
B534
330
1F
100
AcDbEntity
  8
size
100
AcDbLine
 10
0.0
 20
0.0
 30
0.0
 11
420.0000007332276
 21
0.0
 31
0.0
1001
GENIUS_GENREC_14
1002
{
1000
PYDIR
1011
0.0
1021
209.9999999999999
1031
0.0
1002
}
1002
{
1000
PXDIR
1011
420.0000007332276
1021
0.0
1031
0.0
1002
}
1002
{
1000
PORI
1011
0.0
1021
0.0
1031
0.0
1002
}
1002
{
1000
PINS
1011
210.0
1021
61.49999999999999
1031
0.0
1002
}
1002
{
1000
HVAL
1000
297
1002
}
1002
{
1000
H
1070
     2
1002
}
1002
{
1000
WVAL
1000
420
1002
}
1002
{
1000
W
1070
     2
1002
}
1002
{
1000
C
1070
     4
1002
}
1001
GENIUS_GENOBJ-N-REC_13
1002
{
1000
OWNER
1000
GEN
1002
}
1001
GENIUS_GENODEF_13
1002
{
1000
HIER
1070
     0
1002
}
1002
{
1000
MANEDIT
1070
     0
1002
}
1002
{
1000
NOSEL
1070
     0
1002
}
1002
{
1000
BEHIND
1070
     0
1002
}
1002
{
1000
OTHER
1070
     0
1002
}
1002
{
1000
REACTOR
1002
}
  0
LINE
  5
B535
330
1F
100
AcDbEntity
  8
size
100
AcDbLine
 10
420.0000007332276
 20
0.0
 30
0.0
 11
420.0000007332276
 21
296.9999999999999
 31
0.0
1001
GENIUS_GENREC_14
1002
{
1000
PYDIR
1011
125.2556127075561
1021
209.9999999999999
1031
0.0
1002
}
1002
{
1000
PXDIR
1011
420.0000007332276
1021
0.0
1031
0.0
1002
}
1002
{
1000
PORI
1011
125.2556127075561
1021
0.0
1031
0.0
1002
}
1002
{
1000
PINS
1011
335.2556127075562
1021
61.49999999999999
1031
0.0
1002
}
1002
{
1000
HVAL
1000
297
1002
}
1002
{
1000
H
1070
     2
1002
}
1002
{
1000
WVAL
1000
420
1002
}
1002
{
1000
W
1070
     2
1002
}
1002
{
1000
C
1070
     4
1002
}
1001
GENIUS_GENOBJ-N-REC_13
1002
{
1000
OWNER
1000
GEN
1002
}
1001
GENIUS_GENODEF_13
1002
{
1000
HIER
1070
     0
1002
}
1002
{
1000
MANEDIT
1070
     0
1002
}
1002
{
1000
NOSEL
1070
     0
1002
}
1002
{
1000
BEHIND
1070
     0
1002
}
1002
{
1000
OTHER
1070
     0
1002
}
1002
{
1000
REACTOR
1002
}
  0
LINE
  5
B536
330
1F
100
AcDbEntity
  8
size
100
AcDbLine
 10
420.0000007332276
 20
296.9999999999999
 30
0.0
 11
0.0
 21
296.9999999999999
 31
0.0
1001
GENIUS_GENREC_14
1002
{
1000
PYDIR
1011
0.0
1021
296.9999999999999
1031
0.0
1002
}
1002
{
1000
PXDIR
1011
294.7443880256715
1021
-0.0000000000000568
1031
0.0
1002
}
1002
{
1000
PORI
1011
0.0
1021
-0.0000000000000568
1031
0.0
1002
}
1002
{
1000
PINS
1011
210.0
1021
148.4999999999999
1031
0.0
1002
}
1002
{
1000
HVAL
1000
297
1002
}
1002
{
1000
H
1070
     2
1002
}
1002
{
1000
WVAL
1000
420
1002
}
1002
{
1000
W
1070
     2
1002
}
1002
{
1000
C
1070
     4
1002
}
1001
GENIUS_GENOBJ-N-REC_13
1002
{
1000
OWNER
1000
GEN
1002
}
1001
GENIUS_GENODEF_13
1002
{
1000
HIER
1070
     0
1002
}
1002
{
1000
MANEDIT
1070
     0
1002
}
1002
{
1000
NOSEL
1070
     0
1002
}
1002
{
1000
BEHIND
1070
     0
1002
}
1002
{
1000
OTHER
1070
     0
1002
}
1002
{
1000
REACTOR
1002
}
  0
LINE
  5
B537
330
1F
100
AcDbEntity
  8
size
100
AcDbLine
 10
0.0000007332275799
 20
296.9999999999999
 30
0.0
 11
0.0
 21
0.0
 31
0.0
1001
GENIUS_GENREC_14
1002
{
1000
PYDIR
1011
0.0000007332275799
1021
296.9999999999999
1031
0.0
1002
}
1002
{
1000
PXDIR
1011
419.9999999999999
1021
-86.99999999999999
1031
0.0
1002
}
1002
{
1000
PORI
1011
0.0
1021
0.0
1031
0.0
1002
}
1002
{
1000
PINS
1011
210.0
1021
61.49999999999999
1031
0.0
1002
}
1002
{
1000
HVAL
1000
297
1002
}
1002
{
1000
H
1070
     2
1002
}
1002
{
1000
WVAL
1000
420
1002
}
1002
{
1000
W
1070
     2
1002
}
1002
{
1000
C
1070
     4
1002
}
1001
GENIUS_GENOBJ-N-REC_13
1002
{
1000
OWNER
1000
GEN
1002
}
1001
GENIUS_GENODEF_13
1002
{
1000
HIER
1070
     0
1002
}
1002
{
1000
MANEDIT
1070
     0
1002
}
1002
{
1000
NOSEL
1070
     0
1002
}
1002
{
1000
BEHIND
1070
     0
1002
}
1002
{
1000
OTHER
1070
     0
1002
}
1002
{
1000
REACTOR
1002
}
  0
LINE
  5
B538
330
1F
100
AcDbEntity
  8
waku
100
AcDbLine
 10
408.5000007332276
 20
8.5
 30
0.0
 11
408.5000007332276
 21
288.4999999999999
 31
0.0
1001
GENIUS_GENREC_14
1002
{
1000
PYDIR
1011
125.2556127075561
1021
209.9999999999999
1031
0.0
1002
}
1002
{
1000
PXDIR
1011
420.0000007332276
1021
0.0
1031
0.0
1002
}
1002
{
1000
PORI
1011
125.2556127075561
1021
0.0
1031
0.0
1002
}
1002
{
1000
PINS
1011
335.2556127075562
1021
61.49999999999999
1031
0.0
1002
}
1002
{
1000
HVAL
1000
297
1002
}
1002
{
1000
H
1070
     2
1002
}
1002
{
1000
WVAL
1000
420
1002
}
1002
{
1000
W
1070
     2
1002
}
1002
{
1000
C
1070
     4
1002
}
1001
GENIUS_GENOBJ-N-REC_13
1002
{
1000
OWNER
1000
GEN
1002
}
1001
GENIUS_GENODEF_13
1002
{
1000
HIER
1070
     0
1002
}
1002
{
1000
MANEDIT
1070
     0
1002
}
1002
{
1000
NOSEL
1070
     0
1002
}
1002
{
1000
BEHIND
1070
     0
1002
}
1002
{
1000
OTHER
1070
     0
1002
}
1002
{
1000
REACTOR
1002
}
  0
LINE
  5
B539
330
1F
100
AcDbEntity
  8
waku
100
AcDbLine
 10
11.50000073322758
 20
288.4999999999999
 30
0.0
 11
11.5
 21
8.5
 31
0.0
1001
GENIUS_GENREC_14
1002
{
1000
PYDIR
1011
0.0
1021
209.9999999999999
1031
0.0
1002
}
1002
{
1000
PXDIR
1011
419.9999999999999
1021
-86.99999999999999
1031
0.0
1002
}
1002
{
1000
PORI
1011
0.0
1021
0.0
1031
0.0
1002
}
1002
{
1000
PINS
1011
210.0
1021
61.49999999999999
1031
0.0
1002
}
1002
{
1000
HVAL
1000
297
1002
}
1002
{
1000
H
1070
     2
1002
}
1002
{
1000
WVAL
1000
420
1002
}
1002
{
1000
W
1070
     2
1002
}
1002
{
1000
C
1070
     4
1002
}
1001
GENIUS_GENOBJ-N-REC_13
1002
{
1000
OWNER
1000
GEN
1002
}
1001
GENIUS_GENODEF_13
1002
{
1000
HIER
1070
     0
1002
}
1002
{
1000
MANEDIT
1070
     0
1002
}
1002
{
1000
NOSEL
1070
     0
1002
}
1002
{
1000
BEHIND
1070
     0
1002
}
1002
{
1000
OTHER
1070
     0
1002
}
1002
{
1000
REACTOR
1002
}
  0
LINE
  5
B53A
330
1F
100
AcDbEntity
  8
waku
100
AcDbLine
 10
408.5000007332276
 20
288.4999999999999
 30
0.0
 11
11.5
 21
288.4999999999999
 31
0.0
1001
GENIUS_GENREC_14
1002
{
1000
PYDIR
1011
0.0
1021
296.9999999999999
1031
0.0
1002
}
1002
{
1000
PXDIR
1011
294.7443880256715
1021
-0.0000000000000568
1031
0.0
1002
}
1002
{
1000
PORI
1011
0.0
1021
-0.0000000000000568
1031
0.0
1002
}
1002
{
1000
PINS
1011
210.0
1021
148.4999999999999
1031
0.0
1002
}
1002
{
1000
HVAL
1000
297
1002
}
1002
{
1000
H
1070
     2
1002
}
1002
{
1000
WVAL
1000
420
1002
}
1002
{
1000
W
1070
     2
1002
}
1002
{
1000
C
1070
     4
1002
}
1001
GENIUS_GENOBJ-N-REC_13
1002
{
1000
OWNER
1000
GEN
1002
}
1001
GENIUS_GENODEF_13
1002
{
1000
HIER
1070
     0
1002
}
1002
{
1000
MANEDIT
1070
     0
1002
}
1002
{
1000
NOSEL
1070
     0
1002
}
1002
{
1000
BEHIND
1070
     0
1002
}
1002
{
1000
OTHER
1070
     0
1002
}
1002
{
1000
REACTOR
1002
}
  0
LINE
  5
B53B
330
1F
100
AcDbEntity
  8
waku
100
AcDbLine
 10
11.5
 20
8.5
 30
0.0
 11
408.5000007332276
 21
8.5
 31
0.0
  0
LINE
  5
B907
330
1F
100
AcDbEntity
  8
AM_2
100
AcDbLine
 10
31.50000073322758
 20
288.4999999999999
 30
0.0
 11
31.50000073322758
 21
200.5000000432649
 31
0.0
  0
LINE
  5
B908
330
1F
100
AcDbEntity
  8
AM_2
100
AcDbLine
 10
11.50000073322758
 20
280.4999999999999
 30
0.0
 11
126.5000007332275
 21
280.4999999999999
 31
0.0
  0
LINE
  5
B909
330
1F
100
AcDbEntity
  8
AM_2
100
AcDbLine
 10
11.50000073322758
 20
272.4999999999999
 30
0.0
 11
126.5000007332275
 21
272.4999999999999
 31
0.0
  0
LINE
  5
B90B
330
1F
100
AcDbEntity
  8
AM_0
100
AcDbLine
 10
11.50000073322758
 20
288.4999999999999
 30
0.0
 11
111.5000007332274
 21
288.4999999999999
 31
0.0
  0
LINE
  5
B90C
330
1F
100
AcDbEntity
  8
AM_0
100
AcDbLine
 10
126.5000007332274
 20
288.4999999999999
 30
0.0
 11
126.5000007332276
 21
200.5
 31
0.0
  0
LINE
  5
B90D
330
1F
100
AcDbEntity
  8
AM_2
100
AcDbLine
 10
11.50000073322758
 20
224.5
 30
0.0
 11
126.5000007332276
 21
224.4999999999999
 31
0.0
  0
MTEXT
  5
B910
330
1F
100
AcDbEntity
  8
AM_6
100
AcDbMText
 10
31.50000073322758
 20
284.4999999999999
 30
0.0
 40
3.2
 41
90.0
 71
     4
 72
     5
  1
　　丸型ハンドル（鍵付）/ 丸型ハンドル（鍵無）
 73
     1
 44
1.0
  0
MTEXT
  5
B911
330
1F
100
AcDbEntity
  8
AM_6
100
AcDbMText
 10
31.50000073322758
 20
276.4999999999999
 30
0.0
 40
3.2
 41
90.0
 71
     4
 72
     5
  1
　　EL-37V / EL-38V
 73
     1
 44
1.0
  0
MTEXT
  5
B912
330
1F
100
AcDbEntity
  8
AM_6
100
AcDbMText
 10
31.50000073322758
 20
268.4999999999999
 30
0.0
 40
3.2
 41
90.0
 71
     4
 72
     5
  1
　　本体
 73
     1
 44
1.0
  0
MTEXT
  5
B913
330
1F
100
AcDbEntity
  8
AM_6
100
AcDbMText
 10
31.50000073322758
 20
260.4999999999999
 30
0.0
 40
3.2
 41
90.0
 71
     4
 72
     5
  1
　　止め金
 73
     1
 44
1.0
  0
MTEXT
  5
B916
330
1F
100
AcDbEntity
  8
AM_6
100
AcDbMText
 10
21.5000005569324
 20
212.5000000261867
 30
0.0
 40
3.2
 41
20.00000035259026
 71
     5
 72
     5
  1
備考
 73
     1
 44
1.0
1001
ACAD
1000
ACAD_MTEXT_DEFINED_HEIGHT_BEGIN
1070
    46
1040
23.99999994762664
1000
ACAD_MTEXT_DEFINED_HEIGHT_END
  0
MTEXT
  5
B917
330
1F
100
AcDbEntity
  8
AM_6
100
AcDbMText
 10
31.50000073322758
 20
220.279622940532
 30
0.0
 40
3.2
 41
94.99999999999997
 71
     4
 72
     5
  1
　　平型止め金（EB-25）が標準仕様となります
 73
     1
 44
1.0
1001
ACAD
1000
ACAD_MTEXT_DEFINED_HEIGHT_BEGIN
1070
    46
1040
8.000000000000002
1000
ACAD_MTEXT_DEFINED_HEIGHT_END
  0
MTEXT
  5
B918
330
1F
100
AcDbEntity
  8
AM_6
100
AcDbMText
 10
21.50000073322758
 20
248.5
 30
0.0
 40
3.2
 41
20.0
 71
     5
 72
     5
  1
仕上げ
 73
     1
 44
1.0
  0
MTEXT
  5
B919
330
1F
100
AcDbEntity
  8
AM_6
100
AcDbMText
 10
21.50000073322758
 20
264.4999999999999
 30
0.0
 40
3.2
 41
20.0
 71
     5
 72
     5
  1
材質
 73
     1
 44
1.0
  0
MTEXT
  5
B91A
330
1F
100
AcDbEntity
  8
AM_6
100
AcDbMText
 10
31.50000073322758
 20
212.5
 30
0.0
 40
3.2
 41
94.99999999999999
 71
     4
 72
     5
  1
　　Z型止め金（EB-26）もご用意しております
 73
     1
 44
1.0
  0
MTEXT
  5
B91B
330
1F
100
AcDbEntity
  8
AM_6
100
AcDbMText
 10
44.00000073322758
 20
268.4999999999999
 30
0.0
 40
3.2
 41
57.49999999999993
 71
     4
 72
     5
  1
　：亜鉛ダイキャスト
 73
     1
 44
1.0
  0
MTEXT
  5
B91C
330
1F
100
AcDbEntity
  8
AM_6
100
AcDbMText
 10
44.00000073322758
 20
260.4999999999999
 30
0.0
 40
3.2
 41
57.49999999999994
 71
     4
 72
     5
  1
　：スチール
 73
     1
 44
1.0
  0
MTEXT
  5
B922
330
1F
100
AcDbEntity
  8
AM_6
100
AcDbMText
 10
31.50000073322758
 20
236.5000000216324
 30
0.0
 40
3.2
 41
90.0
 71
     4
 72
     5
  1
　　M4×L6ナベ小ネジ　+　SUS2本
 73
     1
 44
1.0
  0
MTEXT
  5
B923
330
1F
100
AcDbEntity
  8
AM_6
100
AcDbMText
 10
31.50000073322758
 20
228.5000000216324
 30
0.0
 40
3.2
 41
90.0
 71
     4
 72
     5
  1
　　呼び径4バネ座金　SUS2本
 73
     1
 44
1.0
  0
LINE
  5
B924
330
1F
100
AcDbEntity
  8
AM_2
100
AcDbLine
 10
11.50000073322759
 20
256.5
 30
0.0
 11
126.5000007332275
 21
256.4999999999999
 31
0.0
  0
LINE
  5
B925
330
1F
100
AcDbEntity
  8
AM_2
100
AcDbLine
 10
11.50000073322758
 20
240.5
 30
0.0
 11
126.5000007332275
 21
240.4999999999999
 31
0.0
  0
LINE
  5
B926
330
1F
100
AcDbEntity
  8
AM_0
100
AcDbLine
 10
11.5000018215696
 20
200.5000000523733
 30
0.0
 11
126.5000007295842
 21
200.5
 31
0.0
  0
MTEXT
  5
B936
330
1F
100
AcDbEntity
  8
AM_6
100
AcDbMText
 10
31.50000073322758
 20
204.5
 30
0.0
 40
3.2
 41
94.99999999999999
 71
     4
 72
     5
  1
　　子鍵1ヶ付
 73
     1
 44
1.0
  0
MTEXT
  5
B940
330
1F
100
AcDbEntity
  8
AM_6
100
AcDbMText
 10
21.50000086144224
 20
232.4999999999999
 30
0.0
 40
3.2
 41
20.0
 71
     5
 72
     5
  1
セットビス
 73
     1
 44
1.0
  0
MTEXT
  5
B94D
330
1F
100
AcDbEntity
  8
AM_6
100
AcDbMText
 10
31.50000073322758
 20
252.5
 30
0.0
 40
3.2
 41
90.0
 71
     4
 72
     5
  1
　　本体
 73
     1
 44
1.0
  0
MTEXT
  5
B94E
330
1F
100
AcDbEntity
  8
AM_6
100
AcDbMText
 10
31.50000073322758
 20
244.5
 30
0.0
 40
3.2
 41
90.0
 71
     4
 72
     5
  1
　　止め金
 73
     1
 44
1.0
  0
MTEXT
  5
B94F
330
1F
100
AcDbEntity
  8
AM_6
100
AcDbMText
 10
44.00000073322758
 20
252.5
 30
0.0
 40
3.2
 41
57.49999999999993
 71
     4
 72
     5
  1
　：焼付塗装（シルバー）
 73
     1
 44
1.0
  0
MTEXT
  5
B950
330
1F
100
AcDbEntity
  8
AM_6
100
AcDbMText
 10
44.00000073322758
 20
244.5
 30
0.0
 40
3.2
 41
57.49999999999994
 71
     4
 72
     5
  1
　：有色クロメート
 73
     1
 44
1.0
  0
LINE
  5
BA16
330
1F
100
AcDbEntity
  8
AM_7
100
AcDbLine
 10
248.3885381857683
 20
197.6274102527727
 30
0.0
 11
248.3885381857683
 21
235.2274032527727
 31
0.0
  0
LINE
  5
BA17
330
1F
100
AcDbEntity
  8
AM_0
100
AcDbLine
 10
306.9711181857683
 20
99.99763955277267
 30
0.0
 11
279.3118172857683
 21
99.99763955277267
 31
0.0
  0
LINE
  5
BA18
330
1F
100
AcDbEntity
  8
AM_0
100
AcDbLine
 10
259.7564881857683
 20
80.16297625277267
 30
0.0
 11
259.7564881857683
 21
78.16297625277267
 31
0.0
  0
LINE
  5
BA19
330
1F
100
AcDbEntity
  8
AM_0
100
AcDbLine
 10
261.4885311857682
 20
81.16297425277267
 30
0.0
 11
259.7564811857683
 21
80.16297425277267
 31
0.0
  0
LINE
  5
BA1A
330
1F
100
AcDbEntity
  8
AM_0
100
AcDbLine
 10
263.2205881857683
 20
78.16296725277266
 30
0.0
 11
261.4885361857682
 21
77.16296725277266
 31
0.0
  0
LINE
  5
BA1B
330
1F
100
AcDbEntity
  8
AM_0
100
AcDbLine
 10
263.2206001857683
 20
80.16297625277267
 30
0.0
 11
263.2206001857683
 21
78.16297625277267
 31
0.0
  0
LINE
  5
BA1C
330
1F
100
AcDbEntity
  8
AM_0
100
AcDbLine
 10
261.4885531857683
 20
77.16296125277266
 30
0.0
 11
259.7565041857682
 21
78.16296125277266
 31
0.0
  0
LINE
  5
BA1D
330
1F
100
AcDbEntity
  8
AM_7
100
AcDbLine
 10
248.3885381857683
 20
157.9976462527727
 30
0.0
 11
248.3885381857683
 21
54.49763825277267
 31
0.0
  0
LINE
  5
BA1E
330
1F
100
AcDbEntity
  8
AM_0
100
AcDbLine
 10
261.4885591857683
 20
81.16297125277266
 30
0.0
 11
263.2206091857682
 21
80.16297125277266
 31
0.0
  0
LINE
  5
BA1F
330
1F
100
AcDbEntity
  8
AM_7
100
AcDbLine
 10
316.3885381857683
 20
89.99763925277267
 30
0.0
 11
212.8885421857683
 21
89.99763925277267
 31
0.0
  0
LINE
  5
BA20
330
1F
100
AcDbEntity
  8
AM_11
100
AcDbLine
 10
258.3885381857683
 20
144.9976462527727
 30
0.0
 11
258.3885381857683
 21
120.9209342527727
 31
0.0
  0
LINE
  5
BA21
330
1F
100
AcDbEntity
  8
AM_11
100
AcDbLine
 10
238.3885381857683
 20
144.9976462527727
 30
0.0
 11
238.3885381857683
 21
120.9209342527727
 31
0.0
  0
LINE
  5
BA22
330
1F
100
AcDbEntity
  8
AM_0
100
AcDbLine
 10
256.1387511857682
 20
110.6473430527727
 30
0.0
 11
256.1387511857682
 21
69.34793425277266
 31
0.0
  0
LINE
  5
BA23
330
1F
100
AcDbEntity
  8
AM_0
100
AcDbLine
 10
306.9711181857683
 20
79.99764025277267
 30
0.0
 11
279.3118172857683
 21
79.99764025277267
 31
0.0
  0
LINE
  5
BA24
330
1F
100
AcDbEntity
  8
AM_0
100
AcDbLine
 10
240.6382941857682
 20
110.6473278527727
 30
0.0
 11
240.6382941857682
 21
69.34794925277266
 31
0.0
  0
LINE
  5
BA25
330
1F
100
AcDbEntity
  8
AM_0
100
AcDbLine
 10
302.3885231857682
 20
223.6273932527727
 30
0.0
 11
302.3885231857682
 21
221.3274032527727
 31
0.0
  0
LINE
  5
BA26
330
1F
100
AcDbEntity
  8
AM_0
100
AcDbLine
 10
253.1024661857682
 20
232.2274032527727
 30
0.0
 11
243.6746101857682
 21
232.2274032527727
 31
0.0
  0
LINE
  5
BA27
102
{ACAD_REACTORS
330
BD06
330
BD4F
102
}
330
1F
100
AcDbEntity
  8
AM_7
100
AcDbLine
 10
158.0224765262941
 20
89.9976392527727
 30
0.0
 11
147.5224765262941
 21
89.9976392527727
 31
0.0
  0
LINE
  5
BA28
102
{ACAD_REACTORS
330
BD06
330
BD4F
102
}
330
1F
100
AcDbEntity
  8
AM_7
 48
0.5
100
AcDbLine
 10
152.7724765262941
 20
95.24763905277271
 30
0.0
 11
152.7724765262941
 21
84.7476382527727
 31
0.0
  0
LINE
  5
BA29
102
{ACAD_REACTORS
330
BD06
330
BD4F
102
}
330
1F
100
AcDbEntity
  8
AM_7
 48
0.5
100
AcDbLine
 10
96.7724735262941
 20
95.24763905277271
 30
0.0
 11
96.7724735262941
 21
84.7476382527727
 31
0.0
  0
LINE
  5
BA2A
330
1F
100
AcDbEntity
  8
AM_11
100
AcDbLine
 10
303.9885441857682
 20
204.9274132527727
 30
0.0
 11
320.9980041857682
 21
204.9274132527727
 31
0.0
  0
LINE
  5
BA2B
330
1F
100
AcDbEntity
  8
AM_11
100
AcDbLine
 10
298.3885391857682
 20
208.9274132527727
 30
0.0
 11
298.3885391857682
 21
217.3274032527727
 31
0.0
  0
LINE
  5
BA2C
330
1F
100
AcDbEntity
  8
AM_11
100
AcDbLine
 10
302.3885381857683
 20
204.9274132527727
 30
0.0
 11
302.3885381857683
 21
220.0607032527727
 31
0.0
  0
LINE
  5
BA2D
330
1F
100
AcDbEntity
  8
AM_11
100
AcDbLine
 10
303.9885441857682
 20
203.3274032527727
 30
0.0
 11
320.9980041857682
 21
203.3274032527727
 31
0.0
  0
LINE
  5
BA2E
330
1F
100
AcDbEntity
  8
AM_11
100
AcDbLine
 10
303.9885441857682
 20
204.9274132527727
 30
0.0
 11
303.9885441857682
 21
220.0956132527727
 31
0.0
  0
LINE
  5
BA2F
330
1F
100
AcDbEntity
  8
AM_11
100
AcDbLine
 10
296.7885331857683
 20
208.9273932527727
 30
0.0
 11
296.7885331857683
 21
217.3274032527727
 31
0.0
  0
LINE
  5
BA30
330
1F
100
AcDbEntity
  8
AM_0
100
AcDbLine
 10
216.0517191857682
 20
202.6264632527727
 30
0.0
 11
280.6885417857683
 21
202.6264632527727
 31
0.0
  0
LINE
  5
BA31
330
1F
100
AcDbEntity
  8
AM_0
100
AcDbLine
 10
215.8885421857683
 20
207.3274032527727
 30
0.0
 11
215.8885421857683
 21
202.8230432527727
 31
0.0
  0
LINE
  5
BA32
330
1F
100
AcDbEntity
  8
AM_0
100
AcDbLine
 10
280.8885387857682
 20
207.3274032527727
 30
0.0
 11
280.8885387857682
 21
202.8264632527727
 31
0.0
  0
LINE
  5
BA33
330
1F
100
AcDbEntity
  8
AM_0
100
AcDbLine
 10
273.3885391857682
 20
208.9273932527727
 30
0.0
 11
273.3885391857682
 21
218.0274032527727
 31
0.0
  0
LINE
  5
BA34
330
1F
100
AcDbEntity
  8
AM_0
100
AcDbLine
 10
252.3885381857683
 20
219.0274032527727
 30
0.0
 11
252.3885381857683
 21
220.3274032527727
 31
0.0
  0
LINE
  5
BA35
330
1F
100
AcDbEntity
  8
AM_0
100
AcDbLine
 10
241.9885441857682
 20
219.0274032527727
 30
0.0
 11
241.9885441857682
 21
220.3274032527727
 31
0.0
  0
LINE
  5
BA37
330
1F
100
AcDbEntity
  8
AM_0
100
AcDbLine
 10
242.6385381857683
 20
227.9774032527727
 30
0.0
 11
242.6385381857683
 21
226.4774032527727
 31
0.0
  0
LINE
  5
BA38
330
1F
100
AcDbEntity
  8
AM_0
100
AcDbLine
 10
254.1385381857683
 20
227.9774032527727
 30
0.0
 11
254.1385381857683
 21
226.4774032527727
 31
0.0
  0
LINE
  5
BA39
330
1F
100
AcDbEntity
  8
AM_0
100
AcDbLine
 10
251.3885381857683
 20
228.2274032527727
 30
0.0
 11
251.3885381857683
 21
231.2274032527727
 31
0.0
  0
LINE
  5
BA3A
330
1F
100
AcDbEntity
  8
AM_0
100
AcDbLine
 10
245.3885381857683
 20
228.2274032527727
 30
0.0
 11
245.3885381857683
 21
231.2274032527727
 31
0.0
  0
LINE
  5
BA3D
330
1F
100
AcDbEntity
  8
AM_0
100
AcDbLine
 10
251.3885381857683
 20
228.2274032527727
 30
0.0
 11
251.3885381857683
 21
227.8524032527727
 31
0.0
  0
LINE
  5
BA3E
330
1F
100
AcDbEntity
  8
AM_0
100
AcDbLine
 10
254.3885381857683
 20
228.2274032527727
 30
0.0
 11
254.3885381857683
 21
231.7593032527727
 31
0.0
  0
LINE
  5
BA3F
330
1F
100
AcDbEntity
  8
AM_0
100
AcDbLine
 10
242.3885381857683
 20
228.2274032527727
 30
0.0
 11
242.3885381857683
 21
231.7593032527727
 31
0.0
  0
LINE
  5
BA41
330
1F
100
AcDbEntity
  8
AM_0
100
AcDbLine
 10
253.1024721857682
 20
232.2274032527727
 30
0.0
 11
254.3885281857682
 21
231.7593232527727
 31
0.0
  0
LINE
  5
BA42
330
1F
100
AcDbEntity
  8
AM_0
100
AcDbLine
 10
242.3885421857683
 20
231.7593232527727
 30
0.0
 11
243.6745981857682
 21
232.2274032527727
 31
0.0
  0
LINE
  5
BA43
330
1F
100
AcDbEntity
  8
AM_0
100
AcDbLine
 10
254.3885381857683
 20
228.2274032527727
 30
0.0
 11
242.3885381857683
 21
228.2274032527727
 31
0.0
  0
LINE
  5
BA44
330
1F
100
AcDbEntity
  8
AM_0
100
AcDbLine
 10
248.1385381857683
 20
228.2274032527727
 30
0.0
 11
248.1385381857683
 21
226.7274032527727
 31
0.0
  0
LINE
  5
BA45
330
1F
100
AcDbEntity
  8
AM_0
100
AcDbLine
 10
254.6385381857683
 20
226.2274032527727
 30
0.0
 11
242.1385381857683
 21
226.2274032527727
 31
0.0
  0
LINE
  5
BA46
330
1F
100
AcDbEntity
  8
AM_0
100
AcDbLine
 10
251.3885381857683
 20
226.3524032527727
 30
0.0
 11
251.3885381857683
 21
226.2274032527727
 31
0.0
  0
LINE
  5
BA47
330
1F
100
AcDbEntity
  8
AM_0
100
AcDbLine
 10
251.3885381857683
 20
227.9774032527727
 30
0.0
 11
254.1385381857683
 21
227.9774032527727
 31
0.0
  0
LINE
  5
BA48
330
1F
100
AcDbEntity
  8
AM_0
100
AcDbLine
 10
248.6385611857683
 20
227.7273932527727
 30
0.0
 11
254.1385571857683
 21
227.9773932527727
 31
0.0
  0
LINE
  5
BA49
330
1F
100
AcDbEntity
  8
AM_0
100
AcDbLine
 10
248.1385341857683
 20
228.2273932527727
 30
0.0
 11
242.6385381857683
 21
227.9773932527727
 31
0.0
  0
LINE
  5
BA4A
330
1F
100
AcDbEntity
  8
AM_0
100
AcDbLine
 10
242.6385381857683
 20
226.4774032527727
 30
0.0
 11
245.3885381857683
 21
226.4774032527727
 31
0.0
  0
LINE
  5
BA4B
330
1F
100
AcDbEntity
  8
AM_0
100
AcDbLine
 10
245.3885381857683
 20
228.1024032527727
 30
0.0
 11
245.3885381857683
 21
228.2274032527727
 31
0.0
  0
LINE
  5
BA4C
330
1F
100
AcDbEntity
  8
AM_0
100
AcDbLine
 10
248.1385611857683
 20
226.7273832527727
 30
0.0
 11
242.6385341857683
 21
226.4773832527727
 31
0.0
  0
LINE
  5
BA4D
330
1F
100
AcDbEntity
  8
AM_0
100
AcDbLine
 10
248.6385571857683
 20
226.2273832527727
 30
0.0
 11
254.1385531857683
 21
226.4773832527727
 31
0.0
  0
LINE
  5
BA4E
330
1F
100
AcDbEntity
  8
AM_0
100
AcDbLine
 10
245.3885381857683
 20
226.2274032527727
 30
0.0
 11
245.3885381857683
 21
226.6024032527727
 31
0.0
  0
LINE
  5
BA4F
330
1F
100
AcDbEntity
  8
AM_0
100
AcDbLine
 10
242.1385381857683
 20
226.2274032527727
 30
0.0
 11
242.1385381857683
 21
224.6273932527727
 31
0.0
  0
LINE
  5
BA50
330
1F
100
AcDbEntity
  8
AM_0
100
AcDbLine
 10
254.6385381857683
 20
226.2274032527727
 30
0.0
 11
254.6385381857683
 21
224.6273932527727
 31
0.0
  0
LINE
  5
BA51
330
1F
100
AcDbEntity
  8
AM_0
100
AcDbLine
 10
276.1385389857683
 20
209.9175232527727
 30
0.0
 11
276.1385389857683
 21
210.9273932527727
 31
0.0
  0
LINE
  5
BA52
330
1F
100
AcDbEntity
  8
AM_0
100
AcDbLine
 10
280.1885286857682
 20
209.4273932527727
 30
0.0
 11
276.6385298857683
 21
208.9273932527727
 31
0.0
  0
LINE
  5
BA53
330
1F
100
AcDbEntity
  8
AM_0
100
AcDbLine
 10
276.1385256857683
 20
209.9175232527727
 30
0.0
 11
273.3885381857683
 21
209.5302032527727
 31
0.0
  0
LINE
  5
BA54
330
1F
100
AcDbEntity
  8
AM_0
100
AcDbLine
 10
276.6385384857683
 20
208.9273932527727
 30
0.0
 11
276.6385384857683
 21
209.9372732527727
 31
0.0
  0
LINE
  5
BA57
330
1F
100
AcDbEntity
  8
AM_0
100
AcDbLine
 10
280.1885205857683
 20
210.4372532527727
 30
0.0
 11
278.3885341857683
 21
210.4349232527726
 31
0.0
  0
LINE
  5
BA58
330
1F
100
AcDbEntity
  8
AM_0
100
AcDbLine
 10
280.1885262857683
 20
210.4360232527727
 30
0.0
 11
280.1885262857683
 21
209.4273932527727
 31
0.0
  0
LINE
  5
BA5A
330
1F
100
AcDbEntity
  8
AM_0
100
AcDbLine
 10
276.1385198857682
 20
210.9273932527727
 30
0.0
 11
273.3885311857682
 21
210.5400732527727
 31
0.0
  0
LINE
  5
BA5B
330
1F
100
AcDbEntity
  8
AM_0
100
AcDbLine
 10
278.3885384857683
 20
209.1738732527727
 30
0.0
 11
278.3885384857683
 21
207.3274032527727
 31
0.0
  0
LINE
  5
BA5C
330
1F
100
AcDbEntity
  8
AM_0
100
AcDbLine
 10
241.3885381857683
 20
218.0274032527727
 30
0.0
 11
241.3885381857683
 21
219.0274032527727
 31
0.0
  0
LINE
  5
BA5D
330
1F
100
AcDbEntity
  8
AM_0
100
AcDbLine
 10
313.3885231857682
 20
223.6273932527727
 30
0.0
 11
313.3885231857682
 21
221.3274032527727
 31
0.0
  0
LINE
  5
BA5E
330
1F
100
AcDbEntity
  8
AM_0
100
AcDbLine
 10
220.6385381857683
 20
209.9372732527727
 30
0.0
 11
220.6385381857683
 21
208.9273932527727
 31
0.0
  0
LINE
  5
BA5F
330
1F
100
AcDbEntity
  8
AM_0
100
AcDbLine
 10
216.5885231857683
 20
210.4273932527727
 30
0.0
 11
220.1385421857683
 21
210.9273932527727
 31
0.0
  0
LINE
  5
BA60
330
1F
100
AcDbEntity
  8
AM_0
100
AcDbLine
 10
220.6385421857683
 20
209.9372632527727
 30
0.0
 11
223.3885301857682
 21
210.3245832527726
 31
0.0
  0
LINE
  5
BA61
330
1F
100
AcDbEntity
  8
AM_0
100
AcDbLine
 10
242.1385381857683
 20
224.6273932527727
 30
0.0
 11
254.6385381857683
 21
224.6273932527727
 31
0.0
  0
LINE
  5
BA62
330
1F
100
AcDbEntity
  8
AM_0
100
AcDbLine
 10
280.3885384857683
 20
212.6508832527726
 30
0.0
 11
280.3885384857683
 21
210.9273932527727
 31
0.0
  0
LINE
  5
BA63
330
1F
100
AcDbEntity
  8
AM_0
100
AcDbLine
 10
223.3885381857683
 20
210.9273932527727
 30
0.0
 11
216.3885421857683
 21
210.9273932527727
 31
0.0
  0
LINE
  5
BA64
330
1F
100
AcDbEntity
  8
AM_0
100
AcDbLine
 10
280.3885384857683
 20
210.9273932527727
 30
0.0
 11
273.3885391857682
 21
210.9273932527727
 31
0.0
  0
LINE
  5
BA65
330
1F
100
AcDbEntity
  8
AM_0
100
AcDbLine
 10
276.8885384857683
 20
213.7926932527727
 30
0.0
 11
275.8885389857683
 21
213.7926932527727
 31
0.0
  0
LINE
  5
BA66
330
1F
100
AcDbEntity
  8
AM_0
100
AcDbLine
 10
220.1385421857683
 20
210.9273932527727
 30
0.0
 11
220.1385421857683
 21
209.9175232527727
 31
0.0
  0
LINE
  5
BA67
330
1F
100
AcDbEntity
  8
AM_7
 48
0.5
100
AcDbLine
 10
276.3885389857683
 20
215.9960132527727
 30
0.0
 11
276.3885389857683
 21
201.4959712527727
 31
0.0
  0
LINE
  5
BA68
330
1F
100
AcDbEntity
  8
AM_0
100
AcDbLine
 10
276.8885384857683
 20
213.7926932527727
 30
0.0
 11
276.8885384857683
 21
214.0081332527727
 31
0.0
  0
LINE
  5
BA69
330
1F
100
AcDbEntity
  8
AM_0
100
AcDbLine
 10
275.8885389857683
 20
213.7926932527727
 30
0.0
 11
275.8885389857683
 21
214.0081332527727
 31
0.0
  0
LINE
  5
BA6C
330
1F
100
AcDbEntity
  8
AM_0
100
AcDbLine
 10
216.5885311857683
 20
209.4175232527727
 30
0.0
 11
218.3885191857682
 21
209.4198632527726
 31
0.0
  0
LINE
  5
BA6D
330
1F
100
AcDbEntity
  8
AM_0
100
AcDbLine
 10
216.5885541857683
 20
209.4187732527727
 30
0.0
 11
216.5885541857683
 21
210.4273932527727
 31
0.0
  0
LINE
  5
BA6E
330
1F
100
AcDbEntity
  8
AM_0
100
AcDbLine
 10
257.3885381857683
 20
224.6273932527727
 30
0.0
 11
257.3885381857683
 21
223.6273932527727
 31
0.0
  0
LINE
  5
BA6F
330
1F
100
AcDbEntity
  8
AM_0
100
AcDbLine
 10
220.8885381857683
 20
213.7926932527727
 30
0.0
 11
220.8885381857683
 21
214.0081332527727
 31
0.0
  0
LINE
  5
BA70
330
1F
100
AcDbEntity
  8
AM_0
100
AcDbLine
 10
220.6385191857682
 20
208.9273932527727
 30
0.0
 11
223.3885381857683
 21
209.3147132527727
 31
0.0
  0
LINE
  5
BA71
330
1F
100
AcDbEntity
  8
AM_0
100
AcDbLine
 10
218.3885421857683
 20
210.6809232527727
 30
0.0
 11
218.3885421857683
 21
210.9273932527727
 31
0.0
  0
LINE
  5
BA72
330
1F
100
AcDbEntity
  8
AM_0
100
AcDbLine
 10
218.3885421857683
 20
207.3274032527727
 30
0.0
 11
218.3885421857683
 21
209.6710532527727
 31
0.0
  0
LINE
  5
BA73
330
1F
100
AcDbEntity
  8
AM_0
100
AcDbLine
 10
222.3885151857683
 20
210.4349332527727
 30
0.0
 11
223.3885151857683
 21
210.4362232527727
 31
0.0
  0
LINE
  5
BA75
330
1F
100
AcDbEntity
  8
AM_0
100
AcDbLine
 10
222.3885381857683
 20
207.3274032527727
 30
0.0
 11
222.3885381857683
 21
209.1738732527727
 31
0.0
  0
LINE
  5
BA77
330
1F
100
AcDbEntity
  8
AM_0
100
AcDbLine
 10
274.3885391857682
 20
209.6710532527727
 30
0.0
 11
274.3885391857682
 21
207.3274032527727
 31
0.0
  0
LINE
  5
BA78
330
1F
100
AcDbEntity
  8
AM_0
100
AcDbLine
 10
280.1885219857683
 20
210.4372732527727
 30
0.0
 11
276.6385232857683
 21
209.9372732527727
 31
0.0
  0
LINE
  5
BA7A
330
1F
100
AcDbEntity
  8
AM_0
100
AcDbLine
 10
274.3885391857682
 20
210.9273932527727
 30
0.0
 11
274.3885391857682
 21
210.6809232527727
 31
0.0
  0
LINE
  5
BA7B
330
1F
100
AcDbEntity
  8
AM_0
100
AcDbLine
 10
274.3885061857683
 20
209.4198632527726
 30
0.0
 11
273.3885071857683
 21
209.4185632527727
 31
0.0
  0
LINE
  5
BA7C
330
1F
100
AcDbEntity
  8
AM_0
100
AcDbLine
 10
219.8885421857683
 20
213.7926932527727
 30
0.0
 11
219.8885421857683
 21
214.0081332527727
 31
0.0
  0
LINE
  5
BA7D
330
1F
100
AcDbEntity
  8
0
  6
DASHED
 62
     7
100
AcDbLine
 10
278.3885384857683
 20
210.1837432527727
 30
0.0
 11
278.3885384857683
 21
209.1738732527727
 31
0.0
  0
LINE
  5
BA7E
330
1F
100
AcDbEntity
  8
AM_0
100
AcDbLine
 10
237.3885381857683
 20
223.6273932527727
 30
0.0
 11
313.3885231857682
 21
223.6273932527727
 31
0.0
  0
LINE
  5
BA80
330
1F
100
AcDbEntity
  8
AM_0
100
AcDbLine
 10
223.3885381857683
 20
207.3274032527727
 30
0.0
 11
223.3885381857683
 21
218.0274032527727
 31
0.0
  0
LINE
  5
BA81
330
1F
100
AcDbEntity
  8
AM_0
100
AcDbLine
 10
255.3885381857683
 20
218.0274032527727
 30
0.0
 11
255.3885381857683
 21
219.0274032527727
 31
0.0
  0
LINE
  5
BA82
330
1F
100
AcDbEntity
  8
AM_0
100
AcDbLine
 10
239.3885381857683
 20
224.6273932527727
 30
0.0
 11
239.3885381857683
 21
223.6273932527727
 31
0.0
  0
LINE
  5
BA83
330
1F
100
AcDbEntity
  8
AM_0
100
AcDbLine
 10
278.3885384857683
 20
210.9273932527727
 30
0.0
 11
278.3885384857683
 21
210.1837432527727
 31
0.0
  0
LINE
  5
BA84
330
1F
100
AcDbEntity
  8
AM_0
100
AcDbLine
 10
216.3885421857683
 20
210.9273932527727
 30
0.0
 11
216.3885421857683
 21
212.6508832527726
 31
0.0
  0
LINE
  5
BA85
330
1F
100
AcDbEntity
  8
AM_7
 48
0.5
100
AcDbLine
 10
220.3885421857683
 20
201.4093622527727
 30
0.0
 11
220.3885421857683
 21
216.5164632527727
 31
0.0
  0
LINE
  5
BA86
330
1F
100
AcDbEntity
  8
AM_0
100
AcDbLine
 10
220.8885381857683
 20
213.7926932527727
 30
0.0
 11
219.8885421857683
 21
213.7926932527727
 31
0.0
  0
LINE
  5
BA87
330
1F
100
AcDbEntity
  8
AM_0
100
AcDbLine
 10
248.6385381857683
 20
227.7274032527727
 30
0.0
 11
248.6385381857683
 21
226.2274032527727
 31
0.0
  0
LINE
  5
BA88
330
1F
100
AcDbEntity
  8
AM_0
100
AcDbLine
 10
237.3885381857683
 20
221.3274032527727
 30
0.0
 11
313.3885231857682
 21
221.3274032527727
 31
0.0
  0
LINE
  5
BA89
330
1F
100
AcDbEntity
  8
AM_11
100
AcDbLine
 10
196.6427841857683
 20
207.3274032527727
 30
0.0
 11
215.8885421857683
 21
207.3274032527727
 31
0.0
  0
LINE
  5
BA8A
330
1F
100
AcDbEntity
  8
AM_0
100
AcDbLine
 10
223.3885381857683
 20
218.0274032527727
 30
0.0
 11
273.3885391857682
 21
218.0274032527727
 31
0.0
  0
LINE
  5
BA8B
330
1F
100
AcDbEntity
  8
AM_0
100
AcDbLine
 10
241.3885381857683
 20
219.0274032527727
 30
0.0
 11
255.3885381857683
 21
219.0274032527727
 31
0.0
  0
LINE
  5
BA8C
330
1F
100
AcDbEntity
  8
AM_0
100
AcDbLine
 10
273.3885391857682
 20
207.3274032527727
 30
0.0
 11
273.3885391857682
 21
218.0274032527727
 31
0.0
  0
LINE
  5
BA8D
330
1F
100
AcDbEntity
  8
AM_0
100
AcDbLine
 10
280.8885387857682
 20
207.3274032527727
 30
0.0
 11
215.8885421857683
 21
207.3274032527727
 31
0.0
  0
LINE
  5
BA8E
330
1F
100
AcDbEntity
  8
AM_0
100
AcDbLine
 10
218.3993751857682
 20
200.6274102527727
 30
0.0
 11
278.3776894857683
 21
200.6274102527727
 31
0.0
  0
LINE
  5
BA8F
330
1F
100
AcDbEntity
  8
AM_11
100
AcDbLine
 10
196.6427841857683
 20
208.9273932527727
 30
0.0
 11
296.7885331857683
 21
208.9273932527727
 31
0.0
  0
LINE
  5
BA90
330
1F
100
AcDbEntity
  8
AM_0
100
AcDbLine
 10
222.3885381857683
 20
210.1837432527727
 30
0.0
 11
222.3885381857683
 21
210.9273932527727
 31
0.0
  0
LINE
  5
BA91
330
1F
100
AcDbEntity
  8
AM_0
100
AcDbLine
 10
216.5885311857683
 20
209.4175132527727
 30
0.0
 11
220.1385491857683
 21
209.9175132527727
 31
0.0
  0
LINE
  5
BA92
330
1F
100
AcDbEntity
  8
AM_11
100
AcDbLine
 10
280.8885387857682
 20
207.3274032527727
 30
0.0
 11
296.7885331857683
 21
207.3274032527727
 31
0.0
  0
LINE
  5
BA93
330
1F
100
AcDbEntity
  8
AM_11
100
AcDbLine
 10
227.7388491857682
 20
97.74785315277266
 30
0.0
 11
269.0382281857683
 21
97.74785315277266
 31
0.0
  0
LINE
  5
BA94
330
1F
100
AcDbEntity
  8
AM_11
100
AcDbLine
 10
227.7388491857682
 20
82.24739625277266
 30
0.0
 11
269.0382281857683
 21
82.24739625277266
 31
0.0
  0
LINE
  5
BA95
330
1F
100
AcDbEntity
  8
AM_0
100
AcDbLine
 10
237.3885381857683
 20
223.6273932527727
 30
0.0
 11
237.3885381857683
 21
221.3274032527727
 31
0.0
  0
LINE
  5
BA96
330
1F
100
AcDbEntity
  8
AM_0
100
AcDbLine
 10
243.8085211857683
 20
223.6273932527727
 30
0.0
 11
243.8085211857683
 21
221.3274032527727
 31
0.0
  0
LINE
  5
BA97
330
1F
100
AcDbEntity
  8
AM_11
100
AcDbLine
 10
302.3885381857683
 20
217.3274032527727
 30
0.0
 11
303.9885441857682
 21
217.3274032527727
 31
0.0
  0
LINE
  5
BA98
330
1F
100
AcDbEntity
  8
AM_11
100
AcDbLine
 10
296.7885331857683
 20
217.3274032527727
 30
0.0
 11
298.3885391857682
 21
217.3274032527727
 31
0.0
  0
LINE
  5
BA99
330
1F
100
AcDbEntity
  8
AM_0
100
AcDbLine
 10
239.3885381857683
 20
224.6273932527727
 30
0.0
 11
257.3885381857683
 21
224.6273932527727
 31
0.0
  0
LINE
  5
BA9A
330
1F
100
AcDbEntity
  8
AM_0
100
AcDbLine
 10
239.3885381857683
 20
220.3274032527727
 30
0.0
 11
257.3885381857683
 21
220.3274032527727
 31
0.0
  0
LINE
  5
BA9B
330
1F
100
AcDbEntity
  8
AM_0
100
AcDbLine
 10
257.3885381857683
 20
221.3274032527727
 30
0.0
 11
257.3885381857683
 21
220.3274032527727
 31
0.0
  0
LINE
  5
BA9C
330
1F
100
AcDbEntity
  8
AM_0
100
AcDbLine
 10
239.3885381857683
 20
221.3274032527727
 30
0.0
 11
239.3885381857683
 21
220.3274032527727
 31
0.0
  0
LINE
  5
BA9D
102
{ACAD_REACTORS
330
BD06
102
}
330
1F
100
AcDbEntity
  8
AM_7
100
AcDbLine
 10
124.7724765262941
 20
118.4976382527727
 30
0.0
 11
124.7724765262941
 21
61.49763825277271
 31
0.0
  0
LINE
  5
BA9E
102
{ACAD_REACTORS
330
BD06
330
BD4F
102
}
330
1F
100
AcDbEntity
  8
AM_7
100
AcDbLine
 10
153.2724765262941
 20
89.9976392527727
 30
0.0
 11
96.2724735262941
 21
89.9976392527727
 31
0.0
  0
LINE
  5
BA9F
102
{ACAD_REACTORS
330
BD06
330
BD4F
102
}
330
1F
100
AcDbEntity
  8
AM_7
100
AcDbLine
 10
102.0224765262941
 20
89.9976392527727
 30
0.0
 11
91.52247352629422
 21
89.9976392527727
 31
0.0
  0
CIRCLE
  5
BAA0
330
1F
100
AcDbEntity
  8
AM_0
100
AcDbCircle
 10
248.3885381857683
 20
89.99763925277267
 30
0.0
 40
32.5
  0
CIRCLE
  5
BAA1
330
1F
100
AcDbEntity
  8
AM_0
100
AcDbCircle
 10
248.3885381857683
 20
89.99763925277267
 30
0.0
 40
30.5
  0
CIRCLE
  5
BAA2
330
1F
100
AcDbEntity
  8
AM_0
100
AcDbCircle
 10
248.3885381857683
 20
89.99763925277267
 30
0.0
 40
23.5
  0
CIRCLE
  5
BAA3
330
1F
100
AcDbEntity
  8
AM_0
100
AcDbCircle
 10
263.3885381857683
 20
89.99763925277267
 30
0.0
 40
4.0
  0
CIRCLE
  5
BAA4
330
1F
100
AcDbEntity
  8
AM_0
100
AcDbCircle
 10
261.4885441857682
 20
79.16297625277267
 30
0.0
 40
2.0
  0
CIRCLE
  5
BAA5
330
1F
100
AcDbEntity
  8
AM_0
100
AcDbCircle
 10
248.3885381857683
 20
89.99763925277267
 30
0.0
 40
25.0
  0
ARC
  5
BAA6
330
1F
100
AcDbEntity
  8
AM_0
100
AcDbCircle
 10
255.1387511857682
 20
69.34793425277266
 30
0.0
 40
1.0
100
AcDbArc
 50
288.1021800000021
 51
0.0
  0
ARC
  5
BAA7
330
1F
100
AcDbEntity
  8
AM_0
100
AcDbCircle
 10
248.3885381857683
 20
89.99763925277267
 30
0.0
 40
22.725
100
AcDbArc
 50
251.8977800000019
 51
288.1021400000014
  0
ARC
  5
BAA8
330
1F
100
AcDbEntity
  8
AM_11
100
AcDbCircle
 10
269.0382281857683
 20
96.74785275277266
 30
0.0
 40
1.0
100
AcDbArc
 50
18.10213299999895
 51
90.0
  0
ARC
  5
BAA9
330
1F
100
AcDbEntity
  8
AM_11
100
AcDbCircle
 10
248.3885381857683
 20
144.9976462527727
 30
0.0
 40
10.0
100
AcDbArc
 50
0.0
 51
180.0
  0
ARC
  5
BAAA
330
1F
100
AcDbEntity
  8
AM_0
100
AcDbCircle
 10
241.6382941857682
 20
69.34794925277266
 30
0.0
 40
1.0
100
AcDbArc
 50
180.0
 51
251.8977100000022
  0
ARC
  5
BAAB
330
1F
100
AcDbEntity
  8
AM_0
100
AcDbCircle
 10
241.6382941857682
 20
110.6473278527727
 30
0.0
 40
1.0
100
AcDbArc
 50
108.102309999997
 51
180.0
  0
ARC
  5
BAAC
330
1F
100
AcDbEntity
  8
AM_0
100
AcDbCircle
 10
255.1387511857682
 20
110.6473430527727
 30
0.0
 40
1.0
100
AcDbArc
 50
0.0
 51
71.8978150000015
  0
ARC
  5
BAAD
330
1F
100
AcDbEntity
  8
AM_0
100
AcDbCircle
 10
248.3885381857683
 20
89.99763925277267
 30
0.0
 40
22.725
100
AcDbArc
 50
71.89785600000234
 51
108.1022199999981
  0
CIRCLE
  5
BAAE
102
{ACAD_REACTORS
330
BD06
330
BD4F
102
}
330
1F
100
AcDbEntity
  8
AM_0
100
AcDbCircle
 10
152.7724765262941
 20
89.9976392527727
 30
0.0
 40
2.25
  0
CIRCLE
  5
BAAF
102
{ACAD_REACTORS
330
BD06
330
BD4F
102
}
330
1F
100
AcDbEntity
  8
AM_0
100
AcDbCircle
 10
96.7724735262941
 20
89.9976392527727
 30
0.0
 40
2.25
  0
CIRCLE
  5
BAB0
102
{ACAD_REACTORS
330
BD06
102
}
330
1F
100
AcDbEntity
  8
AM_0
100
AcDbCircle
 10
124.7724765262941
 20
89.9976392527727
 30
0.0
 40
25.5
  0
ARC
  5
BAB1
330
1F
100
AcDbEntity
  8
AM_11
100
AcDbCircle
 10
296.7885331857683
 20
208.9274132527727
 30
0.0
 40
1.6
100
AcDbArc
 50
270.0
 51
0.0
  0
ARC
  5
BAB2
330
1F
100
AcDbEntity
  8
AM_11
100
AcDbCircle
 10
303.9885441857682
 20
204.9274132527727
 30
0.0
 40
1.6
100
AcDbArc
 50
180.0
 51
270.0
  0
ARC
  5
BAB3
330
1F
100
AcDbEntity
  8
AM_0
100
AcDbCircle
 10
280.8269847857682
 20
200.6264642527727
 30
0.0
 40
2.0
100
AcDbArc
 50
93.60843499999547
 51
168.4409100000002
  0
ARC
  5
BAB4
330
1F
100
AcDbEntity
  8
AM_0
100
AcDbCircle
 10
218.3993751857682
 20
201.1274102527727
 30
0.0
 40
0.5
100
AcDbArc
 50
191.5590600000004
 51
270.0
  0
ARC
  5
BAB5
330
1F
100
AcDbEntity
  8
AM_0
100
AcDbCircle
 10
248.3885381857683
 20
227.2274032527727
 30
0.0
 40
5.0
100
AcDbArc
 50
53.13010200000035
 51
126.8698999999994
  0
ARC
  5
BAB6
330
1F
100
AcDbEntity
  8
AM_0
100
AcDbCircle
 10
276.3885389857683
 20
207.5274032527727
 30
0.0
 40
6.5
100
AcDbArc
 50
94.41172399999793
 51
117.4864300000011
  0
ARC
  5
BAB7
330
1F
100
AcDbEntity
  8
AM_0
100
AcDbCircle
 10
276.3885389857683
 20
207.5274032527727
 30
0.0
 40
6.5
100
AcDbArc
 50
52.02011699999962
 51
85.58827600000205
  0
ARC
  5
BAB8
330
1F
100
AcDbEntity
  8
AM_0
100
AcDbCircle
 10
220.3885421857683
 20
207.5274032527727
 30
0.0
 40
6.5
100
AcDbArc
 50
94.41172399999793
 51
127.9798799999992
  0
ARC
  5
BAB9
330
1F
100
AcDbEntity
  8
AM_0
100
AcDbCircle
 10
216.0885231857683
 20
202.8230432527727
 30
0.0
 40
0.2
100
AcDbArc
 50
180.0
 51
266.3912199999966
  0
ARC
  5
BABA
330
1F
100
AcDbEntity
  8
AM_0
100
AcDbCircle
 10
220.3885421857683
 20
207.5274032527727
 30
0.0
 40
6.5
100
AcDbArc
 50
62.51357299999795
 51
85.58827600000205
  0
ARC
  5
BABB
330
1F
100
AcDbEntity
  8
AM_0
100
AcDbCircle
 10
243.5638001857683
 20
230.0687432527727
 30
0.0
 40
2.161509299999999
100
AcDbArc
 50
32.41470199999998
 51
87.06205299999759
  0
ARC
  5
BABC
330
1F
100
AcDbEntity
  8
AM_11
100
AcDbCircle
 10
248.3885381857683
 20
89.99763925277267
 30
0.0
 40
22.725
100
AcDbArc
 50
341.8977799999996
 51
18.10214400000043
  0
ARC
  5
BABD
330
1F
100
AcDbEntity
  8
AM_11
100
AcDbCircle
 10
269.0382281857683
 20
83.24739625277266
 30
0.0
 40
1.0
100
AcDbArc
 50
270.0
 51
341.8977999999995
  0
ARC
  5
BABE
330
1F
100
AcDbEntity
  8
AM_11
100
AcDbCircle
 10
227.7388491857682
 20
83.24739625277266
 30
0.0
 40
1.0
100
AcDbArc
 50
198.1021799999996
 51
270.0
  0
ARC
  5
BABF
330
1F
100
AcDbEntity
  8
AM_11
100
AcDbCircle
 10
227.7388491857682
 20
96.74785275277266
 30
0.0
 40
1.0
100
AcDbArc
 50
90.0
 51
161.8978700000008
  0
ARC
  5
BAC0
330
1F
100
AcDbEntity
  8
AM_11
100
AcDbCircle
 10
248.3885381857683
 20
89.99763925277267
 30
0.0
 40
22.725
100
AcDbArc
 50
161.8978600000001
 51
198.1022200000004
  0
ARC
  5
BAC1
330
1F
100
AcDbEntity
  8
AM_0
100
AcDbCircle
 10
253.2132451857683
 20
230.0687432527727
 30
0.0
 40
2.161509299999999
100
AcDbArc
 50
92.93794700000241
 51
147.5852999999987
  0
ARC
  5
BAC2
330
1F
100
AcDbEntity
  8
AM_0
100
AcDbCircle
 10
302.3885381857683
 20
89.99763925277267
 30
0.0
 40
11.0
100
AcDbArc
 50
294.6199700000008
 51
65.38002699999971
  0
ARC
  5
BAC3
330
1F
100
AcDbEntity
  8
AM_0
100
AcDbCircle
 10
280.6885417857683
 20
202.8264632527727
 30
0.0
 40
0.2
100
AcDbArc
 50
270.0
 51
0.0
  0
ARC
  5
BAC4
330
1F
100
AcDbEntity
  8
AM_0
100
AcDbCircle
 10
278.3776894857683
 20
201.1274102527727
 30
0.0
 40
0.5
100
AcDbArc
 50
270.0
 51
348.4409100000001
  0
ARC
  5
BAC5
330
1F
100
AcDbEntity
  8
AM_0
100
AcDbCircle
 10
215.9500961857683
 20
200.6264642527727
 30
0.0
 40
2.0
100
AcDbArc
 50
11.5591040000002
 51
86.3914900000009
  0
DIMENSION
  5
BB2C
330
1F
100
AcDbEntity
  8
AM_5
100
AcDbDimension
  2
*D5
 10
273.3885391857682
 20
243.7593042527727
 30
0.0
 11
248.3885386857683
 21
246.8593042527727
 31
0.0
 70
    32
  1
%%c<>
 71
     5
 42
50.00000099999988
  3
SYS$0
100
AcDbAlignedDimension
 13
223.3885381857683
 23
218.0274032527727
 33
0.0
 14
273.3885391857682
 24
218.0274032527727
 34
0.0
 50
0.0000000000000114
100
AcDbRotatedDimension
  0
DIMENSION
  5
BB4B
330
1F
100
AcDbEntity
  8
AM_5
100
AcDbDimension
  2
*D6
 10
276.3885389857683
 20
253.7593042527727
 30
0.0
 11
248.3885405857683
 21
256.8593042527727
 31
0.0
 70
    32
 71
     5
 42
55.99999679999996
  3
SYS$0
100
AcDbAlignedDimension
 13
220.3885421857683
 23
216.5164632527727
 33
0.0
 14
276.3885389857683
 24
215.9960132527727
 34
0.0
 50
0.0000000000000114
100
AcDbRotatedDimension
  0
DIMENSION
  5
BB73
330
1F
100
AcDbEntity
  8
AM_5
100
AcDbDimension
  2
*D7
 10
280.8885417857683
 20
190.6274102527917
 30
0.0
 11
248.3885419857683
 21
193.7274102527917
 31
0.0
 70
    32
 71
     5
 42
64.99999959999997
  3
SYS$0
100
AcDbAlignedDimension
 13
215.8885421857683
 23
202.8230432527727
 33
0.0
 14
280.8885417857683
 24
202.8264632527727
 34
0.0
 50
0.0000000000001132
100
AcDbRotatedDimension
  0
DIMENSION
  5
BB89
330
1F
100
AcDbEntity
  8
AM_5
100
AcDbDimension
  2
*D8
 10
325.3885231857683
 20
223.6273932527726
 30
0.0
 11
325.3885231857682
 21
237.3606226736611
 31
0.0
 70
   160
 71
     5
 42
2.29998999999998
  3
SYS$0
100
AcDbAlignedDimension
 13
313.3885231857682
 23
221.3274032527727
 33
0.0
 14
313.3885231857682
 24
223.6273932527727
 34
0.0
 50
90.0
100
AcDbRotatedDimension
  0
DIMENSION
  5
BBA3
330
1F
100
AcDbEntity
  8
AM_5
100
AcDbDimension
  2
*D9
 10
325.3885241857682
 20
207.3274032527727
 30
0.0
 11
322.2885241857682
 21
214.3274032527727
 31
0.0
 70
    32
  1
※<>
 71
     5
 42
14.0
  3
SYS$0
100
AcDbAlignedDimension
 13
313.3885231857682
 23
221.3274032527727
 33
0.0
 14
296.7885331857683
 24
207.3274032527727
 34
0.0
 50
90.0
100
AcDbRotatedDimension
  0
DIMENSION
  5
BBCB
330
1F
100
AcDbEntity
  8
AM_5
100
AcDbDimension
  2
*D10
 10
325.3885241857683
 20
200.6274102527726
 30
0.0
 11
322.2885241857683
 21
195.8340769194394
 31
0.0
 70
    32
 71
     5
 42
6.699993000000035
  3
SYS$0
100
AcDbAlignedDimension
 13
296.7885331857683
 23
207.3274032527727
 33
0.0
 14
278.3776894857683
 24
200.6274102527726
 34
0.0
 50
90.0
100
AcDbRotatedDimension
  0
DIMENSION
  5
BBE3
330
1F
100
AcDbEntity
  8
AM_5
100
AcDbDimension
  2
*D11
 10
335.3885241857683
 20
232.2274032527726
 30
0.0
 11
332.2885241857683
 21
219.7774032527727
 31
0.0
 70
    32
  1
（<>）
 71
     5
 42
24.89999999999998
  3
SYS$0
100
AcDbAlignedDimension
 13
296.7885331857683
 23
207.3274032527727
 33
0.0
 14
253.1024721857682
 24
232.2274032527727
 34
0.0
 50
90.0
100
AcDbRotatedDimension
1001
ACAD
1000
DSTYLE
1002
{
1070
   271
1070
     0
1002
}
  0
DIMENSION
  5
BC35
330
1F
100
AcDbEntity
  8
AM_5
100
AcDbDimension
  2
*D12
 10
313.3885381857683
 20
45.49763824277271
 30
0.0
 11
280.8885381857683
 21
48.59763824277271
 31
0.0
 70
    32
 71
     5
 42
65.0
  3
SYS$0
100
AcDbAlignedDimension
 13
248.3885381857683
 23
54.49763825277267
 33
0.0
 14
313.3885381857683
 24
89.99763896479338
 34
0.0
 50
0.0000000000001132
100
AcDbRotatedDimension
  0
DIMENSION
  5
BC4B
330
1F
100
AcDbEntity
  8
AM_5
100
AcDbDimension
  2
*D13
 10
96.7724735262941
 20
127.4976402627727
 30
0.0
 11
124.7724750262941
 21
130.5976402627727
 31
0.0
 70
    32
 71
     5
 42
56.00000299999999
  3
SYS$0
100
AcDbAlignedDimension
 13
152.7724765262941
 23
95.24763905277271
 33
0.0
 14
96.7724735262941
 24
95.24763905277271
 34
0.0
100
AcDbRotatedDimension
  0
HATCH
  5
BD06
330
1F
100
AcDbEntity
  8
AM_2
100
AcDbHatch
 10
0.0
 20
0.0
 30
0.0
210
0.0
220
0.0
230
1.0
  2
ANSI31
 70
     0
 71
     1
 91
       20
 92
       23
 72
     1
 73
     1
 93
        4
 10
152.7724765262941
 20
92.2476392527727
 42
0.0
 10
152.7724765262941
 20
89.99763925277269
 42
0.0
 10
153.2724765262941
 20
89.9976392527727
 42
0.0
 10
155.0224765262941
 20
89.9976392527727
 42
0.4142135623730951
 97
        4
330
BA28
330
BA9E
330
BA27
330
BAAE
 92
       23
 72
     1
 73
     1
 93
        3
 10
152.7724765262941
 20
92.2476392527727
 42
0.4142135623730951
 10
150.5224765262941
 20
89.9976392527727
 42
0.0
 10
152.7724765262941
 20
89.9976392527727
 42
0.0
 97
        3
330
BAAE
330
BA9E
330
BA28
 92
       23
 72
     1
 73
     1
 93
        3
 10
152.7724765262941
 20
89.99763925277269
 42
0.0
 10
150.5224765262941
 20
89.99763925277269
 42
0.4142135623730933
 10
152.7724765262941
 20
87.7476392527727
 42
0.0
 97
        3
330
BA9E
330
BAAE
330
BA28
 92
       23
 72
     1
 73
     1
 93
        3
 10
155.0224765262941
 20
89.9976392527727
 42
0.0
 10
152.7724765262941
 20
89.9976392527727
 42
0.0
 10
152.7724765262941
 20
87.7476392527727
 42
0.4142135623730951
 97
        3
330
BA27
330
BA28
330
BAAE
 92
        7
 72
     1
 73
     1
 93
        3
 10
96.7724735262941
 20
92.2476392527727
 42
0.0
 10
96.77247352629409
 20
89.99763925277269
 42
0.0
 10
99.0224735262941
 20
89.99763925277269
 42
0.4142135623730969
 97
        3
330
BA29
330
BA9E
330
BAAF
 92
        7
 72
     1
 73
     1
 93
        3
 10
96.7724735262941
 20
92.2476392527727
 42
0.4142135623730951
 10
94.5224735262941
 20
89.9976392527727
 42
0.0
 10
96.7724735262941
 20
89.9976392527727
 42
0.0
 97
        3
330
BAAF
330
BA9F
330
BA29
 92
       23
 72
     1
 73
     1
 93
        4
 10
96.77247352629409
 20
89.99763925277269
 42
0.0
 10
96.2724735262941
 20
89.9976392527727
 42
0.0
 10
94.5224735262941
 20
89.9976392527727
 42
0.4142135623730951
 10
96.7724735262941
 20
87.7476392527727
 42
0.0
 97
        4
330
BA9E
330
BA9F
330
BAAF
330
BA29
 92
       23
 72
     1
 73
     1
 93
        3
 10
99.0224735262941
 20
89.9976392527727
 42
0.0
 10
96.77247352629409
 20
89.9976392527727
 42
0.0
 10
96.77247352629409
 20
87.7476392527727
 42
0.4142135623730969
 97
        3
330
BA9E
330
BA29
330
BAAF
 92
        7
 72
     1
 73
     1
 93
        3
 10
124.7724765262941
 20
89.99763925277269
 42
0.0
 10
150.2724765262941
 20
89.9976392527727
 42
0.414213562373095
 10
124.7724765262941
 20
115.4976392527727
 42
0.0
 97
        3
330
BA9D
330
BA9E
330
BAB0
 92
        7
 72
     1
 73
     1
 93
        4
 10
124.7724765262941
 20
115.4976392527727
 42
0.414213562373095
 10
99.2724765262941
 20
89.9976392527727
 42
0.0
 10
102.0224765262941
 20
89.9976392527727
 42
0.0
 10
124.7724765262941
 20
89.99763925277271
 42
0.0
 97
        4
330
BAB0
330
BA9F
330
BA9E
330
BA9D
 92
        7
 72
     1
 73
     1
 93
        3
 10
99.2724765262941
 20
89.9976392527727
 42
0.414213562373095
 10
124.7724765262941
 20
64.4976392527727
 42
0.0
 10
124.7724765262941
 20
89.99763925277269
 42
0.0
 97
        3
330
BA9E
330
BAB0
330
BA9D
 92
        7
 72
     1
 73
     1
 93
        3
 10
124.7724765262941
 20
89.9976392527727
 42
0.0
 10
124.7724765262941
 20
64.4976392527727
 42
0.414213562373095
 10
150.2724765262941
 20
89.9976392527727
 42
0.0
 97
        3
330
BA9E
330
BA9D
330
BAB0
 92
       23
 72
     1
 73
     1
 93
        3
 10
152.7724765262941
 20
89.9976392527727
 42
0.0
 10
152.7724765262941
 20
87.7476392527727
 42
0.4142135623730951
 10
155.0224765262941
 20
89.9976392527727
 42
0.0
 97
        3
330
BA27
330
BA28
330
BAAE
 92
       23
 72
     1
 73
     1
 93
        4
 10
152.7724765262941
 20
89.9976392527727
 42
0.0
 10
153.2724765262941
 20
89.9976392527727
 42
0.0
 10
155.0224765262941
 20
89.9976392527727
 42
0.4142135623730951
 10
152.7724765262941
 20
92.2476392527727
 42
0.0
 97
        4
330
BA28
330
BA9E
330
BA27
330
BAAE
 92
       23
 72
     1
 73
     1
 93
        3
 10
152.7724765262941
 20
92.2476392527727
 42
0.4142135623730951
 10
150.5224765262941
 20
89.9976392527727
 42
0.0
 10
152.7724765262941
 20
89.9976392527727
 42
0.0
 97
        3
330
BAAE
330
BA9E
330
BA28
 92
        7
 72
     1
 73
     1
 93
        3
 10
150.5224765262941
 20
89.9976392527727
 42
0.4142135623730951
 10
152.7724765262941
 20
87.7476392527727
 42
0.0
 10
152.7724765262941
 20
89.9976392527727
 42
0.0
 97
        3
330
BA9E
330
BAAE
330
BA28
 92
       23
 72
     1
 73
     1
 93
        3
 10
96.77247352629409
 20
89.9976392527727
 42
0.0
 10
99.0224735262941
 20
89.9976392527727
 42
0.4142135623730951
 10
96.7724735262941
 20
92.2476392527727
 42
0.0
 97
        3
330
BA29
330
BA9F
330
BAAF
 92
       23
 72
     1
 73
     1
 93
        3
 10
96.77247352629409
 20
89.9976392527727
 42
0.0
 10
96.77247352629409
 20
92.2476392527727
 42
0.4142135623730933
 10
94.5224735262941
 20
89.9976392527727
 42
0.0
 97
        3
330
BAAF
330
BA9F
330
BA29
 92
       23
 72
     1
 73
     1
 93
        3
 10
94.5224735262941
 20
89.9976392527727
 42
0.4142135623730951
 10
96.7724735262941
 20
87.7476392527727
 42
0.0
 10
96.77247352629409
 20
89.9976392527727
 42
0.0
 97
        3
330
BA9F
330
BAAF
330
BA29
 92
       23
 72
     1
 73
     1
 93
        3
 10
96.77247352629409
 20
87.7476392527727
 42
0.4142135623730969
 10
99.0224735262941
 20
89.9976392527727
 42
0.0
 10
96.7724735262941
 20
89.9976392527727
 42
0.0
 97
        3
330
BA9F
330
BA29
330
BAAF
 75
     0
 76
     1
 52
90.0
 41
1.0
 77
     0
 78
     1
 53
135.0
 43
0.0
 44
0.0
 45
-2.245064030267288
 46
-2.245064030267288
 79
     0
 47
0.0080406735892495
 98
       20
 10
154.2129660730054
 20
90.79448750563574
 10
152.4430651935445
 20
90.8509604257248
 10
152.2547774895628
 20
88.76146314834978
 10
153.5163028458724
 20
88.51674741660418
 10
97.19978462805625
 20
90.28442135245598
 10
96.57246360646491
 20
90.589966565478
 10
96.32314399045958
 20
89.04615768183533
 10
97.19978462805625
 20
88.90946597905315
 10
131.0963947743653
 20
100.7442965187273
 10
118.0422405674565
 20
100.8629423463099
 10
115.0753881426972
 20
85.67623122637019
 10
137.979493657751
 20
81.99819984840894
 10
153.5531576610601
 20
89.30804307464587
 10
153.6676905272985
 20
90.93974374203208
 10
152.035605291245
 20
90.73935954360661
 10
151.8065405415372
 20
89.22216413246349
 10
97.4015225067177
 20
90.85824663644485
 10
95.9947645503803
 20
90.75920227051961
 10
95.9551373442257
 20
89.23392255850922
 10
97.57984395164453
 20
88.95659925302425
1001
ACAD
1010
0.0
1020
0.0
1030
0.0
  0
HATCH
  5
BD4F
330
1F
100
AcDbEntity
  8
AM_2
100
AcDbHatch
 10
0.0
 20
0.0
 30
0.0
210
0.0
220
0.0
230
1.0
  2
ANSI31
 70
     0
 71
     1
 91
        8
 92
        7
 72
     1
 73
     1
 93
        3
 10
96.7724735262941
 20
92.2476392527727
 42
0.4142135623730951
 10
94.5224735262941
 20
89.9976392527727
 42
0.0
 10
96.7724735262941
 20
89.9976392527727
 42
0.0
 97
        3
330
BAAF
330
BA9F
330
BA29
 92
        7
 72
     1
 73
     1
 93
        3
 10
96.7724735262941
 20
92.2476392527727
 42
0.0
 10
96.7724735262941
 20
89.99763925277271
 42
0.0
 10
99.0224735262941
 20
89.99763925277271
 42
0.4142135623730933
 97
        3
330
BA29
330
BA9F
330
BAAF
 92
        7
 72
     1
 73
     1
 93
        3
 10
99.0224735262941
 20
89.9976392527727
 42
0.0
 10
96.7724735262941
 20
89.9976392527727
 42
0.0
 10
96.7724735262941
 20
87.7476392527727
 42
0.4142135623730951
 97
        3
330
BA9F
330
BA29
330
BAAF
 92
        7
 72
     1
 73
     1
 93
        3
 10
96.77247352629412
 20
89.99763925277271
 42
0.0
 10
94.5224735262941
 20
89.99763925277271
 42
0.4142135623730969
 10
96.7724735262941
 20
87.7476392527727
 42
0.0
 97
        3
330
BA9F
330
BAAF
330
BA29
 92
        7
 72
     1
 73
     1
 93
        4
 10
152.7724765262941
 20
92.2476392527727
 42
0.0
 10
152.7724765262941
 20
89.99763925277269
 42
0.0
 10
153.2724765262941
 20
89.9976392527727
 42
0.0
 10
155.0224765262941
 20
89.9976392527727
 42
0.4142135623730951
 97
        4
330
BA28
330
BA9E
330
BA27
330
BAAE
 92
        7
 72
     1
 73
     1
 93
        3
 10
152.7724765262941
 20
92.2476392527727
 42
0.4142135623730951
 10
150.5224765262941
 20
89.9976392527727
 42
0.0
 10
152.7724765262941
 20
89.9976392527727
 42
0.0
 97
        3
330
BAAE
330
BA9E
330
BA28
 92
        7
 72
     1
 73
     1
 93
        3
 10
152.7724765262941
 20
89.99763925277269
 42
0.0
 10
150.5224765262941
 20
89.99763925277269
 42
0.4142135623730933
 10
152.7724765262941
 20
87.7476392527727
 42
0.0
 97
        3
330
BA9E
330
BAAE
330
BA28
 92
        7
 72
     1
 73
     1
 93
        3
 10
155.0224765262941
 20
89.9976392527727
 42
0.0
 10
152.7724765262941
 20
89.9976392527727
 42
0.0
 10
152.7724765262941
 20
87.7476392527727
 42
0.4142135623730951
 97
        3
330
BA27
330
BA28
330
BAAE
 75
     0
 76
     1
 52
90.0
 41
0.5
 77
     0
 78
     1
 53
135.0
 43
0.0
 44
0.0
 45
-1.122532015133644
 46
-1.122532015133644
 79
     0
 47
0.0224803723682005
 98
        8
 10
96.38579943664729
 20
91.14606689535333
 10
97.746940210601
 20
91.00389196093602
 10
97.86883401563443
 20
88.56660047763171
 10
96.16232860731623
 20
89.09468033731036
 10
153.5759981922401
 20
90.7641416979277
 10
152.2493437605109
 20
90.78662225830226
 10
152.3392867669904
 20
88.8533101504429
 10
154.048197993489
 20
88.76338867486618
1001
ACAD
1010
0.0
1020
0.0
1030
0.0
  0
INSERT
  5
BD51
330
1F
100
AcDbEntity
  8
AM_6
100
AcDbBlockReference
  2
*S23
 10
0.0
 20
0.0
 30
0.0
  0
INSERT
  5
BD62
330
1F
100
AcDbEntity
  8
AM_6
100
AcDbBlockReference
  2
*S24
 10
0.0
 20
0.0
 30
0.0
  0
INSERT
  5
BD65
330
1F
100
AcDbEntity
  8
AM_6
100
AcDbBlockReference
  2
*S25
 10
0.0
 20
0.0
 30
0.0
  0
MTEXT
  5
BD6F
330
1F
100
AcDbEntity
  8
AM_6
100
AcDbMText
 10
117.2107587519909
 20
51.89900914564714
 30
0.0
 40
3.2
 41
19.33095284333262
 71
     1
 72
     5
  1
{\L切欠推奨寸法}
 73
     1
 44
1.0
  0
DIMENSION
  5
BDC4
330
1F
100
AcDbEntity
  8
AM_5
100
AcDbDimension
  2
*D17
 10
212.8885421857683
 20
89.99763925277267
 30
0.0
 11
287.7007665612041
 21
129.3098676282084
 31
0.0
 70
    34
 71
     5
 42
1.570796326794895
  3
SYS$2
100
AcDb2LineAngularDimension
 13
248.3885381857683
 23
157.9976462527727
 33
0.0
 14
248.3885381857683
 24
54.49763825277267
 34
0.0
 15
316.3885381857683
 25
89.99763925277267
 35
0.0
 16
293.7214057092588
 26
116.1705825205975
 36
0.0
  0
CIRCLE
  5
BDEF
330
1F
100
AcDbEntity
  8
AM_6
100
AcDbCircle
 10
65.72666444416086
 20
236.2791533046496
 30
0.0
 40
2.0
  0
DIMENSION
  5
BE20
330
1F
100
AcDbEntity
  8
AM_5
100
AcDbDimension
  2
*D18
 10
98.45593706860818
 20
88.50483970102458
 30
0.0
 11
79.72162925771572
 21
98.14903419460231
 31
0.0
 70
   163
  1
<>
 71
     5
 42
4.500000000000014
  3
SYS$3
100
AcDbDiametricDimension
 15
95.08900998398003
 25
91.49043880452082
 35
0.0
 40
0.0
1001
ACAD
1000
DSTYLE
1002
{
1070
   172
1070
     1
1070
   342
1005
BCB0
1002
}
  0
DIMENSION
  5
BE59
330
1F
100
AcDbEntity
  8
AM_5
100
AcDbDimension
  2
*D19
 10
145.1038373506196
 20
105.3887330095882
 30
0.0
 11
85.72365519328618
 21
65.67950579207671
 31
0.0
 70
   163
  1
<>
 71
     5
 42
51.00000000000006
  3
SYS$3
100
AcDbDiametricDimension
 15
104.4411157019686
 25
74.60654549595725
 35
0.0
 40
0.0
1001
ACAD
1000
DSTYLE
1002
{
1070
   172
1070
     1
1070
   342
1005
BCB0
1002
}
  0
MTEXT
  5
BEA4
330
1F
100
AcDbEntity
  8
AM_6
100
AcDbMText
 10
21.50000076528125
 20
276.4999999999999
 30
0.0
 40
3.2
 41
20.00000006410733
 71
     5
 72
     5
  1
品番
 73
     1
 44
1.0
1001
ACAD
1000
ACAD_MTEXT_DEFINED_HEIGHT_BEGIN
1070
    46
1040
8.000000000000014
1000
ACAD_MTEXT_DEFINED_HEIGHT_END
  0
MTEXT
  5
BEA5
330
1F
100
AcDbEntity
  8
AM_6
100
AcDbMText
 10
21.50000006410733
 20
284.4999999999999
 30
0.0
 40
3.2
 41
20.00000006410733
 71
     5
 72
     5
  1
品名
 73
     1
 44
1.0
1001
ACAD
1000
ACAD_MTEXT_DEFINED_HEIGHT_BEGIN
1070
    46
1040
8.000000000000014
1000
ACAD_MTEXT_DEFINED_HEIGHT_END
  0
ENDSEC
  0
SECTION
  2
OBJECTS
  0
DICTIONARY
  5
C
330
0
100
AcDbDictionary
281
     1
  3
ACAD_BGPLOT_KEY
350
AB06
  3
ACAD_COLOR
350
A91D
  3
ACAD_DGNDEFINITIONS
350
BEF8
  3
ACAD_DWFDEFINITIONS
350
BEF7
  3
ACAD_GROUP
350
D
  3
ACAD_LAYOUT
350
1A
  3
ACAD_MATERIAL
350
A91C
  3
ACAD_MLEADERSTYLE
350
BEE4
  3
ACAD_MLINESTYLE
350
17
  3
ACAD_PDFDEFINITIONS
350
BEF6
  3
ACAD_PLOTSETTINGS
350
19
  3
ACAD_PLOTSTYLENAME
350
E
  3
ACAD_SCALELIST
350
BEAF
  3
ACAD_TABLESTYLE
350
AAB9
  3
ACAD_VISUALSTYLE
350
B0F1
  3
AcAsAppObject
350
3DA1
  3
ACASGREF_MASTER
350
3DE9
  3
AcAmCatalogState
350
3E1D
  3
ACDBHEADERROUNDTRIPXREC
350
BF94
  3
AcDbVariableDictionary
350
34
  3
AD_APPL
350
3E01
  3
AD_GREF_MODULE
350
3DEA
  3
ACGREF_MASTER
350
41
  3
ACGREFACAD_MASTER
350
45
  3
ACME_BOM_MANAGER_NAME
350
3A
  3
ACMESTATEMGR
350
3F
  3
AcmeSysVarManager
350
36
  3
AcmSystemVariableManager
350
4A
  3
AD_MAPI_MODULE
350
3E06
  3
ASE_INDEX_DICTIONARY
350
B331
  3
ASURF_STATIC_VARS
350
3DA2
  3
ADSYSVARMGR
350
3DF3
  3
AMG
350
2B
  3
AutoSurf_SysVars
350
3DA3
  3
gmRefExt
350
BF02
  3
AUTOCAD_ASSEMBLIES_PROJECT
350
3E11
  3
HCJX_INFO
350
BF05
  3
Designer_Assemblies_SysVars
350
3E08
  3
DWGPROPS
350
BF97
  3
HCJX_INFO
350
BF73
  3
MAPISURF_MODULE
350
3DEB
  0
DICTIONARY
  5
BF98
330
8
100
AcDbDictionary
280
     1
281
     1
  3
ACAD_XREC_ROUNDTRIP
360
BF99
  0
DICTIONARY
  5
3F95
330
2
100
AcDbDictionary
280
     1
281
     1
  3
ACAD_LAYERFILTERS
360
B466
  3
ACAD_LAYERSTATES
360
3F96
  3
ACLYDICTIONARY
360
B465
  3
AMLAYER_GROUPCOLORS
360
AAB4
  0
DICTIONARY
  5
8A
330
1F
100
AcDbDictionary
280
     1
281
     1
  3
ACAD_SORTENTS
360
B1BA
  0
DICTIONARY
  5
AB06
102
{ACAD_REACTORS
330
C
102
}
330
C
100
AcDbDictionary
280
     1
281
     1
  0
DICTIONARY
  5
A91D
102
{ACAD_REACTORS
330
C
102
}
330
C
100
AcDbDictionary
281
     1
  0
DICTIONARY
  5
BEF8
102
{ACAD_REACTORS
330
C
102
}
330
C
100
AcDbDictionary
281
     1
  0
DICTIONARY
  5
BEF7
102
{ACAD_REACTORS
330
C
102
}
330
C
100
AcDbDictionary
281
     1
  0
DICTIONARY
  5
D
102
{ACAD_REACTORS
330
C
102
}
330
C
100
AcDbDictionary
281
     1
  0
DICTIONARY
  5
1A
102
{ACAD_REACTORS
330
C
102
}
330
C
100
AcDbDictionary
281
     1
  3
Model
350
22
  3
ﾚｲｱｳﾄ1
350
1E
  3
ﾚｲｱｳﾄ2
350
26
  0
DICTIONARY
  5
A91C
102
{ACAD_REACTORS
330
C
102
}
330
C
100
AcDbDictionary
281
     1
  3
ByBlock
350
B0EF
  3
ByLayer
350
B0EE
  3
Global
350
B0F0
  0
DICTIONARY
  5
BEE4
102
{ACAD_REACTORS
330
C
102
}
330
C
100
AcDbDictionary
281
     1
  3
Standard
350
BF03
  0
DICTIONARY
  5
17
102
{ACAD_REACTORS
330
C
102
}
330
C
100
AcDbDictionary
281
     1
  3
Standard
350
18
  0
DICTIONARY
  5
BEF6
102
{ACAD_REACTORS
330
C
102
}
330
C
100
AcDbDictionary
281
     1
  0
DICTIONARY
  5
19
102
{ACAD_REACTORS
330
C
102
}
330
C
100
AcDbDictionary
281
     1
  0
ACDBDICTIONARYWDFLT
  5
E
102
{ACAD_REACTORS
330
C
102
}
330
C
100
AcDbDictionary
281
     1
  3
Normal
350
F
100
AcDbDictionaryWithDefault
340
F
  0
DICTIONARY
  5
BEAF
102
{ACAD_REACTORS
330
C
102
}
330
C
100
AcDbDictionary
281
     1
  3
A0
350
BEB0
  3
A1
350
BEB1
  3
A2
350
BEB2
  3
A3
350
BEB3
  3
A4
350
BEB4
  3
A5
350
BEB5
  3
A6
350
BEB6
  3
A7
350
BEB7
  3
A8
350
BEB8
  3
A9
350
BEB9
  3
B0
350
BEBA
  3
B1
350
BEBB
  3
B2
350
BEBC
  3
B3
350
BEBD
  3
B4
350
BEBE
  3
B5
350
BEBF
  3
B6
350
BEC0
  0
DICTIONARY
  5
AAB9
102
{ACAD_REACTORS
330
C
102
}
330
C
100
AcDbDictionary
281
     1
  3
Standard
350
AABA
  0
DICTIONARY
  5
B0F1
102
{ACAD_REACTORS
330
C
102
}
330
C
100
AcDbDictionary
281
     1
  3
2dWireframe
350
B0F7
  3
3D Hidden
350
B0F9
  3
3dWireframe
350
B0F8
  3
Basic
350
B0F6
  3
Brighten
350
B0FD
  3
ColorChange
350
B101
  3
Conceptual
350
B0FA
  3
Dim
350
B0FC
  3
EdgeColorOff
350
BEC5
  3
Facepattern
350
B100
  3
Flat
350
B0F2
  3
FlatWithEdges
350
B0F3
  3
Gouraud
350
B0F4
  3
GouraudWithEdges
350
B0F5
  3
Hidden
350
BEC2
  3
JitterOff
350
BEC3
  3
Linepattern
350
B0FF
  3
OverhangOff
350
BEC4
  3
Realistic
350
B0FB
  3
Shaded
350
BECA
  3
Shaded with edges
350
BEC9
  3
Shades of Gray
350
BEC6
  3
Sketchy
350
BEC7
  3
Thicken
350
B0FE
  3
Wireframe
350
BEC1
  3
X-Ray
350
BEC8
  0
ACAD_PROXY_OBJECT
  5
3DA1
102
{ACAD_REACTORS
330
C
102
}
330
C
100
AcDbProxyObject
 90
      499
 91
      576
 95
   917527
 70
     0
 93
       10
310
4040
  0
ACAD_PROXY_OBJECT
  5
3DE9
102
{ACAD_REACTORS
330
C
102
}
330
C
100
AcDbProxyObject
 90
      499
 91
      581
 95
   917527
 70
     0
 93
       34
310
0100004040
  0
ACAD_PROXY_OBJECT
  5
3E1D
102
{ACAD_REACTORS
330
C
102
}
330
C
100
AcDbProxyObject
 90
      499
 91
      603
 95
    65563
 70
     0
 93
      335
310
3FFFFFFFE00A0281403002A90D59003A005C0071511A905C004100550054004F00430041004400DA0080
  0
DICTIONARY
  5
BF94
102
{ACAD_REACTORS
330
C
102
}
330
C
100
AcDbDictionary
281
     1
  3
COLORDICT
350
BF95
  3
MATERIALDICT
350
BF96
  0
DICTIONARY
  5
34
102
{ACAD_REACTORS
330
C
102
}
330
C
100
AcDbDictionary
281
     1
  3
CANNOSCALE
350
BF08
  3
CMLEADERSTYLE
350
BF09
  3
CTABLESTYLE
350
AAF3
  3
DIMASSOC
350
A10C
  3
FIELDEVAL
350
AB07
  3
HIDETEXT
350
BF2D
  3
INDEXCTL
350
35
  3
MSLTSCALE
350
BF0A
  3
SORTENTS
350
194C
  3
XCLIPFRAME
350
BF2E
  0
ACAD_PROXY_OBJECT
  5
3E01
102
{ACAD_REACTORS
330
C
102
}
330
C
100
AcDbProxyObject
 90
      499
 91
      590
 95
    65563
 70
     0
 93
       35
310
000B000080
330
3DEF
 94
        0
  0
ACAD_PROXY_OBJECT
  5
3DEA
102
{ACAD_REACTORS
330
C
102
}
330
C
100
AcDbProxyObject
 90
      499
 91
      582
 95
   917527
 70
     0
 93
      114
310
000000438000000000000000000000
  0
ACAD_PROXY_OBJECT
  5
41
102
{ACAD_REACTORS
330
C
102
}
330
C
100
AcDbProxyObject
 90
      499
 91
      517
 95
    65563
 70
     0
 93
       35
310
0400004280
  0
ACAD_PROXY_OBJECT
  5
45
102
{ACAD_REACTORS
330
C
102
}
330
C
100
AcDbProxyObject
 90
      499
 91
      520
 95
    65563
 70
     0
 93
      115
310
04000041C080000000000000000000
  0
ACAD_PROXY_OBJECT
  5
3A
102
{ACAD_REACTORS
330
C
102
}
330
C
100
AcDbProxyObject
 90
      499
 91
      511
 95
    65563
 70
     0
 93
       51
310
00010040400000
330
0
330
0
330
3B
 94
        0
  0
ACMESTATEMGR
  5
3F
102
{ACAD_REACTORS
330
C
102
}
330
C
  0
ACIMSYSVARMAN
  5
36
102
{ACAD_REACTORS
330
C
102
}
330
C
  0
ACIMSYSVARMAN
  5
4A
102
{ACAD_REACTORS
330
C
102
}
330
C
  0
ACAD_PROXY_OBJECT
  5
3E06
102
{ACAD_REACTORS
330
C
102
}
330
C
100
AcDbProxyObject
 90
      499
 91
      594
 95
   917527
 70
     0
 93
       34
310
05000044C0
  0
DICTIONARY
  5
B331
102
{ACAD_REACTORS
330
C
102
}
330
C
100
AcDbDictionary
281
     1
  3
ASEBlockHierarchyIndexRecord
350
B332
1001
DCO15
1040
1594111214.218
  0
ACAD_PROXY_OBJECT
  5
3DA2
102
{ACAD_REACTORS
330
C
102
}
330
C
100
AcDbProxyObject
 90
      499
 91
      577
 95
    65563
 70
     0
 93
      425
310
585314D60000000000000000000000000000000000000000000000000000000000000000000000000000000000000000000000000000
330
3DB5
330
3DB6
330
3DB7
330
3DB8
330
3DB9
330
3DBA
330
3DBB
330
3DBC
330
3DBD
330
3DBE
330
3DBF
330
3DC0
330
3DC1
330
3DC2
330
3DC3
330
3DC4
330
3DC5
330
3DC6
330
3DC7
330
3DC8
330
3DC9
330
3DCA
330
3DCB
330
3DCC
330
3DCD
330
3DCE
330
3DCF
330
3DD0
330
3DD1
330
3DD2
330
3DD3
330
3DD4
330
3DD5
330
3DD6
330
3DD7
330
3DD8
330
3DD9
330
3DDA
330
3DDB
330
3DDC
330
3DDD
330
3DDE
330
3DDF
330
3DE0
330
3DE1
330
3DE2
330
3DE3
330
3DE4
330
3DE5
 94
        0
  0
ACIMSYSVARMAN
  5
3DF3
102
{ACAD_REACTORS
330
C
102
}
330
C
  0
DICTIONARY
  5
2B
102
{ACAD_REACTORS
330
C
102
}
330
C
100
AcDbDictionary
281
     1
  3
AcMgSettings
350
2C
  3
AMGLAYCFG
350
4E
  0
ACIMSYSVARMAN
  5
3DA3
102
{ACAD_REACTORS
330
C
102
}
330
C
  0
XRECORD
  5
BF02
102
{ACAD_REACTORS
330
C
102
}
330
C
100
AcDbXrecord
280
     1
  0
ACAMPROJECT
  5
3E11
102
{ACAD_REACTORS
330
C
102
}
330
C
  0
DICTIONARY
  5
BF05
102
{ACAD_REACTORS
330
C
102
}
330
C
100
AcDbDictionary
281
     1
  3
GmRelease
350
BF06
  3
GmTimeStamp
350
BF07
  0
ACIMSYSVARMAN
  5
3E08
102
{ACAD_REACTORS
330
C
102
}
330
C
  0
XRECORD
  5
BF97
102
{ACAD_REACTORS
330
C
102
}
330
C
100
AcDbXrecord
280
     1
  1
DWGPROPS COOKIE
  2

  3

  4

  6

  7

  8
G1075U
  9

300
AmdtFileType=84
301
=
302
=
303
=
304
=
305
=
306
=
307
=
308
=
309
=
 40
0.0
 41
2455832.06541522
 42
2459741.548448935
  1

 90
        1
  0
DICTIONARY
  5
BF73
102
{ACAD_REACTORS
330
C
102
}
330
C
100
AcDbDictionary
281
     1
  3
GmRelease
350
BF74
  3
GmTimeStamp
350
BF75
  0
ACAD_PROXY_OBJECT
  5
3DEB
102
{ACAD_REACTORS
330
C
102
}
330
C
100
AcDbProxyObject
 90
      499
 91
      583
 95
   917527
 70
     0
 93
        8
310
04
  0
XRECORD
  5
BF99
102
{ACAD_REACTORS
330
BF98
102
}
330
BF98
100
AcDbXrecord
280
     1
102
VTR_0.000_0.000_1.000_1.000_VISUALSTYLE
340
B0F7
102
VTR_0.000_0.000_1.000_1.000_GRIDDISPLAY
 70
     3
102
VTR_0.000_0.000_1.000_1.000_GRIDMAJOR
 70
     5
102
VTR_0.000_0.000_1.000_1.000_DEFAULTLIGHTING
280
     1
102
VTR_0.000_0.000_1.000_1.000_DEFAULTLIGHTINGTYPE
 70
     1
102
VTR_0.000_0.000_1.000_1.000_BRIGHTNESS
141
0.0
102
VTR_0.000_0.000_1.000_1.000_CONTRAST
142
0.0
  0
DICTIONARY
  5
B466
102
{ACAD_REACTORS
330
3F95
102
}
330
3F95
100
AcDbDictionary
281
     1
  0
DICTIONARY
  5
3F96
102
{ACAD_REACTORS
330
3F95
102
}
330
3F95
100
AcDbDictionary
281
     1
  3
20011210
350
3FB7
  0
DICTIONARY
  5
B465
102
{ACAD_REACTORS
330
3F95
102
}
330
3F95
100
AcDbDictionary
281
     1
1001
ACAD
1000
<All
  0
DICTIONARY
  5
AAB4
102
{ACAD_REACTORS
330
3F95
102
}
330
3F95
100
AcDbDictionary
280
     1
281
     1
  0
SORTENTSTABLE
  5
B1BA
102
{ACAD_REACTORS
330
8A
102
}
330
8A
100
AcDbSortentsTable
330
1F
331
0
  5
B911
331
B52D
  5
B52D
331
B534
  5
B534
331
B535
  5
B535
331
B536
  5
B536
331
B537
  5
B537
331
B538
  5
B538
331
B539
  5
B539
331
B53A
  5
B53A
331
B53B
  5
B53B
331
B907
  5
B907
331
B908
  5
B908
331
B909
  5
B909
331
B90B
  5
B90D
331
B90C
  5
B90E
331
B90D
  5
B90F
331
B910
  5
B912
331
B911
  5
B913
331
B912
  5
B914
331
B913
  5
B915
331
B916
  5
B919
331
B917
  5
B91A
331
B918
  5
B91B
331
B919
  5
B91C
331
B91A
  5
B91D
331
B91B
  5
B91E
331
B91C
  5
B91F
331
B922
  5
B925
331
B923
  5
B926
331
B924
  5
B90C
331
B925
  5
B90B
331
B926
  5
B918
331
B936
  5
B936
331
B940
  5
B940
331
B94D
  5
B94D
331
B94E
  5
B94E
331
B94F
  5
B94F
331
B950
  5
B950
331
BA16
  5
BA16
331
BA17
  5
BA17
331
BA18
  5
BA18
331
BA19
  5
BA19
331
BA1A
  5
BA1A
331
BA1B
  5
BA1B
331
BA1C
  5
BA1C
331
BA1D
  5
BA1D
331
BA1E
  5
BA1E
331
BA1F
  5
BA1F
331
BA20
  5
BA20
331
BA21
  5
BA21
331
BA22
  5
BA22
331
BA23
  5
BA23
331
BA24
  5
BA24
331
BA25
  5
BA25
331
BA26
  5
BA26
331
BA27
  5
BA29
331
BA28
  5
BA2A
331
BA29
  5
BA2B
331
BA2A
  5
BA2C
331
BA2B
  5
BA2D
331
BA2C
  5
BA2E
331
BA2D
  5
BA2F
331
BA2E
  5
BA30
331
BA2F
  5
BA31
331
BA30
  5
BA32
331
BA31
  5
BA33
331
BA32
  5
BA34
331
BA33
  5
BA35
331
BA34
  5
BA37
331
BA35
  5
BA38
331
BA37
  5
BA39
331
BA38
  5
BA3A
331
BA39
  5
BA3D
331
BA3A
  5
BA3E
331
BA3D
  5
BA3F
331
BA3E
  5
BA41
331
BA3F
  5
BA42
331
BA41
  5
BA43
331
BA42
  5
BA44
331
BA43
  5
BA45
331
BA44
  5
BA46
331
BA45
  5
BA47
331
BA46
  5
BA48
331
BA47
  5
BA49
331
BA48
  5
BA4A
331
BA49
  5
BA4B
331
BA4A
  5
BA4C
331
BA4B
  5
BA4D
331
BA4C
  5
BA4E
331
BA4D
  5
BA4F
331
BA4E
  5
BA50
331
BA4F
  5
BA51
331
BA50
  5
BA52
331
BA51
  5
BA53
331
BA52
  5
BA54
331
BA53
  5
BA57
331
BA54
  5
BA58
331
BA57
  5
BA5A
331
BA58
  5
BA5B
331
BA5A
  5
BA5C
331
BA5B
  5
BA5D
331
BA5C
  5
BA5E
331
BA5D
  5
BA5F
331
BA5E
  5
BA60
331
BA5F
  5
BA61
331
BA60
  5
BA62
331
BA61
  5
BA63
331
BA62
  5
BA64
331
BA63
  5
BA65
331
BA64
  5
BA66
331
BA65
  5
BA67
331
BA66
  5
BA68
331
BA67
  5
BA69
331
BA68
  5
BA6C
331
BA69
  5
BA6D
331
BA6C
  5
BA6E
331
BA6D
  5
BA6F
331
BA6E
  5
BA70
331
BA6F
  5
BA71
331
BA70
  5
BA72
331
BA71
  5
BA73
331
BA72
  5
BA75
331
BA73
  5
BA77
331
BA75
  5
BA78
331
BA77
  5
BA7A
331
BA78
  5
BA7B
331
BA7A
  5
BA7C
331
BA7B
  5
BA7D
331
BA7C
  5
BA7E
331
BA7D
  5
BA80
331
BA7E
  5
BA81
331
BA80
  5
BA82
331
BA81
  5
BA83
331
BA82
  5
BA84
331
BA83
  5
BA85
331
BA84
  5
BA86
331
BA85
  5
BA87
331
BA86
  5
BA88
331
BA87
  5
BA89
331
BA88
  5
BA8A
331
BA89
  5
BA8B
331
BA8A
  5
BA8C
331
BA8B
  5
BA8D
331
BA8C
  5
BA8E
331
BA8D
  5
BA8F
331
BA8E
  5
BA90
331
BA8F
  5
BA91
331
BA90
  5
BA92
331
BA91
  5
BA93
331
BA92
  5
BA94
331
BA93
  5
BA95
331
BA94
  5
BA96
331
BA95
  5
BA97
331
BA96
  5
BA98
331
BA97
  5
BA99
331
BA98
  5
BA9A
331
BA99
  5
BA9B
331
BA9A
  5
BA9C
331
BA9B
  5
BA9D
331
BA9C
  5
BA9E
331
BA9D
  5
BA9F
331
BA9E
  5
BAA0
331
BA9F
  5
BAA1
331
BAA0
  5
BAA2
331
BAA1
  5
BAA3
331
BAA2
  5
BAA4
331
BAA3
  5
BAA5
331
BAA4
  5
BAA6
331
BAA5
  5
BAA7
331
BAA6
  5
BAA8
331
BAA7
  5
BAA9
331
BAA8
  5
BAAA
331
BAA9
  5
BAAB
331
BAAA
  5
BAAC
331
BAAB
  5
BAAD
331
BAAC
  5
BAAE
331
BAAD
  5
BAAF
331
BAAE
  5
BAB0
331
BAAF
  5
BAB1
331
BAB0
  5
BAB2
331
BAB1
  5
BAB3
331
BAB2
  5
BAB4
331
BAB3
  5
BAB5
331
BAB4
  5
BAB6
331
BAB5
  5
BAB7
331
BAB6
  5
BAB8
331
BAB7
  5
BAB9
331
BAB8
  5
BABA
331
BAB9
  5
BABB
331
BABA
  5
BABC
331
BABB
  5
BABD
331
BABC
  5
BABE
331
BABD
  5
BABF
331
BABE
  5
BAC0
331
BABF
  5
BAC1
331
BAC0
  5
BAC2
331
BAC1
  5
BAC3
331
BAC2
  5
BAC4
331
BAC3
  5
BAC5
331
BAC4
  5
BB2C
331
BAC5
  5
BB4B
331
BB2C
  5
BB73
331
BB4B
  5
BB89
331
BB73
  5
BBA3
331
BB89
  5
BBCB
331
BBA3
  5
BBE3
331
BBCB
  5
BC35
331
BBE3
  5
BC4B
331
BC35
  5
BC73
331
BC4B
  5
BC8F
331
BD06
  5
BA27
331
BD4F
  5
BA28
  0
LAYOUT
  5
22
102
{ACAD_REACTORS
330
1A
102
}
102
{ACAD_XDICTIONARY
360
BF9A
102
}
330
1A
100
AcDbPlotSettings
  1

  2
Adobe PDF
  4
A3
  6
AM_VIEW1
 40
3.174999952316284
 41
3.174999952316284
 42
3.17498779296875
 43
3.17498779296875
 44
297.0318298339844
 45
420.1583251953125
 46
-3.220765738941509
 47
-3.219149836427277
 48
214.3704939521119
 49
367.5855324241176
140
275.6727856380065
141
407.6291914078171
142
1.0
143
1.0
 70
  3748
 72
     1
 73
     1
 74
     1
  7
monochrome.ctb
 75
     0
147
0.9783203475359049
148
0.1219320031609641
149
0.1133954862984865
100
AcDbLayout
  1
Model
 70
     1
 71
     0
 10
0.0
 20
0.0
 11
12.0
 21
9.0
 12
0.0
 22
0.0
 32
0.0
 14
0.0
 24
0.0
 34
0.0
 15
420.0000007332276
 25
296.9999999999999
 35
0.0
146
0.0
 13
0.0
 23
0.0
 33
0.0
 16
1.0
 26
0.0
 36
0.0
 17
0.0
 27
1.0
 37
0.0
 76
     0
330
1F
331
B0EC
1001
ACAD_PSEXT
1000
Adobe PDF
1000
Adobe PDF Converter
1000
My Documents\*.pdf
1000

1070
     0
  0
LAYOUT
  5
1E
102
{ACAD_REACTORS
330
1A
102
}
330
1A
100
AcDbPlotSettings
  1

  2
\\ML370\XEROX
  4
A4
  6

 40
3.174999952316284
 41
3.174999952316284
 42
3.175003051757812
 43
3.17498779296875
 44
209.8674926757812
 45
296.6719970703125
 46
0.0
 47
0.0
 48
0.0
 49
0.0
140
0.0
141
0.0
142
1.0
143
1.0
 70
   688
 72
     1
 73
     1
 74
     5
  7
monochrome.ctb
 75
    16
147
1.0
148
0.0
149
0.0
100
AcDbLayout
  1
ﾚｲｱｳﾄ1
 70
     1
 71
     1
 10
-3.17498779296875
 20
-3.174999952316284
 11
293.4970092773438
 21
206.692492723465
 12
0.0
 22
0.0
 32
0.0
 14
1.000000000000000E+20
 24
1.000000000000000E+20
 34
1.000000000000000E+20
 15
-1.000000000000000E+20
 25
-1.000000000000000E+20
 35
-1.000000000000000E+20
146
0.0
 13
0.0
 23
0.0
 33
0.0
 16
1.0
 26
0.0
 36
0.0
 17
0.0
 27
1.0
 37
0.0
 76
     0
330
1B
  0
LAYOUT
  5
26
102
{ACAD_REACTORS
330
1A
102
}
330
1A
100
AcDbPlotSettings
  1

  2
\\ML370\XEROX
  4

  6

 40
0.0
 41
0.0
 42
0.0
 43
0.0
 44
0.0
 45
0.0
 46
0.0
 47
0.0
 48
0.0
 49
0.0
140
0.0
141
0.0
142
1.0
143
1.0
 70
   688
 72
     0
 73
     0
 74
     5
  7
monochrome.ctb
 75
    16
147
1.0
148
0.0
149
0.0
100
AcDbLayout
  1
ﾚｲｱｳﾄ2
 70
     1
 71
     2
 10
0.0
 20
0.0
 11
12.0
 21
9.0
 12
0.0
 22
0.0
 32
0.0
 14
0.0
 24
0.0
 34
0.0
 15
0.0
 25
0.0
 35
0.0
146
0.0
 13
0.0
 23
0.0
 33
0.0
 16
1.0
 26
0.0
 36
0.0
 17
0.0
 27
1.0
 37
0.0
 76
     0
330
23
  0
MATERIAL
  5
B0EF
102
{ACAD_REACTORS
330
A91C
102
}
102
{ACAD_XDICTIONARY
360
BF9C
102
}
330
A91C
100
AcDbMaterial
  1
ByBlock
  0
MATERIAL
  5
B0EE
102
{ACAD_REACTORS
330
A91C
102
}
102
{ACAD_XDICTIONARY
360
BF9E
102
}
330
A91C
100
AcDbMaterial
  1
ByLayer
  0
MATERIAL
  5
B0F0
102
{ACAD_REACTORS
330
A91C
102
}
102
{ACAD_XDICTIONARY
360
BFA0
102
}
330
A91C
100
AcDbMaterial
  1
Global
  0
MLEADERSTYLE
  5
BF03
102
{ACAD_REACTORS
330
BEE4
102
}
102
{ACAD_XDICTIONARY
360
BFD6
102
}
330
BEE4
100
AcDbMLeaderStyle
170
     2
171
     1
172
     0
 90
        2
 40
0.0
 41
0.0
173
     1
 91
-1056964608
340
15
 92
       -2
290
     1
 42
2.0
291
     1
 43
8.0
  3
Standard
341
0
 44
4.0
300

342
11
174
     1
178
     6
175
     1
176
     0
 93
-1056964608
 45
4.0
292
     0
297
     0
 46
4.0
343
0
 94
-1056964608
 47
1.0
 49
1.0
140
1.0
293
     1
141
0.0
294
     1
177
     0
142
1.0
295
     0
296
     0
143
3.75
1001
ACAD_MLEADERVER
1070
     2
  0
MLINESTYLE
  5
18
102
{ACAD_REACTORS
330
17
102
}
330
17
100
AcDbMlineStyle
  2
STANDARD
 70
     0
  3

 62
   256
 51
90.0
 52
90.0
 71
     2
 49
0.5
 62
   256
  6
BYLAYER
 49
-0.5
 62
   256
  6
BYLAYER
  0
ACDBPLACEHOLDER
  5
F
102
{ACAD_REACTORS
330
E
102
}
330
E
  0
SCALE
  5
BEB0
102
{ACAD_REACTORS
330
BEAF
102
}
330
BEAF
100
AcDbScale
 70
     0
300
1:1
140
1.0
141
1.0
290
     1
  0
SCALE
  5
BEB1
102
{ACAD_REACTORS
330
BEAF
102
}
330
BEAF
100
AcDbScale
 70
     0
300
1:2
140
1.0
141
2.0
290
     0
  0
SCALE
  5
BEB2
102
{ACAD_REACTORS
330
BEAF
102
}
330
BEAF
100
AcDbScale
 70
     0
300
1:4
140
1.0
141
4.0
290
     0
  0
SCALE
  5
BEB3
102
{ACAD_REACTORS
330
BEAF
102
}
330
BEAF
100
AcDbScale
 70
     0
300
1:5
140
1.0
141
5.0
290
     0
  0
SCALE
  5
BEB4
102
{ACAD_REACTORS
330
BEAF
102
}
330
BEAF
100
AcDbScale
 70
     0
300
1:8
140
1.0
141
8.0
290
     0
  0
SCALE
  5
BEB5
102
{ACAD_REACTORS
330
BEAF
102
}
330
BEAF
100
AcDbScale
 70
     0
300
1:10
140
1.0
141
10.0
290
     0
  0
SCALE
  5
BEB6
102
{ACAD_REACTORS
330
BEAF
102
}
330
BEAF
100
AcDbScale
 70
     0
300
1:16
140
1.0
141
16.0
290
     0
  0
SCALE
  5
BEB7
102
{ACAD_REACTORS
330
BEAF
102
}
330
BEAF
100
AcDbScale
 70
     0
300
1:20
140
1.0
141
20.0
290
     0
  0
SCALE
  5
BEB8
102
{ACAD_REACTORS
330
BEAF
102
}
330
BEAF
100
AcDbScale
 70
     0
300
1:30
140
1.0
141
30.0
290
     0
  0
SCALE
  5
BEB9
102
{ACAD_REACTORS
330
BEAF
102
}
330
BEAF
100
AcDbScale
 70
     0
300
1:40
140
1.0
141
40.0
290
     0
  0
SCALE
  5
BEBA
102
{ACAD_REACTORS
330
BEAF
102
}
330
BEAF
100
AcDbScale
 70
     0
300
1:50
140
1.0
141
50.0
290
     0
  0
SCALE
  5
BEBB
102
{ACAD_REACTORS
330
BEAF
102
}
330
BEAF
100
AcDbScale
 70
     0
300
1:100
140
1.0
141
100.0
290
     0
  0
SCALE
  5
BEBC
102
{ACAD_REACTORS
330
BEAF
102
}
330
BEAF
100
AcDbScale
 70
     0
300
2:1
140
2.0
141
1.0
290
     0
  0
SCALE
  5
BEBD
102
{ACAD_REACTORS
330
BEAF
102
}
330
BEAF
100
AcDbScale
 70
     0
300
4:1
140
4.0
141
1.0
290
     0
  0
SCALE
  5
BEBE
102
{ACAD_REACTORS
330
BEAF
102
}
330
BEAF
100
AcDbScale
 70
     0
300
8:1
140
8.0
141
1.0
290
     0
  0
SCALE
  5
BEBF
102
{ACAD_REACTORS
330
BEAF
102
}
330
BEAF
100
AcDbScale
 70
     0
300
10:1
140
10.0
141
1.0
290
     0
  0
SCALE
  5
BEC0
102
{ACAD_REACTORS
330
BEAF
102
}
330
BEAF
100
AcDbScale
 70
     0
300
100:1
140
100.0
141
1.0
290
     0
  0
TABLESTYLE
  5
AABA
102
{ACAD_REACTORS
330
AAB9
102
}
330
AAB9
100
AcDbTableStyle
  3
Standard
 70
     0
 71
     0
 40
1.5
 41
1.5
280
     0
281
     0
  7
STANDARD
140
4.5
170
     2
 62
     0
 63
   257
283
     0
274
    -2
284
     1
 64
     0
275
    -2
285
     1
 65
     0
276
    -2
286
     1
 66
     0
277
    -2
287
     1
 67
     0
278
    -2
288
     1
 68
     0
279
    -2
289
     1
 69
     0
  7
STANDARD
140
6.0
170
     5
 62
     0
 63
   257
283
     0
274
    -2
284
     1
 64
     0
275
    -2
285
     1
 65
     0
276
    -2
286
     1
 66
     0
277
    -2
287
     1
 67
     0
278
    -2
288
     1
 68
     0
279
    -2
289
     1
 69
     0
  7
STANDARD
140
4.5
170
     5
 62
     0
 63
   257
283
     0
274
    -2
284
     1
 64
     0
275
    -2
285
     1
 65
     0
276
    -2
286
     1
 66
     0
277
    -2
287
     1
 67
     0
278
    -2
288
     1
 68
     0
279
    -2
289
     1
 69
     0
  0
VISUALSTYLE
  5
B0F7
102
{ACAD_REACTORS
330
B0F1
102
}
102
{ACAD_XDICTIONARY
360
BFA2
102
}
330
B0F1
100
AcDbVisualStyle
  2
2dWireframe
 70
     4
 71
     0
 72
     2
 73
     0
 90
        0
 40
-0.6
 41
-30.0
 62
     5
 63
     7
 74
     1
 91
        4
 64
     7
 65
   257
 75
     1
175
     1
 42
1.0
 92
        0
 66
   257
 43
1.0
 76
     1
 77
     6
 78
     2
 67
     7
 79
     5
170
     0
171
     0
290
     0
174
     0
 93
        1
 44
0.0
173
     0
291
     0
 45
0.0
1001
ACAD
1000
AcDbSavedByObjectVersion
1070
     0
  0
VISUALSTYLE
  5
B0F9
102
{ACAD_REACTORS
330
B0F1
102
}
102
{ACAD_XDICTIONARY
360
BFA4
102
}
330
B0F1
100
AcDbVisualStyle
  2
3D Hidden
 70
     6
 71
     1
 72
     2
 73
     2
 90
        0
 40
-0.6
 41
-30.0
 62
     5
 63
     7
 74
     2
 91
        2
 64
     7
 65
   257
 75
     2
175
     1
 42
40.0
 92
        0
 66
   257
 43
1.0
 76
     1
 77
     6
 78
     2
 67
     7
 79
     3
170
     0
171
     0
290
     0
174
     0
 93
        1
 44
0.0
173
     0
291
     0
 45
0.0
1001
ACAD
1000
AcDbSavedByObjectVersion
1070
     0
  0
VISUALSTYLE
  5
B0F8
102
{ACAD_REACTORS
330
B0F1
102
}
102
{ACAD_XDICTIONARY
360
BFA6
102
}
330
B0F1
100
AcDbVisualStyle
  2
3dWireframe
 70
     5
 71
     0
 72
     2
 73
     0
 90
        0
 40
-0.6
 41
-30.0
 62
     5
 63
     7
 74
     1
 91
        4
 64
     7
 65
   257
 75
     1
175
     1
 42
1.0
 92
        0
 66
   257
 43
1.0
 76
     1
 77
     6
 78
     2
 67
     7
 79
     5
170
     0
171
     0
290
     0
174
     0
 93
        1
 44
0.0
173
     0
291
     0
 45
0.0
1001
ACAD
1000
AcDbSavedByObjectVersion
1070
     0
  0
VISUALSTYLE
  5
B0F6
102
{ACAD_REACTORS
330
B0F1
102
}
102
{ACAD_XDICTIONARY
360
BFA8
102
}
330
B0F1
100
AcDbVisualStyle
  2
Basic
 70
     7
 71
     1
 72
     0
 73
     1
 90
        0
 40
-0.6
 41
-30.0
 62
     5
 63
     7
 74
     0
 91
        4
 64
     7
 65
   257
 75
     1
175
     1
 42
1.0
 92
        8
 66
     7
 43
1.0
 76
     1
 77
     6
 78
     2
 67
     7
 79
     5
170
     0
171
     0
290
     0
174
     0
 93
        1
 44
0.0
173
     0
291
     1
 45
0.0
1001
ACAD
1000
AcDbSavedByObjectVersion
1070
     0
  0
VISUALSTYLE
  5
B0FD
102
{ACAD_REACTORS
330
B0F1
102
}
102
{ACAD_XDICTIONARY
360
BFAA
102
}
330
B0F1
100
AcDbVisualStyle
  2
Brighten
 70
    12
 71
     2
 72
     2
 73
     0
 90
        0
 40
-0.6
 41
-30.0
 62
     5
 63
     7
 74
     1
 91
        4
 64
     7
 65
   257
 75
     1
175
     1
 42
1.0
 92
        8
 66
     7
 43
1.0
 76
     1
 77
     6
 78
     2
 67
     7
 79
     5
170
     0
171
     0
290
     0
174
     0
 93
        1
 44
50.0
173
     0
291
     1
 45
0.0
1001
ACAD
1000
AcDbSavedByObjectVersion
1070
     0
  0
VISUALSTYLE
  5
B101
102
{ACAD_REACTORS
330
B0F1
102
}
102
{ACAD_XDICTIONARY
360
BFAC
102
}
330
B0F1
100
AcDbVisualStyle
  2
ColorChange
 70
    16
 71
     2
 72
     2
 73
     3
 90
        0
 40
-0.6
 41
-30.0
 62
     5
 63
     8
 74
     1
 91
        4
 64
     7
 65
   257
 75
     1
175
     1
 42
1.0
 92
        8
 66
     8
 43
1.0
 76
     1
 77
     6
 78
     2
 67
     7
 79
     5
170
     0
171
     0
290
     0
174
     0
 93
        1
 44
0.0
173
     0
291
     1
 45
0.0
1001
ACAD
1000
AcDbSavedByObjectVersion
1070
     0
  0
VISUALSTYLE
  5
B0FA
102
{ACAD_REACTORS
330
B0F1
102
}
102
{ACAD_XDICTIONARY
360
BFAE
102
}
330
B0F1
100
AcDbVisualStyle
  2
Conceptual
 70
     9
 71
     3
 72
     2
 73
     0
 90
        0
 40
-0.6
 41
-30.0
 62
     5
 63
     7
 74
     2
 91
        2
 64
     7
 65
   257
 75
     1
175
     1
 42
40.0
 92
        8
 66
     7
 43
1.0
 76
     1
 77
     6
 78
     2
 67
     7
 79
     3
170
     0
171
     0
290
     0
174
     0
 93
        1
 44
0.0
173
     0
291
     0
 45
0.0
1001
ACAD
1000
AcDbSavedByObjectVersion
1070
     0
  0
VISUALSTYLE
  5
B0FC
102
{ACAD_REACTORS
330
B0F1
102
}
102
{ACAD_XDICTIONARY
360
BFB0
102
}
330
B0F1
100
AcDbVisualStyle
  2
Dim
 70
    11
 71
     2
 72
     2
 73
     0
 90
        0
 40
-0.6
 41
-30.0
 62
     5
 63
     7
 74
     1
 91
        4
 64
     7
 65
   257
 75
     1
175
     1
 42
1.0
 92
        8
 66
     7
 43
1.0
 76
     1
 77
     6
 78
     2
 67
     7
 79
     5
170
     0
171
     0
290
     0
174
     0
 93
        1
 44
-50.0
173
     0
291
     1
 45
0.0
1001
ACAD
1000
AcDbSavedByObjectVersion
1070
     0
  0
VISUALSTYLE
  5
BEC5
102
{ACAD_REACTORS
330
B0F1
102
}
102
{ACAD_XDICTIONARY
360
BFCA
102
}
330
B0F1
100
AcDbVisualStyle
  2
EdgeColorOff
 70
    22
 71
     2
 72
     2
 73
     0
 90
        0
 40
0.6
 41
30.0
 62
     5
 63
     7
 74
     1
 91
        4
 64
     7
 65
   257
 75
     1
175
     1
 42
1.0
 92
        8
 66
     7
 43
1.0
 76
     1
 77
     6
 78
     2
 67
     7
 79
     5
170
     0
171
     0
290
     0
174
     0
 93
        1
 44
0.0
173
     0
291
     1
 45
0.0
1001
ACAD
1000
AcDbSavedByObjectVersion
1070
     0
  0
VISUALSTYLE
  5
B100
102
{ACAD_REACTORS
330
B0F1
102
}
102
{ACAD_XDICTIONARY
360
BFB2
102
}
330
B0F1
100
AcDbVisualStyle
  2
Facepattern
 70
    15
 71
     2
 72
     2
 73
     0
 90
        0
 40
-0.6
 41
-30.0
 62
     5
 63
     7
 74
     1
 91
        4
 64
     7
 65
   257
 75
     1
175
     1
 42
1.0
 92
        8
 66
     7
 43
1.0
 76
     1
 77
     6
 78
     2
 67
     7
 79
     5
170
     0
171
     0
290
     0
174
     0
 93
        1
 44
0.0
173
     0
291
     1
 45
0.0
1001
ACAD
1000
AcDbSavedByObjectVersion
1070
     0
  0
VISUALSTYLE
  5
B0F2
102
{ACAD_REACTORS
330
B0F1
102
}
102
{ACAD_XDICTIONARY
360
BFB4
102
}
330
B0F1
100
AcDbVisualStyle
  2
Flat
 70
     0
 71
     2
 72
     1
 73
     1
 90
        2
 40
-0.6
 41
30.0
 62
     5
 63
     7
 74
     0
 91
        4
 64
     7
 65
   257
 75
     1
175
     1
 42
1.0
 92
        8
 66
     7
 43
1.0
 76
     1
 77
     6
 78
     2
 67
     7
 79
     5
170
     0
171
     0
290
     0
174
     0
 93
       13
 44
0.0
173
     0
291
     1
 45
0.0
1001
ACAD
1000
AcDbSavedByObjectVersion
1070
     0
  0
VISUALSTYLE
  5
B0F3
102
{ACAD_REACTORS
330
B0F1
102
}
102
{ACAD_XDICTIONARY
360
BFB6
102
}
330
B0F1
100
AcDbVisualStyle
  2
FlatWithEdges
 70
     1
 71
     2
 72
     1
 73
     1
 90
        2
 40
-0.6
 41
30.0
 62
     5
 63
     7
 74
     1
 91
        4
 64
     7
 65
   257
 75
     1
175
     1
 42
1.0
 92
        0
 66
   257
 43
1.0
 76
     1
 77
     6
 78
     2
 67
     7
 79
     5
170
     0
171
     0
290
     0
174
     0
 93
       13
 44
0.0
173
     0
291
     1
 45
0.0
1001
ACAD
1000
AcDbSavedByObjectVersion
1070
     0
  0
VISUALSTYLE
  5
B0F4
102
{ACAD_REACTORS
330
B0F1
102
}
102
{ACAD_XDICTIONARY
360
BFB8
102
}
330
B0F1
100
AcDbVisualStyle
  2
Gouraud
 70
     2
 71
     2
 72
     2
 73
     1
 90
        2
 40
-0.6
 41
30.0
 62
     5
 63
     7
 74
     0
 91
        4
 64
     7
 65
   257
 75
     1
175
     1
 42
1.0
 92
        0
 66
     7
 43
1.0
 76
     1
 77
     6
 78
     2
 67
     7
 79
     5
170
     0
171
     0
290
     0
174
     0
 93
       13
 44
0.0
173
     0
291
     1
 45
0.0
1001
ACAD
1000
AcDbSavedByObjectVersion
1070
     0
  0
VISUALSTYLE
  5
B0F5
102
{ACAD_REACTORS
330
B0F1
102
}
102
{ACAD_XDICTIONARY
360
BFBA
102
}
330
B0F1
100
AcDbVisualStyle
  2
GouraudWithEdges
 70
     3
 71
     2
 72
     2
 73
     1
 90
        2
 40
-0.6
 41
30.0
 62
     5
 63
     7
 74
     1
 91
        4
 64
     7
 65
   257
 75
     1
175
     1
 42
1.0
 92
        0
 66
   257
 43
1.0
 76
     1
 77
     6
 78
     2
 67
     7
 79
     5
170
     0
171
     0
290
     0
174
     0
 93
       13
 44
0.0
173
     0
291
     1
 45
0.0
1001
ACAD
1000
AcDbSavedByObjectVersion
1070
     0
  0
VISUALSTYLE
  5
BEC2
102
{ACAD_REACTORS
330
B0F1
102
}
102
{ACAD_XDICTIONARY
360
BFC4
102
}
330
B0F1
100
AcDbVisualStyle
  2
Hidden
 70
     6
 71
     1
 72
     2
 73
     2
 90
        0
 40
0.6
 41
30.0
 62
     5
 63
     7
 74
     2
 91
        2
 64
     7
 65
   257
 75
     2
175
     1
 42
40.0
 92
        0
 66
   257
 43
1.0
 76
     1
 77
     6
 78
     2
 67
     7
 79
     3
170
     0
171
     0
290
     0
174
     0
 93
        1
 44
0.0
173
     0
291
     0
 45
0.0
1001
ACAD
1000
AcDbSavedByObjectVersion
1070
     0
  0
VISUALSTYLE
  5
BEC3
102
{ACAD_REACTORS
330
B0F1
102
}
102
{ACAD_XDICTIONARY
360
BFC6
102
}
330
B0F1
100
AcDbVisualStyle
  2
JitterOff
 70
    20
 71
     2
 72
     2
 73
     0
 90
        0
 40
0.6
 41
30.0
 62
     5
 63
     7
 74
     1
 91
        4
 64
     7
 65
   257
 75
     1
175
     1
 42
1.0
 92
       10
 66
     7
 43
1.0
 76
     1
 77
     6
 78
     2
 67
     7
 79
     5
170
     0
171
     0
290
     0
174
     0
 93
        1
 44
0.0
173
     0
291
     1
 45
0.0
1001
ACAD
1000
AcDbSavedByObjectVersion
1070
     0
  0
VISUALSTYLE
  5
B0FF
102
{ACAD_REACTORS
330
B0F1
102
}
102
{ACAD_XDICTIONARY
360
BFBC
102
}
330
B0F1
100
AcDbVisualStyle
  2
Linepattern
 70
    14
 71
     2
 72
     2
 73
     0
 90
        0
 40
-0.6
 41
-30.0
 62
     5
 63
     7
 74
     1
 91
        4
 64
     7
 65
   257
 75
     7
175
     7
 42
1.0
 92
        8
 66
     7
 43
1.0
 76
     1
 77
     6
 78
     2
 67
     7
 79
     5
170
     0
171
     0
290
     0
174
     0
 93
        1
 44
0.0
173
     0
291
     1
 45
0.0
1001
ACAD
1000
AcDbSavedByObjectVersion
1070
     0
  0
VISUALSTYLE
  5
BEC4
102
{ACAD_REACTORS
330
B0F1
102
}
102
{ACAD_XDICTIONARY
360
BFC8
102
}
330
B0F1
100
AcDbVisualStyle
  2
OverhangOff
 70
    21
 71
     2
 72
     2
 73
     0
 90
        0
 40
0.6
 41
30.0
 62
     5
 63
     7
 74
     1
 91
        4
 64
     7
 65
   257
 75
     1
175
     1
 42
1.0
 92
        9
 66
     7
 43
1.0
 76
     1
 77
     6
 78
     2
 67
     7
 79
     5
170
     0
171
     0
290
     0
174
     0
 93
        1
 44
0.0
173
     0
291
     1
 45
0.0
1001
ACAD
1000
AcDbSavedByObjectVersion
1070
     0
  0
VISUALSTYLE
  5
B0FB
102
{ACAD_REACTORS
330
B0F1
102
}
102
{ACAD_XDICTIONARY
360
BFBE
102
}
330
B0F1
100
AcDbVisualStyle
  2
Realistic
 70
     8
 71
     2
 72
     2
 73
     0
 90
        0
 40
-0.6
 41
-30.0
 62
     5
 63
     7
 74
     1
 91
        0
 64
     7
 65
   257
 75
     1
175
     1
 42
1.0
 92
        8
 66
     8
 43
1.0
 76
     1
 77
     6
 78
     2
 67
     7
 79
     5
170
     0
171
     0
290
     0
174
     0
 93
       13
 44
0.0
173
     0
291
     0
 45
0.0
1001
ACAD
1000
AcDbSavedByObjectVersion
1070
     0
  0
VISUALSTYLE
  5
BECA
102
{ACAD_REACTORS
330
B0F1
102
}
102
{ACAD_XDICTIONARY
360
BFD4
102
}
330
B0F1
100
AcDbVisualStyle
  2
Shaded
 70
    27
 71
     2
 72
     2
 73
     1
 90
        2
 40
0.6
 41
30.0
 62
     5
 63
     7
 74
     0
 91
        4
 64
     7
 65
   257
 75
     1
175
     1
 42
1.0
 92
        8
 66
   257
 43
1.0
 76
     1
 77
     6
 78
     2
 67
   251
 79
     3
170
     0
171
     0
290
     0
174
     0
 93
        5
 44
0.0
173
     0
291
     0
 45
0.0
1001
ACAD
1000
AcDbSavedByObjectVersion
1070
     0
  0
VISUALSTYLE
  5
BEC9
102
{ACAD_REACTORS
330
B0F1
102
}
102
{ACAD_XDICTIONARY
360
BFD2
102
}
330
B0F1
100
AcDbVisualStyle
  2
Shaded with edges
 70
    26
 71
     2
 72
     2
 73
     1
 90
        2
 40
0.6
 41
30.0
 62
     5
 63
     7
 74
     1
 91
       10
 64
     7
 65
   257
 75
     2
175
     1
 42
1.0
 92
        8
 66
   257
 43
1.0
 76
     1
 77
     6
 78
     2
 67
     7
 79
     3
170
     0
171
     0
290
     0
174
     0
 93
        5
 44
0.0
173
     0
291
     0
 45
0.0
1001
ACAD
1000
AcDbSavedByObjectVersion
1070
     0
  0
VISUALSTYLE
  5
BEC6
102
{ACAD_REACTORS
330
B0F1
102
}
102
{ACAD_XDICTIONARY
360
BFCC
102
}
330
B0F1
100
AcDbVisualStyle
  2
Shades of Gray
 70
    23
 71
     2
 72
     2
 73
     3
 90
        0
 40
0.6
 41
30.0
 62
     5
 63
     7
 74
     2
 91
        2
 64
     7
 65
     7
 75
     1
175
     1
 42
40.0
 92
        8
 66
     7
 43
1.0
 76
     1
 77
     6
 78
     2
 67
     7
 79
     3
170
     0
171
     0
290
     0
174
     0
 93
        1
 44
0.0
173
     0
291
     0
 45
0.0
1001
ACAD
1000
AcDbSavedByObjectVersion
1070
     0
  0
VISUALSTYLE
  5
BEC7
102
{ACAD_REACTORS
330
B0F1
102
}
102
{ACAD_XDICTIONARY
360
BFCE
102
}
330
B0F1
100
AcDbVisualStyle
  2
Sketchy
 70
    24
 71
     1
 72
     2
 73
     2
 90
        0
 40
0.6
 41
30.0
 62
     5
 63
     7
 74
     2
 91
        2
 64
     7
 65
     7
 75
     1
175
     1
 42
40.0
 92
       11
 66
     7
 43
1.0
 76
     1
 77
     6
 78
     2
 67
     7
 79
     6
170
     0
171
     0
290
     0
174
     0
 93
        1
 44
0.0
173
     0
291
     0
 45
0.0
1001
ACAD
1000
AcDbSavedByObjectVersion
1070
     0
  0
VISUALSTYLE
  5
B0FE
102
{ACAD_REACTORS
330
B0F1
102
}
102
{ACAD_XDICTIONARY
360
BFC0
102
}
330
B0F1
100
AcDbVisualStyle
  2
Thicken
 70
    13
 71
     2
 72
     2
 73
     0
 90
        0
 40
-0.6
 41
-30.0
 62
     5
 63
     7
 74
     1
 91
        4
 64
     7
 65
   257
 75
     1
175
     1
 42
1.0
 92
       12
 66
     7
 43
1.0
 76
     1
 77
     6
 78
     2
 67
     7
 79
     5
170
     0
171
     0
290
     0
174
     0
 93
        1
 44
0.0
173
     0
291
     1
 45
0.0
1001
ACAD
1000
AcDbSavedByObjectVersion
1070
     0
  0
VISUALSTYLE
  5
BEC1
102
{ACAD_REACTORS
330
B0F1
102
}
102
{ACAD_XDICTIONARY
360
BFC2
102
}
330
B0F1
100
AcDbVisualStyle
  2
Wireframe
 70
     5
 71
     0
 72
     2
 73
     0
 90
        0
 40
0.6
 41
30.0
 62
     5
 63
     7
 74
     1
 91
        4
 64
     7
 65
   257
 75
     1
175
     1
 42
1.0
 92
        0
 66
   257
 43
1.0
 76
     1
 77
     6
 78
     2
 67
     7
 79
     5
170
     0
171
     0
290
     0
174
     0
 93
        1
 44
0.0
173
     0
291
     0
 45
0.0
1001
ACAD
1000
AcDbSavedByObjectVersion
1070
     0
  0
VISUALSTYLE
  5
BEC8
102
{ACAD_REACTORS
330
B0F1
102
}
102
{ACAD_XDICTIONARY
360
BFD0
102
}
330
B0F1
100
AcDbVisualStyle
  2
X-Ray
 70
    25
 71
     2
 72
     2
 73
     1
 90
        1
 40
0.5
 41
30.0
 62
     5
 63
     7
 74
     1
 91
        0
 64
     7
 65
   257
 75
     1
175
     1
 42
1.0
 92
        8
 66
     7
 43
1.0
 76
     1
 77
     6
 78
     2
 67
     7
 79
     3
170
     0
171
     0
290
     0
174
     0
 93
       13
 44
0.0
173
     0
291
     0
 45
0.0
1001
ACAD
1000
AcDbSavedByObjectVersion
1070
     0
  0
XRECORD
  5
BF95
102
{ACAD_REACTORS
330
BF94
102
}
330
BF94
100
AcDbXrecord
280
     1
340
A91D
  0
XRECORD
  5
BF96
102
{ACAD_REACTORS
330
BF94
102
}
330
BF94
100
AcDbXrecord
280
     1
340
A91C
  0
DICTIONARYVAR
  5
BF08
102
{ACAD_REACTORS
330
34
102
}
330
34
100
DictionaryVariables
280
     0
  1
1:1
  0
DICTIONARYVAR
  5
BF09
102
{ACAD_REACTORS
330
34
102
}
330
34
100
DictionaryVariables
280
     0
  1
Standard
  0
DICTIONARYVAR
  5
AAF3
102
{ACAD_REACTORS
330
34
102
}
330
34
100
DictionaryVariables
280
     0
  1
Standard
  0
DICTIONARYVAR
  5
A10C
102
{ACAD_REACTORS
330
34
102
}
330
34
100
DictionaryVariables
280
     0
  1
1
  0
DICTIONARYVAR
  5
AB07
102
{ACAD_REACTORS
330
34
102
}
330
34
100
DictionaryVariables
280
     0
  1
4
  0
DICTIONARYVAR
  5
BF2D
102
{ACAD_REACTORS
330
34
102
}
330
34
100
DictionaryVariables
280
     0
  1
0
  0
DICTIONARYVAR
  5
35
102
{ACAD_REACTORS
330
34
102
}
330
34
100
DictionaryVariables
280
     0
  1
0
  0
DICTIONARYVAR
  5
BF0A
102
{ACAD_REACTORS
330
34
102
}
330
34
100
DictionaryVariables
280
     0
  1
0
  0
DICTIONARYVAR
  5
194C
102
{ACAD_REACTORS
330
34
102
}
330
34
100
DictionaryVariables
280
     0
  1
96
  0
DICTIONARYVAR
  5
BF2E
102
{ACAD_REACTORS
330
34
102
}
330
34
100
DictionaryVariables
280
     0
  1
0
  0
XRECORD
  5
B332
102
{ACAD_REACTORS
330
B331
102
}
330
B331
100
AcDbXrecord
280
     1
  0
DICTIONARY
  5
2C
102
{ACAD_REACTORS
330
2B
102
}
330
2B
100
AcDbDictionary
281
     1
  3
DWGSETTINGS
350
2D
  3
FEM
350
88
  3
Shaft
350
87
  3
TRANSSETTINGS
350
2E
  0
AMGOBJPROPCFG
  5
4E
102
{ACAD_REACTORS
330
2B
102
}
330
2B
  0
AMDTSYSATTR
  5
BF06
102
{ACAD_REACTORS
330
BF05
102
}
330
BF05
  0
AMDTSYSATTR
  5
BF07
102
{ACAD_REACTORS
330
BF05
102
}
330
BF05
  0
AMDTSYSATTR
  5
BF74
102
{ACAD_REACTORS
330
BF73
102
}
330
BF73
  0
AMDTSYSATTR
  5
BF75
102
{ACAD_REACTORS
330
BF73
102
}
330
BF73
  0
XRECORD
  5
3FB7
102
{ACAD_REACTORS
330
3F96
102
}
330
3F96
100
AcDbXrecord
280
     1
 91
        3
330
0
 90
        8
 62
     7
370
    40
331
16
  1
Color_7
330
0
 90
        0
 62
    14
370
    -3
331
16
  1
Color_14
330
0
 90
        8
 62
     7
370
    20
331
16
  1
Color_7
330
6D1
 90
        0
 62
     7
370
    -3
331
16
  1
Color_7
330
0
 90
        8
 62
     7
370
    50
331
16
  1
Color_7
330
0
 90
        8
 62
     2
370
    35
331
16
  1
Color_2
330
0
 90
        8
 62
     7
370
    -3
331
16
  1
Color_7
330
10
 90
        8
 62
     7
370
    -3
331
16
  1
Color_7
  0
DICTIONARY
  5
BF9A
330
22
100
AcDbDictionary
280
     1
281
     1
  3
ACAD_XREC_ROUNDTRIP
360
BF9B
  0
DICTIONARY
  5
BF9C
330
B0EF
100
AcDbDictionary
280
     1
281
     1
  3
ACAD_XREC_ROUNDTRIP
360
BF9D
  0
DICTIONARY
  5
BF9E
330
B0EE
100
AcDbDictionary
280
     1
281
     1
  3
ACAD_XREC_ROUNDTRIP
360
BF9F
  0
DICTIONARY
  5
BFA0
330
B0F0
100
AcDbDictionary
280
     1
281
     1
  3
ACAD_XREC_ROUNDTRIP
360
BFA1
  0
DICTIONARY
  5
BFD6
330
BF03
100
AcDbDictionary
280
     1
281
     1
  3
ACAD_XREC_ROUNDTRIP
360
BFD7
  0
DICTIONARY
  5
BFA2
330
B0F7
100
AcDbDictionary
280
     1
281
     1
  3
ACAD_XREC_ROUNDTRIP
360
BFA3
  0
DICTIONARY
  5
BFA4
330
B0F9
100
AcDbDictionary
280
     1
281
     1
  3
ACAD_XREC_ROUNDTRIP
360
BFA5
  0
DICTIONARY
  5
BFA6
330
B0F8
100
AcDbDictionary
280
     1
281
     1
  3
ACAD_XREC_ROUNDTRIP
360
BFA7
  0
DICTIONARY
  5
BFA8
330
B0F6
100
AcDbDictionary
280
     1
281
     1
  3
ACAD_XREC_ROUNDTRIP
360
BFA9
  0
DICTIONARY
  5
BFAA
330
B0FD
100
AcDbDictionary
280
     1
281
     1
  3
ACAD_XREC_ROUNDTRIP
360
BFAB
  0
DICTIONARY
  5
BFAC
330
B101
100
AcDbDictionary
280
     1
281
     1
  3
ACAD_XREC_ROUNDTRIP
360
BFAD
  0
DICTIONARY
  5
BFAE
330
B0FA
100
AcDbDictionary
280
     1
281
     1
  3
ACAD_XREC_ROUNDTRIP
360
BFAF
  0
DICTIONARY
  5
BFB0
330
B0FC
100
AcDbDictionary
280
     1
281
     1
  3
ACAD_XREC_ROUNDTRIP
360
BFB1
  0
DICTIONARY
  5
BFCA
330
BEC5
100
AcDbDictionary
280
     1
281
     1
  3
ACAD_XREC_ROUNDTRIP
360
BFCB
  0
DICTIONARY
  5
BFB2
330
B100
100
AcDbDictionary
280
     1
281
     1
  3
ACAD_XREC_ROUNDTRIP
360
BFB3
  0
DICTIONARY
  5
BFB4
330
B0F2
100
AcDbDictionary
280
     1
281
     1
  3
ACAD_XREC_ROUNDTRIP
360
BFB5
  0
DICTIONARY
  5
BFB6
330
B0F3
100
AcDbDictionary
280
     1
281
     1
  3
ACAD_XREC_ROUNDTRIP
360
BFB7
  0
DICTIONARY
  5
BFB8
330
B0F4
100
AcDbDictionary
280
     1
281
     1
  3
ACAD_XREC_ROUNDTRIP
360
BFB9
  0
DICTIONARY
  5
BFBA
330
B0F5
100
AcDbDictionary
280
     1
281
     1
  3
ACAD_XREC_ROUNDTRIP
360
BFBB
  0
DICTIONARY
  5
BFC4
330
BEC2
100
AcDbDictionary
280
     1
281
     1
  3
ACAD_XREC_ROUNDTRIP
360
BFC5
  0
DICTIONARY
  5
BFC6
330
BEC3
100
AcDbDictionary
280
     1
281
     1
  3
ACAD_XREC_ROUNDTRIP
360
BFC7
  0
DICTIONARY
  5
BFBC
330
B0FF
100
AcDbDictionary
280
     1
281
     1
  3
ACAD_XREC_ROUNDTRIP
360
BFBD
  0
DICTIONARY
  5
BFC8
330
BEC4
100
AcDbDictionary
280
     1
281
     1
  3
ACAD_XREC_ROUNDTRIP
360
BFC9
  0
DICTIONARY
  5
BFBE
330
B0FB
100
AcDbDictionary
280
     1
281
     1
  3
ACAD_XREC_ROUNDTRIP
360
BFBF
  0
DICTIONARY
  5
BFD4
330
BECA
100
AcDbDictionary
280
     1
281
     1
  3
ACAD_XREC_ROUNDTRIP
360
BFD5
  0
DICTIONARY
  5
BFD2
330
BEC9
100
AcDbDictionary
280
     1
281
     1
  3
ACAD_XREC_ROUNDTRIP
360
BFD3
  0
DICTIONARY
  5
BFCC
330
BEC6
100
AcDbDictionary
280
     1
281
     1
  3
ACAD_XREC_ROUNDTRIP
360
BFCD
  0
DICTIONARY
  5
BFCE
330
BEC7
100
AcDbDictionary
280
     1
281
     1
  3
ACAD_XREC_ROUNDTRIP
360
BFCF
  0
DICTIONARY
  5
BFC0
330
B0FE
100
AcDbDictionary
280
     1
281
     1
  3
ACAD_XREC_ROUNDTRIP
360
BFC1
  0
DICTIONARY
  5
BFC2
330
BEC1
100
AcDbDictionary
280
     1
281
     1
  3
ACAD_XREC_ROUNDTRIP
360
BFC3
  0
DICTIONARY
  5
BFD0
330
BEC8
100
AcDbDictionary
280
     1
281
     1
  3
ACAD_XREC_ROUNDTRIP
360
BFD1
  0
AMGSETTINGSOBJ
  5
2D
102
{ACAD_REACTORS
330
2C
102
}
330
2C
  0
AMGSETTINGSOBJ
  5
88
102
{ACAD_REACTORS
330
2C
102
}
330
2C
  0
AMGSETTINGSOBJ
  5
87
102
{ACAD_REACTORS
330
2C
102
}
330
2C
  0
AMGSETTINGSOBJ
  5
2E
102
{ACAD_REACTORS
330
2C
102
}
330
2C
  0
XRECORD
  5
BF9B
102
{ACAD_REACTORS
330
BF9A
102
}
330
BF9A
100
AcDbXrecord
280
     1
102
SHADEPLOT
 70
     0
102
SHADEPLOTRESLEVEL
 70
     2
102
SHADEPLOTCUSTOMDPI
 70
   200
  0
XRECORD
  5
BF9D
102
{ACAD_REACTORS
330
BF9C
102
}
330
BF9C
100
AcDbXrecord
280
     1
102
MATERIAL
148
0.0
149
0.0
149
0.0
 93
        0
 94
       63
282
     0
 72
     1
 77
     1
171
     1
175
     1
179
     1
273
     0
  0
XRECORD
  5
BF9F
102
{ACAD_REACTORS
330
BF9E
102
}
330
BF9E
100
AcDbXrecord
280
     1
102
MATERIAL
148
0.0
149
0.0
149
0.0
 93
        0
 94
       63
282
     0
 72
     1
 77
     1
171
     1
175
     1
179
     1
273
     0
  0
XRECORD
  5
BFA1
102
{ACAD_REACTORS
330
BFA0
102
}
330
BFA0
100
AcDbXrecord
280
     1
102
MATERIAL
148
0.0
149
0.0
149
0.0
 93
        0
 94
       63
282
     0
 72
     1
 77
     1
171
     1
175
     1
179
     1
273
     0
  0
XRECORD
  5
BFD7
102
{ACAD_REACTORS
330
BFD6
102
}
330
BFD6
100
AcDbXrecord
280
     1
102
ACAD_ROUNDTRIP_2010_MLEADER_STYLE
  0
XRECORD
  5
BFA3
102
{ACAD_REACTORS
330
BFA2
102
}
330
BFA2
100
AcDbXrecord
280
     1
102
RTVSPropertyOp0
 70
     1
102
RTVSPropertyOp1
 70
     1
102
RTVSPropertyOp2
 70
     1
102
RTVSPropertyOp3
 70
     1
102
RTVSPropertyOp4
 70
     1
102
RTVSPropertyOp5
 70
     1
102
RTVSPropertyOp6
 70
     1
102
RTVSPropertyOp7
 70
     1
102
RTVSPropertyOp8
 70
     1
102
RTVSPropertyOp9
 70
     1
102
RTVSPropertyOp10
 70
     1
102
RTVSPropertyOp11
 70
     1
102
RTVSPropertyOp12
 70
     1
102
RTVSPropertyOp13
 70
     1
102
RTVSPropertyOp14
 70
     1
102
RTVSPropertyOp15
 70
     1
102
RTVSPropertyOp16
 70
     1
102
RTVSPropertyOp17
 70
     1
102
RTVSPropertyOp18
 70
     1
102
RTVSPropertyOp19
 70
     1
102
RTVSPropertyOp20
 70
     1
102
RTVSPropertyOp21
 70
     1
102
RTVSPropertyOp22
 70
     1
102
RTVSPropertyOp23
 70
     1
102
RTVSPropertyOp24
 70
     1
102
RTVSPropertyOp25
 70
     1
102
RTVSPropertyOp26
 70
     1
102
RTVSPropertyOp27
 70
     1
102
RTVSPropertyOp28
 70
     1
102
RTVSPropertyOp29
 70
     1
102
RTVSPropertyOp30
 70
     1
102
RTVSPropertyOp31
 70
     1
102
RTVSPropertyOp32
 70
     1
102
RTVSPropertyOp33
 70
     1
102
RTVSPropertyOp34
 70
     1
102
RTVSPropertyOp35
 70
     1
102
RTVSPropertyOp36
 70
     1
102
RTVSPropertyOp37
 70
     1
102
RTVSPropertyOp38
 70
     1
102
RTVSPropertyOp39
 70
     1
102
RTVSPropertyOp40
 70
     1
102
RTVSPropertyOp41
 70
     1
102
RTVSPropertyOp42
 70
     1
102
RTVSPropertyOp43
 70
     1
102
RTVSPropertyOp44
 70
     1
102
RTVSPropertyOp45
 70
     1
102
RTVSPropertyOp46
 70
     1
102
RTVSPropertyOp47
 70
     1
102
RTVSPropertyOp48
 70
     1
102
RTVSPropertyOp49
 70
     1
102
RTVSPropertyOp50
 70
     1
102
RTVSPropertyOp51
 70
     0
102
RTVSPropertyOp52
 70
     0
102
RTVSPropertyOp53
 70
     1
102
RTVSPropertyOp54
 70
     1
102
RTVSPropertyOp55
 70
     1
102
RTVSPropertyOp56
 70
     1
102
RTVSPropertyOp57
 70
     1
102
RTVSPost2010Prop28
280
     1
102
RTVSPost2010PropOp28
 70
     1
102
RTVSPost2010Prop29
280
     1
102
RTVSPost2010PropOp29
 70
     1
102
RTVSPost2010Prop30
280
     0
102
RTVSPost2010PropOp30
 70
     1
102
RTVSPost2010Prop31
280
     0
102
RTVSPost2010PropOp31
 70
     1
102
RTVSPost2010Prop32
280
     0
102
RTVSPost2010PropOp32
 70
     1
102
RTVSPost2010Prop33
280
     0
102
RTVSPost2010PropOp33
 70
     1
102
RTVSPost2010Prop34
280
     0
102
RTVSPost2010PropOp34
 70
     1
102
RTVSPost2010Prop35
280
     0
102
RTVSPost2010PropOp35
 70
     1
102
RTVSPost2010Prop36
280
     0
102
RTVSPost2010PropOp36
 70
     1
102
RTVSPost2010Prop37
 90
       50
102
RTVSPost2010PropOp37
 70
     1
102
RTVSPost2010Prop38
140
0.0
102
RTVSPost2010PropOp38
 70
     1
102
RTVSPost2010Prop39
140
1.0
102
RTVSPost2010PropOp39
 70
     1
102
RTVSPost2010Prop40
 90
        0
102
RTVSPost2010PropOp40
 70
     1
102
RTVSPost2010Prop41ColorIndex
 90
       18
102
RTVSPost2010Prop41ColorRGB
 90
        0
102
RTVSPost2010PropOp41
 70
     1
102
RTVSPost2010Prop42
 90
       50
102
RTVSPost2010PropOp42
 70
     1
102
RTVSPost2010Prop43
 90
        3
102
RTVSPost2010PropOp43
 70
     1
102
RTVSPost2010Prop44ColorIndex
 90
        5
102
RTVSPost2010Prop44ColorRGB
 90
      255
102
RTVSPost2010PropOp44
 70
     1
102
RTVSPost2010Prop45
280
     0
102
RTVSPost2010PropOp45
 70
     1
102
RTVSPost2010Prop46
 90
       50
102
RTVSPost2010PropOp46
 70
     1
102
RTVSPost2010Prop47
 90
       50
102
RTVSPost2010PropOp47
 70
     1
102
RTVSPost2010Prop48
 90
       50
102
RTVSPost2010PropOp48
 70
     1
102
RTVSPost2010Prop49
280
     0
102
RTVSPost2010PropOp49
 70
     1
102
RTVSPost2010Prop50
 90
       50
102
RTVSPost2010PropOp50
 70
     1
102
RTVSPost2010Prop51ColorIndex
 90
      256
102
RTVSPost2010Prop51ColorRGB
 90
-16777216
102
RTVSPost2010PropOp51
 70
     0
102
RTVSPost2010Prop52
140
1.0
102
RTVSPost2010PropOp52
 70
     0
102
RTVSPost2010Prop53
 90
        2
102
RTVSPost2010PropOp53
 70
     1
102
RTVSPost2010Prop54
  1
strokes_ogs.tif
102
RTVSPost2010PropOp54
 70
     1
102
RTVSPost2010Prop55
280
     0
102
RTVSPost2010PropOp55
 70
     1
102
RTVSPost2010Prop56
140
1.0
102
RTVSPost2010PropOp56
 70
     1
102
RTVSPost2010Prop57
140
1.0
102
RTVSPost2010PropOp57
 70
     1
  0
XRECORD
  5
BFA5
102
{ACAD_REACTORS
330
BFA4
102
}
330
BFA4
100
AcDbXrecord
280
     1
102
RTVSPropertyOp0
 70
     1
102
RTVSPropertyOp1
 70
     1
102
RTVSPropertyOp2
 70
     1
102
RTVSPropertyOp3
 70
     1
102
RTVSPropertyOp4
 70
     1
102
RTVSPropertyOp5
 70
     1
102
RTVSPropertyOp6
 70
     1
102
RTVSPropertyOp7
 70
     1
102
RTVSPropertyOp8
 70
     1
102
RTVSPropertyOp9
 70
     1
102
RTVSPropertyOp10
 70
     1
102
RTVSPropertyOp11
 70
     1
102
RTVSPropertyOp12
 70
     1
102
RTVSPropertyOp13
 70
     1
102
RTVSPropertyOp14
 70
     1
102
RTVSPropertyOp15
 70
     1
102
RTVSPropertyOp16
 70
     1
102
RTVSPropertyOp17
 70
     1
102
RTVSPropertyOp18
 70
     1
102
RTVSPropertyOp19
 70
     1
102
RTVSPropertyOp20
 70
     1
102
RTVSPropertyOp21
 70
     1
102
RTVSPropertyOp22
 70
     1
102
RTVSPropertyOp23
 70
     1
102
RTVSPropertyOp24
 70
     1
102
RTVSPropertyOp25
 70
     1
102
RTVSPropertyOp26
 70
     1
102
RTVSPropertyOp27
 70
     1
102
RTVSPropertyOp28
 70
     1
102
RTVSPropertyOp29
 70
     1
102
RTVSPropertyOp30
 70
     1
102
RTVSPropertyOp31
 70
     1
102
RTVSPropertyOp32
 70
     1
102
RTVSPropertyOp33
 70
     1
102
RTVSPropertyOp34
 70
     1
102
RTVSPropertyOp35
 70
     1
102
RTVSPropertyOp36
 70
     1
102
RTVSPropertyOp37
 70
     1
102
RTVSPropertyOp38
 70
     1
102
RTVSPropertyOp39
 70
     1
102
RTVSPropertyOp40
 70
     1
102
RTVSPropertyOp41
 70
     1
102
RTVSPropertyOp42
 70
     1
102
RTVSPropertyOp43
 70
     1
102
RTVSPropertyOp44
 70
     1
102
RTVSPropertyOp45
 70
     1
102
RTVSPropertyOp46
 70
     1
102
RTVSPropertyOp47
 70
     1
102
RTVSPropertyOp48
 70
     1
102
RTVSPropertyOp49
 70
     1
102
RTVSPropertyOp50
 70
     1
102
RTVSPropertyOp51
 70
     0
102
RTVSPropertyOp52
 70
     0
102
RTVSPropertyOp53
 70
     1
102
RTVSPropertyOp54
 70
     1
102
RTVSPropertyOp55
 70
     1
102
RTVSPropertyOp56
 70
     1
102
RTVSPropertyOp57
 70
     1
102
RTVSPost2010Prop28
280
     0
102
RTVSPost2010PropOp28
 70
     1
102
RTVSPost2010Prop29
280
     1
102
RTVSPost2010PropOp29
 70
     1
102
RTVSPost2010Prop30
280
     1
102
RTVSPost2010PropOp30
 70
     1
102
RTVSPost2010Prop31
280
     0
102
RTVSPost2010PropOp31
 70
     1
102
RTVSPost2010Prop32
280
     0
102
RTVSPost2010PropOp32
 70
     1
102
RTVSPost2010Prop33
280
     0
102
RTVSPost2010PropOp33
 70
     1
102
RTVSPost2010Prop34
280
     0
102
RTVSPost2010PropOp34
 70
     1
102
RTVSPost2010Prop35
280
     0
102
RTVSPost2010PropOp35
 70
     1
102
RTVSPost2010Prop36
280
     0
102
RTVSPost2010PropOp36
 70
     1
102
RTVSPost2010Prop37
 90
       50
102
RTVSPost2010PropOp37
 70
     1
102
RTVSPost2010Prop38
140
0.0
102
RTVSPost2010PropOp38
 70
     1
102
RTVSPost2010Prop39
140
1.0
102
RTVSPost2010PropOp39
 70
     1
102
RTVSPost2010Prop40
 90
        0
102
RTVSPost2010PropOp40
 70
     1
102
RTVSPost2010Prop41ColorIndex
 90
       18
102
RTVSPost2010Prop41ColorRGB
 90
        0
102
RTVSPost2010PropOp41
 70
     1
102
RTVSPost2010Prop42
 90
       50
102
RTVSPost2010PropOp42
 70
     1
102
RTVSPost2010Prop43
 90
        3
102
RTVSPost2010PropOp43
 70
     1
102
RTVSPost2010Prop44ColorIndex
 90
        5
102
RTVSPost2010Prop44ColorRGB
 90
      255
102
RTVSPost2010PropOp44
 70
     1
102
RTVSPost2010Prop45
280
     0
102
RTVSPost2010PropOp45
 70
     1
102
RTVSPost2010Prop46
 90
       50
102
RTVSPost2010PropOp46
 70
     1
102
RTVSPost2010Prop47
 90
       50
102
RTVSPost2010PropOp47
 70
     1
102
RTVSPost2010Prop48
 90
       50
102
RTVSPost2010PropOp48
 70
     1
102
RTVSPost2010Prop49
280
     0
102
RTVSPost2010PropOp49
 70
     1
102
RTVSPost2010Prop50
 90
       50
102
RTVSPost2010PropOp50
 70
     1
102
RTVSPost2010Prop51ColorIndex
 90
      256
102
RTVSPost2010Prop51ColorRGB
 90
-16777216
102
RTVSPost2010PropOp51
 70
     0
102
RTVSPost2010Prop52
140
1.0
102
RTVSPost2010PropOp52
 70
     0
102
RTVSPost2010Prop53
 90
        2
102
RTVSPost2010PropOp53
 70
     1
102
RTVSPost2010Prop54
  1
strokes_ogs.tif
102
RTVSPost2010PropOp54
 70
     1
102
RTVSPost2010Prop55
280
     0
102
RTVSPost2010PropOp55
 70
     1
102
RTVSPost2010Prop56
140
1.0
102
RTVSPost2010PropOp56
 70
     1
102
RTVSPost2010Prop57
140
1.0
102
RTVSPost2010PropOp57
 70
     1
  0
XRECORD
  5
BFA7
102
{ACAD_REACTORS
330
BFA6
102
}
330
BFA6
100
AcDbXrecord
280
     1
102
RTVSPropertyOp0
 70
     1
102
RTVSPropertyOp1
 70
     1
102
RTVSPropertyOp2
 70
     1
102
RTVSPropertyOp3
 70
     1
102
RTVSPropertyOp4
 70
     1
102
RTVSPropertyOp5
 70
     1
102
RTVSPropertyOp6
 70
     1
102
RTVSPropertyOp7
 70
     1
102
RTVSPropertyOp8
 70
     1
102
RTVSPropertyOp9
 70
     1
102
RTVSPropertyOp10
 70
     1
102
RTVSPropertyOp11
 70
     1
102
RTVSPropertyOp12
 70
     1
102
RTVSPropertyOp13
 70
     1
102
RTVSPropertyOp14
 70
     1
102
RTVSPropertyOp15
 70
     1
102
RTVSPropertyOp16
 70
     1
102
RTVSPropertyOp17
 70
     1
102
RTVSPropertyOp18
 70
     1
102
RTVSPropertyOp19
 70
     1
102
RTVSPropertyOp20
 70
     1
102
RTVSPropertyOp21
 70
     1
102
RTVSPropertyOp22
 70
     1
102
RTVSPropertyOp23
 70
     1
102
RTVSPropertyOp24
 70
     1
102
RTVSPropertyOp25
 70
     1
102
RTVSPropertyOp26
 70
     1
102
RTVSPropertyOp27
 70
     1
102
RTVSPropertyOp28
 70
     1
102
RTVSPropertyOp29
 70
     1
102
RTVSPropertyOp30
 70
     1
102
RTVSPropertyOp31
 70
     1
102
RTVSPropertyOp32
 70
     1
102
RTVSPropertyOp33
 70
     1
102
RTVSPropertyOp34
 70
     1
102
RTVSPropertyOp35
 70
     1
102
RTVSPropertyOp36
 70
     1
102
RTVSPropertyOp37
 70
     1
102
RTVSPropertyOp38
 70
     1
102
RTVSPropertyOp39
 70
     1
102
RTVSPropertyOp40
 70
     1
102
RTVSPropertyOp41
 70
     1
102
RTVSPropertyOp42
 70
     1
102
RTVSPropertyOp43
 70
     1
102
RTVSPropertyOp44
 70
     1
102
RTVSPropertyOp45
 70
     1
102
RTVSPropertyOp46
 70
     1
102
RTVSPropertyOp47
 70
     1
102
RTVSPropertyOp48
 70
     1
102
RTVSPropertyOp49
 70
     1
102
RTVSPropertyOp50
 70
     1
102
RTVSPropertyOp51
 70
     0
102
RTVSPropertyOp52
 70
     0
102
RTVSPropertyOp53
 70
     1
102
RTVSPropertyOp54
 70
     1
102
RTVSPropertyOp55
 70
     1
102
RTVSPropertyOp56
 70
     1
102
RTVSPropertyOp57
 70
     1
102
RTVSPost2010Prop28
280
     0
102
RTVSPost2010PropOp28
 70
     1
102
RTVSPost2010Prop29
280
     1
102
RTVSPost2010PropOp29
 70
     1
102
RTVSPost2010Prop30
280
     1
102
RTVSPost2010PropOp30
 70
     1
102
RTVSPost2010Prop31
280
     0
102
RTVSPost2010PropOp31
 70
     1
102
RTVSPost2010Prop32
280
     0
102
RTVSPost2010PropOp32
 70
     1
102
RTVSPost2010Prop33
280
     0
102
RTVSPost2010PropOp33
 70
     1
102
RTVSPost2010Prop34
280
     0
102
RTVSPost2010PropOp34
 70
     1
102
RTVSPost2010Prop35
280
     0
102
RTVSPost2010PropOp35
 70
     1
102
RTVSPost2010Prop36
280
     0
102
RTVSPost2010PropOp36
 70
     1
102
RTVSPost2010Prop37
 90
       50
102
RTVSPost2010PropOp37
 70
     1
102
RTVSPost2010Prop38
140
0.0
102
RTVSPost2010PropOp38
 70
     1
102
RTVSPost2010Prop39
140
1.0
102
RTVSPost2010PropOp39
 70
     1
102
RTVSPost2010Prop40
 90
        0
102
RTVSPost2010PropOp40
 70
     1
102
RTVSPost2010Prop41ColorIndex
 90
       18
102
RTVSPost2010Prop41ColorRGB
 90
        0
102
RTVSPost2010PropOp41
 70
     1
102
RTVSPost2010Prop42
 90
       50
102
RTVSPost2010PropOp42
 70
     1
102
RTVSPost2010Prop43
 90
        3
102
RTVSPost2010PropOp43
 70
     1
102
RTVSPost2010Prop44ColorIndex
 90
        5
102
RTVSPost2010Prop44ColorRGB
 90
      255
102
RTVSPost2010PropOp44
 70
     1
102
RTVSPost2010Prop45
280
     0
102
RTVSPost2010PropOp45
 70
     1
102
RTVSPost2010Prop46
 90
       50
102
RTVSPost2010PropOp46
 70
     1
102
RTVSPost2010Prop47
 90
       50
102
RTVSPost2010PropOp47
 70
     1
102
RTVSPost2010Prop48
 90
       50
102
RTVSPost2010PropOp48
 70
     1
102
RTVSPost2010Prop49
280
     0
102
RTVSPost2010PropOp49
 70
     1
102
RTVSPost2010Prop50
 90
       50
102
RTVSPost2010PropOp50
 70
     1
102
RTVSPost2010Prop51ColorIndex
 90
      256
102
RTVSPost2010Prop51ColorRGB
 90
-16777216
102
RTVSPost2010PropOp51
 70
     0
102
RTVSPost2010Prop52
140
1.0
102
RTVSPost2010PropOp52
 70
     0
102
RTVSPost2010Prop53
 90
        2
102
RTVSPost2010PropOp53
 70
     1
102
RTVSPost2010Prop54
  1
strokes_ogs.tif
102
RTVSPost2010PropOp54
 70
     1
102
RTVSPost2010Prop55
280
     0
102
RTVSPost2010PropOp55
 70
     1
102
RTVSPost2010Prop56
140
1.0
102
RTVSPost2010PropOp56
 70
     1
102
RTVSPost2010Prop57
140
1.0
102
RTVSPost2010PropOp57
 70
     1
  0
XRECORD
  5
BFA9
102
{ACAD_REACTORS
330
BFA8
102
}
330
BFA8
100
AcDbXrecord
280
     1
102
RTVSPropertyOp0
 70
     1
102
RTVSPropertyOp1
 70
     1
102
RTVSPropertyOp2
 70
     1
102
RTVSPropertyOp3
 70
     1
102
RTVSPropertyOp4
 70
     1
102
RTVSPropertyOp5
 70
     1
102
RTVSPropertyOp6
 70
     1
102
RTVSPropertyOp7
 70
     1
102
RTVSPropertyOp8
 70
     1
102
RTVSPropertyOp9
 70
     1
102
RTVSPropertyOp10
 70
     1
102
RTVSPropertyOp11
 70
     1
102
RTVSPropertyOp12
 70
     1
102
RTVSPropertyOp13
 70
     1
102
RTVSPropertyOp14
 70
     1
102
RTVSPropertyOp15
 70
     1
102
RTVSPropertyOp16
 70
     1
102
RTVSPropertyOp17
 70
     1
102
RTVSPropertyOp18
 70
     1
102
RTVSPropertyOp19
 70
     1
102
RTVSPropertyOp20
 70
     1
102
RTVSPropertyOp21
 70
     1
102
RTVSPropertyOp22
 70
     1
102
RTVSPropertyOp23
 70
     1
102
RTVSPropertyOp24
 70
     1
102
RTVSPropertyOp25
 70
     1
102
RTVSPropertyOp26
 70
     1
102
RTVSPropertyOp27
 70
     1
102
RTVSPropertyOp28
 70
     1
102
RTVSPropertyOp29
 70
     1
102
RTVSPropertyOp30
 70
     1
102
RTVSPropertyOp31
 70
     1
102
RTVSPropertyOp32
 70
     1
102
RTVSPropertyOp33
 70
     1
102
RTVSPropertyOp34
 70
     1
102
RTVSPropertyOp35
 70
     1
102
RTVSPropertyOp36
 70
     1
102
RTVSPropertyOp37
 70
     1
102
RTVSPropertyOp38
 70
     1
102
RTVSPropertyOp39
 70
     1
102
RTVSPropertyOp40
 70
     1
102
RTVSPropertyOp41
 70
     1
102
RTVSPropertyOp42
 70
     1
102
RTVSPropertyOp43
 70
     1
102
RTVSPropertyOp44
 70
     1
102
RTVSPropertyOp45
 70
     1
102
RTVSPropertyOp46
 70
     1
102
RTVSPropertyOp47
 70
     1
102
RTVSPropertyOp48
 70
     1
102
RTVSPropertyOp49
 70
     1
102
RTVSPropertyOp50
 70
     1
102
RTVSPropertyOp51
 70
     0
102
RTVSPropertyOp52
 70
     0
102
RTVSPropertyOp53
 70
     1
102
RTVSPropertyOp54
 70
     1
102
RTVSPropertyOp55
 70
     1
102
RTVSPropertyOp56
 70
     1
102
RTVSPropertyOp57
 70
     1
102
RTVSPost2010Prop28
280
     0
102
RTVSPost2010PropOp28
 70
     1
102
RTVSPost2010Prop29
280
     1
102
RTVSPost2010PropOp29
 70
     1
102
RTVSPost2010Prop30
280
     1
102
RTVSPost2010PropOp30
 70
     1
102
RTVSPost2010Prop31
280
     0
102
RTVSPost2010PropOp31
 70
     1
102
RTVSPost2010Prop32
280
     0
102
RTVSPost2010PropOp32
 70
     1
102
RTVSPost2010Prop33
280
     0
102
RTVSPost2010PropOp33
 70
     1
102
RTVSPost2010Prop34
280
     0
102
RTVSPost2010PropOp34
 70
     1
102
RTVSPost2010Prop35
280
     0
102
RTVSPost2010PropOp35
 70
     1
102
RTVSPost2010Prop36
280
     0
102
RTVSPost2010PropOp36
 70
     1
102
RTVSPost2010Prop37
 90
       50
102
RTVSPost2010PropOp37
 70
     1
102
RTVSPost2010Prop38
140
0.0
102
RTVSPost2010PropOp38
 70
     1
102
RTVSPost2010Prop39
140
1.0
102
RTVSPost2010PropOp39
 70
     1
102
RTVSPost2010Prop40
 90
        0
102
RTVSPost2010PropOp40
 70
     1
102
RTVSPost2010Prop41ColorIndex
 90
       18
102
RTVSPost2010Prop41ColorRGB
 90
        0
102
RTVSPost2010PropOp41
 70
     1
102
RTVSPost2010Prop42
 90
       50
102
RTVSPost2010PropOp42
 70
     1
102
RTVSPost2010Prop43
 90
        3
102
RTVSPost2010PropOp43
 70
     1
102
RTVSPost2010Prop44ColorIndex
 90
        5
102
RTVSPost2010Prop44ColorRGB
 90
      255
102
RTVSPost2010PropOp44
 70
     1
102
RTVSPost2010Prop45
280
     0
102
RTVSPost2010PropOp45
 70
     1
102
RTVSPost2010Prop46
 90
       50
102
RTVSPost2010PropOp46
 70
     1
102
RTVSPost2010Prop47
 90
       50
102
RTVSPost2010PropOp47
 70
     1
102
RTVSPost2010Prop48
 90
       50
102
RTVSPost2010PropOp48
 70
     1
102
RTVSPost2010Prop49
280
     0
102
RTVSPost2010PropOp49
 70
     1
102
RTVSPost2010Prop50
 90
       50
102
RTVSPost2010PropOp50
 70
     1
102
RTVSPost2010Prop51ColorIndex
 90
      256
102
RTVSPost2010Prop51ColorRGB
 90
-16777216
102
RTVSPost2010PropOp51
 70
     0
102
RTVSPost2010Prop52
140
1.0
102
RTVSPost2010PropOp52
 70
     0
102
RTVSPost2010Prop53
 90
        2
102
RTVSPost2010PropOp53
 70
     1
102
RTVSPost2010Prop54
  1
strokes_ogs.tif
102
RTVSPost2010PropOp54
 70
     1
102
RTVSPost2010Prop55
280
     0
102
RTVSPost2010PropOp55
 70
     1
102
RTVSPost2010Prop56
140
1.0
102
RTVSPost2010PropOp56
 70
     1
102
RTVSPost2010Prop57
140
1.0
102
RTVSPost2010PropOp57
 70
     1
  0
XRECORD
  5
BFAB
102
{ACAD_REACTORS
330
BFAA
102
}
330
BFAA
100
AcDbXrecord
280
     1
102
RTVSPropertyOp0
 70
     1
102
RTVSPropertyOp1
 70
     1
102
RTVSPropertyOp2
 70
     1
102
RTVSPropertyOp3
 70
     1
102
RTVSPropertyOp4
 70
     1
102
RTVSPropertyOp5
 70
     1
102
RTVSPropertyOp6
 70
     1
102
RTVSPropertyOp7
 70
     1
102
RTVSPropertyOp8
 70
     1
102
RTVSPropertyOp9
 70
     1
102
RTVSPropertyOp10
 70
     1
102
RTVSPropertyOp11
 70
     1
102
RTVSPropertyOp12
 70
     1
102
RTVSPropertyOp13
 70
     1
102
RTVSPropertyOp14
 70
     1
102
RTVSPropertyOp15
 70
     1
102
RTVSPropertyOp16
 70
     1
102
RTVSPropertyOp17
 70
     1
102
RTVSPropertyOp18
 70
     1
102
RTVSPropertyOp19
 70
     1
102
RTVSPropertyOp20
 70
     1
102
RTVSPropertyOp21
 70
     1
102
RTVSPropertyOp22
 70
     1
102
RTVSPropertyOp23
 70
     1
102
RTVSPropertyOp24
 70
     1
102
RTVSPropertyOp25
 70
     1
102
RTVSPropertyOp26
 70
     1
102
RTVSPropertyOp27
 70
     1
102
RTVSPropertyOp28
 70
     1
102
RTVSPropertyOp29
 70
     1
102
RTVSPropertyOp30
 70
     1
102
RTVSPropertyOp31
 70
     1
102
RTVSPropertyOp32
 70
     1
102
RTVSPropertyOp33
 70
     1
102
RTVSPropertyOp34
 70
     1
102
RTVSPropertyOp35
 70
     1
102
RTVSPropertyOp36
 70
     1
102
RTVSPropertyOp37
 70
     1
102
RTVSPropertyOp38
 70
     1
102
RTVSPropertyOp39
 70
     1
102
RTVSPropertyOp40
 70
     1
102
RTVSPropertyOp41
 70
     1
102
RTVSPropertyOp42
 70
     1
102
RTVSPropertyOp43
 70
     1
102
RTVSPropertyOp44
 70
     1
102
RTVSPropertyOp45
 70
     1
102
RTVSPropertyOp46
 70
     1
102
RTVSPropertyOp47
 70
     1
102
RTVSPropertyOp48
 70
     1
102
RTVSPropertyOp49
 70
     1
102
RTVSPropertyOp50
 70
     1
102
RTVSPropertyOp51
 70
     0
102
RTVSPropertyOp52
 70
     0
102
RTVSPropertyOp53
 70
     1
102
RTVSPropertyOp54
 70
     1
102
RTVSPropertyOp55
 70
     1
102
RTVSPropertyOp56
 70
     1
102
RTVSPropertyOp57
 70
     1
102
RTVSPost2010Prop28
280
     0
102
RTVSPost2010PropOp28
 70
     1
102
RTVSPost2010Prop29
280
     1
102
RTVSPost2010PropOp29
 70
     1
102
RTVSPost2010Prop30
280
     1
102
RTVSPost2010PropOp30
 70
     1
102
RTVSPost2010Prop31
280
     0
102
RTVSPost2010PropOp31
 70
     1
102
RTVSPost2010Prop32
280
     0
102
RTVSPost2010PropOp32
 70
     1
102
RTVSPost2010Prop33
280
     0
102
RTVSPost2010PropOp33
 70
     1
102
RTVSPost2010Prop34
280
     0
102
RTVSPost2010PropOp34
 70
     1
102
RTVSPost2010Prop35
280
     0
102
RTVSPost2010PropOp35
 70
     1
102
RTVSPost2010Prop36
280
     0
102
RTVSPost2010PropOp36
 70
     1
102
RTVSPost2010Prop37
 90
       50
102
RTVSPost2010PropOp37
 70
     1
102
RTVSPost2010Prop38
140
0.0
102
RTVSPost2010PropOp38
 70
     1
102
RTVSPost2010Prop39
140
1.0
102
RTVSPost2010PropOp39
 70
     1
102
RTVSPost2010Prop40
 90
        0
102
RTVSPost2010PropOp40
 70
     1
102
RTVSPost2010Prop41ColorIndex
 90
       18
102
RTVSPost2010Prop41ColorRGB
 90
        0
102
RTVSPost2010PropOp41
 70
     1
102
RTVSPost2010Prop42
 90
       50
102
RTVSPost2010PropOp42
 70
     1
102
RTVSPost2010Prop43
 90
        3
102
RTVSPost2010PropOp43
 70
     1
102
RTVSPost2010Prop44ColorIndex
 90
        5
102
RTVSPost2010Prop44ColorRGB
 90
      255
102
RTVSPost2010PropOp44
 70
     1
102
RTVSPost2010Prop45
280
     0
102
RTVSPost2010PropOp45
 70
     1
102
RTVSPost2010Prop46
 90
       50
102
RTVSPost2010PropOp46
 70
     1
102
RTVSPost2010Prop47
 90
       50
102
RTVSPost2010PropOp47
 70
     1
102
RTVSPost2010Prop48
 90
       50
102
RTVSPost2010PropOp48
 70
     1
102
RTVSPost2010Prop49
280
     0
102
RTVSPost2010PropOp49
 70
     1
102
RTVSPost2010Prop50
 90
       50
102
RTVSPost2010PropOp50
 70
     1
102
RTVSPost2010Prop51ColorIndex
 90
      256
102
RTVSPost2010Prop51ColorRGB
 90
-16777216
102
RTVSPost2010PropOp51
 70
     0
102
RTVSPost2010Prop52
140
1.0
102
RTVSPost2010PropOp52
 70
     0
102
RTVSPost2010Prop53
 90
        2
102
RTVSPost2010PropOp53
 70
     1
102
RTVSPost2010Prop54
  1
strokes_ogs.tif
102
RTVSPost2010PropOp54
 70
     1
102
RTVSPost2010Prop55
280
     0
102
RTVSPost2010PropOp55
 70
     1
102
RTVSPost2010Prop56
140
1.0
102
RTVSPost2010PropOp56
 70
     1
102
RTVSPost2010Prop57
140
1.0
102
RTVSPost2010PropOp57
 70
     1
  0
XRECORD
  5
BFAD
102
{ACAD_REACTORS
330
BFAC
102
}
330
BFAC
100
AcDbXrecord
280
     1
102
RTVSPropertyOp0
 70
     1
102
RTVSPropertyOp1
 70
     1
102
RTVSPropertyOp2
 70
     1
102
RTVSPropertyOp3
 70
     1
102
RTVSPropertyOp4
 70
     1
102
RTVSPropertyOp5
 70
     1
102
RTVSPropertyOp6
 70
     1
102
RTVSPropertyOp7
 70
     1
102
RTVSPropertyOp8
 70
     1
102
RTVSPropertyOp9
 70
     1
102
RTVSPropertyOp10
 70
     1
102
RTVSPropertyOp11
 70
     1
102
RTVSPropertyOp12
 70
     1
102
RTVSPropertyOp13
 70
     1
102
RTVSPropertyOp14
 70
     1
102
RTVSPropertyOp15
 70
     1
102
RTVSPropertyOp16
 70
     1
102
RTVSPropertyOp17
 70
     1
102
RTVSPropertyOp18
 70
     1
102
RTVSPropertyOp19
 70
     1
102
RTVSPropertyOp20
 70
     1
102
RTVSPropertyOp21
 70
     1
102
RTVSPropertyOp22
 70
     1
102
RTVSPropertyOp23
 70
     1
102
RTVSPropertyOp24
 70
     1
102
RTVSPropertyOp25
 70
     1
102
RTVSPropertyOp26
 70
     1
102
RTVSPropertyOp27
 70
     1
102
RTVSPropertyOp28
 70
     1
102
RTVSPropertyOp29
 70
     1
102
RTVSPropertyOp30
 70
     1
102
RTVSPropertyOp31
 70
     1
102
RTVSPropertyOp32
 70
     1
102
RTVSPropertyOp33
 70
     1
102
RTVSPropertyOp34
 70
     1
102
RTVSPropertyOp35
 70
     1
102
RTVSPropertyOp36
 70
     1
102
RTVSPropertyOp37
 70
     1
102
RTVSPropertyOp38
 70
     1
102
RTVSPropertyOp39
 70
     1
102
RTVSPropertyOp40
 70
     1
102
RTVSPropertyOp41
 70
     1
102
RTVSPropertyOp42
 70
     1
102
RTVSPropertyOp43
 70
     1
102
RTVSPropertyOp44
 70
     1
102
RTVSPropertyOp45
 70
     1
102
RTVSPropertyOp46
 70
     1
102
RTVSPropertyOp47
 70
     1
102
RTVSPropertyOp48
 70
     1
102
RTVSPropertyOp49
 70
     1
102
RTVSPropertyOp50
 70
     1
102
RTVSPropertyOp51
 70
     0
102
RTVSPropertyOp52
 70
     0
102
RTVSPropertyOp53
 70
     1
102
RTVSPropertyOp54
 70
     1
102
RTVSPropertyOp55
 70
     1
102
RTVSPropertyOp56
 70
     1
102
RTVSPropertyOp57
 70
     1
102
RTVSPost2010Prop28
280
     0
102
RTVSPost2010PropOp28
 70
     1
102
RTVSPost2010Prop29
280
     1
102
RTVSPost2010PropOp29
 70
     1
102
RTVSPost2010Prop30
280
     1
102
RTVSPost2010PropOp30
 70
     1
102
RTVSPost2010Prop31
280
     0
102
RTVSPost2010PropOp31
 70
     1
102
RTVSPost2010Prop32
280
     0
102
RTVSPost2010PropOp32
 70
     1
102
RTVSPost2010Prop33
280
     0
102
RTVSPost2010PropOp33
 70
     1
102
RTVSPost2010Prop34
280
     0
102
RTVSPost2010PropOp34
 70
     1
102
RTVSPost2010Prop35
280
     0
102
RTVSPost2010PropOp35
 70
     1
102
RTVSPost2010Prop36
280
     0
102
RTVSPost2010PropOp36
 70
     1
102
RTVSPost2010Prop37
 90
       50
102
RTVSPost2010PropOp37
 70
     1
102
RTVSPost2010Prop38
140
0.0
102
RTVSPost2010PropOp38
 70
     1
102
RTVSPost2010Prop39
140
1.0
102
RTVSPost2010PropOp39
 70
     1
102
RTVSPost2010Prop40
 90
        0
102
RTVSPost2010PropOp40
 70
     1
102
RTVSPost2010Prop41ColorIndex
 90
       18
102
RTVSPost2010Prop41ColorRGB
 90
        0
102
RTVSPost2010PropOp41
 70
     1
102
RTVSPost2010Prop42
 90
       50
102
RTVSPost2010PropOp42
 70
     1
102
RTVSPost2010Prop43
 90
        3
102
RTVSPost2010PropOp43
 70
     1
102
RTVSPost2010Prop44ColorIndex
 90
        5
102
RTVSPost2010Prop44ColorRGB
 90
      255
102
RTVSPost2010PropOp44
 70
     1
102
RTVSPost2010Prop45
280
     0
102
RTVSPost2010PropOp45
 70
     1
102
RTVSPost2010Prop46
 90
       50
102
RTVSPost2010PropOp46
 70
     1
102
RTVSPost2010Prop47
 90
       50
102
RTVSPost2010PropOp47
 70
     1
102
RTVSPost2010Prop48
 90
       50
102
RTVSPost2010PropOp48
 70
     1
102
RTVSPost2010Prop49
280
     0
102
RTVSPost2010PropOp49
 70
     1
102
RTVSPost2010Prop50
 90
       50
102
RTVSPost2010PropOp50
 70
     1
102
RTVSPost2010Prop51ColorIndex
 90
      256
102
RTVSPost2010Prop51ColorRGB
 90
-16777216
102
RTVSPost2010PropOp51
 70
     0
102
RTVSPost2010Prop52
140
1.0
102
RTVSPost2010PropOp52
 70
     0
102
RTVSPost2010Prop53
 90
        2
102
RTVSPost2010PropOp53
 70
     1
102
RTVSPost2010Prop54
  1
strokes_ogs.tif
102
RTVSPost2010PropOp54
 70
     1
102
RTVSPost2010Prop55
280
     0
102
RTVSPost2010PropOp55
 70
     1
102
RTVSPost2010Prop56
140
1.0
102
RTVSPost2010PropOp56
 70
     1
102
RTVSPost2010Prop57
140
1.0
102
RTVSPost2010PropOp57
 70
     1
  0
XRECORD
  5
BFAF
102
{ACAD_REACTORS
330
BFAE
102
}
330
BFAE
100
AcDbXrecord
280
     1
102
RTVSPropertyOp0
 70
     1
102
RTVSPropertyOp1
 70
     1
102
RTVSPropertyOp2
 70
     1
102
RTVSPropertyOp3
 70
     1
102
RTVSPropertyOp4
 70
     1
102
RTVSPropertyOp5
 70
     1
102
RTVSPropertyOp6
 70
     1
102
RTVSPropertyOp7
 70
     1
102
RTVSPropertyOp8
 70
     1
102
RTVSPropertyOp9
 70
     1
102
RTVSPropertyOp10
 70
     1
102
RTVSPropertyOp11
 70
     1
102
RTVSPropertyOp12
 70
     1
102
RTVSPropertyOp13
 70
     1
102
RTVSPropertyOp14
 70
     1
102
RTVSPropertyOp15
 70
     1
102
RTVSPropertyOp16
 70
     1
102
RTVSPropertyOp17
 70
     1
102
RTVSPropertyOp18
 70
     1
102
RTVSPropertyOp19
 70
     1
102
RTVSPropertyOp20
 70
     1
102
RTVSPropertyOp21
 70
     1
102
RTVSPropertyOp22
 70
     1
102
RTVSPropertyOp23
 70
     1
102
RTVSPropertyOp24
 70
     1
102
RTVSPropertyOp25
 70
     1
102
RTVSPropertyOp26
 70
     1
102
RTVSPropertyOp27
 70
     1
102
RTVSPropertyOp28
 70
     1
102
RTVSPropertyOp29
 70
     1
102
RTVSPropertyOp30
 70
     1
102
RTVSPropertyOp31
 70
     1
102
RTVSPropertyOp32
 70
     1
102
RTVSPropertyOp33
 70
     1
102
RTVSPropertyOp34
 70
     1
102
RTVSPropertyOp35
 70
     1
102
RTVSPropertyOp36
 70
     1
102
RTVSPropertyOp37
 70
     1
102
RTVSPropertyOp38
 70
     1
102
RTVSPropertyOp39
 70
     1
102
RTVSPropertyOp40
 70
     1
102
RTVSPropertyOp41
 70
     1
102
RTVSPropertyOp42
 70
     1
102
RTVSPropertyOp43
 70
     1
102
RTVSPropertyOp44
 70
     1
102
RTVSPropertyOp45
 70
     1
102
RTVSPropertyOp46
 70
     1
102
RTVSPropertyOp47
 70
     1
102
RTVSPropertyOp48
 70
     1
102
RTVSPropertyOp49
 70
     1
102
RTVSPropertyOp50
 70
     1
102
RTVSPropertyOp51
 70
     0
102
RTVSPropertyOp52
 70
     0
102
RTVSPropertyOp53
 70
     1
102
RTVSPropertyOp54
 70
     1
102
RTVSPropertyOp55
 70
     1
102
RTVSPropertyOp56
 70
     1
102
RTVSPropertyOp57
 70
     1
102
RTVSPost2010Prop28
280
     0
102
RTVSPost2010PropOp28
 70
     1
102
RTVSPost2010Prop29
280
     1
102
RTVSPost2010PropOp29
 70
     1
102
RTVSPost2010Prop30
280
     1
102
RTVSPost2010PropOp30
 70
     1
102
RTVSPost2010Prop31
280
     0
102
RTVSPost2010PropOp31
 70
     1
102
RTVSPost2010Prop32
280
     0
102
RTVSPost2010PropOp32
 70
     1
102
RTVSPost2010Prop33
280
     0
102
RTVSPost2010PropOp33
 70
     1
102
RTVSPost2010Prop34
280
     0
102
RTVSPost2010PropOp34
 70
     1
102
RTVSPost2010Prop35
280
     0
102
RTVSPost2010PropOp35
 70
     1
102
RTVSPost2010Prop36
280
     0
102
RTVSPost2010PropOp36
 70
     1
102
RTVSPost2010Prop37
 90
       50
102
RTVSPost2010PropOp37
 70
     1
102
RTVSPost2010Prop38
140
0.0
102
RTVSPost2010PropOp38
 70
     1
102
RTVSPost2010Prop39
140
1.0
102
RTVSPost2010PropOp39
 70
     1
102
RTVSPost2010Prop40
 90
        0
102
RTVSPost2010PropOp40
 70
     1
102
RTVSPost2010Prop41ColorIndex
 90
       18
102
RTVSPost2010Prop41ColorRGB
 90
        0
102
RTVSPost2010PropOp41
 70
     1
102
RTVSPost2010Prop42
 90
       50
102
RTVSPost2010PropOp42
 70
     1
102
RTVSPost2010Prop43
 90
        3
102
RTVSPost2010PropOp43
 70
     1
102
RTVSPost2010Prop44ColorIndex
 90
        5
102
RTVSPost2010Prop44ColorRGB
 90
      255
102
RTVSPost2010PropOp44
 70
     1
102
RTVSPost2010Prop45
280
     0
102
RTVSPost2010PropOp45
 70
     1
102
RTVSPost2010Prop46
 90
       50
102
RTVSPost2010PropOp46
 70
     1
102
RTVSPost2010Prop47
 90
       50
102
RTVSPost2010PropOp47
 70
     1
102
RTVSPost2010Prop48
 90
       50
102
RTVSPost2010PropOp48
 70
     1
102
RTVSPost2010Prop49
280
     0
102
RTVSPost2010PropOp49
 70
     1
102
RTVSPost2010Prop50
 90
       50
102
RTVSPost2010PropOp50
 70
     1
102
RTVSPost2010Prop51ColorIndex
 90
      256
102
RTVSPost2010Prop51ColorRGB
 90
-16777216
102
RTVSPost2010PropOp51
 70
     0
102
RTVSPost2010Prop52
140
1.0
102
RTVSPost2010PropOp52
 70
     0
102
RTVSPost2010Prop53
 90
        2
102
RTVSPost2010PropOp53
 70
     1
102
RTVSPost2010Prop54
  1
strokes_ogs.tif
102
RTVSPost2010PropOp54
 70
     1
102
RTVSPost2010Prop55
280
     0
102
RTVSPost2010PropOp55
 70
     1
102
RTVSPost2010Prop56
140
1.0
102
RTVSPost2010PropOp56
 70
     1
102
RTVSPost2010Prop57
140
1.0
102
RTVSPost2010PropOp57
 70
     1
  0
XRECORD
  5
BFB1
102
{ACAD_REACTORS
330
BFB0
102
}
330
BFB0
100
AcDbXrecord
280
     1
102
RTVSPropertyOp0
 70
     1
102
RTVSPropertyOp1
 70
     1
102
RTVSPropertyOp2
 70
     1
102
RTVSPropertyOp3
 70
     1
102
RTVSPropertyOp4
 70
     1
102
RTVSPropertyOp5
 70
     1
102
RTVSPropertyOp6
 70
     1
102
RTVSPropertyOp7
 70
     1
102
RTVSPropertyOp8
 70
     1
102
RTVSPropertyOp9
 70
     1
102
RTVSPropertyOp10
 70
     1
102
RTVSPropertyOp11
 70
     1
102
RTVSPropertyOp12
 70
     1
102
RTVSPropertyOp13
 70
     1
102
RTVSPropertyOp14
 70
     1
102
RTVSPropertyOp15
 70
     1
102
RTVSPropertyOp16
 70
     1
102
RTVSPropertyOp17
 70
     1
102
RTVSPropertyOp18
 70
     1
102
RTVSPropertyOp19
 70
     1
102
RTVSPropertyOp20
 70
     1
102
RTVSPropertyOp21
 70
     1
102
RTVSPropertyOp22
 70
     1
102
RTVSPropertyOp23
 70
     1
102
RTVSPropertyOp24
 70
     1
102
RTVSPropertyOp25
 70
     1
102
RTVSPropertyOp26
 70
     1
102
RTVSPropertyOp27
 70
     1
102
RTVSPropertyOp28
 70
     1
102
RTVSPropertyOp29
 70
     1
102
RTVSPropertyOp30
 70
     1
102
RTVSPropertyOp31
 70
     1
102
RTVSPropertyOp32
 70
     1
102
RTVSPropertyOp33
 70
     1
102
RTVSPropertyOp34
 70
     1
102
RTVSPropertyOp35
 70
     1
102
RTVSPropertyOp36
 70
     1
102
RTVSPropertyOp37
 70
     1
102
RTVSPropertyOp38
 70
     1
102
RTVSPropertyOp39
 70
     1
102
RTVSPropertyOp40
 70
     1
102
RTVSPropertyOp41
 70
     1
102
RTVSPropertyOp42
 70
     1
102
RTVSPropertyOp43
 70
     1
102
RTVSPropertyOp44
 70
     1
102
RTVSPropertyOp45
 70
     1
102
RTVSPropertyOp46
 70
     1
102
RTVSPropertyOp47
 70
     1
102
RTVSPropertyOp48
 70
     1
102
RTVSPropertyOp49
 70
     1
102
RTVSPropertyOp50
 70
     1
102
RTVSPropertyOp51
 70
     0
102
RTVSPropertyOp52
 70
     0
102
RTVSPropertyOp53
 70
     1
102
RTVSPropertyOp54
 70
     1
102
RTVSPropertyOp55
 70
     1
102
RTVSPropertyOp56
 70
     1
102
RTVSPropertyOp57
 70
     1
102
RTVSPost2010Prop28
280
     0
102
RTVSPost2010PropOp28
 70
     1
102
RTVSPost2010Prop29
280
     1
102
RTVSPost2010PropOp29
 70
     1
102
RTVSPost2010Prop30
280
     1
102
RTVSPost2010PropOp30
 70
     1
102
RTVSPost2010Prop31
280
     0
102
RTVSPost2010PropOp31
 70
     1
102
RTVSPost2010Prop32
280
     0
102
RTVSPost2010PropOp32
 70
     1
102
RTVSPost2010Prop33
280
     0
102
RTVSPost2010PropOp33
 70
     1
102
RTVSPost2010Prop34
280
     0
102
RTVSPost2010PropOp34
 70
     1
102
RTVSPost2010Prop35
280
     0
102
RTVSPost2010PropOp35
 70
     1
102
RTVSPost2010Prop36
280
     0
102
RTVSPost2010PropOp36
 70
     1
102
RTVSPost2010Prop37
 90
       50
102
RTVSPost2010PropOp37
 70
     1
102
RTVSPost2010Prop38
140
0.0
102
RTVSPost2010PropOp38
 70
     1
102
RTVSPost2010Prop39
140
1.0
102
RTVSPost2010PropOp39
 70
     1
102
RTVSPost2010Prop40
 90
        0
102
RTVSPost2010PropOp40
 70
     1
102
RTVSPost2010Prop41ColorIndex
 90
       18
102
RTVSPost2010Prop41ColorRGB
 90
        0
102
RTVSPost2010PropOp41
 70
     1
102
RTVSPost2010Prop42
 90
       50
102
RTVSPost2010PropOp42
 70
     1
102
RTVSPost2010Prop43
 90
        3
102
RTVSPost2010PropOp43
 70
     1
102
RTVSPost2010Prop44ColorIndex
 90
        5
102
RTVSPost2010Prop44ColorRGB
 90
      255
102
RTVSPost2010PropOp44
 70
     1
102
RTVSPost2010Prop45
280
     0
102
RTVSPost2010PropOp45
 70
     1
102
RTVSPost2010Prop46
 90
       50
102
RTVSPost2010PropOp46
 70
     1
102
RTVSPost2010Prop47
 90
       50
102
RTVSPost2010PropOp47
 70
     1
102
RTVSPost2010Prop48
 90
       50
102
RTVSPost2010PropOp48
 70
     1
102
RTVSPost2010Prop49
280
     0
102
RTVSPost2010PropOp49
 70
     1
102
RTVSPost2010Prop50
 90
       50
102
RTVSPost2010PropOp50
 70
     1
102
RTVSPost2010Prop51ColorIndex
 90
      256
102
RTVSPost2010Prop51ColorRGB
 90
-16777216
102
RTVSPost2010PropOp51
 70
     0
102
RTVSPost2010Prop52
140
1.0
102
RTVSPost2010PropOp52
 70
     0
102
RTVSPost2010Prop53
 90
        2
102
RTVSPost2010PropOp53
 70
     1
102
RTVSPost2010Prop54
  1
strokes_ogs.tif
102
RTVSPost2010PropOp54
 70
     1
102
RTVSPost2010Prop55
280
     0
102
RTVSPost2010PropOp55
 70
     1
102
RTVSPost2010Prop56
140
1.0
102
RTVSPost2010PropOp56
 70
     1
102
RTVSPost2010Prop57
140
1.0
102
RTVSPost2010PropOp57
 70
     1
  0
XRECORD
  5
BFCB
102
{ACAD_REACTORS
330
BFCA
102
}
330
BFCA
100
AcDbXrecord
280
     1
102
RTVSPropertyOp0
 70
     0
102
RTVSPropertyOp1
 70
     0
102
RTVSPropertyOp2
 70
     0
102
RTVSPropertyOp3
 70
     0
102
RTVSPropertyOp4
 70
     0
102
RTVSPropertyOp5
 70
     0
102
RTVSPropertyOp6
 70
     0
102
RTVSPropertyOp7
 70
     0
102
RTVSPropertyOp8
 70
     0
102
RTVSPropertyOp9
 70
     0
102
RTVSPropertyOp10
 70
     0
102
RTVSPropertyOp11
 70
     0
102
RTVSPropertyOp12
 70
     0
102
RTVSPropertyOp13
 70
     0
102
RTVSPropertyOp14
 70
     0
102
RTVSPropertyOp15
 70
     0
102
RTVSPropertyOp16
 70
     0
102
RTVSPropertyOp17
 70
     0
102
RTVSPropertyOp18
 70
     0
102
RTVSPropertyOp19
 70
     0
102
RTVSPropertyOp20
 70
     0
102
RTVSPropertyOp21
 70
     0
102
RTVSPropertyOp22
 70
     0
102
RTVSPropertyOp23
 70
     0
102
RTVSPropertyOp24
 70
     0
102
RTVSPropertyOp25
 70
     0
102
RTVSPropertyOp26
 70
     0
102
RTVSPropertyOp27
 70
     0
102
RTVSPropertyOp28
 70
     1
102
RTVSPropertyOp29
 70
     1
102
RTVSPropertyOp30
 70
     1
102
RTVSPropertyOp31
 70
     1
102
RTVSPropertyOp32
 70
     1
102
RTVSPropertyOp33
 70
     1
102
RTVSPropertyOp34
 70
     1
102
RTVSPropertyOp35
 70
     1
102
RTVSPropertyOp36
 70
     1
102
RTVSPropertyOp37
 70
     1
102
RTVSPropertyOp38
 70
     1
102
RTVSPropertyOp39
 70
     1
102
RTVSPropertyOp40
 70
     1
102
RTVSPropertyOp41
 70
     1
102
RTVSPropertyOp42
 70
     1
102
RTVSPropertyOp43
 70
     1
102
RTVSPropertyOp44
 70
     1
102
RTVSPropertyOp45
 70
     1
102
RTVSPropertyOp46
 70
     1
102
RTVSPropertyOp47
 70
     1
102
RTVSPropertyOp48
 70
     1
102
RTVSPropertyOp49
 70
     1
102
RTVSPropertyOp50
 70
     1
102
RTVSPropertyOp51
 70
     0
102
RTVSPropertyOp52
 70
     0
102
RTVSPropertyOp53
 70
     1
102
RTVSPropertyOp54
 70
     1
102
RTVSPropertyOp55
 70
     1
102
RTVSPropertyOp56
 70
     1
102
RTVSPropertyOp57
 70
     1
102
RTVSPost2010Prop28
280
     0
102
RTVSPost2010PropOp28
 70
     1
102
RTVSPost2010Prop29
280
     1
102
RTVSPost2010PropOp29
 70
     1
102
RTVSPost2010Prop30
280
     1
102
RTVSPost2010PropOp30
 70
     1
102
RTVSPost2010Prop31
280
     0
102
RTVSPost2010PropOp31
 70
     1
102
RTVSPost2010Prop32
280
     0
102
RTVSPost2010PropOp32
 70
     1
102
RTVSPost2010Prop33
280
     0
102
RTVSPost2010PropOp33
 70
     1
102
RTVSPost2010Prop34
280
     0
102
RTVSPost2010PropOp34
 70
     1
102
RTVSPost2010Prop35
280
     0
102
RTVSPost2010PropOp35
 70
     1
102
RTVSPost2010Prop36
280
     0
102
RTVSPost2010PropOp36
 70
     1
102
RTVSPost2010Prop37
 90
       50
102
RTVSPost2010PropOp37
 70
     1
102
RTVSPost2010Prop38
140
0.0
102
RTVSPost2010PropOp38
 70
     1
102
RTVSPost2010Prop39
140
1.0
102
RTVSPost2010PropOp39
 70
     1
102
RTVSPost2010Prop40
 90
        0
102
RTVSPost2010PropOp40
 70
     1
102
RTVSPost2010Prop41ColorIndex
 90
       18
102
RTVSPost2010Prop41ColorRGB
 90
        0
102
RTVSPost2010PropOp41
 70
     1
102
RTVSPost2010Prop42
 90
       50
102
RTVSPost2010PropOp42
 70
     1
102
RTVSPost2010Prop43
 90
        3
102
RTVSPost2010PropOp43
 70
     1
102
RTVSPost2010Prop44ColorIndex
 90
        5
102
RTVSPost2010Prop44ColorRGB
 90
      255
102
RTVSPost2010PropOp44
 70
     1
102
RTVSPost2010Prop45
280
     0
102
RTVSPost2010PropOp45
 70
     1
102
RTVSPost2010Prop46
 90
       50
102
RTVSPost2010PropOp46
 70
     1
102
RTVSPost2010Prop47
 90
       50
102
RTVSPost2010PropOp47
 70
     1
102
RTVSPost2010Prop48
 90
       50
102
RTVSPost2010PropOp48
 70
     1
102
RTVSPost2010Prop49
280
     0
102
RTVSPost2010PropOp49
 70
     1
102
RTVSPost2010Prop50
 90
       50
102
RTVSPost2010PropOp50
 70
     1
102
RTVSPost2010Prop51ColorIndex
 90
      256
102
RTVSPost2010Prop51ColorRGB
 90
-16777216
102
RTVSPost2010PropOp51
 70
     0
102
RTVSPost2010Prop52
140
1.0
102
RTVSPost2010PropOp52
 70
     0
102
RTVSPost2010Prop53
 90
        2
102
RTVSPost2010PropOp53
 70
     1
102
RTVSPost2010Prop54
  1
strokes_ogs.tif
102
RTVSPost2010PropOp54
 70
     1
102
RTVSPost2010Prop55
280
     0
102
RTVSPost2010PropOp55
 70
     1
102
RTVSPost2010Prop56
140
1.0
102
RTVSPost2010PropOp56
 70
     1
102
RTVSPost2010Prop57
140
1.0
102
RTVSPost2010PropOp57
 70
     1
  0
XRECORD
  5
BFB3
102
{ACAD_REACTORS
330
BFB2
102
}
330
BFB2
100
AcDbXrecord
280
     1
102
RTVSPropertyOp0
 70
     1
102
RTVSPropertyOp1
 70
     1
102
RTVSPropertyOp2
 70
     1
102
RTVSPropertyOp3
 70
     1
102
RTVSPropertyOp4
 70
     1
102
RTVSPropertyOp5
 70
     1
102
RTVSPropertyOp6
 70
     1
102
RTVSPropertyOp7
 70
     1
102
RTVSPropertyOp8
 70
     1
102
RTVSPropertyOp9
 70
     1
102
RTVSPropertyOp10
 70
     1
102
RTVSPropertyOp11
 70
     1
102
RTVSPropertyOp12
 70
     1
102
RTVSPropertyOp13
 70
     1
102
RTVSPropertyOp14
 70
     1
102
RTVSPropertyOp15
 70
     1
102
RTVSPropertyOp16
 70
     1
102
RTVSPropertyOp17
 70
     1
102
RTVSPropertyOp18
 70
     1
102
RTVSPropertyOp19
 70
     1
102
RTVSPropertyOp20
 70
     1
102
RTVSPropertyOp21
 70
     1
102
RTVSPropertyOp22
 70
     1
102
RTVSPropertyOp23
 70
     1
102
RTVSPropertyOp24
 70
     1
102
RTVSPropertyOp25
 70
     1
102
RTVSPropertyOp26
 70
     1
102
RTVSPropertyOp27
 70
     1
102
RTVSPropertyOp28
 70
     1
102
RTVSPropertyOp29
 70
     1
102
RTVSPropertyOp30
 70
     1
102
RTVSPropertyOp31
 70
     1
102
RTVSPropertyOp32
 70
     1
102
RTVSPropertyOp33
 70
     1
102
RTVSPropertyOp34
 70
     1
102
RTVSPropertyOp35
 70
     1
102
RTVSPropertyOp36
 70
     1
102
RTVSPropertyOp37
 70
     1
102
RTVSPropertyOp38
 70
     1
102
RTVSPropertyOp39
 70
     1
102
RTVSPropertyOp40
 70
     1
102
RTVSPropertyOp41
 70
     1
102
RTVSPropertyOp42
 70
     1
102
RTVSPropertyOp43
 70
     1
102
RTVSPropertyOp44
 70
     1
102
RTVSPropertyOp45
 70
     1
102
RTVSPropertyOp46
 70
     1
102
RTVSPropertyOp47
 70
     1
102
RTVSPropertyOp48
 70
     1
102
RTVSPropertyOp49
 70
     1
102
RTVSPropertyOp50
 70
     1
102
RTVSPropertyOp51
 70
     0
102
RTVSPropertyOp52
 70
     0
102
RTVSPropertyOp53
 70
     1
102
RTVSPropertyOp54
 70
     1
102
RTVSPropertyOp55
 70
     1
102
RTVSPropertyOp56
 70
     1
102
RTVSPropertyOp57
 70
     1
102
RTVSPost2010Prop28
280
     0
102
RTVSPost2010PropOp28
 70
     1
102
RTVSPost2010Prop29
280
     1
102
RTVSPost2010PropOp29
 70
     1
102
RTVSPost2010Prop30
280
     1
102
RTVSPost2010PropOp30
 70
     1
102
RTVSPost2010Prop31
280
     0
102
RTVSPost2010PropOp31
 70
     1
102
RTVSPost2010Prop32
280
     0
102
RTVSPost2010PropOp32
 70
     1
102
RTVSPost2010Prop33
280
     0
102
RTVSPost2010PropOp33
 70
     1
102
RTVSPost2010Prop34
280
     0
102
RTVSPost2010PropOp34
 70
     1
102
RTVSPost2010Prop35
280
     0
102
RTVSPost2010PropOp35
 70
     1
102
RTVSPost2010Prop36
280
     0
102
RTVSPost2010PropOp36
 70
     1
102
RTVSPost2010Prop37
 90
       50
102
RTVSPost2010PropOp37
 70
     1
102
RTVSPost2010Prop38
140
0.0
102
RTVSPost2010PropOp38
 70
     1
102
RTVSPost2010Prop39
140
1.0
102
RTVSPost2010PropOp39
 70
     1
102
RTVSPost2010Prop40
 90
        0
102
RTVSPost2010PropOp40
 70
     1
102
RTVSPost2010Prop41ColorIndex
 90
       18
102
RTVSPost2010Prop41ColorRGB
 90
        0
102
RTVSPost2010PropOp41
 70
     1
102
RTVSPost2010Prop42
 90
       50
102
RTVSPost2010PropOp42
 70
     1
102
RTVSPost2010Prop43
 90
        3
102
RTVSPost2010PropOp43
 70
     1
102
RTVSPost2010Prop44ColorIndex
 90
        5
102
RTVSPost2010Prop44ColorRGB
 90
      255
102
RTVSPost2010PropOp44
 70
     1
102
RTVSPost2010Prop45
280
     0
102
RTVSPost2010PropOp45
 70
     1
102
RTVSPost2010Prop46
 90
       50
102
RTVSPost2010PropOp46
 70
     1
102
RTVSPost2010Prop47
 90
       50
102
RTVSPost2010PropOp47
 70
     1
102
RTVSPost2010Prop48
 90
       50
102
RTVSPost2010PropOp48
 70
     1
102
RTVSPost2010Prop49
280
     0
102
RTVSPost2010PropOp49
 70
     1
102
RTVSPost2010Prop50
 90
       50
102
RTVSPost2010PropOp50
 70
     1
102
RTVSPost2010Prop51ColorIndex
 90
      256
102
RTVSPost2010Prop51ColorRGB
 90
-16777216
102
RTVSPost2010PropOp51
 70
     0
102
RTVSPost2010Prop52
140
1.0
102
RTVSPost2010PropOp52
 70
     0
102
RTVSPost2010Prop53
 90
        2
102
RTVSPost2010PropOp53
 70
     1
102
RTVSPost2010Prop54
  1
strokes_ogs.tif
102
RTVSPost2010PropOp54
 70
     1
102
RTVSPost2010Prop55
280
     0
102
RTVSPost2010PropOp55
 70
     1
102
RTVSPost2010Prop56
140
1.0
102
RTVSPost2010PropOp56
 70
     1
102
RTVSPost2010Prop57
140
1.0
102
RTVSPost2010PropOp57
 70
     1
  0
XRECORD
  5
BFB5
102
{ACAD_REACTORS
330
BFB4
102
}
330
BFB4
100
AcDbXrecord
280
     1
102
RTVSPropertyOp0
 70
     1
102
RTVSPropertyOp1
 70
     1
102
RTVSPropertyOp2
 70
     1
102
RTVSPropertyOp3
 70
     1
102
RTVSPropertyOp4
 70
     1
102
RTVSPropertyOp5
 70
     1
102
RTVSPropertyOp6
 70
     1
102
RTVSPropertyOp7
 70
     1
102
RTVSPropertyOp8
 70
     1
102
RTVSPropertyOp9
 70
     1
102
RTVSPropertyOp10
 70
     1
102
RTVSPropertyOp11
 70
     1
102
RTVSPropertyOp12
 70
     1
102
RTVSPropertyOp13
 70
     1
102
RTVSPropertyOp14
 70
     1
102
RTVSPropertyOp15
 70
     1
102
RTVSPropertyOp16
 70
     1
102
RTVSPropertyOp17
 70
     1
102
RTVSPropertyOp18
 70
     1
102
RTVSPropertyOp19
 70
     1
102
RTVSPropertyOp20
 70
     1
102
RTVSPropertyOp21
 70
     1
102
RTVSPropertyOp22
 70
     1
102
RTVSPropertyOp23
 70
     1
102
RTVSPropertyOp24
 70
     1
102
RTVSPropertyOp25
 70
     1
102
RTVSPropertyOp26
 70
     1
102
RTVSPropertyOp27
 70
     1
102
RTVSPropertyOp28
 70
     1
102
RTVSPropertyOp29
 70
     1
102
RTVSPropertyOp30
 70
     1
102
RTVSPropertyOp31
 70
     1
102
RTVSPropertyOp32
 70
     1
102
RTVSPropertyOp33
 70
     1
102
RTVSPropertyOp34
 70
     1
102
RTVSPropertyOp35
 70
     1
102
RTVSPropertyOp36
 70
     1
102
RTVSPropertyOp37
 70
     1
102
RTVSPropertyOp38
 70
     1
102
RTVSPropertyOp39
 70
     1
102
RTVSPropertyOp40
 70
     1
102
RTVSPropertyOp41
 70
     1
102
RTVSPropertyOp42
 70
     1
102
RTVSPropertyOp43
 70
     1
102
RTVSPropertyOp44
 70
     1
102
RTVSPropertyOp45
 70
     1
102
RTVSPropertyOp46
 70
     1
102
RTVSPropertyOp47
 70
     1
102
RTVSPropertyOp48
 70
     1
102
RTVSPropertyOp49
 70
     1
102
RTVSPropertyOp50
 70
     1
102
RTVSPropertyOp51
 70
     0
102
RTVSPropertyOp52
 70
     0
102
RTVSPropertyOp53
 70
     1
102
RTVSPropertyOp54
 70
     1
102
RTVSPropertyOp55
 70
     1
102
RTVSPropertyOp56
 70
     1
102
RTVSPropertyOp57
 70
     1
102
RTVSPost2010Prop28
280
     0
102
RTVSPost2010PropOp28
 70
     1
102
RTVSPost2010Prop29
280
     1
102
RTVSPost2010PropOp29
 70
     1
102
RTVSPost2010Prop30
280
     1
102
RTVSPost2010PropOp30
 70
     1
102
RTVSPost2010Prop31
280
     0
102
RTVSPost2010PropOp31
 70
     1
102
RTVSPost2010Prop32
280
     0
102
RTVSPost2010PropOp32
 70
     1
102
RTVSPost2010Prop33
280
     0
102
RTVSPost2010PropOp33
 70
     1
102
RTVSPost2010Prop34
280
     0
102
RTVSPost2010PropOp34
 70
     1
102
RTVSPost2010Prop35
280
     0
102
RTVSPost2010PropOp35
 70
     1
102
RTVSPost2010Prop36
280
     0
102
RTVSPost2010PropOp36
 70
     1
102
RTVSPost2010Prop37
 90
       50
102
RTVSPost2010PropOp37
 70
     1
102
RTVSPost2010Prop38
140
0.0
102
RTVSPost2010PropOp38
 70
     1
102
RTVSPost2010Prop39
140
1.0
102
RTVSPost2010PropOp39
 70
     1
102
RTVSPost2010Prop40
 90
        0
102
RTVSPost2010PropOp40
 70
     1
102
RTVSPost2010Prop41ColorIndex
 90
       18
102
RTVSPost2010Prop41ColorRGB
 90
        0
102
RTVSPost2010PropOp41
 70
     1
102
RTVSPost2010Prop42
 90
       50
102
RTVSPost2010PropOp42
 70
     1
102
RTVSPost2010Prop43
 90
        3
102
RTVSPost2010PropOp43
 70
     1
102
RTVSPost2010Prop44ColorIndex
 90
        5
102
RTVSPost2010Prop44ColorRGB
 90
      255
102
RTVSPost2010PropOp44
 70
     1
102
RTVSPost2010Prop45
280
     0
102
RTVSPost2010PropOp45
 70
     1
102
RTVSPost2010Prop46
 90
       50
102
RTVSPost2010PropOp46
 70
     1
102
RTVSPost2010Prop47
 90
       50
102
RTVSPost2010PropOp47
 70
     1
102
RTVSPost2010Prop48
 90
       50
102
RTVSPost2010PropOp48
 70
     1
102
RTVSPost2010Prop49
280
     0
102
RTVSPost2010PropOp49
 70
     1
102
RTVSPost2010Prop50
 90
       50
102
RTVSPost2010PropOp50
 70
     1
102
RTVSPost2010Prop51ColorIndex
 90
      256
102
RTVSPost2010Prop51ColorRGB
 90
-16777216
102
RTVSPost2010PropOp51
 70
     0
102
RTVSPost2010Prop52
140
1.0
102
RTVSPost2010PropOp52
 70
     0
102
RTVSPost2010Prop53
 90
        2
102
RTVSPost2010PropOp53
 70
     1
102
RTVSPost2010Prop54
  1
strokes_ogs.tif
102
RTVSPost2010PropOp54
 70
     1
102
RTVSPost2010Prop55
280
     0
102
RTVSPost2010PropOp55
 70
     1
102
RTVSPost2010Prop56
140
1.0
102
RTVSPost2010PropOp56
 70
     1
102
RTVSPost2010Prop57
140
1.0
102
RTVSPost2010PropOp57
 70
     1
  0
XRECORD
  5
BFB7
102
{ACAD_REACTORS
330
BFB6
102
}
330
BFB6
100
AcDbXrecord
280
     1
102
RTVSPropertyOp0
 70
     1
102
RTVSPropertyOp1
 70
     1
102
RTVSPropertyOp2
 70
     1
102
RTVSPropertyOp3
 70
     1
102
RTVSPropertyOp4
 70
     1
102
RTVSPropertyOp5
 70
     1
102
RTVSPropertyOp6
 70
     1
102
RTVSPropertyOp7
 70
     1
102
RTVSPropertyOp8
 70
     1
102
RTVSPropertyOp9
 70
     1
102
RTVSPropertyOp10
 70
     1
102
RTVSPropertyOp11
 70
     1
102
RTVSPropertyOp12
 70
     1
102
RTVSPropertyOp13
 70
     1
102
RTVSPropertyOp14
 70
     1
102
RTVSPropertyOp15
 70
     1
102
RTVSPropertyOp16
 70
     1
102
RTVSPropertyOp17
 70
     1
102
RTVSPropertyOp18
 70
     1
102
RTVSPropertyOp19
 70
     1
102
RTVSPropertyOp20
 70
     1
102
RTVSPropertyOp21
 70
     1
102
RTVSPropertyOp22
 70
     1
102
RTVSPropertyOp23
 70
     1
102
RTVSPropertyOp24
 70
     1
102
RTVSPropertyOp25
 70
     1
102
RTVSPropertyOp26
 70
     1
102
RTVSPropertyOp27
 70
     1
102
RTVSPropertyOp28
 70
     1
102
RTVSPropertyOp29
 70
     1
102
RTVSPropertyOp30
 70
     1
102
RTVSPropertyOp31
 70
     1
102
RTVSPropertyOp32
 70
     1
102
RTVSPropertyOp33
 70
     1
102
RTVSPropertyOp34
 70
     1
102
RTVSPropertyOp35
 70
     1
102
RTVSPropertyOp36
 70
     1
102
RTVSPropertyOp37
 70
     1
102
RTVSPropertyOp38
 70
     1
102
RTVSPropertyOp39
 70
     1
102
RTVSPropertyOp40
 70
     1
102
RTVSPropertyOp41
 70
     1
102
RTVSPropertyOp42
 70
     1
102
RTVSPropertyOp43
 70
     1
102
RTVSPropertyOp44
 70
     1
102
RTVSPropertyOp45
 70
     1
102
RTVSPropertyOp46
 70
     1
102
RTVSPropertyOp47
 70
     1
102
RTVSPropertyOp48
 70
     1
102
RTVSPropertyOp49
 70
     1
102
RTVSPropertyOp50
 70
     1
102
RTVSPropertyOp51
 70
     0
102
RTVSPropertyOp52
 70
     0
102
RTVSPropertyOp53
 70
     1
102
RTVSPropertyOp54
 70
     1
102
RTVSPropertyOp55
 70
     1
102
RTVSPropertyOp56
 70
     1
102
RTVSPropertyOp57
 70
     1
102
RTVSPost2010Prop28
280
     0
102
RTVSPost2010PropOp28
 70
     1
102
RTVSPost2010Prop29
280
     1
102
RTVSPost2010PropOp29
 70
     1
102
RTVSPost2010Prop30
280
     1
102
RTVSPost2010PropOp30
 70
     1
102
RTVSPost2010Prop31
280
     0
102
RTVSPost2010PropOp31
 70
     1
102
RTVSPost2010Prop32
280
     0
102
RTVSPost2010PropOp32
 70
     1
102
RTVSPost2010Prop33
280
     0
102
RTVSPost2010PropOp33
 70
     1
102
RTVSPost2010Prop34
280
     0
102
RTVSPost2010PropOp34
 70
     1
102
RTVSPost2010Prop35
280
     0
102
RTVSPost2010PropOp35
 70
     1
102
RTVSPost2010Prop36
280
     0
102
RTVSPost2010PropOp36
 70
     1
102
RTVSPost2010Prop37
 90
       50
102
RTVSPost2010PropOp37
 70
     1
102
RTVSPost2010Prop38
140
0.0
102
RTVSPost2010PropOp38
 70
     1
102
RTVSPost2010Prop39
140
1.0
102
RTVSPost2010PropOp39
 70
     1
102
RTVSPost2010Prop40
 90
        0
102
RTVSPost2010PropOp40
 70
     1
102
RTVSPost2010Prop41ColorIndex
 90
       18
102
RTVSPost2010Prop41ColorRGB
 90
        0
102
RTVSPost2010PropOp41
 70
     1
102
RTVSPost2010Prop42
 90
       50
102
RTVSPost2010PropOp42
 70
     1
102
RTVSPost2010Prop43
 90
        3
102
RTVSPost2010PropOp43
 70
     1
102
RTVSPost2010Prop44ColorIndex
 90
        5
102
RTVSPost2010Prop44ColorRGB
 90
      255
102
RTVSPost2010PropOp44
 70
     1
102
RTVSPost2010Prop45
280
     0
102
RTVSPost2010PropOp45
 70
     1
102
RTVSPost2010Prop46
 90
       50
102
RTVSPost2010PropOp46
 70
     1
102
RTVSPost2010Prop47
 90
       50
102
RTVSPost2010PropOp47
 70
     1
102
RTVSPost2010Prop48
 90
       50
102
RTVSPost2010PropOp48
 70
     1
102
RTVSPost2010Prop49
280
     0
102
RTVSPost2010PropOp49
 70
     1
102
RTVSPost2010Prop50
 90
       50
102
RTVSPost2010PropOp50
 70
     1
102
RTVSPost2010Prop51ColorIndex
 90
      256
102
RTVSPost2010Prop51ColorRGB
 90
-16777216
102
RTVSPost2010PropOp51
 70
     0
102
RTVSPost2010Prop52
140
1.0
102
RTVSPost2010PropOp52
 70
     0
102
RTVSPost2010Prop53
 90
        2
102
RTVSPost2010PropOp53
 70
     1
102
RTVSPost2010Prop54
  1
strokes_ogs.tif
102
RTVSPost2010PropOp54
 70
     1
102
RTVSPost2010Prop55
280
     0
102
RTVSPost2010PropOp55
 70
     1
102
RTVSPost2010Prop56
140
1.0
102
RTVSPost2010PropOp56
 70
     1
102
RTVSPost2010Prop57
140
1.0
102
RTVSPost2010PropOp57
 70
     1
  0
XRECORD
  5
BFB9
102
{ACAD_REACTORS
330
BFB8
102
}
330
BFB8
100
AcDbXrecord
280
     1
102
RTVSPropertyOp0
 70
     1
102
RTVSPropertyOp1
 70
     1
102
RTVSPropertyOp2
 70
     1
102
RTVSPropertyOp3
 70
     1
102
RTVSPropertyOp4
 70
     1
102
RTVSPropertyOp5
 70
     1
102
RTVSPropertyOp6
 70
     1
102
RTVSPropertyOp7
 70
     1
102
RTVSPropertyOp8
 70
     1
102
RTVSPropertyOp9
 70
     1
102
RTVSPropertyOp10
 70
     1
102
RTVSPropertyOp11
 70
     1
102
RTVSPropertyOp12
 70
     1
102
RTVSPropertyOp13
 70
     1
102
RTVSPropertyOp14
 70
     1
102
RTVSPropertyOp15
 70
     1
102
RTVSPropertyOp16
 70
     1
102
RTVSPropertyOp17
 70
     1
102
RTVSPropertyOp18
 70
     1
102
RTVSPropertyOp19
 70
     1
102
RTVSPropertyOp20
 70
     1
102
RTVSPropertyOp21
 70
     1
102
RTVSPropertyOp22
 70
     1
102
RTVSPropertyOp23
 70
     1
102
RTVSPropertyOp24
 70
     1
102
RTVSPropertyOp25
 70
     1
102
RTVSPropertyOp26
 70
     1
102
RTVSPropertyOp27
 70
     1
102
RTVSPropertyOp28
 70
     1
102
RTVSPropertyOp29
 70
     1
102
RTVSPropertyOp30
 70
     1
102
RTVSPropertyOp31
 70
     1
102
RTVSPropertyOp32
 70
     1
102
RTVSPropertyOp33
 70
     1
102
RTVSPropertyOp34
 70
     1
102
RTVSPropertyOp35
 70
     1
102
RTVSPropertyOp36
 70
     1
102
RTVSPropertyOp37
 70
     1
102
RTVSPropertyOp38
 70
     1
102
RTVSPropertyOp39
 70
     1
102
RTVSPropertyOp40
 70
     1
102
RTVSPropertyOp41
 70
     1
102
RTVSPropertyOp42
 70
     1
102
RTVSPropertyOp43
 70
     1
102
RTVSPropertyOp44
 70
     1
102
RTVSPropertyOp45
 70
     1
102
RTVSPropertyOp46
 70
     1
102
RTVSPropertyOp47
 70
     1
102
RTVSPropertyOp48
 70
     1
102
RTVSPropertyOp49
 70
     1
102
RTVSPropertyOp50
 70
     1
102
RTVSPropertyOp51
 70
     0
102
RTVSPropertyOp52
 70
     0
102
RTVSPropertyOp53
 70
     1
102
RTVSPropertyOp54
 70
     1
102
RTVSPropertyOp55
 70
     1
102
RTVSPropertyOp56
 70
     1
102
RTVSPropertyOp57
 70
     1
102
RTVSPost2010Prop28
280
     0
102
RTVSPost2010PropOp28
 70
     1
102
RTVSPost2010Prop29
280
     1
102
RTVSPost2010PropOp29
 70
     1
102
RTVSPost2010Prop30
280
     1
102
RTVSPost2010PropOp30
 70
     1
102
RTVSPost2010Prop31
280
     0
102
RTVSPost2010PropOp31
 70
     1
102
RTVSPost2010Prop32
280
     0
102
RTVSPost2010PropOp32
 70
     1
102
RTVSPost2010Prop33
280
     0
102
RTVSPost2010PropOp33
 70
     1
102
RTVSPost2010Prop34
280
     0
102
RTVSPost2010PropOp34
 70
     1
102
RTVSPost2010Prop35
280
     0
102
RTVSPost2010PropOp35
 70
     1
102
RTVSPost2010Prop36
280
     0
102
RTVSPost2010PropOp36
 70
     1
102
RTVSPost2010Prop37
 90
       50
102
RTVSPost2010PropOp37
 70
     1
102
RTVSPost2010Prop38
140
0.0
102
RTVSPost2010PropOp38
 70
     1
102
RTVSPost2010Prop39
140
1.0
102
RTVSPost2010PropOp39
 70
     1
102
RTVSPost2010Prop40
 90
        0
102
RTVSPost2010PropOp40
 70
     1
102
RTVSPost2010Prop41ColorIndex
 90
       18
102
RTVSPost2010Prop41ColorRGB
 90
        0
102
RTVSPost2010PropOp41
 70
     1
102
RTVSPost2010Prop42
 90
       50
102
RTVSPost2010PropOp42
 70
     1
102
RTVSPost2010Prop43
 90
        3
102
RTVSPost2010PropOp43
 70
     1
102
RTVSPost2010Prop44ColorIndex
 90
        5
102
RTVSPost2010Prop44ColorRGB
 90
      255
102
RTVSPost2010PropOp44
 70
     1
102
RTVSPost2010Prop45
280
     0
102
RTVSPost2010PropOp45
 70
     1
102
RTVSPost2010Prop46
 90
       50
102
RTVSPost2010PropOp46
 70
     1
102
RTVSPost2010Prop47
 90
       50
102
RTVSPost2010PropOp47
 70
     1
102
RTVSPost2010Prop48
 90
       50
102
RTVSPost2010PropOp48
 70
     1
102
RTVSPost2010Prop49
280
     0
102
RTVSPost2010PropOp49
 70
     1
102
RTVSPost2010Prop50
 90
       50
102
RTVSPost2010PropOp50
 70
     1
102
RTVSPost2010Prop51ColorIndex
 90
      256
102
RTVSPost2010Prop51ColorRGB
 90
-16777216
102
RTVSPost2010PropOp51
 70
     0
102
RTVSPost2010Prop52
140
1.0
102
RTVSPost2010PropOp52
 70
     0
102
RTVSPost2010Prop53
 90
        2
102
RTVSPost2010PropOp53
 70
     1
102
RTVSPost2010Prop54
  1
strokes_ogs.tif
102
RTVSPost2010PropOp54
 70
     1
102
RTVSPost2010Prop55
280
     0
102
RTVSPost2010PropOp55
 70
     1
102
RTVSPost2010Prop56
140
1.0
102
RTVSPost2010PropOp56
 70
     1
102
RTVSPost2010Prop57
140
1.0
102
RTVSPost2010PropOp57
 70
     1
  0
XRECORD
  5
BFBB
102
{ACAD_REACTORS
330
BFBA
102
}
330
BFBA
100
AcDbXrecord
280
     1
102
RTVSPropertyOp0
 70
     1
102
RTVSPropertyOp1
 70
     1
102
RTVSPropertyOp2
 70
     1
102
RTVSPropertyOp3
 70
     1
102
RTVSPropertyOp4
 70
     1
102
RTVSPropertyOp5
 70
     1
102
RTVSPropertyOp6
 70
     1
102
RTVSPropertyOp7
 70
     1
102
RTVSPropertyOp8
 70
     1
102
RTVSPropertyOp9
 70
     1
102
RTVSPropertyOp10
 70
     1
102
RTVSPropertyOp11
 70
     1
102
RTVSPropertyOp12
 70
     1
102
RTVSPropertyOp13
 70
     1
102
RTVSPropertyOp14
 70
     1
102
RTVSPropertyOp15
 70
     1
102
RTVSPropertyOp16
 70
     1
102
RTVSPropertyOp17
 70
     1
102
RTVSPropertyOp18
 70
     1
102
RTVSPropertyOp19
 70
     1
102
RTVSPropertyOp20
 70
     1
102
RTVSPropertyOp21
 70
     1
102
RTVSPropertyOp22
 70
     1
102
RTVSPropertyOp23
 70
     1
102
RTVSPropertyOp24
 70
     1
102
RTVSPropertyOp25
 70
     1
102
RTVSPropertyOp26
 70
     1
102
RTVSPropertyOp27
 70
     1
102
RTVSPropertyOp28
 70
     1
102
RTVSPropertyOp29
 70
     1
102
RTVSPropertyOp30
 70
     1
102
RTVSPropertyOp31
 70
     1
102
RTVSPropertyOp32
 70
     1
102
RTVSPropertyOp33
 70
     1
102
RTVSPropertyOp34
 70
     1
102
RTVSPropertyOp35
 70
     1
102
RTVSPropertyOp36
 70
     1
102
RTVSPropertyOp37
 70
     1
102
RTVSPropertyOp38
 70
     1
102
RTVSPropertyOp39
 70
     1
102
RTVSPropertyOp40
 70
     1
102
RTVSPropertyOp41
 70
     1
102
RTVSPropertyOp42
 70
     1
102
RTVSPropertyOp43
 70
     1
102
RTVSPropertyOp44
 70
     1
102
RTVSPropertyOp45
 70
     1
102
RTVSPropertyOp46
 70
     1
102
RTVSPropertyOp47
 70
     1
102
RTVSPropertyOp48
 70
     1
102
RTVSPropertyOp49
 70
     1
102
RTVSPropertyOp50
 70
     1
102
RTVSPropertyOp51
 70
     0
102
RTVSPropertyOp52
 70
     0
102
RTVSPropertyOp53
 70
     1
102
RTVSPropertyOp54
 70
     1
102
RTVSPropertyOp55
 70
     1
102
RTVSPropertyOp56
 70
     1
102
RTVSPropertyOp57
 70
     1
102
RTVSPost2010Prop28
280
     0
102
RTVSPost2010PropOp28
 70
     1
102
RTVSPost2010Prop29
280
     1
102
RTVSPost2010PropOp29
 70
     1
102
RTVSPost2010Prop30
280
     1
102
RTVSPost2010PropOp30
 70
     1
102
RTVSPost2010Prop31
280
     0
102
RTVSPost2010PropOp31
 70
     1
102
RTVSPost2010Prop32
280
     0
102
RTVSPost2010PropOp32
 70
     1
102
RTVSPost2010Prop33
280
     0
102
RTVSPost2010PropOp33
 70
     1
102
RTVSPost2010Prop34
280
     0
102
RTVSPost2010PropOp34
 70
     1
102
RTVSPost2010Prop35
280
     0
102
RTVSPost2010PropOp35
 70
     1
102
RTVSPost2010Prop36
280
     0
102
RTVSPost2010PropOp36
 70
     1
102
RTVSPost2010Prop37
 90
       50
102
RTVSPost2010PropOp37
 70
     1
102
RTVSPost2010Prop38
140
0.0
102
RTVSPost2010PropOp38
 70
     1
102
RTVSPost2010Prop39
140
1.0
102
RTVSPost2010PropOp39
 70
     1
102
RTVSPost2010Prop40
 90
        0
102
RTVSPost2010PropOp40
 70
     1
102
RTVSPost2010Prop41ColorIndex
 90
       18
102
RTVSPost2010Prop41ColorRGB
 90
        0
102
RTVSPost2010PropOp41
 70
     1
102
RTVSPost2010Prop42
 90
       50
102
RTVSPost2010PropOp42
 70
     1
102
RTVSPost2010Prop43
 90
        3
102
RTVSPost2010PropOp43
 70
     1
102
RTVSPost2010Prop44ColorIndex
 90
        5
102
RTVSPost2010Prop44ColorRGB
 90
      255
102
RTVSPost2010PropOp44
 70
     1
102
RTVSPost2010Prop45
280
     0
102
RTVSPost2010PropOp45
 70
     1
102
RTVSPost2010Prop46
 90
       50
102
RTVSPost2010PropOp46
 70
     1
102
RTVSPost2010Prop47
 90
       50
102
RTVSPost2010PropOp47
 70
     1
102
RTVSPost2010Prop48
 90
       50
102
RTVSPost2010PropOp48
 70
     1
102
RTVSPost2010Prop49
280
     0
102
RTVSPost2010PropOp49
 70
     1
102
RTVSPost2010Prop50
 90
       50
102
RTVSPost2010PropOp50
 70
     1
102
RTVSPost2010Prop51ColorIndex
 90
      256
102
RTVSPost2010Prop51ColorRGB
 90
-16777216
102
RTVSPost2010PropOp51
 70
     0
102
RTVSPost2010Prop52
140
1.0
102
RTVSPost2010PropOp52
 70
     0
102
RTVSPost2010Prop53
 90
        2
102
RTVSPost2010PropOp53
 70
     1
102
RTVSPost2010Prop54
  1
strokes_ogs.tif
102
RTVSPost2010PropOp54
 70
     1
102
RTVSPost2010Prop55
280
     0
102
RTVSPost2010PropOp55
 70
     1
102
RTVSPost2010Prop56
140
1.0
102
RTVSPost2010PropOp56
 70
     1
102
RTVSPost2010Prop57
140
1.0
102
RTVSPost2010PropOp57
 70
     1
  0
XRECORD
  5
BFC5
102
{ACAD_REACTORS
330
BFC4
102
}
330
BFC4
100
AcDbXrecord
280
     1
102
RTVSPropertyOp0
 70
     1
102
RTVSPropertyOp1
 70
     1
102
RTVSPropertyOp2
 70
     1
102
RTVSPropertyOp3
 70
     1
102
RTVSPropertyOp4
 70
     1
102
RTVSPropertyOp5
 70
     1
102
RTVSPropertyOp6
 70
     1
102
RTVSPropertyOp7
 70
     1
102
RTVSPropertyOp8
 70
     1
102
RTVSPropertyOp9
 70
     1
102
RTVSPropertyOp10
 70
     1
102
RTVSPropertyOp11
 70
     1
102
RTVSPropertyOp12
 70
     1
102
RTVSPropertyOp13
 70
     1
102
RTVSPropertyOp14
 70
     1
102
RTVSPropertyOp15
 70
     1
102
RTVSPropertyOp16
 70
     1
102
RTVSPropertyOp17
 70
     1
102
RTVSPropertyOp18
 70
     1
102
RTVSPropertyOp19
 70
     1
102
RTVSPropertyOp20
 70
     1
102
RTVSPropertyOp21
 70
     1
102
RTVSPropertyOp22
 70
     1
102
RTVSPropertyOp23
 70
     1
102
RTVSPropertyOp24
 70
     1
102
RTVSPropertyOp25
 70
     1
102
RTVSPropertyOp26
 70
     1
102
RTVSPropertyOp27
 70
     1
102
RTVSPropertyOp28
 70
     1
102
RTVSPropertyOp29
 70
     1
102
RTVSPropertyOp30
 70
     1
102
RTVSPropertyOp31
 70
     1
102
RTVSPropertyOp32
 70
     1
102
RTVSPropertyOp33
 70
     1
102
RTVSPropertyOp34
 70
     1
102
RTVSPropertyOp35
 70
     1
102
RTVSPropertyOp36
 70
     1
102
RTVSPropertyOp37
 70
     1
102
RTVSPropertyOp38
 70
     1
102
RTVSPropertyOp39
 70
     1
102
RTVSPropertyOp40
 70
     1
102
RTVSPropertyOp41
 70
     1
102
RTVSPropertyOp42
 70
     1
102
RTVSPropertyOp43
 70
     1
102
RTVSPropertyOp44
 70
     1
102
RTVSPropertyOp45
 70
     1
102
RTVSPropertyOp46
 70
     1
102
RTVSPropertyOp47
 70
     1
102
RTVSPropertyOp48
 70
     1
102
RTVSPropertyOp49
 70
     1
102
RTVSPropertyOp50
 70
     1
102
RTVSPropertyOp51
 70
     0
102
RTVSPropertyOp52
 70
     0
102
RTVSPropertyOp53
 70
     1
102
RTVSPropertyOp54
 70
     1
102
RTVSPropertyOp55
 70
     1
102
RTVSPropertyOp56
 70
     1
102
RTVSPropertyOp57
 70
     1
102
RTVSPost2010Prop28
280
     0
102
RTVSPost2010PropOp28
 70
     1
102
RTVSPost2010Prop29
280
     1
102
RTVSPost2010PropOp29
 70
     1
102
RTVSPost2010Prop30
280
     1
102
RTVSPost2010PropOp30
 70
     1
102
RTVSPost2010Prop31
280
     0
102
RTVSPost2010PropOp31
 70
     1
102
RTVSPost2010Prop32
280
     0
102
RTVSPost2010PropOp32
 70
     1
102
RTVSPost2010Prop33
280
     0
102
RTVSPost2010PropOp33
 70
     1
102
RTVSPost2010Prop34
280
     0
102
RTVSPost2010PropOp34
 70
     1
102
RTVSPost2010Prop35
280
     0
102
RTVSPost2010PropOp35
 70
     1
102
RTVSPost2010Prop36
280
     0
102
RTVSPost2010PropOp36
 70
     1
102
RTVSPost2010Prop37
 90
       50
102
RTVSPost2010PropOp37
 70
     1
102
RTVSPost2010Prop38
140
0.0
102
RTVSPost2010PropOp38
 70
     1
102
RTVSPost2010Prop39
140
1.0
102
RTVSPost2010PropOp39
 70
     1
102
RTVSPost2010Prop40
 90
        0
102
RTVSPost2010PropOp40
 70
     1
102
RTVSPost2010Prop41ColorIndex
 90
       18
102
RTVSPost2010Prop41ColorRGB
 90
        0
102
RTVSPost2010PropOp41
 70
     1
102
RTVSPost2010Prop42
 90
       50
102
RTVSPost2010PropOp42
 70
     1
102
RTVSPost2010Prop43
 90
        3
102
RTVSPost2010PropOp43
 70
     1
102
RTVSPost2010Prop44ColorIndex
 90
        5
102
RTVSPost2010Prop44ColorRGB
 90
      255
102
RTVSPost2010PropOp44
 70
     1
102
RTVSPost2010Prop45
280
     0
102
RTVSPost2010PropOp45
 70
     1
102
RTVSPost2010Prop46
 90
       50
102
RTVSPost2010PropOp46
 70
     1
102
RTVSPost2010Prop47
 90
       50
102
RTVSPost2010PropOp47
 70
     1
102
RTVSPost2010Prop48
 90
       50
102
RTVSPost2010PropOp48
 70
     1
102
RTVSPost2010Prop49
280
     0
102
RTVSPost2010PropOp49
 70
     1
102
RTVSPost2010Prop50
 90
       50
102
RTVSPost2010PropOp50
 70
     1
102
RTVSPost2010Prop51ColorIndex
 90
      256
102
RTVSPost2010Prop51ColorRGB
 90
-16777216
102
RTVSPost2010PropOp51
 70
     0
102
RTVSPost2010Prop52
140
1.0
102
RTVSPost2010PropOp52
 70
     0
102
RTVSPost2010Prop53
 90
        2
102
RTVSPost2010PropOp53
 70
     1
102
RTVSPost2010Prop54
  1
strokes_ogs.tif
102
RTVSPost2010PropOp54
 70
     1
102
RTVSPost2010Prop55
280
     0
102
RTVSPost2010PropOp55
 70
     1
102
RTVSPost2010Prop56
140
1.0
102
RTVSPost2010PropOp56
 70
     1
102
RTVSPost2010Prop57
140
1.0
102
RTVSPost2010PropOp57
 70
     1
  0
XRECORD
  5
BFC7
102
{ACAD_REACTORS
330
BFC6
102
}
330
BFC6
100
AcDbXrecord
280
     1
102
RTVSPropertyOp0
 70
     0
102
RTVSPropertyOp1
 70
     0
102
RTVSPropertyOp2
 70
     0
102
RTVSPropertyOp3
 70
     0
102
RTVSPropertyOp4
 70
     0
102
RTVSPropertyOp5
 70
     0
102
RTVSPropertyOp6
 70
     0
102
RTVSPropertyOp7
 70
     0
102
RTVSPropertyOp8
 70
     0
102
RTVSPropertyOp9
 70
     0
102
RTVSPropertyOp10
 70
     0
102
RTVSPropertyOp11
 70
     0
102
RTVSPropertyOp12
 70
     0
102
RTVSPropertyOp13
 70
     0
102
RTVSPropertyOp14
 70
     0
102
RTVSPropertyOp15
 70
     0
102
RTVSPropertyOp16
 70
     0
102
RTVSPropertyOp17
 70
     0
102
RTVSPropertyOp18
 70
     0
102
RTVSPropertyOp19
 70
     0
102
RTVSPropertyOp20
 70
     0
102
RTVSPropertyOp21
 70
     0
102
RTVSPropertyOp22
 70
     0
102
RTVSPropertyOp23
 70
     0
102
RTVSPropertyOp24
 70
     0
102
RTVSPropertyOp25
 70
     0
102
RTVSPropertyOp26
 70
     0
102
RTVSPropertyOp27
 70
     0
102
RTVSPropertyOp28
 70
     1
102
RTVSPropertyOp29
 70
     1
102
RTVSPropertyOp30
 70
     1
102
RTVSPropertyOp31
 70
     1
102
RTVSPropertyOp32
 70
     1
102
RTVSPropertyOp33
 70
     1
102
RTVSPropertyOp34
 70
     1
102
RTVSPropertyOp35
 70
     1
102
RTVSPropertyOp36
 70
     1
102
RTVSPropertyOp37
 70
     1
102
RTVSPropertyOp38
 70
     1
102
RTVSPropertyOp39
 70
     1
102
RTVSPropertyOp40
 70
     1
102
RTVSPropertyOp41
 70
     1
102
RTVSPropertyOp42
 70
     1
102
RTVSPropertyOp43
 70
     1
102
RTVSPropertyOp44
 70
     1
102
RTVSPropertyOp45
 70
     1
102
RTVSPropertyOp46
 70
     1
102
RTVSPropertyOp47
 70
     1
102
RTVSPropertyOp48
 70
     1
102
RTVSPropertyOp49
 70
     1
102
RTVSPropertyOp50
 70
     1
102
RTVSPropertyOp51
 70
     0
102
RTVSPropertyOp52
 70
     0
102
RTVSPropertyOp53
 70
     1
102
RTVSPropertyOp54
 70
     1
102
RTVSPropertyOp55
 70
     1
102
RTVSPropertyOp56
 70
     1
102
RTVSPropertyOp57
 70
     1
102
RTVSPost2010Prop28
280
     0
102
RTVSPost2010PropOp28
 70
     1
102
RTVSPost2010Prop29
280
     1
102
RTVSPost2010PropOp29
 70
     1
102
RTVSPost2010Prop30
280
     1
102
RTVSPost2010PropOp30
 70
     1
102
RTVSPost2010Prop31
280
     0
102
RTVSPost2010PropOp31
 70
     1
102
RTVSPost2010Prop32
280
     0
102
RTVSPost2010PropOp32
 70
     1
102
RTVSPost2010Prop33
280
     0
102
RTVSPost2010PropOp33
 70
     1
102
RTVSPost2010Prop34
280
     0
102
RTVSPost2010PropOp34
 70
     1
102
RTVSPost2010Prop35
280
     0
102
RTVSPost2010PropOp35
 70
     1
102
RTVSPost2010Prop36
280
     0
102
RTVSPost2010PropOp36
 70
     1
102
RTVSPost2010Prop37
 90
       50
102
RTVSPost2010PropOp37
 70
     1
102
RTVSPost2010Prop38
140
0.0
102
RTVSPost2010PropOp38
 70
     1
102
RTVSPost2010Prop39
140
1.0
102
RTVSPost2010PropOp39
 70
     1
102
RTVSPost2010Prop40
 90
        0
102
RTVSPost2010PropOp40
 70
     1
102
RTVSPost2010Prop41ColorIndex
 90
       18
102
RTVSPost2010Prop41ColorRGB
 90
        0
102
RTVSPost2010PropOp41
 70
     1
102
RTVSPost2010Prop42
 90
       50
102
RTVSPost2010PropOp42
 70
     1
102
RTVSPost2010Prop43
 90
        3
102
RTVSPost2010PropOp43
 70
     1
102
RTVSPost2010Prop44ColorIndex
 90
        5
102
RTVSPost2010Prop44ColorRGB
 90
      255
102
RTVSPost2010PropOp44
 70
     1
102
RTVSPost2010Prop45
280
     0
102
RTVSPost2010PropOp45
 70
     1
102
RTVSPost2010Prop46
 90
       50
102
RTVSPost2010PropOp46
 70
     1
102
RTVSPost2010Prop47
 90
       50
102
RTVSPost2010PropOp47
 70
     1
102
RTVSPost2010Prop48
 90
       50
102
RTVSPost2010PropOp48
 70
     1
102
RTVSPost2010Prop49
280
     0
102
RTVSPost2010PropOp49
 70
     1
102
RTVSPost2010Prop50
 90
       50
102
RTVSPost2010PropOp50
 70
     1
102
RTVSPost2010Prop51ColorIndex
 90
      256
102
RTVSPost2010Prop51ColorRGB
 90
-16777216
102
RTVSPost2010PropOp51
 70
     0
102
RTVSPost2010Prop52
140
1.0
102
RTVSPost2010PropOp52
 70
     0
102
RTVSPost2010Prop53
 90
        2
102
RTVSPost2010PropOp53
 70
     1
102
RTVSPost2010Prop54
  1
strokes_ogs.tif
102
RTVSPost2010PropOp54
 70
     1
102
RTVSPost2010Prop55
280
     0
102
RTVSPost2010PropOp55
 70
     1
102
RTVSPost2010Prop56
140
1.0
102
RTVSPost2010PropOp56
 70
     1
102
RTVSPost2010Prop57
140
1.0
102
RTVSPost2010PropOp57
 70
     1
  0
XRECORD
  5
BFBD
102
{ACAD_REACTORS
330
BFBC
102
}
330
BFBC
100
AcDbXrecord
280
     1
102
RTVSPropertyOp0
 70
     1
102
RTVSPropertyOp1
 70
     1
102
RTVSPropertyOp2
 70
     1
102
RTVSPropertyOp3
 70
     1
102
RTVSPropertyOp4
 70
     1
102
RTVSPropertyOp5
 70
     1
102
RTVSPropertyOp6
 70
     1
102
RTVSPropertyOp7
 70
     1
102
RTVSPropertyOp8
 70
     1
102
RTVSPropertyOp9
 70
     1
102
RTVSPropertyOp10
 70
     1
102
RTVSPropertyOp11
 70
     1
102
RTVSPropertyOp12
 70
     1
102
RTVSPropertyOp13
 70
     1
102
RTVSPropertyOp14
 70
     1
102
RTVSPropertyOp15
 70
     1
102
RTVSPropertyOp16
 70
     1
102
RTVSPropertyOp17
 70
     1
102
RTVSPropertyOp18
 70
     1
102
RTVSPropertyOp19
 70
     1
102
RTVSPropertyOp20
 70
     1
102
RTVSPropertyOp21
 70
     1
102
RTVSPropertyOp22
 70
     1
102
RTVSPropertyOp23
 70
     1
102
RTVSPropertyOp24
 70
     1
102
RTVSPropertyOp25
 70
     1
102
RTVSPropertyOp26
 70
     1
102
RTVSPropertyOp27
 70
     1
102
RTVSPropertyOp28
 70
     1
102
RTVSPropertyOp29
 70
     1
102
RTVSPropertyOp30
 70
     1
102
RTVSPropertyOp31
 70
     1
102
RTVSPropertyOp32
 70
     1
102
RTVSPropertyOp33
 70
     1
102
RTVSPropertyOp34
 70
     1
102
RTVSPropertyOp35
 70
     1
102
RTVSPropertyOp36
 70
     1
102
RTVSPropertyOp37
 70
     1
102
RTVSPropertyOp38
 70
     1
102
RTVSPropertyOp39
 70
     1
102
RTVSPropertyOp40
 70
     1
102
RTVSPropertyOp41
 70
     1
102
RTVSPropertyOp42
 70
     1
102
RTVSPropertyOp43
 70
     1
102
RTVSPropertyOp44
 70
     1
102
RTVSPropertyOp45
 70
     1
102
RTVSPropertyOp46
 70
     1
102
RTVSPropertyOp47
 70
     1
102
RTVSPropertyOp48
 70
     1
102
RTVSPropertyOp49
 70
     1
102
RTVSPropertyOp50
 70
     1
102
RTVSPropertyOp51
 70
     0
102
RTVSPropertyOp52
 70
     0
102
RTVSPropertyOp53
 70
     1
102
RTVSPropertyOp54
 70
     1
102
RTVSPropertyOp55
 70
     1
102
RTVSPropertyOp56
 70
     1
102
RTVSPropertyOp57
 70
     1
102
RTVSPost2010Prop28
280
     0
102
RTVSPost2010PropOp28
 70
     1
102
RTVSPost2010Prop29
280
     1
102
RTVSPost2010PropOp29
 70
     1
102
RTVSPost2010Prop30
280
     1
102
RTVSPost2010PropOp30
 70
     1
102
RTVSPost2010Prop31
280
     0
102
RTVSPost2010PropOp31
 70
     1
102
RTVSPost2010Prop32
280
     0
102
RTVSPost2010PropOp32
 70
     1
102
RTVSPost2010Prop33
280
     0
102
RTVSPost2010PropOp33
 70
     1
102
RTVSPost2010Prop34
280
     0
102
RTVSPost2010PropOp34
 70
     1
102
RTVSPost2010Prop35
280
     0
102
RTVSPost2010PropOp35
 70
     1
102
RTVSPost2010Prop36
280
     0
102
RTVSPost2010PropOp36
 70
     1
102
RTVSPost2010Prop37
 90
       50
102
RTVSPost2010PropOp37
 70
     1
102
RTVSPost2010Prop38
140
0.0
102
RTVSPost2010PropOp38
 70
     1
102
RTVSPost2010Prop39
140
1.0
102
RTVSPost2010PropOp39
 70
     1
102
RTVSPost2010Prop40
 90
        0
102
RTVSPost2010PropOp40
 70
     1
102
RTVSPost2010Prop41ColorIndex
 90
       18
102
RTVSPost2010Prop41ColorRGB
 90
        0
102
RTVSPost2010PropOp41
 70
     1
102
RTVSPost2010Prop42
 90
       50
102
RTVSPost2010PropOp42
 70
     1
102
RTVSPost2010Prop43
 90
        3
102
RTVSPost2010PropOp43
 70
     1
102
RTVSPost2010Prop44ColorIndex
 90
        5
102
RTVSPost2010Prop44ColorRGB
 90
      255
102
RTVSPost2010PropOp44
 70
     1
102
RTVSPost2010Prop45
280
     0
102
RTVSPost2010PropOp45
 70
     1
102
RTVSPost2010Prop46
 90
       50
102
RTVSPost2010PropOp46
 70
     1
102
RTVSPost2010Prop47
 90
       50
102
RTVSPost2010PropOp47
 70
     1
102
RTVSPost2010Prop48
 90
       50
102
RTVSPost2010PropOp48
 70
     1
102
RTVSPost2010Prop49
280
     0
102
RTVSPost2010PropOp49
 70
     1
102
RTVSPost2010Prop50
 90
       50
102
RTVSPost2010PropOp50
 70
     1
102
RTVSPost2010Prop51ColorIndex
 90
      256
102
RTVSPost2010Prop51ColorRGB
 90
-16777216
102
RTVSPost2010PropOp51
 70
     0
102
RTVSPost2010Prop52
140
1.0
102
RTVSPost2010PropOp52
 70
     0
102
RTVSPost2010Prop53
 90
        2
102
RTVSPost2010PropOp53
 70
     1
102
RTVSPost2010Prop54
  1
strokes_ogs.tif
102
RTVSPost2010PropOp54
 70
     1
102
RTVSPost2010Prop55
280
     0
102
RTVSPost2010PropOp55
 70
     1
102
RTVSPost2010Prop56
140
1.0
102
RTVSPost2010PropOp56
 70
     1
102
RTVSPost2010Prop57
140
1.0
102
RTVSPost2010PropOp57
 70
     1
  0
XRECORD
  5
BFC9
102
{ACAD_REACTORS
330
BFC8
102
}
330
BFC8
100
AcDbXrecord
280
     1
102
RTVSPropertyOp0
 70
     0
102
RTVSPropertyOp1
 70
     0
102
RTVSPropertyOp2
 70
     0
102
RTVSPropertyOp3
 70
     0
102
RTVSPropertyOp4
 70
     0
102
RTVSPropertyOp5
 70
     0
102
RTVSPropertyOp6
 70
     0
102
RTVSPropertyOp7
 70
     0
102
RTVSPropertyOp8
 70
     0
102
RTVSPropertyOp9
 70
     0
102
RTVSPropertyOp10
 70
     0
102
RTVSPropertyOp11
 70
     0
102
RTVSPropertyOp12
 70
     0
102
RTVSPropertyOp13
 70
     0
102
RTVSPropertyOp14
 70
     0
102
RTVSPropertyOp15
 70
     0
102
RTVSPropertyOp16
 70
     0
102
RTVSPropertyOp17
 70
     0
102
RTVSPropertyOp18
 70
     0
102
RTVSPropertyOp19
 70
     0
102
RTVSPropertyOp20
 70
     0
102
RTVSPropertyOp21
 70
     0
102
RTVSPropertyOp22
 70
     0
102
RTVSPropertyOp23
 70
     0
102
RTVSPropertyOp24
 70
     0
102
RTVSPropertyOp25
 70
     0
102
RTVSPropertyOp26
 70
     0
102
RTVSPropertyOp27
 70
     0
102
RTVSPropertyOp28
 70
     1
102
RTVSPropertyOp29
 70
     1
102
RTVSPropertyOp30
 70
     1
102
RTVSPropertyOp31
 70
     1
102
RTVSPropertyOp32
 70
     1
102
RTVSPropertyOp33
 70
     1
102
RTVSPropertyOp34
 70
     1
102
RTVSPropertyOp35
 70
     1
102
RTVSPropertyOp36
 70
     1
102
RTVSPropertyOp37
 70
     1
102
RTVSPropertyOp38
 70
     1
102
RTVSPropertyOp39
 70
     1
102
RTVSPropertyOp40
 70
     1
102
RTVSPropertyOp41
 70
     1
102
RTVSPropertyOp42
 70
     1
102
RTVSPropertyOp43
 70
     1
102
RTVSPropertyOp44
 70
     1
102
RTVSPropertyOp45
 70
     1
102
RTVSPropertyOp46
 70
     1
102
RTVSPropertyOp47
 70
     1
102
RTVSPropertyOp48
 70
     1
102
RTVSPropertyOp49
 70
     1
102
RTVSPropertyOp50
 70
     1
102
RTVSPropertyOp51
 70
     0
102
RTVSPropertyOp52
 70
     0
102
RTVSPropertyOp53
 70
     1
102
RTVSPropertyOp54
 70
     1
102
RTVSPropertyOp55
 70
     1
102
RTVSPropertyOp56
 70
     1
102
RTVSPropertyOp57
 70
     1
102
RTVSPost2010Prop28
280
     0
102
RTVSPost2010PropOp28
 70
     1
102
RTVSPost2010Prop29
280
     1
102
RTVSPost2010PropOp29
 70
     1
102
RTVSPost2010Prop30
280
     1
102
RTVSPost2010PropOp30
 70
     1
102
RTVSPost2010Prop31
280
     0
102
RTVSPost2010PropOp31
 70
     1
102
RTVSPost2010Prop32
280
     0
102
RTVSPost2010PropOp32
 70
     1
102
RTVSPost2010Prop33
280
     0
102
RTVSPost2010PropOp33
 70
     1
102
RTVSPost2010Prop34
280
     0
102
RTVSPost2010PropOp34
 70
     1
102
RTVSPost2010Prop35
280
     0
102
RTVSPost2010PropOp35
 70
     1
102
RTVSPost2010Prop36
280
     0
102
RTVSPost2010PropOp36
 70
     1
102
RTVSPost2010Prop37
 90
       50
102
RTVSPost2010PropOp37
 70
     1
102
RTVSPost2010Prop38
140
0.0
102
RTVSPost2010PropOp38
 70
     1
102
RTVSPost2010Prop39
140
1.0
102
RTVSPost2010PropOp39
 70
     1
102
RTVSPost2010Prop40
 90
        0
102
RTVSPost2010PropOp40
 70
     1
102
RTVSPost2010Prop41ColorIndex
 90
       18
102
RTVSPost2010Prop41ColorRGB
 90
        0
102
RTVSPost2010PropOp41
 70
     1
102
RTVSPost2010Prop42
 90
       50
102
RTVSPost2010PropOp42
 70
     1
102
RTVSPost2010Prop43
 90
        3
102
RTVSPost2010PropOp43
 70
     1
102
RTVSPost2010Prop44ColorIndex
 90
        5
102
RTVSPost2010Prop44ColorRGB
 90
      255
102
RTVSPost2010PropOp44
 70
     1
102
RTVSPost2010Prop45
280
     0
102
RTVSPost2010PropOp45
 70
     1
102
RTVSPost2010Prop46
 90
       50
102
RTVSPost2010PropOp46
 70
     1
102
RTVSPost2010Prop47
 90
       50
102
RTVSPost2010PropOp47
 70
     1
102
RTVSPost2010Prop48
 90
       50
102
RTVSPost2010PropOp48
 70
     1
102
RTVSPost2010Prop49
280
     0
102
RTVSPost2010PropOp49
 70
     1
102
RTVSPost2010Prop50
 90
       50
102
RTVSPost2010PropOp50
 70
     1
102
RTVSPost2010Prop51ColorIndex
 90
      256
102
RTVSPost2010Prop51ColorRGB
 90
-16777216
102
RTVSPost2010PropOp51
 70
     0
102
RTVSPost2010Prop52
140
1.0
102
RTVSPost2010PropOp52
 70
     0
102
RTVSPost2010Prop53
 90
        2
102
RTVSPost2010PropOp53
 70
     1
102
RTVSPost2010Prop54
  1
strokes_ogs.tif
102
RTVSPost2010PropOp54
 70
     1
102
RTVSPost2010Prop55
280
     0
102
RTVSPost2010PropOp55
 70
     1
102
RTVSPost2010Prop56
140
1.0
102
RTVSPost2010PropOp56
 70
     1
102
RTVSPost2010Prop57
140
1.0
102
RTVSPost2010PropOp57
 70
     1
  0
XRECORD
  5
BFBF
102
{ACAD_REACTORS
330
BFBE
102
}
330
BFBE
100
AcDbXrecord
280
     1
102
RTVSPropertyOp0
 70
     1
102
RTVSPropertyOp1
 70
     1
102
RTVSPropertyOp2
 70
     1
102
RTVSPropertyOp3
 70
     1
102
RTVSPropertyOp4
 70
     1
102
RTVSPropertyOp5
 70
     1
102
RTVSPropertyOp6
 70
     1
102
RTVSPropertyOp7
 70
     1
102
RTVSPropertyOp8
 70
     1
102
RTVSPropertyOp9
 70
     1
102
RTVSPropertyOp10
 70
     1
102
RTVSPropertyOp11
 70
     1
102
RTVSPropertyOp12
 70
     1
102
RTVSPropertyOp13
 70
     1
102
RTVSPropertyOp14
 70
     1
102
RTVSPropertyOp15
 70
     1
102
RTVSPropertyOp16
 70
     1
102
RTVSPropertyOp17
 70
     1
102
RTVSPropertyOp18
 70
     1
102
RTVSPropertyOp19
 70
     1
102
RTVSPropertyOp20
 70
     1
102
RTVSPropertyOp21
 70
     1
102
RTVSPropertyOp22
 70
     1
102
RTVSPropertyOp23
 70
     1
102
RTVSPropertyOp24
 70
     1
102
RTVSPropertyOp25
 70
     1
102
RTVSPropertyOp26
 70
     1
102
RTVSPropertyOp27
 70
     1
102
RTVSPropertyOp28
 70
     1
102
RTVSPropertyOp29
 70
     1
102
RTVSPropertyOp30
 70
     1
102
RTVSPropertyOp31
 70
     1
102
RTVSPropertyOp32
 70
     1
102
RTVSPropertyOp33
 70
     1
102
RTVSPropertyOp34
 70
     1
102
RTVSPropertyOp35
 70
     1
102
RTVSPropertyOp36
 70
     1
102
RTVSPropertyOp37
 70
     1
102
RTVSPropertyOp38
 70
     1
102
RTVSPropertyOp39
 70
     1
102
RTVSPropertyOp40
 70
     1
102
RTVSPropertyOp41
 70
     1
102
RTVSPropertyOp42
 70
     1
102
RTVSPropertyOp43
 70
     1
102
RTVSPropertyOp44
 70
     1
102
RTVSPropertyOp45
 70
     1
102
RTVSPropertyOp46
 70
     1
102
RTVSPropertyOp47
 70
     1
102
RTVSPropertyOp48
 70
     1
102
RTVSPropertyOp49
 70
     1
102
RTVSPropertyOp50
 70
     1
102
RTVSPropertyOp51
 70
     0
102
RTVSPropertyOp52
 70
     0
102
RTVSPropertyOp53
 70
     1
102
RTVSPropertyOp54
 70
     1
102
RTVSPropertyOp55
 70
     1
102
RTVSPropertyOp56
 70
     1
102
RTVSPropertyOp57
 70
     1
102
RTVSPost2010Prop28
280
     0
102
RTVSPost2010PropOp28
 70
     1
102
RTVSPost2010Prop29
280
     1
102
RTVSPost2010PropOp29
 70
     1
102
RTVSPost2010Prop30
280
     1
102
RTVSPost2010PropOp30
 70
     1
102
RTVSPost2010Prop31
280
     0
102
RTVSPost2010PropOp31
 70
     1
102
RTVSPost2010Prop32
280
     0
102
RTVSPost2010PropOp32
 70
     1
102
RTVSPost2010Prop33
280
     0
102
RTVSPost2010PropOp33
 70
     1
102
RTVSPost2010Prop34
280
     0
102
RTVSPost2010PropOp34
 70
     1
102
RTVSPost2010Prop35
280
     0
102
RTVSPost2010PropOp35
 70
     1
102
RTVSPost2010Prop36
280
     0
102
RTVSPost2010PropOp36
 70
     1
102
RTVSPost2010Prop37
 90
       50
102
RTVSPost2010PropOp37
 70
     1
102
RTVSPost2010Prop38
140
0.0
102
RTVSPost2010PropOp38
 70
     1
102
RTVSPost2010Prop39
140
1.0
102
RTVSPost2010PropOp39
 70
     1
102
RTVSPost2010Prop40
 90
        0
102
RTVSPost2010PropOp40
 70
     1
102
RTVSPost2010Prop41ColorIndex
 90
       18
102
RTVSPost2010Prop41ColorRGB
 90
        0
102
RTVSPost2010PropOp41
 70
     1
102
RTVSPost2010Prop42
 90
       50
102
RTVSPost2010PropOp42
 70
     1
102
RTVSPost2010Prop43
 90
        3
102
RTVSPost2010PropOp43
 70
     1
102
RTVSPost2010Prop44ColorIndex
 90
        5
102
RTVSPost2010Prop44ColorRGB
 90
      255
102
RTVSPost2010PropOp44
 70
     1
102
RTVSPost2010Prop45
280
     0
102
RTVSPost2010PropOp45
 70
     1
102
RTVSPost2010Prop46
 90
       50
102
RTVSPost2010PropOp46
 70
     1
102
RTVSPost2010Prop47
 90
       50
102
RTVSPost2010PropOp47
 70
     1
102
RTVSPost2010Prop48
 90
       50
102
RTVSPost2010PropOp48
 70
     1
102
RTVSPost2010Prop49
280
     0
102
RTVSPost2010PropOp49
 70
     1
102
RTVSPost2010Prop50
 90
       50
102
RTVSPost2010PropOp50
 70
     1
102
RTVSPost2010Prop51ColorIndex
 90
      256
102
RTVSPost2010Prop51ColorRGB
 90
-16777216
102
RTVSPost2010PropOp51
 70
     0
102
RTVSPost2010Prop52
140
1.0
102
RTVSPost2010PropOp52
 70
     0
102
RTVSPost2010Prop53
 90
        2
102
RTVSPost2010PropOp53
 70
     1
102
RTVSPost2010Prop54
  1
strokes_ogs.tif
102
RTVSPost2010PropOp54
 70
     1
102
RTVSPost2010Prop55
280
     0
102
RTVSPost2010PropOp55
 70
     1
102
RTVSPost2010Prop56
140
1.0
102
RTVSPost2010PropOp56
 70
     1
102
RTVSPost2010Prop57
140
1.0
102
RTVSPost2010PropOp57
 70
     1
  0
XRECORD
  5
BFD5
102
{ACAD_REACTORS
330
BFD4
102
}
330
BFD4
100
AcDbXrecord
280
     1
102
RTVSPropertyOp0
 70
     1
102
RTVSPropertyOp1
 70
     1
102
RTVSPropertyOp2
 70
     1
102
RTVSPropertyOp3
 70
     1
102
RTVSPropertyOp4
 70
     1
102
RTVSPropertyOp5
 70
     1
102
RTVSPropertyOp6
 70
     1
102
RTVSPropertyOp7
 70
     1
102
RTVSPropertyOp8
 70
     1
102
RTVSPropertyOp9
 70
     1
102
RTVSPropertyOp10
 70
     1
102
RTVSPropertyOp11
 70
     1
102
RTVSPropertyOp12
 70
     1
102
RTVSPropertyOp13
 70
     1
102
RTVSPropertyOp14
 70
     1
102
RTVSPropertyOp15
 70
     1
102
RTVSPropertyOp16
 70
     1
102
RTVSPropertyOp17
 70
     1
102
RTVSPropertyOp18
 70
     1
102
RTVSPropertyOp19
 70
     1
102
RTVSPropertyOp20
 70
     1
102
RTVSPropertyOp21
 70
     1
102
RTVSPropertyOp22
 70
     1
102
RTVSPropertyOp23
 70
     1
102
RTVSPropertyOp24
 70
     1
102
RTVSPropertyOp25
 70
     1
102
RTVSPropertyOp26
 70
     1
102
RTVSPropertyOp27
 70
     1
102
RTVSPropertyOp28
 70
     1
102
RTVSPropertyOp29
 70
     1
102
RTVSPropertyOp30
 70
     1
102
RTVSPropertyOp31
 70
     1
102
RTVSPropertyOp32
 70
     1
102
RTVSPropertyOp33
 70
     1
102
RTVSPropertyOp34
 70
     1
102
RTVSPropertyOp35
 70
     1
102
RTVSPropertyOp36
 70
     1
102
RTVSPropertyOp37
 70
     1
102
RTVSPropertyOp38
 70
     1
102
RTVSPropertyOp39
 70
     1
102
RTVSPropertyOp40
 70
     1
102
RTVSPropertyOp41
 70
     1
102
RTVSPropertyOp42
 70
     1
102
RTVSPropertyOp43
 70
     1
102
RTVSPropertyOp44
 70
     1
102
RTVSPropertyOp45
 70
     1
102
RTVSPropertyOp46
 70
     1
102
RTVSPropertyOp47
 70
     1
102
RTVSPropertyOp48
 70
     1
102
RTVSPropertyOp49
 70
     1
102
RTVSPropertyOp50
 70
     1
102
RTVSPropertyOp51
 70
     0
102
RTVSPropertyOp52
 70
     0
102
RTVSPropertyOp53
 70
     1
102
RTVSPropertyOp54
 70
     1
102
RTVSPropertyOp55
 70
     1
102
RTVSPropertyOp56
 70
     1
102
RTVSPropertyOp57
 70
     1
102
RTVSPost2010Prop28
280
     0
102
RTVSPost2010PropOp28
 70
     1
102
RTVSPost2010Prop29
280
     1
102
RTVSPost2010PropOp29
 70
     1
102
RTVSPost2010Prop30
280
     1
102
RTVSPost2010PropOp30
 70
     1
102
RTVSPost2010Prop31
280
     0
102
RTVSPost2010PropOp31
 70
     1
102
RTVSPost2010Prop32
280
     0
102
RTVSPost2010PropOp32
 70
     1
102
RTVSPost2010Prop33
280
     0
102
RTVSPost2010PropOp33
 70
     1
102
RTVSPost2010Prop34
280
     0
102
RTVSPost2010PropOp34
 70
     1
102
RTVSPost2010Prop35
280
     0
102
RTVSPost2010PropOp35
 70
     1
102
RTVSPost2010Prop36
280
     0
102
RTVSPost2010PropOp36
 70
     1
102
RTVSPost2010Prop37
 90
       50
102
RTVSPost2010PropOp37
 70
     1
102
RTVSPost2010Prop38
140
0.0
102
RTVSPost2010PropOp38
 70
     1
102
RTVSPost2010Prop39
140
1.0
102
RTVSPost2010PropOp39
 70
     1
102
RTVSPost2010Prop40
 90
        0
102
RTVSPost2010PropOp40
 70
     1
102
RTVSPost2010Prop41ColorIndex
 90
       18
102
RTVSPost2010Prop41ColorRGB
 90
        0
102
RTVSPost2010PropOp41
 70
     1
102
RTVSPost2010Prop42
 90
       50
102
RTVSPost2010PropOp42
 70
     1
102
RTVSPost2010Prop43
 90
        3
102
RTVSPost2010PropOp43
 70
     1
102
RTVSPost2010Prop44ColorIndex
 90
        5
102
RTVSPost2010Prop44ColorRGB
 90
      255
102
RTVSPost2010PropOp44
 70
     1
102
RTVSPost2010Prop45
280
     0
102
RTVSPost2010PropOp45
 70
     1
102
RTVSPost2010Prop46
 90
       50
102
RTVSPost2010PropOp46
 70
     1
102
RTVSPost2010Prop47
 90
       50
102
RTVSPost2010PropOp47
 70
     1
102
RTVSPost2010Prop48
 90
       50
102
RTVSPost2010PropOp48
 70
     1
102
RTVSPost2010Prop49
280
     0
102
RTVSPost2010PropOp49
 70
     1
102
RTVSPost2010Prop50
 90
       50
102
RTVSPost2010PropOp50
 70
     1
102
RTVSPost2010Prop51ColorIndex
 90
      256
102
RTVSPost2010Prop51ColorRGB
 90
-16777216
102
RTVSPost2010PropOp51
 70
     0
102
RTVSPost2010Prop52
140
1.0
102
RTVSPost2010PropOp52
 70
     0
102
RTVSPost2010Prop53
 90
        2
102
RTVSPost2010PropOp53
 70
     1
102
RTVSPost2010Prop54
  1
strokes_ogs.tif
102
RTVSPost2010PropOp54
 70
     1
102
RTVSPost2010Prop55
280
     0
102
RTVSPost2010PropOp55
 70
     1
102
RTVSPost2010Prop56
140
1.0
102
RTVSPost2010PropOp56
 70
     1
102
RTVSPost2010Prop57
140
1.0
102
RTVSPost2010PropOp57
 70
     1
  0
XRECORD
  5
BFD3
102
{ACAD_REACTORS
330
BFD2
102
}
330
BFD2
100
AcDbXrecord
280
     1
102
RTVSPropertyOp0
 70
     1
102
RTVSPropertyOp1
 70
     1
102
RTVSPropertyOp2
 70
     1
102
RTVSPropertyOp3
 70
     1
102
RTVSPropertyOp4
 70
     1
102
RTVSPropertyOp5
 70
     1
102
RTVSPropertyOp6
 70
     1
102
RTVSPropertyOp7
 70
     1
102
RTVSPropertyOp8
 70
     1
102
RTVSPropertyOp9
 70
     1
102
RTVSPropertyOp10
 70
     1
102
RTVSPropertyOp11
 70
     1
102
RTVSPropertyOp12
 70
     1
102
RTVSPropertyOp13
 70
     1
102
RTVSPropertyOp14
 70
     1
102
RTVSPropertyOp15
 70
     1
102
RTVSPropertyOp16
 70
     1
102
RTVSPropertyOp17
 70
     1
102
RTVSPropertyOp18
 70
     1
102
RTVSPropertyOp19
 70
     1
102
RTVSPropertyOp20
 70
     1
102
RTVSPropertyOp21
 70
     1
102
RTVSPropertyOp22
 70
     1
102
RTVSPropertyOp23
 70
     1
102
RTVSPropertyOp24
 70
     1
102
RTVSPropertyOp25
 70
     1
102
RTVSPropertyOp26
 70
     1
102
RTVSPropertyOp27
 70
     1
102
RTVSPropertyOp28
 70
     1
102
RTVSPropertyOp29
 70
     1
102
RTVSPropertyOp30
 70
     1
102
RTVSPropertyOp31
 70
     1
102
RTVSPropertyOp32
 70
     1
102
RTVSPropertyOp33
 70
     1
102
RTVSPropertyOp34
 70
     1
102
RTVSPropertyOp35
 70
     1
102
RTVSPropertyOp36
 70
     1
102
RTVSPropertyOp37
 70
     1
102
RTVSPropertyOp38
 70
     1
102
RTVSPropertyOp39
 70
     1
102
RTVSPropertyOp40
 70
     1
102
RTVSPropertyOp41
 70
     1
102
RTVSPropertyOp42
 70
     1
102
RTVSPropertyOp43
 70
     1
102
RTVSPropertyOp44
 70
     1
102
RTVSPropertyOp45
 70
     1
102
RTVSPropertyOp46
 70
     1
102
RTVSPropertyOp47
 70
     1
102
RTVSPropertyOp48
 70
     1
102
RTVSPropertyOp49
 70
     1
102
RTVSPropertyOp50
 70
     1
102
RTVSPropertyOp51
 70
     0
102
RTVSPropertyOp52
 70
     0
102
RTVSPropertyOp53
 70
     1
102
RTVSPropertyOp54
 70
     1
102
RTVSPropertyOp55
 70
     1
102
RTVSPropertyOp56
 70
     1
102
RTVSPropertyOp57
 70
     1
102
RTVSPost2010Prop28
280
     0
102
RTVSPost2010PropOp28
 70
     1
102
RTVSPost2010Prop29
280
     1
102
RTVSPost2010PropOp29
 70
     1
102
RTVSPost2010Prop30
280
     1
102
RTVSPost2010PropOp30
 70
     1
102
RTVSPost2010Prop31
280
     0
102
RTVSPost2010PropOp31
 70
     1
102
RTVSPost2010Prop32
280
     0
102
RTVSPost2010PropOp32
 70
     1
102
RTVSPost2010Prop33
280
     0
102
RTVSPost2010PropOp33
 70
     1
102
RTVSPost2010Prop34
280
     0
102
RTVSPost2010PropOp34
 70
     1
102
RTVSPost2010Prop35
280
     0
102
RTVSPost2010PropOp35
 70
     1
102
RTVSPost2010Prop36
280
     0
102
RTVSPost2010PropOp36
 70
     1
102
RTVSPost2010Prop37
 90
       50
102
RTVSPost2010PropOp37
 70
     1
102
RTVSPost2010Prop38
140
0.0
102
RTVSPost2010PropOp38
 70
     1
102
RTVSPost2010Prop39
140
1.0
102
RTVSPost2010PropOp39
 70
     1
102
RTVSPost2010Prop40
 90
        0
102
RTVSPost2010PropOp40
 70
     1
102
RTVSPost2010Prop41ColorIndex
 90
       18
102
RTVSPost2010Prop41ColorRGB
 90
        0
102
RTVSPost2010PropOp41
 70
     1
102
RTVSPost2010Prop42
 90
       50
102
RTVSPost2010PropOp42
 70
     1
102
RTVSPost2010Prop43
 90
        3
102
RTVSPost2010PropOp43
 70
     1
102
RTVSPost2010Prop44ColorIndex
 90
        5
102
RTVSPost2010Prop44ColorRGB
 90
      255
102
RTVSPost2010PropOp44
 70
     1
102
RTVSPost2010Prop45
280
     0
102
RTVSPost2010PropOp45
 70
     1
102
RTVSPost2010Prop46
 90
       50
102
RTVSPost2010PropOp46
 70
     1
102
RTVSPost2010Prop47
 90
       50
102
RTVSPost2010PropOp47
 70
     1
102
RTVSPost2010Prop48
 90
       50
102
RTVSPost2010PropOp48
 70
     1
102
RTVSPost2010Prop49
280
     0
102
RTVSPost2010PropOp49
 70
     1
102
RTVSPost2010Prop50
 90
       50
102
RTVSPost2010PropOp50
 70
     1
102
RTVSPost2010Prop51ColorIndex
 90
      256
102
RTVSPost2010Prop51ColorRGB
 90
-16777216
102
RTVSPost2010PropOp51
 70
     0
102
RTVSPost2010Prop52
140
1.0
102
RTVSPost2010PropOp52
 70
     0
102
RTVSPost2010Prop53
 90
        2
102
RTVSPost2010PropOp53
 70
     1
102
RTVSPost2010Prop54
  1
strokes_ogs.tif
102
RTVSPost2010PropOp54
 70
     1
102
RTVSPost2010Prop55
280
     0
102
RTVSPost2010PropOp55
 70
     1
102
RTVSPost2010Prop56
140
1.0
102
RTVSPost2010PropOp56
 70
     1
102
RTVSPost2010Prop57
140
1.0
102
RTVSPost2010PropOp57
 70
     1
  0
XRECORD
  5
BFCD
102
{ACAD_REACTORS
330
BFCC
102
}
330
BFCC
100
AcDbXrecord
280
     1
102
RTVSPropertyOp0
 70
     1
102
RTVSPropertyOp1
 70
     1
102
RTVSPropertyOp2
 70
     1
102
RTVSPropertyOp3
 70
     1
102
RTVSPropertyOp4
 70
     1
102
RTVSPropertyOp5
 70
     1
102
RTVSPropertyOp6
 70
     1
102
RTVSPropertyOp7
 70
     1
102
RTVSPropertyOp8
 70
     1
102
RTVSPropertyOp9
 70
     1
102
RTVSPropertyOp10
 70
     1
102
RTVSPropertyOp11
 70
     1
102
RTVSPropertyOp12
 70
     1
102
RTVSPropertyOp13
 70
     1
102
RTVSPropertyOp14
 70
     1
102
RTVSPropertyOp15
 70
     1
102
RTVSPropertyOp16
 70
     1
102
RTVSPropertyOp17
 70
     1
102
RTVSPropertyOp18
 70
     1
102
RTVSPropertyOp19
 70
     1
102
RTVSPropertyOp20
 70
     1
102
RTVSPropertyOp21
 70
     1
102
RTVSPropertyOp22
 70
     1
102
RTVSPropertyOp23
 70
     1
102
RTVSPropertyOp24
 70
     1
102
RTVSPropertyOp25
 70
     1
102
RTVSPropertyOp26
 70
     1
102
RTVSPropertyOp27
 70
     1
102
RTVSPropertyOp28
 70
     1
102
RTVSPropertyOp29
 70
     1
102
RTVSPropertyOp30
 70
     1
102
RTVSPropertyOp31
 70
     1
102
RTVSPropertyOp32
 70
     1
102
RTVSPropertyOp33
 70
     1
102
RTVSPropertyOp34
 70
     1
102
RTVSPropertyOp35
 70
     1
102
RTVSPropertyOp36
 70
     1
102
RTVSPropertyOp37
 70
     1
102
RTVSPropertyOp38
 70
     1
102
RTVSPropertyOp39
 70
     1
102
RTVSPropertyOp40
 70
     1
102
RTVSPropertyOp41
 70
     1
102
RTVSPropertyOp42
 70
     1
102
RTVSPropertyOp43
 70
     1
102
RTVSPropertyOp44
 70
     1
102
RTVSPropertyOp45
 70
     1
102
RTVSPropertyOp46
 70
     1
102
RTVSPropertyOp47
 70
     1
102
RTVSPropertyOp48
 70
     1
102
RTVSPropertyOp49
 70
     1
102
RTVSPropertyOp50
 70
     1
102
RTVSPropertyOp51
 70
     0
102
RTVSPropertyOp52
 70
     0
102
RTVSPropertyOp53
 70
     1
102
RTVSPropertyOp54
 70
     1
102
RTVSPropertyOp55
 70
     1
102
RTVSPropertyOp56
 70
     1
102
RTVSPropertyOp57
 70
     1
102
RTVSPost2010Prop28
280
     0
102
RTVSPost2010PropOp28
 70
     1
102
RTVSPost2010Prop29
280
     1
102
RTVSPost2010PropOp29
 70
     1
102
RTVSPost2010Prop30
280
     1
102
RTVSPost2010PropOp30
 70
     1
102
RTVSPost2010Prop31
280
     0
102
RTVSPost2010PropOp31
 70
     1
102
RTVSPost2010Prop32
280
     0
102
RTVSPost2010PropOp32
 70
     1
102
RTVSPost2010Prop33
280
     0
102
RTVSPost2010PropOp33
 70
     1
102
RTVSPost2010Prop34
280
     0
102
RTVSPost2010PropOp34
 70
     1
102
RTVSPost2010Prop35
280
     0
102
RTVSPost2010PropOp35
 70
     1
102
RTVSPost2010Prop36
280
     0
102
RTVSPost2010PropOp36
 70
     1
102
RTVSPost2010Prop37
 90
       50
102
RTVSPost2010PropOp37
 70
     1
102
RTVSPost2010Prop38
140
0.0
102
RTVSPost2010PropOp38
 70
     1
102
RTVSPost2010Prop39
140
1.0
102
RTVSPost2010PropOp39
 70
     1
102
RTVSPost2010Prop40
 90
        0
102
RTVSPost2010PropOp40
 70
     1
102
RTVSPost2010Prop41ColorIndex
 90
       18
102
RTVSPost2010Prop41ColorRGB
 90
        0
102
RTVSPost2010PropOp41
 70
     1
102
RTVSPost2010Prop42
 90
       50
102
RTVSPost2010PropOp42
 70
     1
102
RTVSPost2010Prop43
 90
        3
102
RTVSPost2010PropOp43
 70
     1
102
RTVSPost2010Prop44ColorIndex
 90
        5
102
RTVSPost2010Prop44ColorRGB
 90
      255
102
RTVSPost2010PropOp44
 70
     1
102
RTVSPost2010Prop45
280
     0
102
RTVSPost2010PropOp45
 70
     1
102
RTVSPost2010Prop46
 90
       50
102
RTVSPost2010PropOp46
 70
     1
102
RTVSPost2010Prop47
 90
       50
102
RTVSPost2010PropOp47
 70
     1
102
RTVSPost2010Prop48
 90
       50
102
RTVSPost2010PropOp48
 70
     1
102
RTVSPost2010Prop49
280
     0
102
RTVSPost2010PropOp49
 70
     1
102
RTVSPost2010Prop50
 90
       50
102
RTVSPost2010PropOp50
 70
     1
102
RTVSPost2010Prop51ColorIndex
 90
      256
102
RTVSPost2010Prop51ColorRGB
 90
-16777216
102
RTVSPost2010PropOp51
 70
     0
102
RTVSPost2010Prop52
140
1.0
102
RTVSPost2010PropOp52
 70
     0
102
RTVSPost2010Prop53
 90
        2
102
RTVSPost2010PropOp53
 70
     1
102
RTVSPost2010Prop54
  1
strokes_ogs.tif
102
RTVSPost2010PropOp54
 70
     1
102
RTVSPost2010Prop55
280
     0
102
RTVSPost2010PropOp55
 70
     1
102
RTVSPost2010Prop56
140
1.0
102
RTVSPost2010PropOp56
 70
     1
102
RTVSPost2010Prop57
140
1.0
102
RTVSPost2010PropOp57
 70
     1
  0
XRECORD
  5
BFCF
102
{ACAD_REACTORS
330
BFCE
102
}
330
BFCE
100
AcDbXrecord
280
     1
102
RTVSPropertyOp0
 70
     1
102
RTVSPropertyOp1
 70
     1
102
RTVSPropertyOp2
 70
     1
102
RTVSPropertyOp3
 70
     1
102
RTVSPropertyOp4
 70
     1
102
RTVSPropertyOp5
 70
     1
102
RTVSPropertyOp6
 70
     1
102
RTVSPropertyOp7
 70
     1
102
RTVSPropertyOp8
 70
     1
102
RTVSPropertyOp9
 70
     1
102
RTVSPropertyOp10
 70
     1
102
RTVSPropertyOp11
 70
     1
102
RTVSPropertyOp12
 70
     1
102
RTVSPropertyOp13
 70
     1
102
RTVSPropertyOp14
 70
     1
102
RTVSPropertyOp15
 70
     1
102
RTVSPropertyOp16
 70
     1
102
RTVSPropertyOp17
 70
     1
102
RTVSPropertyOp18
 70
     1
102
RTVSPropertyOp19
 70
     1
102
RTVSPropertyOp20
 70
     1
102
RTVSPropertyOp21
 70
     1
102
RTVSPropertyOp22
 70
     1
102
RTVSPropertyOp23
 70
     1
102
RTVSPropertyOp24
 70
     1
102
RTVSPropertyOp25
 70
     1
102
RTVSPropertyOp26
 70
     1
102
RTVSPropertyOp27
 70
     1
102
RTVSPropertyOp28
 70
     1
102
RTVSPropertyOp29
 70
     1
102
RTVSPropertyOp30
 70
     1
102
RTVSPropertyOp31
 70
     1
102
RTVSPropertyOp32
 70
     1
102
RTVSPropertyOp33
 70
     1
102
RTVSPropertyOp34
 70
     1
102
RTVSPropertyOp35
 70
     1
102
RTVSPropertyOp36
 70
     1
102
RTVSPropertyOp37
 70
     1
102
RTVSPropertyOp38
 70
     1
102
RTVSPropertyOp39
 70
     1
102
RTVSPropertyOp40
 70
     1
102
RTVSPropertyOp41
 70
     1
102
RTVSPropertyOp42
 70
     1
102
RTVSPropertyOp43
 70
     1
102
RTVSPropertyOp44
 70
     1
102
RTVSPropertyOp45
 70
     1
102
RTVSPropertyOp46
 70
     1
102
RTVSPropertyOp47
 70
     1
102
RTVSPropertyOp48
 70
     1
102
RTVSPropertyOp49
 70
     1
102
RTVSPropertyOp50
 70
     1
102
RTVSPropertyOp51
 70
     0
102
RTVSPropertyOp52
 70
     0
102
RTVSPropertyOp53
 70
     1
102
RTVSPropertyOp54
 70
     1
102
RTVSPropertyOp55
 70
     1
102
RTVSPropertyOp56
 70
     1
102
RTVSPropertyOp57
 70
     1
102
RTVSPost2010Prop28
280
     0
102
RTVSPost2010PropOp28
 70
     1
102
RTVSPost2010Prop29
280
     1
102
RTVSPost2010PropOp29
 70
     1
102
RTVSPost2010Prop30
280
     1
102
RTVSPost2010PropOp30
 70
     1
102
RTVSPost2010Prop31
280
     0
102
RTVSPost2010PropOp31
 70
     1
102
RTVSPost2010Prop32
280
     0
102
RTVSPost2010PropOp32
 70
     1
102
RTVSPost2010Prop33
280
     0
102
RTVSPost2010PropOp33
 70
     1
102
RTVSPost2010Prop34
280
     0
102
RTVSPost2010PropOp34
 70
     1
102
RTVSPost2010Prop35
280
     0
102
RTVSPost2010PropOp35
 70
     1
102
RTVSPost2010Prop36
280
     0
102
RTVSPost2010PropOp36
 70
     1
102
RTVSPost2010Prop37
 90
       50
102
RTVSPost2010PropOp37
 70
     1
102
RTVSPost2010Prop38
140
0.0
102
RTVSPost2010PropOp38
 70
     1
102
RTVSPost2010Prop39
140
1.0
102
RTVSPost2010PropOp39
 70
     1
102
RTVSPost2010Prop40
 90
        0
102
RTVSPost2010PropOp40
 70
     1
102
RTVSPost2010Prop41ColorIndex
 90
       18
102
RTVSPost2010Prop41ColorRGB
 90
        0
102
RTVSPost2010PropOp41
 70
     1
102
RTVSPost2010Prop42
 90
       50
102
RTVSPost2010PropOp42
 70
     1
102
RTVSPost2010Prop43
 90
        3
102
RTVSPost2010PropOp43
 70
     1
102
RTVSPost2010Prop44ColorIndex
 90
        5
102
RTVSPost2010Prop44ColorRGB
 90
      255
102
RTVSPost2010PropOp44
 70
     1
102
RTVSPost2010Prop45
280
     0
102
RTVSPost2010PropOp45
 70
     1
102
RTVSPost2010Prop46
 90
       50
102
RTVSPost2010PropOp46
 70
     1
102
RTVSPost2010Prop47
 90
       50
102
RTVSPost2010PropOp47
 70
     1
102
RTVSPost2010Prop48
 90
       50
102
RTVSPost2010PropOp48
 70
     1
102
RTVSPost2010Prop49
280
     0
102
RTVSPost2010PropOp49
 70
     1
102
RTVSPost2010Prop50
 90
       50
102
RTVSPost2010PropOp50
 70
     1
102
RTVSPost2010Prop51ColorIndex
 90
      256
102
RTVSPost2010Prop51ColorRGB
 90
-16777216
102
RTVSPost2010PropOp51
 70
     0
102
RTVSPost2010Prop52
140
1.0
102
RTVSPost2010PropOp52
 70
     0
102
RTVSPost2010Prop53
 90
        2
102
RTVSPost2010PropOp53
 70
     1
102
RTVSPost2010Prop54
  1
strokes_ogs.tif
102
RTVSPost2010PropOp54
 70
     1
102
RTVSPost2010Prop55
280
     0
102
RTVSPost2010PropOp55
 70
     1
102
RTVSPost2010Prop56
140
1.0
102
RTVSPost2010PropOp56
 70
     1
102
RTVSPost2010Prop57
140
1.0
102
RTVSPost2010PropOp57
 70
     1
  0
XRECORD
  5
BFC1
102
{ACAD_REACTORS
330
BFC0
102
}
330
BFC0
100
AcDbXrecord
280
     1
102
RTVSPropertyOp0
 70
     1
102
RTVSPropertyOp1
 70
     1
102
RTVSPropertyOp2
 70
     1
102
RTVSPropertyOp3
 70
     1
102
RTVSPropertyOp4
 70
     1
102
RTVSPropertyOp5
 70
     1
102
RTVSPropertyOp6
 70
     1
102
RTVSPropertyOp7
 70
     1
102
RTVSPropertyOp8
 70
     1
102
RTVSPropertyOp9
 70
     1
102
RTVSPropertyOp10
 70
     1
102
RTVSPropertyOp11
 70
     1
102
RTVSPropertyOp12
 70
     1
102
RTVSPropertyOp13
 70
     1
102
RTVSPropertyOp14
 70
     1
102
RTVSPropertyOp15
 70
     1
102
RTVSPropertyOp16
 70
     1
102
RTVSPropertyOp17
 70
     1
102
RTVSPropertyOp18
 70
     1
102
RTVSPropertyOp19
 70
     1
102
RTVSPropertyOp20
 70
     1
102
RTVSPropertyOp21
 70
     1
102
RTVSPropertyOp22
 70
     1
102
RTVSPropertyOp23
 70
     1
102
RTVSPropertyOp24
 70
     1
102
RTVSPropertyOp25
 70
     1
102
RTVSPropertyOp26
 70
     1
102
RTVSPropertyOp27
 70
     1
102
RTVSPropertyOp28
 70
     1
102
RTVSPropertyOp29
 70
     1
102
RTVSPropertyOp30
 70
     1
102
RTVSPropertyOp31
 70
     1
102
RTVSPropertyOp32
 70
     1
102
RTVSPropertyOp33
 70
     1
102
RTVSPropertyOp34
 70
     1
102
RTVSPropertyOp35
 70
     1
102
RTVSPropertyOp36
 70
     1
102
RTVSPropertyOp37
 70
     1
102
RTVSPropertyOp38
 70
     1
102
RTVSPropertyOp39
 70
     1
102
RTVSPropertyOp40
 70
     1
102
RTVSPropertyOp41
 70
     1
102
RTVSPropertyOp42
 70
     1
102
RTVSPropertyOp43
 70
     1
102
RTVSPropertyOp44
 70
     1
102
RTVSPropertyOp45
 70
     1
102
RTVSPropertyOp46
 70
     1
102
RTVSPropertyOp47
 70
     1
102
RTVSPropertyOp48
 70
     1
102
RTVSPropertyOp49
 70
     1
102
RTVSPropertyOp50
 70
     1
102
RTVSPropertyOp51
 70
     0
102
RTVSPropertyOp52
 70
     0
102
RTVSPropertyOp53
 70
     1
102
RTVSPropertyOp54
 70
     1
102
RTVSPropertyOp55
 70
     1
102
RTVSPropertyOp56
 70
     1
102
RTVSPropertyOp57
 70
     1
102
RTVSPost2010Prop28
280
     0
102
RTVSPost2010PropOp28
 70
     1
102
RTVSPost2010Prop29
280
     1
102
RTVSPost2010PropOp29
 70
     1
102
RTVSPost2010Prop30
280
     1
102
RTVSPost2010PropOp30
 70
     1
102
RTVSPost2010Prop31
280
     0
102
RTVSPost2010PropOp31
 70
     1
102
RTVSPost2010Prop32
280
     0
102
RTVSPost2010PropOp32
 70
     1
102
RTVSPost2010Prop33
280
     0
102
RTVSPost2010PropOp33
 70
     1
102
RTVSPost2010Prop34
280
     0
102
RTVSPost2010PropOp34
 70
     1
102
RTVSPost2010Prop35
280
     0
102
RTVSPost2010PropOp35
 70
     1
102
RTVSPost2010Prop36
280
     0
102
RTVSPost2010PropOp36
 70
     1
102
RTVSPost2010Prop37
 90
       50
102
RTVSPost2010PropOp37
 70
     1
102
RTVSPost2010Prop38
140
0.0
102
RTVSPost2010PropOp38
 70
     1
102
RTVSPost2010Prop39
140
1.0
102
RTVSPost2010PropOp39
 70
     1
102
RTVSPost2010Prop40
 90
        0
102
RTVSPost2010PropOp40
 70
     1
102
RTVSPost2010Prop41ColorIndex
 90
       18
102
RTVSPost2010Prop41ColorRGB
 90
        0
102
RTVSPost2010PropOp41
 70
     1
102
RTVSPost2010Prop42
 90
       50
102
RTVSPost2010PropOp42
 70
     1
102
RTVSPost2010Prop43
 90
        3
102
RTVSPost2010PropOp43
 70
     1
102
RTVSPost2010Prop44ColorIndex
 90
        5
102
RTVSPost2010Prop44ColorRGB
 90
      255
102
RTVSPost2010PropOp44
 70
     1
102
RTVSPost2010Prop45
280
     0
102
RTVSPost2010PropOp45
 70
     1
102
RTVSPost2010Prop46
 90
       50
102
RTVSPost2010PropOp46
 70
     1
102
RTVSPost2010Prop47
 90
       50
102
RTVSPost2010PropOp47
 70
     1
102
RTVSPost2010Prop48
 90
       50
102
RTVSPost2010PropOp48
 70
     1
102
RTVSPost2010Prop49
280
     0
102
RTVSPost2010PropOp49
 70
     1
102
RTVSPost2010Prop50
 90
       50
102
RTVSPost2010PropOp50
 70
     1
102
RTVSPost2010Prop51ColorIndex
 90
      256
102
RTVSPost2010Prop51ColorRGB
 90
-16777216
102
RTVSPost2010PropOp51
 70
     0
102
RTVSPost2010Prop52
140
1.0
102
RTVSPost2010PropOp52
 70
     0
102
RTVSPost2010Prop53
 90
        2
102
RTVSPost2010PropOp53
 70
     1
102
RTVSPost2010Prop54
  1
strokes_ogs.tif
102
RTVSPost2010PropOp54
 70
     1
102
RTVSPost2010Prop55
280
     0
102
RTVSPost2010PropOp55
 70
     1
102
RTVSPost2010Prop56
140
1.0
102
RTVSPost2010PropOp56
 70
     1
102
RTVSPost2010Prop57
140
1.0
102
RTVSPost2010PropOp57
 70
     1
  0
XRECORD
  5
BFC3
102
{ACAD_REACTORS
330
BFC2
102
}
330
BFC2
100
AcDbXrecord
280
     1
102
RTVSPropertyOp0
 70
     1
102
RTVSPropertyOp1
 70
     1
102
RTVSPropertyOp2
 70
     1
102
RTVSPropertyOp3
 70
     1
102
RTVSPropertyOp4
 70
     1
102
RTVSPropertyOp5
 70
     1
102
RTVSPropertyOp6
 70
     1
102
RTVSPropertyOp7
 70
     1
102
RTVSPropertyOp8
 70
     1
102
RTVSPropertyOp9
 70
     1
102
RTVSPropertyOp10
 70
     1
102
RTVSPropertyOp11
 70
     1
102
RTVSPropertyOp12
 70
     1
102
RTVSPropertyOp13
 70
     1
102
RTVSPropertyOp14
 70
     1
102
RTVSPropertyOp15
 70
     1
102
RTVSPropertyOp16
 70
     1
102
RTVSPropertyOp17
 70
     1
102
RTVSPropertyOp18
 70
     1
102
RTVSPropertyOp19
 70
     1
102
RTVSPropertyOp20
 70
     1
102
RTVSPropertyOp21
 70
     1
102
RTVSPropertyOp22
 70
     1
102
RTVSPropertyOp23
 70
     1
102
RTVSPropertyOp24
 70
     1
102
RTVSPropertyOp25
 70
     1
102
RTVSPropertyOp26
 70
     1
102
RTVSPropertyOp27
 70
     1
102
RTVSPropertyOp28
 70
     1
102
RTVSPropertyOp29
 70
     1
102
RTVSPropertyOp30
 70
     1
102
RTVSPropertyOp31
 70
     1
102
RTVSPropertyOp32
 70
     1
102
RTVSPropertyOp33
 70
     1
102
RTVSPropertyOp34
 70
     1
102
RTVSPropertyOp35
 70
     1
102
RTVSPropertyOp36
 70
     1
102
RTVSPropertyOp37
 70
     1
102
RTVSPropertyOp38
 70
     1
102
RTVSPropertyOp39
 70
     1
102
RTVSPropertyOp40
 70
     1
102
RTVSPropertyOp41
 70
     1
102
RTVSPropertyOp42
 70
     1
102
RTVSPropertyOp43
 70
     1
102
RTVSPropertyOp44
 70
     1
102
RTVSPropertyOp45
 70
     1
102
RTVSPropertyOp46
 70
     1
102
RTVSPropertyOp47
 70
     1
102
RTVSPropertyOp48
 70
     1
102
RTVSPropertyOp49
 70
     1
102
RTVSPropertyOp50
 70
     1
102
RTVSPropertyOp51
 70
     0
102
RTVSPropertyOp52
 70
     0
102
RTVSPropertyOp53
 70
     1
102
RTVSPropertyOp54
 70
     1
102
RTVSPropertyOp55
 70
     1
102
RTVSPropertyOp56
 70
     1
102
RTVSPropertyOp57
 70
     1
102
RTVSPost2010Prop28
280
     0
102
RTVSPost2010PropOp28
 70
     1
102
RTVSPost2010Prop29
280
     1
102
RTVSPost2010PropOp29
 70
     1
102
RTVSPost2010Prop30
280
     1
102
RTVSPost2010PropOp30
 70
     1
102
RTVSPost2010Prop31
280
     0
102
RTVSPost2010PropOp31
 70
     1
102
RTVSPost2010Prop32
280
     0
102
RTVSPost2010PropOp32
 70
     1
102
RTVSPost2010Prop33
280
     0
102
RTVSPost2010PropOp33
 70
     1
102
RTVSPost2010Prop34
280
     0
102
RTVSPost2010PropOp34
 70
     1
102
RTVSPost2010Prop35
280
     0
102
RTVSPost2010PropOp35
 70
     1
102
RTVSPost2010Prop36
280
     0
102
RTVSPost2010PropOp36
 70
     1
102
RTVSPost2010Prop37
 90
       50
102
RTVSPost2010PropOp37
 70
     1
102
RTVSPost2010Prop38
140
0.0
102
RTVSPost2010PropOp38
 70
     1
102
RTVSPost2010Prop39
140
1.0
102
RTVSPost2010PropOp39
 70
     1
102
RTVSPost2010Prop40
 90
        0
102
RTVSPost2010PropOp40
 70
     1
102
RTVSPost2010Prop41ColorIndex
 90
       18
102
RTVSPost2010Prop41ColorRGB
 90
        0
102
RTVSPost2010PropOp41
 70
     1
102
RTVSPost2010Prop42
 90
       50
102
RTVSPost2010PropOp42
 70
     1
102
RTVSPost2010Prop43
 90
        3
102
RTVSPost2010PropOp43
 70
     1
102
RTVSPost2010Prop44ColorIndex
 90
        5
102
RTVSPost2010Prop44ColorRGB
 90
      255
102
RTVSPost2010PropOp44
 70
     1
102
RTVSPost2010Prop45
280
     0
102
RTVSPost2010PropOp45
 70
     1
102
RTVSPost2010Prop46
 90
       50
102
RTVSPost2010PropOp46
 70
     1
102
RTVSPost2010Prop47
 90
       50
102
RTVSPost2010PropOp47
 70
     1
102
RTVSPost2010Prop48
 90
       50
102
RTVSPost2010PropOp48
 70
     1
102
RTVSPost2010Prop49
280
     0
102
RTVSPost2010PropOp49
 70
     1
102
RTVSPost2010Prop50
 90
       50
102
RTVSPost2010PropOp50
 70
     1
102
RTVSPost2010Prop51ColorIndex
 90
      256
102
RTVSPost2010Prop51ColorRGB
 90
-16777216
102
RTVSPost2010PropOp51
 70
     0
102
RTVSPost2010Prop52
140
1.0
102
RTVSPost2010PropOp52
 70
     0
102
RTVSPost2010Prop53
 90
        2
102
RTVSPost2010PropOp53
 70
     1
102
RTVSPost2010Prop54
  1
strokes_ogs.tif
102
RTVSPost2010PropOp54
 70
     1
102
RTVSPost2010Prop55
280
     0
102
RTVSPost2010PropOp55
 70
     1
102
RTVSPost2010Prop56
140
1.0
102
RTVSPost2010PropOp56
 70
     1
102
RTVSPost2010Prop57
140
1.0
102
RTVSPost2010PropOp57
 70
     1
  0
XRECORD
  5
BFD1
102
{ACAD_REACTORS
330
BFD0
102
}
330
BFD0
100
AcDbXrecord
280
     1
102
RTVSPropertyOp0
 70
     1
102
RTVSPropertyOp1
 70
     1
102
RTVSPropertyOp2
 70
     1
102
RTVSPropertyOp3
 70
     1
102
RTVSPropertyOp4
 70
     1
102
RTVSPropertyOp5
 70
     1
102
RTVSPropertyOp6
 70
     1
102
RTVSPropertyOp7
 70
     1
102
RTVSPropertyOp8
 70
     1
102
RTVSPropertyOp9
 70
     1
102
RTVSPropertyOp10
 70
     1
102
RTVSPropertyOp11
 70
     1
102
RTVSPropertyOp12
 70
     1
102
RTVSPropertyOp13
 70
     1
102
RTVSPropertyOp14
 70
     1
102
RTVSPropertyOp15
 70
     1
102
RTVSPropertyOp16
 70
     1
102
RTVSPropertyOp17
 70
     1
102
RTVSPropertyOp18
 70
     1
102
RTVSPropertyOp19
 70
     1
102
RTVSPropertyOp20
 70
     1
102
RTVSPropertyOp21
 70
     1
102
RTVSPropertyOp22
 70
     1
102
RTVSPropertyOp23
 70
     1
102
RTVSPropertyOp24
 70
     1
102
RTVSPropertyOp25
 70
     1
102
RTVSPropertyOp26
 70
     1
102
RTVSPropertyOp27
 70
     1
102
RTVSPropertyOp28
 70
     1
102
RTVSPropertyOp29
 70
     1
102
RTVSPropertyOp30
 70
     1
102
RTVSPropertyOp31
 70
     1
102
RTVSPropertyOp32
 70
     1
102
RTVSPropertyOp33
 70
     1
102
RTVSPropertyOp34
 70
     1
102
RTVSPropertyOp35
 70
     1
102
RTVSPropertyOp36
 70
     1
102
RTVSPropertyOp37
 70
     1
102
RTVSPropertyOp38
 70
     1
102
RTVSPropertyOp39
 70
     1
102
RTVSPropertyOp40
 70
     1
102
RTVSPropertyOp41
 70
     1
102
RTVSPropertyOp42
 70
     1
102
RTVSPropertyOp43
 70
     1
102
RTVSPropertyOp44
 70
     1
102
RTVSPropertyOp45
 70
     1
102
RTVSPropertyOp46
 70
     1
102
RTVSPropertyOp47
 70
     1
102
RTVSPropertyOp48
 70
     1
102
RTVSPropertyOp49
 70
     1
102
RTVSPropertyOp50
 70
     1
102
RTVSPropertyOp51
 70
     0
102
RTVSPropertyOp52
 70
     0
102
RTVSPropertyOp53
 70
     1
102
RTVSPropertyOp54
 70
     1
102
RTVSPropertyOp55
 70
     1
102
RTVSPropertyOp56
 70
     1
102
RTVSPropertyOp57
 70
     1
102
RTVSPost2010Prop28
280
     0
102
RTVSPost2010PropOp28
 70
     1
102
RTVSPost2010Prop29
280
     1
102
RTVSPost2010PropOp29
 70
     1
102
RTVSPost2010Prop30
280
     1
102
RTVSPost2010PropOp30
 70
     1
102
RTVSPost2010Prop31
280
     0
102
RTVSPost2010PropOp31
 70
     1
102
RTVSPost2010Prop32
280
     0
102
RTVSPost2010PropOp32
 70
     1
102
RTVSPost2010Prop33
280
     0
102
RTVSPost2010PropOp33
 70
     1
102
RTVSPost2010Prop34
280
     0
102
RTVSPost2010PropOp34
 70
     1
102
RTVSPost2010Prop35
280
     0
102
RTVSPost2010PropOp35
 70
     1
102
RTVSPost2010Prop36
280
     0
102
RTVSPost2010PropOp36
 70
     1
102
RTVSPost2010Prop37
 90
       50
102
RTVSPost2010PropOp37
 70
     1
102
RTVSPost2010Prop38
140
0.0
102
RTVSPost2010PropOp38
 70
     1
102
RTVSPost2010Prop39
140
1.0
102
RTVSPost2010PropOp39
 70
     1
102
RTVSPost2010Prop40
 90
        0
102
RTVSPost2010PropOp40
 70
     1
102
RTVSPost2010Prop41ColorIndex
 90
       18
102
RTVSPost2010Prop41ColorRGB
 90
        0
102
RTVSPost2010PropOp41
 70
     1
102
RTVSPost2010Prop42
 90
       50
102
RTVSPost2010PropOp42
 70
     1
102
RTVSPost2010Prop43
 90
        3
102
RTVSPost2010PropOp43
 70
     1
102
RTVSPost2010Prop44ColorIndex
 90
        5
102
RTVSPost2010Prop44ColorRGB
 90
      255
102
RTVSPost2010PropOp44
 70
     1
102
RTVSPost2010Prop45
280
     0
102
RTVSPost2010PropOp45
 70
     1
102
RTVSPost2010Prop46
 90
       50
102
RTVSPost2010PropOp46
 70
     1
102
RTVSPost2010Prop47
 90
       50
102
RTVSPost2010PropOp47
 70
     1
102
RTVSPost2010Prop48
 90
       50
102
RTVSPost2010PropOp48
 70
     1
102
RTVSPost2010Prop49
280
     0
102
RTVSPost2010PropOp49
 70
     1
102
RTVSPost2010Prop50
 90
       50
102
RTVSPost2010PropOp50
 70
     1
102
RTVSPost2010Prop51ColorIndex
 90
      256
102
RTVSPost2010Prop51ColorRGB
 90
-16777216
102
RTVSPost2010PropOp51
 70
     0
102
RTVSPost2010Prop52
140
1.0
102
RTVSPost2010PropOp52
 70
     0
102
RTVSPost2010Prop53
 90
        2
102
RTVSPost2010PropOp53
 70
     1
102
RTVSPost2010Prop54
  1
strokes_ogs.tif
102
RTVSPost2010PropOp54
 70
     1
102
RTVSPost2010Prop55
280
     0
102
RTVSPost2010PropOp55
 70
     1
102
RTVSPost2010Prop56
140
1.0
102
RTVSPost2010PropOp56
 70
     1
102
RTVSPost2010Prop57
140
1.0
102
RTVSPost2010PropOp57
 70
     1
  0
ENDSEC
  0
SECTION
  2
THUMBNAILIMAGE
 90
    16364
310
28000000B4000000550000000100080000000000C43B000000000000000000000001000000010000000000000000FF0000FFFF0000FF0000FFFF0000FF000000FF00FF00FFFFFF0080808000C0C0C0000000FF007F7FFF000000CC006666CC00000099004C4C990000007F003F3F7F0000004C0026264C00003FFF007F9FFF
310
000033CC00667FCC00002699004C5F9900001F7F003F4F7F0000134C00262F4C00007FFF007FBFFF000066CC006699CC00004C99004C729900003F7F003F5F7F0000264C0026394C0000BFFF007FDFFF000099CC0066B2CC00007299004C859900005F7F003F6F7F0000394C0026424C0000FFFF007FFFFF0000CCCC0066CC
310
CC00009999004C999900007F7F003F7F7F00004C4C00264C4C0000FFBF007FFFDF0000CC990066CCB200009972004C998500007F5F003F7F6F00004C3900264C420000FF7F007FFFBF0000CC660066CC990000994C004C997200007F3F003F7F5F00004C2600264C390000FF3F007FFF9F0000CC330066CC7F00009926004C
310
995F00007F1F003F7F4F00004C1300264C2F0000FF00007FFF7F0000CC000066CC6600009900004C994C00007F00003F7F3F00004C0000264C26003FFF00009FFF7F0033CC00007FCC6600269900005F994C001F7F00004F7F3F00134C00002F4C26007FFF0000BFFF7F0066CC000099CC66004C99000072994C003F7F0000
310
5F7F3F00264C0000394C2600BFFF0000DFFF7F0099CC0000B2CC66007299000085994C005F7F00006F7F3F00394C0000424C2600FFFF0000FFFF7F00CCCC0000CCCC66009999000099994C007F7F00007F7F3F004C4C00004C4C2600FFBF0000FFDF7F00CC990000CCB266009972000099854C007F5F00007F6F3F004C3900
310
004C422600FF7F0000FFBF7F00CC660000CC996600994C000099724C007F3F00007F5F3F004C2600004C392600FF3F0000FF9F7F00CC330000CC7F660099260000995F4C007F1F00007F4F3F004C1300004C2F2600FF000000FF7F7F00CC000000CC66660099000000994C4C007F0000007F3F3F004C0000004C262600FF00
310
3F00FF7F9F00CC003300CC667F0099002600994C5F007F001F007F3F4F004C0013004C262F00FF007F00FF7FBF00CC006600CC66990099004C00994C72007F003F007F3F5F004C0026004C263900FF00BF00FF7FDF00CC009900CC66B20099007200994C85007F005F007F3F6F004C0039004C264200FF00FF00FF7FFF00CC
310
00CC00CC66CC0099009900994C99007F007F007F3F7F004C004C004C264C00BF00FF00DF7FFF009900CC00B266CC0072009900854C99005F007F006F3F7F0039004C0042264C007F00FF00BF7FFF006600CC009966CC004C009900724C99003F007F005F3F7F0026004C0039264C003F00FF009F7FFF003300CC007F66CC00
310
260099005F4C99001F007F004F3F7F0013004C002F264C00333333005B5B5B0084848400ADADAD00D6D6D600FFFFFF0000000000000000000000000000000000000000000000000000000000000005000000000000000000000000000000000000000000000000000000000000000000000000000000000000000000000000
310
00000000000000000000000000000000000000000000000000000000000000000000000000000000000000000000000000000000000000000000000000000000000000000000000500000000000000000000000000000000000000000000000000000000000000000000000000000000000000000000000000000000000000
310
00000000050000000000000000000000000000000000000000000000000000000000000000000000000000000000000000000000000000000000000000000000000000000000000000000000000000000000000000000000000000000000000000000000000000000000000000000000000000000000000000000000050000
310
00000000000000000000000000000000000000000000000000000000000000000000000000000000000000000000000000000000000000000005000000070707070707070707070707070707070707070707070707070707070707070707070707070707070707070707070707070707070707070707070707070707070707
310
07070707070707070707070707070707070707070707070707070707070707070707070707070707070707070707070000000500000000000000000000000000000000000000000000000000000000000000000000000000000000000000000000000000000000000000000000000500000007000000000000000000000000
310
00000000000000000000000000000000000000000000000000000000000000000000000000000000000000000000000000000000000000000000000000000000000000000000000000000000000000000000000000000000000000000000000000000007000000050000000000000000000000000000000000000000000000
310
00000000000000000000000000000000000000000000000000000000000000000000000005000000070000000000000000000000000000000000000000000000000000000000000000000000000000000000000000000000000000000000000000000000000000000000000000000000000000000000000000000000000000
310
00000000000000000000000000000000000000000000000000070000000500000000000000000000000000000000000000000000000000000000000000000000000000000000000000000000000000000000000000000000000500000007000000000000000000000000000000000000000000000000000000000000000000
310
00000000000000000000000000000000000000000000000000000000000000000000000000000000000000000000000000000000000000000000000000000000000000000000000000000000000007000000050000000000000000000000000000000000000000000000000000000000000000000000000000000000000000
310
00000000000000000000000000000005000000070000000000000000000000000000000000000000000000000000000000000000000000000000000000000000000000000000000000000000000000000000000000000000000000000000000000000000000000000000000000000000000000000000000000000000000000
310
00000000070000000500000000000000000000000000000000000000000000000000000000000000000000000000000000000000000000000000000000000000000000000500000007000000000000000000000000000000000000000000000000000000000000000000000000000000000000000000000000000000000000
310
00000000000000000000000000000000000000000000000000000000000000000000000000000000000000000000000000000000000000000007000000050000000000000000000000000000000000000000000000000000000000000000000000000000000000000000000000000000000000000000000000050000000700
310
00000000000000000000000000000000000000000000000000000000000000000000000000000000000000000000000000000000000000000000000000000000000000000000000000000000000000000000000000000000000000000000000000000000000000000000000000000700000005000000000000000000000000
310
00000000000000000000000000000000000000000000000000000000000000000000000000000000000000000000000500000007000000000000000000000000000000000000000000000000000000000000000000000000000000000000000000000000000000000000000000000000000000000000000000000000000000
310
00000000000000000000000000000000000000000000000000000000000000000000000007000000050000000000000000000000000000000000000000000000000000000000000000000000000000000000000000000000000000000000000000000000050000000700000000000000000000000000000000000000000000
310
00000000000000000000000000000000000000000000000000000000000000000000000000000000000000000000000000000000000000000000000000000000000000000000000000000000000000000000000000000000000700000005000000000000000000000000000000000000000000000000000000000000000000
310
00000000000000000000000000000000000000000000000000000500000007000000000000000000000000000000000000000000000000000000000000000000000000000000000000000000000000000000000000000000000000000000000000000000000000000000000000000000000000000000000000000000000000
310
00000000000000000000000000000007000000050000000000000000000000000000000000000000000000000000000000000000000000000000000000000000000000000000000000000000000000050000000700000000000000000000000000000000000000000000000000000000000000000000000000000000000000
310
00000000000000000000000000000000000000000000000303030303030303030303030303030303030300000000000000000000000000000000000000000000000000000700000005000000000000000000000000000000000000000000000000000000000000000000000000000000000000000000000000000000000000
310
00000000000500000007000000000000000000000000000000000000000000000000000000000002020202020000000000000000000000000000000000000000000000000000000000000000030000000000000000020200000000000000030000000000000000000000000000000000000000000000000000070000000500
310
00000000000000000000000000000000000000000000000000000000000000000000000000000000000000000000000000000000000000000000050000000700000000000000000000000000000000000000000000000000000000000202020202000000000000000000000000000000000000000000000000000000000000
310
00000300000000000000000202000000000000000300000000000000000000000000000000000000000000000000000700000005000000000000000000000000000000000000000000000000000000000000000000000000000000000000000000000000000000000000000000000005000000070000000000000000000000
310
00000000000000000000000000000000000000000000000000000000000000000000000000000000000000000000000000000000000000030000000000000000000000000000000000030000000000000000000000000000000000000000000000000000070000000500000000000000000000000000000000000000000000
310
00000000000000000000000000000000000000000000000000000000000000000000000000050000000700000000000000000000000000000000000000000000000000000000000000000000000000000000000000000000000000000000000000000000000000000007070707070707000000000000000000000000000003
310
00000000000000000000000000000000000000000000000000000700000005000000000000000000000000000000000000000000000000000000000000000000000000000000000000000000000000000000000000000000000005000000070000000000000000000000000000000000000000000000000000000000000004
310
00000000000000000000000000000000000000000000000000000000000707000000040000000707000000000000000000000000030000000000000000000000000000000000000000000000000000070000000500000000000000000000000000000000000000000000000000000000000000000000000000000000000000
310
00000000000000000000000000000000050000000700000000000000000000000000000000000000020202030000000000070707070707010000000000000000000000000000000000000000000000000007000007070707070700000707000000000000000000000003000000000000000000000000000000000000000000
310
00000000000700000005000000000000000000000000000000000000000000000000000000000000000000000000000000000000000000000000000000000000000000000005000000070000000000000000000000000000000000000002020200030300000701000104010107070000000000000000000000000000000000
310
00000000000007070007070707070707070700070700000000000000000000030003030303000000000000000000000000000000000000000000070000000500000000000000000000000000000000000000000000000000000000000000000000000000000000000000000000000000000000000000000000000500000007
310
00000000000000000000000000000000000000000000000000030701000101040100010007000000000000000000000000000000000000000000000700070000070004000700000700070000000000000000000003030202020200000000000000000000000000000000000000000007000000050000000000000000000000
310
00000000000000000000000000000000000000000000000000000000000000000000000000000000000000000000000005000000070000000000000000000000000000000000000000000000000003010001010104000100010007000000000000000000000000000000000000000007000707000007000400070707070700
310
07000000000000000000030000020200000000000000000000000000000000000000000000070000000500000000000000000000000000000000000000000000000000000000000000000000000000000000000000000000000000000000000000000000000500000007000000000000000000000000000000000000000000
310
00000000070303010101040101010001070100000000000000000000000000000000000000070007000000070004000707070007000707070707070707070303000000000000000000000000000000000000000000000000000007000000050000000000000000000000000000000000000000000000000000000000000000
310
00000000000000000000000000000000000000000000000000000005000000070000000000000000000000000000000000000000000000040700010103010004010101010101070400000000000000000000000000000000000700070202020202020202020202020207070700000000000000070300000000000000000000
310
00000000000000000000000000000000070000000500000000000000000000000000000000000000000000000000000000000000000000000000000000000000000000000000000000000000000000000500000007000000000000000000000000000000000000000000000703030101010103030401010001010107070000
310
00000000000000000000000000000007000200000000070004000707070702070707000000000000000003000000000000000000000000000000000000000000000000000007000000050000000000000000000000000000000000000000000000000000000000000000000000000000000000000000000000000000000000
310
00000000000005000000070000000000000000000000000000000000000000000403030304040404040403040404040404070704000000000000000000000000000000030704020404040407040404070704070207040704040404040304040303000000000000000000000000000000000000000000000000000700000005
310
00000000000000000000000000000000000000000000000000000000000000000000000000000000000000000000000000000000000000000000000500000007000000000000000000000000000000000000000000030303070101000101010403030101010007030000000000000000000000000000000000070002000000
310
00070004000700070702070007000000000003000007000000000000000000000000000000000000000000000000000007000000050000000000000000000000000000000000000000000000000000000000000000000000000000000000000000000000000000000000000000000000050000000700000000000000000000
310
00000000000000030303030000030701000101010104010103010001070300000000000000000000000000000000000700070202020202020202020202020207070700000000030000070000000000000000000000000000000000000000000000000000000700000005000000000000000000000000000000000000000000
310
00000000000000000000000000000000000000000000000000000000000000000000000000000500000007000000000000000000000000000000000002020200000003070001000101000401010103030107030000000000000000000000000000000000070000070000000700040007000000070007070707070703070700
310
00000000000000000000000000000000000000000000000000000007000000050000000000000000000000000000000000000000000000000000000000000000000000000000000000000000000000000000000000000000000000050000000700000000000000000000000000000000000202020000000300070001000101
310
04010100010303000300000000000000000000000000000000000007000700000007000400070000000700070000000000030000000000000000000000000000000000000000000000000000000000000700000005000000000000000000000000000000000000000000000000000000000000000000000000000000000000
310
00000000000000000000000000000000000500000007000000000000000000000000000000000000000000000003000007000100010401000107070303030000000000000000000000000000000000000707000707000700040007000707000707000000000003000000000000000000000000000000000000000000000000
310
00000000000007000000050000000000000000000000000000000000000000000000000000000000000000000000000000000000000000000000000000000000000000000000050000000700000000000000000000000000000000000000000000000300000007070101040001070000000003000000000000000000000000
310
00000000000000070000070707070707070700000707000000000000030000000000000000000000000000000000000000000000000000000000000700000005000000000000000000000000000000000000000000000000000000000000000000000000000000000000000000000000000000000000000000000005000000
310
07000000000000000000000000000000000000000000000003000000000107070707070000000000030000000000000000000000000000000000000000070700000707070707000007070000000000000300000000000000000000000000000000000000000000000000000000000000070000000500000000000000000000
310
00000000000000000000000000000000000000000000000000000000000000000000000000000000000000000000000000050000000700000000000000000000000000000000000000000000000300000000000000040000000000000003000000000000000000000000000000000000000000000707070704070707070000
310
00000000000300000000000000000000000000000000000000000000000000000000000000000700000005000000000000000000000000000000000000000000000000000000000000000000000000000000000000000000000000000000000000000000000005000000070000000000000000000000000000000000000000
310
00000003000000000000000000000000000000030000000000000000000000000000000000000000000000020707070707020000000000000003000000000000000000000000000000000000000000000000000000000000000000070000000500000000000000000000000000000000000000000000000000000000000000
310
00000000000000000000000000000000000000000000000000000000050000000700000000000000000000000000000000000000000000000300000000000000000000000000000003000000000000000000000000000000000000000000000002000004000002000000000000030000000000000000000000000000000000
310
00000000000000000000000000000000000700000005000000000000000000000000000000000000000000000000000000000000000000000000000000000000000000000000000000000000000000000005000000070000000000000000000000000000000000000000000000030303030303030202030303030303030300
310
00000000000000000000000000000000000000000000020000040000020000000000030202020000000000000000000000000000000000000000000000000000000000000000070000000500000000000000000000000000000000000000000000000000000000000000000000000000000000000000000000000000000000
310
00000000000000050000000700000000000000000000000000000000000000000000000000000000000002020000000000000000000000000000000000000000000000000000000000000002000004000002000000000300000200000000000000000000000000000000000000000000000000000000000000000007000000
310
05000000000000000000000000000000000000000000000000000000000000000000000000000000000000000000000000000000000000000000000005000000070000000000000000000000000000000000000000000000000000000000000000000000000000000000000000000000000000000000000000000000000000
310
00020000040000020000000300000000000000000000000000000000000000000000000000000000000000000000000000070000000500000000000000000000000000000000000000000000000000000000000000000000000000000000000000000000000000000000000000000000000500000007000000000000000000
310
00000000000000000000000000000000000000000000000000000000000000000000000000000000000000000000000000000000000002000004000303030303000000000000000000000000000000000000000000000000000000000000000000000000000007000000050000000000000000000000000000000000000000
310
00000000000000000000000000000000000000000000000000000000000000000000000000000005000000070000000000000000000000000000000000000000000000000000000000000000000000000000000000000000000000000000000000000000000000000000000200000303000200000000000000000000000000
310
00000000000000000000000000000000000000000000000000000000070000000500000000000000000000000000000000000000000000000000000000000000000000000000000000000000000000000000000000000000000000000500000007000000000000000000000000000000000000000000000000000000000000
310
00000000000000000000000000000000000000000000000000000000000000000002000004000002000000000000000000000000000000000000000000000000000000000000000000000000000000000007000000050000000000000000000000000000000000000000000000000000000000000000000000000000000000
310
00000000000000000000000000000000000005000000070000000000000000000000000000000000000000000000000000000000000000000000000000000000000000000000000000000000000000000000000000000202000400020200000000000000000000000000000000000000000000000000000000000000000000
310
00000000000000070000000500000000000000000000000000000000000000000000000000000000000000000000000000000000000000000000000000000000000000000000000500000007000000000000000000000000000000000000000000000000000000000000000000000000000000000000000000000000000000
310
00000000000000000000000000030202020200000000000000000000000000000000000000000000000000000000000000000000000000000000000007000000050000000000000000000000000000000000000000000000000000000000000000000000000000000000000000000000000000000000000000000000050000
310
00070000000000000000000000000000000000000000000000000000000000000000000000000000000000000000000000000000000000000000000000030303030300000300000000000000000000000000000000000000000000000000000000000000000000000000000000000000000700000005000000000000000000
310
00000000000000000000000000000000000000000000000000000000000000000000000000000000000000000000000000000500000007000000000000000000000000000000000000000000000000000000000000000000000000000000000000000000000000000000000000000000000002020202000000000000000000
310
00000000000000000000000000000000000000000000000000000000000000000000000000000007000000050000000000000000000000000000000000000000000000000000000000000000000000000000000000000000000000000000000000000000000000050000000700000000000000000000000000000000000000
310
00000000000000000000000000000000000000000000000000000000000000000000000000000000000202020000000000000000000000000000000000000000000000000000000000000000000000000000000000000000000000000700000005000000000000000000000000000000000000000000000000000000000000
310
00000000000000000000000000000000000000000000000000000000000500000007000000000000000000000000000000000000000000000000000000000000000000000000000000000000000000000000000000000000000000000000000000000000000000000000000000000000000000000000000000000000000000
310
00000000000000000000000000000000000007000000050000000000000000000000000000000000000000000000000000000000000000000000000000000000000000000000000000000000000000000000050000000700000000000000000000000000000000000000000000000000000000000000000000000000000000
310
00000000000000000000000000000000000000000000000000000000000000000000000000000000000000000000000000000000000000000000000000000000000000000000000700000005000000000000000000000000000000000000000000000000000000000000000000000000000000000000000000000000000000
310
00000000000000000500000007000000000000000000000000000000000000000000000000000000000000000000000000000000000000000000000000000000000000000000000000000000000000000000000000000000000000000000000000000000000000000000000000000000000000000000000000000000070000
310
00050000000000000000000000000000000000000000000000000000000000000000000000000000000000000000000000000000000000000000000000050000000700000000000000000000000000000000000000000000000000000000000000000000000000000000000000000000000000000000000000000000000000
310
00000000000000000000000000000000000000000000000000000000000000000000000000000000000000000000000000000700000005000000000000000000000000000000000000000000000000000000000000000000000000000000000000000000000000000000000000000000000005000000070000000000000000
310
00000000000000000000000000000000000000000000000000000000000000000000000000000000000000000000000000000000000000000000000000000000000000000000000000000000000000000000000000000000000000000000000000000000000000070000000500000000000000000000000000000000000000
310
00000000000000000000000000000000000000000000000000000000000000000000000000000000050000000700000000000000000000000000000000000000000000000000000000000000000000000000000000000000000000000000000000000000000000000000000000000000000000000000000000000000000000
310
00000000000000000000000000000000000000000000000000000000000700000005000000000000000000000000000000000000000000000000000000000000000000000000000000000000000000000000000000000000000000000005000000070000000000000000000000000000000000000000000000000000000000
310
00000000000000000000000000000000000000000000000000000000030303030303030303030303030303030303030000000000000000000000000000000003030303030303030303030000000000000000070000000500000000000000000000000000000000000000000000000000000000000000000000000000000000
310
00000000000000000000000000000000000000050000000700000000000000000000000000000000000000000000000000000000000000000000000000000000000000000000000000000000000000000003000000000000000202000000000000000003000000000000000000000202030000030000020202020202020202
310
00000000000000000700000005000000000000000000000000000000000000000000000000000000000000000000000000000000000000000000000000000000000000000000000005000000070000000000000000000000000000000000000000000000000000000000000000000000000000000000000000000000000000
310
00000000000000030000000000000002020000000000000000030000000000000000000002020300000300020202020202020202020000000000000000070000000500000000000000000000000000000000000000000000000000000000000000000000000000000000000000000000000000000000000000000000000500
310
00000707070707070707070707070707070707070707070707070707070707070707070000000000000000000000000000000000000000000000000003070707070707070707070707070707070303030303030303030303030203030003000002020202020202020202000000000000000007000000050000000000000000
310
00000000000000000000000000000000000000000000000000000000000000000000000000000000000000000000000000000005000000070000000001000202020200000000000000000000000000000000000000000007000000000000000000000000000000000000000000000000000304070707070707070707070707
310
07070704030000000000020202020202000303000000000000000000000000000000000000000000070000000500000000000000000000000000000000000000000000000000000000000000000000000000000000000000000000000000000000000000000000000500000007000000000100020202020000000000000000
310
00000000000000000000000000070000000000000000000000000000000000000002020202020207070707070707070707070707070707070702020202020303030303030303030303030000000000000000000000000000000000000007000000050000000000000000000000000000000000000000000000000000000000
310
00000000000000000000000000000000000000000000000000000000000005000000070002020001000202020202020202020202020202020202000000000000000007000000000000000000000000000000000000000202020202020707070202020202020202020202020202020202020202020202000000000203000003
310
00000000000000000000000000000000000000070000000500000000000000000000000000000000000000000000000000000000000000000000000000000000000000000000000000000000000000000000000500000007000202000100020202020202020202020202020202020200000000000000000700000000000000
310
00000000000000000000000000000000000007070700000000000004000000000000070707000000000202020000000202030000030000000000000000000000000000000000000007000000050000000000000000000000000000000000000000000000000000000000000000000000000000000000000000000000000000
310
00000000000000000005000000070000000001000202020202020202020202020202020200000000000000000007000000000000000000000000000000000000000000000000000003030707070707070707070707070703030000000000020202000000020203020203000000000000000000000000000000000000000700
310
00000500000000000000000000000000000000000000000000000000000000000000000000000000000000000000000000000000000000000000000000000500000007000000000100020202020202020202020202020202020200000000000000000700000000000000000000000000000000000000000000000000000303
310
00000007070707070707070707030307070707070707070703030303030202030000000000000000000000000000000000000007000000050000000000000000000000000000000000000000000000000000000000000000000000000000000000000000000000000000000000000000000000050000000101010101010101
310
01010101010101010101010101010101010101010101010101000000000000000000000000000000000000000000000000000003030000000707070707070707070703030707070707070707070303030303020203000000000000000000000000000000000000000700000005000000000000000000000000000000000000
310
00000000000000000000000000000000000000000000000000000000000000000000000000000000000500000007000000000100020202020202020202020200000000000000000000000000000700000000000000000000000000000000000000000000000000000303000000000707070707000000000303000000000000
310
00000000000000030000030000000000000000000000000000000000000007000000050000000000000000000000000000000000000000000000000000000000000000000000000000000000000000000000000000000000000000000000050000000702020202010002020202020200020202000000000000000000000000
310
00000007000000000000000000000000000000000000000000000000000003030000000007070703030303030303030303030303030303030303030303030303000000000000000000000000000000000000000700000005000000000000000000000000000000000000000000000000000000000000000000000000000000
310
00000000000000000000000000000000000000000500000007020002020100020202020202020202020202020000000000000000000000000700000000000000000000000000000000000000000000000000000303000000000000040000000000000303000000000000000000000002020300000000000000000000000000
310
00000000000000000007000000050000000000000000000000000000000000000000000000000000000000000000000000000000000000000000000000000000000000000000000000050000000700000000010002020202020202020202020202000000000000000000000000070000000000000000000000000000000000
310
00000000000000000003030000000000000000000000000003030000000000000000000000020203000000000000000000000000000000000000000000000700000005000000000000000000000000000000000000000000000000000000000000000000000000000000000000000000000000000000000000000000000005
310
00000001010101010101020202020202020202010101010101010101010101010101010700000000000000000000000000000000000000000000000000000303000000000000000000000000000303000000000000000000000000000300000000000000000000000000000000000000000000070000000500000000000000
310
00000000000000000000000000000000000000000000000000000000000000000000000000000000000000000000000000000000050000000700020200010002020202020202020202000000000000000000000000000000070000000000000000000000000000000000000000000000000000030303030303030202020303
310
03030303030000000000000000000000000000000000000000000000000000000000000000000000000700000005000000000000000000000000000000000000000000000000000000000000000000000000000000000000000000000000000000000000000000000005000000070002020201000000000000000000000000
310
00000000000000000000000000000700000000000000000000000000000000000000000000000000000300000000000002020200000000000003000000000000000000000000000000000000000000000000000000000000000000000000070000000500000000000000000000000000000000000000000000000000000000
310
00000000000000000000000000000000000000000000000000000000000000050000000700000000010002020002020202020202020200000000000000000000000000070000000000000000000000000000000000000000000000000000030303030303030303030303030303030300000000000000000000000000000000
310
00000000000000000000000000000000000000000700000005000000000000000000000000000000000000000000000000000000000000000000000000000000000000000000000000000000000000000000000005000000010101010101010101010101010101010101010101010101010101010101010107000000000000
310
00000000000000000000000000000000000000000300000000000002020000000000000003000000000000000000000000000000000000000000000000000000000000000000000000070000000500000000000000000000000000000000000000000000000000000000000000000000000000000000000000000000000000
310
00000000000000000000050000000700000000010002020202020202000000000000000000000000000000000000070000000000000000000000000000000000000000000000000000000000000000000202000000000000000000000000000000000000000000000000000000000000000000000000000000000000000007
310
00000005000000000000000000000000000000000000000000000000000000000000000000000000000000000000000000000000000000000000000000000005000000070002020001000202020002020200000000000000000000000000000000000007000000000000000000000000000000000000000000000000000000
310
00000000000000000000000000000000000000000000000000000000000000000000000000000000000000000000000000000000070000000500000000000000000000000000000000000000000000000000000000000000000000000000000000000000000000000000000000000000000000000500000007000202000100
310
02020002020202020202000000000000000000000000000000070000000000000000000000000000000000000000000000000000000000000000000000000000000000000000000000000000000000000000000000000000000000000000000000000000000000000007000000050000000000000000000000000000000000
310
00000000000000000000000000000000000000000000000000000000000000000000000000000000000005000000070000000001000202000202020202020200000000000000000000000000000007000000000000000000000000000000000000000000000000000000000000000000000000000000000000000000000000
310
00000000000000000000000000000000000000000000000000000000000000070000000500000000000000000000000000000000000000000000000000000000000000000000000000000000000000000000000000000000000000000000000500000001010202010101020202020202020202010101010101010101010101
310
01010101070000000000000000000000000000000000000000000000000000000000000000000000000000000000000000000000000000000000000000000000000000000000000000000000000000000000000007000000050000000000000000000000000000000000000000000000000000000000000000000000000000
310
00000000000000000000000000000000000000000005000000070002020001000202020202020202020200000000000000000000000000000007000000000000000000000000000000000000000000000000000000000000000000000000000000000000000000000000000000000000000000000000000000000000000000
310
00000000000000000000070000000500000000000000000000000000000000000000000000000000000000000000000000000000000000000000000000000000000000000000000000000500000001010101010101010101010101010102010101010101010101010101010101010700000000000000000000000000000000
310
00000000000000000000000000000000000000000000000000000000000000000000000000000000000000000000000000000000000000000000000000000007000000050000000000000000000000000000000000000000000000000000000000000000000000000000000000000000000000000000000000000000000000
310
05000000070002020001000202020202020202020202020202020202000000000000000007000000000000000000000000000000000000000000000000000000000000000000000000000000000000000000000000000000000000000000000000000000000000000000000000000000000000000700000005000000000000
310
00000000000000000000000000000000000000000000000000000000000000000000000000000000000000000000000000000000000500000007070702070707020207020702020202020207020702020707070707070707070707070707070707070707070707070707070707070707070707070707070707070707070707
310
07070707070707070707070707070707070707070707070707070707070707070707070707070707070707000000050000000000000000000000000000000000000000000000000000000000000000000000000000000000000000000000000000000000000000000000050000000000000000000000000000000000000000
310
00000000000000000000000000000000000000000000000000000000000000000000000000000000000000000000000000000000000000000000000000000000000000000000000000000000000000000000000000000000000000000000000000000005000000000000000000000000000000000000000000000000000000
310
00000000000000000000000000000000000000000000000000000000000000000500000000000000000000000000000000000000000000000000000000000000000000000000000000000000000000000000000000000000000000000000000000000000000000000000000000000000000000000000000000000000000000
310
00000000000000000000000000000000000000000000000000050000000000000000000000000000000000000000000000000000000000000000000000000000000000000000000000000000000000000000000000050505050505050505050505050505050505050505050505050505050505050505050505050505050505
310
050505050505050505050505050505050505050505050505050505050505050505050505050505050505050505050505050505050505050505050505050505050505050505050505050505050505050000000000000000000000000000000000000000000000000000000000
  0
ENDSEC
  0
EOF
