  0
SECTION
  2
HEADER
  9
$ACADVER
  1
AC1009
  9
$INSBASE
 10
0.0
 20
0.0
 30
0.0
  9
$EXTMIN
 10
-211.01162631019429
 20
-100.0083306632102
 30
-0.0015258207003583
  9
$EXTMAX
 10
170.01162808436399
 20
173.00833193446539
 30
0.0000000349246037
  9
$LIMMIN
 10
-211.0
 20
-100.0
  9
$LIMMAX
 10
170.0
 20
173.0
  9
$ORTHOMODE
 70
     0
  9
$REGENMODE
 70
     1
  9
$FILLMODE
 70
     1
  9
$QTEXTMODE
 70
     0
  9
$MIRRTEXT
 70
     1
  9
$DRAGMODE
 70
     2
  9
$LTSCALE
 40
1.0
  9
$OSMODE
 70
   165
  9
$ATTMODE
 70
     1
  9
$TEXTSIZE
 40
0.2
  9
$TRACEWID
 40
0.05
  9
$TEXTSTYLE
  7
STANDARD
  9
$CLAYER
  8
0
  9
$CELTYPE
  6
CONTINUOUS
  9
$CECOLOR
 62
   256
  9
$DIMSCALE
 40
1.0
  9
$DIMASZ
 40
1.0
  9
$DIMEXO
 40
2.54
  9
$DIMDLI
 40
0.38
  9
$DIMRND
 40
0.0
  9
$DIMDLE
 40
0.0
  9
$DIMEXE
 40
2.54
  9
$DIMTP
 40
0.0
  9
$DIMTM
 40
0.0
  9
$DIMTXT
 40
3.2000000000000002
  9
$DIMCEN
 40
0.09
  9
$DIMTSZ
 40
0.0
  9
$DIMTOL
 70
     0
  9
$DIMLIM
 70
     0
  9
$DIMTIH
 70
     0
  9
$DIMTOH
 70
     0
  9
$DIMSE1
 70
     0
  9
$DIMSE2
 70
     0
  9
$DIMTAD
 70
     1
  9
$DIMZIN
 70
     0
  9
$DIMBLK
  1

  9
$DIMASO
 70
     1
  9
$DIMSHO
 70
     0
  9
$DIMPOST
  1

  9
$DIMAPOST
  1

  9
$DIMALT
 70
     0
  9
$DIMALTD
 70
     2
  9
$DIMALTF
 40
25.399999999999999
  9
$DIMLFAC
 40
1.0
  9
$DIMTOFL
 70
     0
  9
$DIMTVP
 40
1.0
  9
$DIMTIX
 70
     0
  9
$DIMSOXD
 70
     0
  9
$DIMSAH
 70
     1
  9
$DIMBLK1
  1

  9
$DIMBLK2
  1

  9
$DIMSTYLE
  2
DIMSTYLE
  9
$DIMCLRD
 70
     0
  9
$DIMCLRE
 70
     0
  9
$DIMCLRT
 70
     0
  9
$DIMTFAC
 40
1.0
  9
$DIMGAP
 40
1.6000000000000001
  9
$LUNITS
 70
     2
  9
$LUPREC
 70
     4
  9
$SKETCHINC
 40
0.1
  9
$FILLETRAD
 40
0.0
  9
$AUNITS
 70
     0
  9
$AUPREC
 70
     0
  9
$MENU
  1
.
  9
$ELEVATION
 40
0.0
  9
$PELEVATION
 40
0.0
  9
$THICKNESS
 40
0.0
  9
$LIMCHECK
 70
     0
  9
$BLIPMODE
 70
     0
  9
$CHAMFERA
 40
0.0
  9
$CHAMFERB
 40
0.0
  9
$SKPOLY
 70
     0
  9
$TDCREATE
 40
2452810.4241099302
  9
$TDUPDATE
 40
2452810.431031689
  9
$TDINDWG
 40
0.0069268634
  9
$TDUSRTIMER
 40
0.0069268634
  9
$USRTIMER
 70
     1
  9
$ANGBASE
 50
0.0
  9
$ANGDIR
 70
     0
  9
$PDMODE
 70
     0
  9
$PDSIZE
 40
0.0
  9
$PLINEWID
 40
0.0
  9
$COORDS
 70
     1
  9
$SPLFRAME
 70
     0
  9
$SPLINETYPE
 70
     6
  9
$SPLINESEGS
 70
     8
  9
$ATTDIA
 70
     0
  9
$ATTREQ
 70
     1
  9
$HANDLING
 70
 22529
  9
$HANDSEED
  5
3AF
  9
$SURFTAB1
 70
     6
  9
$SURFTAB2
 70
     6
  9
$SURFTYPE
 70
     6
  9
$SURFU
 70
     6
  9
$SURFV
 70
     6
  9
$UCSNAME
  2

  9
$UCSORG
 10
0.0
 20
0.0
 30
0.0
  9
$UCSXDIR
 10
1.0
 20
0.0
 30
0.0
  9
$UCSYDIR
 10
0.0
 20
1.0
 30
0.0
  9
$PUCSNAME
  2

  9
$PUCSORG
 10
0.0
 20
0.0
 30
0.0
  9
$PUCSXDIR
 10
1.0
 20
0.0
 30
0.0
  9
$PUCSYDIR
 10
0.0
 20
1.0
 30
0.0
  9
$USERI1
 70
     0
  9
$USERI2
 70
     0
  9
$USERI3
 70
     0
  9
$USERI4
 70
     0
  9
$USERI5
 70
     0
  9
$USERR1
 40
0.0
  9
$USERR2
 40
0.0
  9
$USERR3
 40
0.0
  9
$USERR4
 40
0.0
  9
$USERR5
 40
0.0
  9
$WORLDVIEW
 70
     1
  9
$SHADEDGE
 70
     3
  9
$SHADEDIF
 70
    70
  9
$TILEMODE
 70
     1
  9
$MAXACTVP
 70
    64
  9
$PLIMCHECK
 70
     0
  9
$PEXTMIN
 10
1.0000000000000000E+020
 20
1.0000000000000000E+020
 30
1.0000000000000000E+020
  9
$PEXTMAX
 10
-1.0000000000000000E+020
 20
-1.0000000000000000E+020
 30
-1.0000000000000000E+020
  9
$PLIMMIN
 10
-211.0
 20
-100.0
  9
$PLIMMAX
 10
170.0
 20
173.0
  9
$UNITMODE
 70
     0
  9
$VISRETAIN
 70
     1
  9
$PLINEGEN
 70
     0
  9
$PSLTSCALE
 70
     1
  0
ENDSEC
  0
SECTION
  2
TABLES
  0
TABLE
  2
VPORT
 70
     3
  0
VPORT
  2
*ACTIVE
 70
     0
 10
0.0
 20
0.0
 11
1.0
 21
1.0
 12
-17.51712503718786
 22
43.083167118796489
 13
0.0
 23
0.0
 14
1.0
 24
1.0
 15
0.0
 25
0.0
 16
0.0
 26
0.0
 36
1.0
 17
0.0
 27
0.0
 37
0.0
 40
236.32346588936969
 41
1.6957708049113229
 42
50.0
 43
0.0
 44
0.0
 50
0.0
 51
0.0
 71
     0
 72
   100
 73
     1
 74
     1
 75
     0
 76
     0
 77
     0
 78
     0
  0
ENDTAB
  0
TABLE
  2
LTYPE
 70
     6
  0
LTYPE
  2
CONTINUOUS
 70
     0
  3
Solid line
 72
    65
 73
     0
 40
0.0
  0
LTYPE
  2
DASHED
 70
     0
  3
__ __ __ __ __ __ __ __ __ __ __ __ __ __ __
 72
    65
 73
     2
 40
3.5
 49
2.0
 49
-1.5
  0
LTYPE
  2
CENTER
 70
     0
  3
____ _ ____ _ ____ _ ____ _ ____ _ ____ _ ____
 72
    65
 73
     4
 40
17.5
 49
13.0
 49
-1.5
 49
1.5
 49
-1.5
  0
LTYPE
  2
PHANTOM
 70
     0
  3
_____ _ _ _____ _ _ _____ _ _ _____ _ _ ____  
 72
    65
 73
     6
 40
15.5
 49
8.0
 49
-1.5
 49
1.5
 49
-1.5
 49
1.5
 49
-1.5
  0
LTYPE
  2
DOT
 70
     0
  3
. . . . . . . . . . . . . . . . . . . . . . . .
 72
    65
 73
     2
 40
0.25
 49
0.0
 49
-0.25
  0
LTYPE
  2
HIDDEN
 70
     0
  3
__ __ __ __ __ __ __ __ __ __ __ __ __ __ __
 72
    65
 73
     2
 40
3.5
 49
2.0
 49
-1.5
  0
ENDTAB
  0
TABLE
  2
LAYER
 70
     4
  0
LAYER
  2
0
 70
     0
 62
     7
  6
CONTINUOUS
  0
LAYER
  2
1
 70
     0
 62
     7
  6
CONTINUOUS
  0
LAYER
  2
2
 70
     0
 62
     7
  6
CONTINUOUS
  0
LAYER
  2
DEFPOINTS
 70
     0
 62
     7
  6
CONTINUOUS
  0
ENDTAB
  0
TABLE
  2
STYLE
 70
     1
  0
STYLE
  2
STANDARD
 70
     0
 40
0.0
 41
1.0
 50
0.0
 71
     0
 42
0.2
  3
txt
  4
BIGFONT
  0
ENDTAB
  0
TABLE
  2
VIEW
 70
     0
  0
ENDTAB
  0
TABLE
  2
UCS
 70
     0
  0
ENDTAB
  0
TABLE
  2
APPID
 70
     1
  0
APPID
  2
ACAD
 70
     0
  0
ENDTAB
  0
TABLE
  2
DIMSTYLE
 70
     1
  0
DIMSTYLE
  2
DIMSTYLE
 70
     0
  3

  4

  5

  6

  7

 40
1.0
 41
1.0
 42
2.54
 43
0.38
 44
2.54
 45
0.0
 46
0.0
 47
0.0
 48
0.0
140
3.2000000000000002
141
0.09
142
0.0
143
25.399999999999999
144
1.0
145
0.0
146
1.0
147
1.6000000000000001
 71
     0
 72
     0
 73
     0
 74
     0
 75
     0
 76
     0
 77
     0
 78
     0
170
     0
171
     2
172
     0
173
     1
174
     0
175
     0
176
     0
177
     0
178
     0
  0
ENDTAB
  0
ENDSEC
  0
SECTION
  2
BLOCKS
  0
BLOCK
  8
0
  2
$MODEL_SPACE
 70
     0
 10
0.0
 20
0.0
 30
0.0
  3
$MODEL_SPACE
  1

  0
ENDBLK
  5
20
  8
0
  0
BLOCK
 67
     1
  8
0
  2
$PAPER_SPACE
 70
     0
 10
0.0
 20
0.0
 30
0.0
  3
$PAPER_SPACE
  1

  0
ENDBLK
  5
1C
 67
     1
  8
0
  0
BLOCK
  8
0
  2
_DOT
 70
     0
 10
0.0
 20
0.0
 30
0.0
  3
_DOT
  1

  0
POLYLINE
  5
30
  8
0
  6
BYBLOCK
 62
     0
 66
     1
 10
0.0
 20
0.0
 30
0.0
 70
     1
 40
0.4000000100000001
 41
0.4000000100000001
  0
VERTEX
  5
3AC
  8
0
  6
BYBLOCK
 62
     0
 10
-0.2
 20
0.0
 30
0.0
 42
1.0
  0
VERTEX
  5
3AD
  8
0
  6
BYBLOCK
 62
     0
 10
0.2
 20
0.0
 30
0.0
 42
1.0
  0
SEQEND
  5
3AE
  8
0
  6
BYBLOCK
 62
     0
  0
LINE
  5
34
  8
0
  6
BYBLOCK
 62
     0
 10
-0.4000000100000001
 20
0.0
 30
0.0
 11
-3.0
 21
0.0
 31
0.0
  0
ENDBLK
  5
35
  8
0
  0
BLOCK
  8
0
  2
*D1
 70
     1
 10
0.0
 20
0.0
 30
0.0
  3
*D1
  1

  0
LINE
  5
38
  8
0
  6
CONTINUOUS
 62
     7
 10
129.06634999999989
 20
56.153827999999997
 30
0.0
 11
129.06634999999989
 21
-63.846172000000003
 31
0.0
  0
INSERT
  5
39
  8
0
  6
CONTINUOUS
 62
     7
  2
_DOT
 10
129.06634999999989
 20
56.153827999999997
 30
0.0
 50
90.0
  0
INSERT
  5
3A
  8
0
  6
CONTINUOUS
 62
     7
  2
_DOT
 10
129.06634999999989
 20
-63.846172000000003
 30
0.0
 50
270.0
  0
LINE
  5
3B
  8
0
  6
CONTINUOUS
 62
     7
 10
105.60635000000001
 20
56.153827999999997
 30
0.0
 11
130.2663399999999
 21
56.153827999999997
 31
0.0
  0
LINE
  5
3C
  8
0
  6
CONTINUOUS
 62
     7
 10
105.60635000000001
 20
-63.846172000000003
 30
0.0
 11
130.2663399999999
 21
-63.846172000000003
 31
0.0
  0
TEXT
  5
3D
  8
0
  6
CONTINUOUS
 62
     7
 10
128.2663499999999
 20
-8.1891732999999984
 30
0.0
 40
3.2000000000000002
  1
120
 50
90.000003000000007
 41
1.2214686999999991
  0
POINT
  5
3E
  8
DEFPOINTS
  6
CONTINUOUS
 62
     7
 10
103.0663499999999
 20
56.153827999999997
 30
0.0
  0
POINT
  5
3F
  8
DEFPOINTS
  6
CONTINUOUS
 62
     7
 10
103.0663499999999
 20
-63.846172000000003
 30
0.0
  0
POINT
  5
40
  8
DEFPOINTS
  6
CONTINUOUS
 62
     7
 10
129.06634999999989
 20
-63.846172000000003
 30
0.0
  0
ENDBLK
  5
41
  8
0
  0
BLOCK
  8
0
  2
*D2
 70
     1
 10
0.0
 20
0.0
 30
0.0
  3
*D2
  1

  0
LINE
  5
44
  8
0
  6
CONTINUOUS
 62
     7
 10
119.06635
 20
56.153827999999997
 30
0.0
 11
119.06635
 21
31.153828000000001
 31
0.0
  0
INSERT
  5
45
  8
0
  6
CONTINUOUS
 62
     7
  2
_DOT
 10
119.06635
 20
56.153827999999997
 30
0.0
 50
90.0
  0
INSERT
  5
46
  8
0
  6
CONTINUOUS
 62
     7
  2
_DOT
 10
119.06635
 20
31.153828000000001
 30
0.0
 50
270.0
  0
LINE
  5
47
  8
0
  6
CONTINUOUS
 62
     7
 10
105.60635000000001
 20
56.153827999999997
 30
0.0
 11
120.26635
 21
56.153827999999997
 31
0.0
  0
LINE
  5
48
  8
0
  6
CONTINUOUS
 62
     7
 10
77.10634499999999
 20
31.153828000000001
 30
0.0
 11
120.26635
 21
31.153828000000001
 31
0.0
  0
TEXT
  5
49
  8
0
  6
CONTINUOUS
 62
     7
 10
118.26635
 20
40.910828000000002
 30
0.0
 40
3.2000000000000002
  1
25
 50
90.000003000000007
 41
1.028624999999999
  0
POINT
  5
4A
  8
DEFPOINTS
  6
CONTINUOUS
 62
     7
 10
103.0663499999999
 20
56.153827999999997
 30
0.0
  0
POINT
  5
4B
  8
DEFPOINTS
  6
CONTINUOUS
 62
     7
 10
74.566344999999984
 20
31.153828000000001
 30
0.0
  0
POINT
  5
4C
  8
DEFPOINTS
  6
CONTINUOUS
 62
     7
 10
119.06635
 20
31.153828000000001
 30
0.0
  0
ENDBLK
  5
4D
  8
0
  0
BLOCK
  8
0
  2
*D3
 70
     1
 10
0.0
 20
0.0
 30
0.0
  3
*D3
  1

  0
LINE
  5
50
  8
0
  6
CONTINUOUS
 62
     7
 10
119.06635
 20
31.153828000000001
 30
0.0
 11
119.06635
 21
-38.846171999999989
 31
0.0
  0
INSERT
  5
51
  8
0
  6
CONTINUOUS
 62
     7
  2
_DOT
 10
119.06635
 20
31.153828000000001
 30
0.0
 50
90.0
  0
INSERT
  5
52
  8
0
  6
CONTINUOUS
 62
     7
  2
_DOT
 10
119.06635
 20
-38.846171999999989
 30
0.0
 50
270.0
  0
LINE
  5
53
  8
0
  6
CONTINUOUS
 62
     7
 10
77.10634499999999
 20
-38.846171999999989
 30
0.0
 11
120.26635
 21
-38.846171999999989
 31
0.0
  0
TEXT
  5
54
  8
0
  6
CONTINUOUS
 62
     7
 10
118.26635
 20
-6.5891732999999988
 30
0.0
 40
3.2000000000000002
  1
70
 50
90.000003000000007
 41
1.102098199999999
  0
POINT
  5
55
  8
DEFPOINTS
  6
CONTINUOUS
 62
     7
 10
74.566344999999984
 20
31.153828000000001
 30
0.0
  0
POINT
  5
56
  8
DEFPOINTS
  6
CONTINUOUS
 62
     7
 10
74.566344999999984
 20
-38.846171999999989
 30
0.0
  0
POINT
  5
57
  8
DEFPOINTS
  6
CONTINUOUS
 62
     7
 10
119.06635
 20
-38.846171999999989
 30
0.0
  0
ENDBLK
  5
58
  8
0
  0
BLOCK
  8
0
  2
*D4
 70
     1
 10
0.0
 20
0.0
 30
0.0
  3
*D4
  1

  0
LINE
  5
5B
  8
0
  6
CONTINUOUS
 62
     7
 10
119.06635
 20
-38.846171999999989
 30
0.0
 11
119.06635
 21
-63.846172000000003
 31
0.0
  0
INSERT
  5
5C
  8
0
  6
CONTINUOUS
 62
     7
  2
_DOT
 10
119.06635
 20
-38.846171999999989
 30
0.0
 50
90.0
  0
INSERT
  5
5D
  8
0
  6
CONTINUOUS
 62
     7
  2
_DOT
 10
119.06635
 20
-63.846172000000003
 30
0.0
 50
270.0
  0
LINE
  5
5E
  8
0
  6
CONTINUOUS
 62
     7
 10
105.60635000000001
 20
-63.846172000000003
 30
0.0
 11
120.26635
 21
-63.846172000000003
 31
0.0
  0
TEXT
  5
5F
  8
0
  6
CONTINUOUS
 62
     7
 10
118.26635
 20
-54.089171999999998
 30
0.0
 40
3.2000000000000002
  1
25
 50
90.000003000000007
 41
1.028624999999999
  0
POINT
  5
60
  8
DEFPOINTS
  6
CONTINUOUS
 62
     7
 10
74.566344999999984
 20
-38.846171999999989
 30
0.0
  0
POINT
  5
61
  8
DEFPOINTS
  6
CONTINUOUS
 62
     7
 10
103.0663499999999
 20
-63.846172000000003
 30
0.0
  0
POINT
  5
62
  8
DEFPOINTS
  6
CONTINUOUS
 62
     7
 10
119.06635
 20
-63.846172000000003
 30
0.0
  0
ENDBLK
  5
63
  8
0
  0
BLOCK
  8
0
  2
*D5
 70
     1
 10
0.0
 20
0.0
 30
0.0
  3
*D5
  1

  0
LINE
  5
66
  8
0
  6
CONTINUOUS
 62
     7
 10
19.066347
 20
-63.846172000000003
 30
0.0
 11
19.066347
 21
-46.846171999999989
 31
0.0
  0
INSERT
  5
67
  8
0
  6
CONTINUOUS
 62
     7
  2
_DOT
 10
19.066347
 20
-63.846172000000003
 30
0.0
 50
270.0
  0
INSERT
  5
68
  8
0
  6
CONTINUOUS
 62
     7
  2
_DOT
 10
19.066347
 20
-46.846171999999989
 30
0.0
 50
90.0
  0
LINE
  5
69
  8
0
  6
CONTINUOUS
 62
     7
 10
27.526346999999991
 20
-63.846172000000003
 30
0.0
 11
17.866347999999999
 21
-63.846172000000003
 31
0.0
  0
LINE
  5
6A
  8
0
  6
CONTINUOUS
 62
     7
 10
53.026349000000003
 20
-46.846171999999989
 30
0.0
 11
17.866347999999999
 21
-46.846171999999989
 31
0.0
  0
TEXT
  5
6B
  8
0
  6
CONTINUOUS
 62
     7
 10
18.266346999999989
 20
-58.089171999999991
 30
0.0
 40
3.2000000000000002
  1
17
 50
90.000003000000007
 41
1.2857811999999991
  0
POINT
  5
6C
  8
DEFPOINTS
  6
CONTINUOUS
 62
     7
 10
30.06634699999999
 20
-63.846172000000003
 30
0.0
  0
POINT
  5
6D
  8
DEFPOINTS
  6
CONTINUOUS
 62
     7
 10
55.566349000000002
 20
-46.846171999999989
 30
0.0
  0
POINT
  5
6E
  8
DEFPOINTS
  6
CONTINUOUS
 62
     7
 10
19.066347
 20
-46.846171999999989
 30
0.0
  0
ENDBLK
  5
6F
  8
0
  0
BLOCK
  8
0
  2
*D6
 70
     1
 10
0.0
 20
0.0
 30
0.0
  3
*D6
  1

  0
LINE
  5
72
  8
0
  6
CONTINUOUS
 62
     7
 10
19.066347
 20
-46.846171999999989
 30
0.0
 11
19.066347
 21
39.153827999999997
 31
0.0
  0
INSERT
  5
73
  8
0
  6
CONTINUOUS
 62
     7
  2
_DOT
 10
19.066347
 20
-46.846171999999989
 30
0.0
 50
270.0
  0
INSERT
  5
74
  8
0
  6
CONTINUOUS
 62
     7
  2
_DOT
 10
19.066347
 20
39.153827999999997
 30
0.0
 50
90.0
  0
LINE
  5
75
  8
0
  6
CONTINUOUS
 62
     7
 10
53.026349000000003
 20
-46.846171999999989
 30
0.0
 11
17.866347999999999
 21
-46.846171999999989
 31
0.0
  0
LINE
  5
76
  8
0
  6
CONTINUOUS
 62
     7
 10
53.026349000000003
 20
39.153827999999997
 30
0.0
 11
17.866347999999999
 21
39.153827999999997
 31
0.0
  0
TEXT
  5
77
  8
0
  6
CONTINUOUS
 62
     7
 10
18.266346999999989
 20
-6.5891732999999988
 30
0.0
 40
3.2000000000000002
  1
86
 50
90.000003000000007
 41
1.028624999999999
  0
POINT
  5
78
  8
DEFPOINTS
  6
CONTINUOUS
 62
     7
 10
55.566349000000002
 20
-46.846171999999989
 30
0.0
  0
POINT
  5
79
  8
DEFPOINTS
  6
CONTINUOUS
 62
     7
 10
55.566349000000002
 20
39.153827999999997
 30
0.0
  0
POINT
  5
7A
  8
DEFPOINTS
  6
CONTINUOUS
 62
     7
 10
19.066347
 20
39.153827999999997
 30
0.0
  0
ENDBLK
  5
7B
  8
0
  0
BLOCK
  8
0
  2
*D7
 70
     1
 10
0.0
 20
0.0
 30
0.0
  3
*D7
  1

  0
LINE
  5
7E
  8
0
  6
CONTINUOUS
 62
     7
 10
19.066347
 20
39.153827999999997
 30
0.0
 11
19.066347
 21
56.153827999999997
 31
0.0
  0
INSERT
  5
7F
  8
0
  6
CONTINUOUS
 62
     7
  2
_DOT
 10
19.066347
 20
39.153827999999997
 30
0.0
 50
270.0
  0
INSERT
  5
80
  8
0
  6
CONTINUOUS
 62
     7
  2
_DOT
 10
19.066347
 20
56.153827999999997
 30
0.0
 50
90.0
  0
LINE
  5
81
  8
0
  6
CONTINUOUS
 62
     7
 10
53.026349000000003
 20
39.153827999999997
 30
0.0
 11
17.866347999999999
 21
39.153827999999997
 31
0.0
  0
LINE
  5
82
  8
0
  6
CONTINUOUS
 62
     7
 10
27.526346999999991
 20
56.153827999999997
 30
0.0
 11
17.866347999999999
 21
56.153827999999997
 31
0.0
  0
TEXT
  5
83
  8
0
  6
CONTINUOUS
 62
     7
 10
18.266346999999989
 20
44.910828000000002
 30
0.0
 40
3.2000000000000002
  1
17
 50
90.000003000000007
 41
1.2857811999999991
  0
POINT
  5
84
  8
DEFPOINTS
  6
CONTINUOUS
 62
     7
 10
55.566349000000002
 20
39.153827999999997
 30
0.0
  0
POINT
  5
85
  8
DEFPOINTS
  6
CONTINUOUS
 62
     7
 10
30.06634699999999
 20
56.153827999999997
 30
0.0
  0
POINT
  5
86
  8
DEFPOINTS
  6
CONTINUOUS
 62
     7
 10
19.066347
 20
56.153827999999997
 30
0.0
  0
ENDBLK
  5
87
  8
0
  0
BLOCK
  8
0
  2
*D8
 70
     1
 10
0.0
 20
0.0
 30
0.0
  3
*D8
  1

  0
LINE
  5
8A
  8
0
  6
CONTINUOUS
 62
     7
 10
29.06634699999999
 20
76.153824
 30
0.0
 11
104.0663499999999
 21
76.153824
 31
0.0
  0
INSERT
  5
8B
  8
0
  6
CONTINUOUS
 62
     7
  2
_DOT
 10
29.06634699999999
 20
76.153824
 30
0.0
 50
180.0
  0
INSERT
  5
8C
  8
0
  6
CONTINUOUS
 62
     7
  2
_DOT
 10
104.0663499999999
 20
76.153824
 30
0.0
  0
LINE
  5
8D
  8
0
  6
CONTINUOUS
 62
     7
 10
29.06634699999999
 20
57.693828000000003
 30
0.0
 11
29.06634699999999
 21
77.353827999999993
 31
0.0
  0
LINE
  5
8E
  8
0
  6
CONTINUOUS
 62
     7
 10
104.0663499999999
 20
57.693828000000003
 30
0.0
 11
104.0663499999999
 21
77.353827999999993
 31
0.0
  0
TEXT
  5
8F
  8
0
  6
CONTINUOUS
 62
     7
 10
63.823344999999989
 20
76.953823999999983
 30
0.0
 40
3.2000000000000002
  1
75
 41
1.028624999999999
  0
POINT
  5
90
  8
DEFPOINTS
  6
CONTINUOUS
 62
     7
 10
29.06634699999999
 20
55.153828000000011
 30
0.0
  0
POINT
  5
91
  8
DEFPOINTS
  6
CONTINUOUS
 62
     7
 10
104.0663499999999
 20
55.153828000000011
 30
0.0
  0
POINT
  5
92
  8
DEFPOINTS
  6
CONTINUOUS
 62
     7
 10
104.0663499999999
 20
76.153824
 30
0.0
  0
ENDBLK
  5
93
  8
0
  0
BLOCK
  8
0
  2
*D9
 70
     1
 10
0.0
 20
0.0
 30
0.0
  3
*D9
  1

  0
LINE
  5
96
  8
0
  6
CONTINUOUS
 62
     7
 10
29.06634699999999
 20
-78.846176
 30
0.0
 11
55.566349000000002
 21
-78.846176
 31
0.0
  0
INSERT
  5
97
  8
0
  6
CONTINUOUS
 62
     7
  2
_DOT
 10
29.06634699999999
 20
-78.846176
 30
0.0
 50
180.0
  0
INSERT
  5
98
  8
0
  6
CONTINUOUS
 62
     7
  2
_DOT
 10
55.566349000000002
 20
-78.846176
 30
0.0
  0
LINE
  5
99
  8
0
  6
CONTINUOUS
 62
     7
 10
29.06634699999999
 20
-65.386172000000002
 30
0.0
 11
29.06634699999999
 21
-80.046172999999996
 31
0.0
  0
LINE
  5
9A
  8
0
  6
CONTINUOUS
 62
     7
 10
55.566349000000002
 20
-49.386171999999988
 30
0.0
 11
55.566349000000002
 21
-80.046172999999996
 31
0.0
  0
TEXT
  5
9B
  8
0
  6
CONTINUOUS
 62
     7
 10
36.37334899999999
 20
-78.046176000000003
 30
0.0
 40
3.2000000000000002
  1
26.5
 41
1.238124999999999
  0
POINT
  5
9C
  8
DEFPOINTS
  6
CONTINUOUS
 62
     7
 10
29.06634699999999
 20
-62.846171999999989
 30
0.0
  0
POINT
  5
9D
  8
DEFPOINTS
  6
CONTINUOUS
 62
     7
 10
55.566349000000002
 20
-46.846171999999989
 30
0.0
  0
POINT
  5
9E
  8
DEFPOINTS
  6
CONTINUOUS
 62
     7
 10
55.566349000000002
 20
-78.846176
 30
0.0
  0
ENDBLK
  5
9F
  8
0
  0
BLOCK
  8
0
  2
*D10
 70
     1
 10
0.0
 20
0.0
 30
0.0
  3
*D10
  1

  0
LINE
  5
A2
  8
0
  6
CONTINUOUS
 62
     7
 10
55.566349000000002
 20
-78.846176
 30
0.0
 11
90.566344999999984
 21
-78.846176
 31
0.0
  0
INSERT
  5
A3
  8
0
  6
CONTINUOUS
 62
     7
  2
_DOT
 10
55.566349000000002
 20
-78.846176
 30
0.0
 50
180.0
  0
INSERT
  5
A4
  8
0
  6
CONTINUOUS
 62
     7
  2
_DOT
 10
90.566344999999984
 20
-78.846176
 30
0.0
  0
LINE
  5
A5
  8
0
  6
CONTINUOUS
 62
     7
 10
90.566344999999984
 20
-49.386171999999988
 30
0.0
 11
90.566344999999984
 21
-80.046172999999996
 31
0.0
  0
TEXT
  5
A6
  8
0
  6
CONTINUOUS
 62
     7
 10
70.323344999999989
 20
-78.046176000000003
 30
0.0
 40
3.2000000000000002
  1
35
 41
1.028624999999999
  0
POINT
  5
A7
  8
DEFPOINTS
  6
CONTINUOUS
 62
     7
 10
55.566349000000002
 20
-46.846171999999989
 30
0.0
  0
POINT
  5
A8
  8
DEFPOINTS
  6
CONTINUOUS
 62
     7
 10
90.566344999999984
 20
-46.846171999999989
 30
0.0
  0
POINT
  5
A9
  8
DEFPOINTS
  6
CONTINUOUS
 62
     7
 10
90.566344999999984
 20
-78.846176
 30
0.0
  0
ENDBLK
  5
AA
  8
0
  0
BLOCK
  8
0
  2
*D11
 70
     1
 10
0.0
 20
0.0
 30
0.0
  3
*D11
  1

  0
LINE
  5
AD
  8
0
  6
CONTINUOUS
 62
     7
 10
90.566344999999984
 20
-78.846176
 30
0.0
 11
104.0663499999999
 21
-78.846176
 31
0.0
  0
INSERT
  5
AE
  8
0
  6
CONTINUOUS
 62
     7
  2
_DOT
 10
90.566344999999984
 20
-78.846176
 30
0.0
 50
180.0
  0
INSERT
  5
AF
  8
0
  6
CONTINUOUS
 62
     7
  2
_DOT
 10
104.0663499999999
 20
-78.846176
 30
0.0
  0
LINE
  5
B0
  8
0
  6
CONTINUOUS
 62
     7
 10
104.0663499999999
 20
-65.386172000000002
 30
0.0
 11
104.0663499999999
 21
-80.046172999999996
 31
0.0
  0
TEXT
  5
B1
  8
0
  6
CONTINUOUS
 62
     7
 10
91.373344999999986
 20
-78.046176000000003
 30
0.0
 40
3.2000000000000002
  1
13.5
 41
1.3928906000000001
  0
POINT
  5
B2
  8
DEFPOINTS
  6
CONTINUOUS
 62
     7
 10
90.566344999999984
 20
-46.846171999999989
 30
0.0
  0
POINT
  5
B3
  8
DEFPOINTS
  6
CONTINUOUS
 62
     7
 10
104.0663499999999
 20
-62.846171999999989
 30
0.0
  0
POINT
  5
B4
  8
DEFPOINTS
  6
CONTINUOUS
 62
     7
 10
104.0663499999999
 20
-78.846176
 30
0.0
  0
ENDBLK
  5
B5
  8
0
  0
BLOCK
  8
0
  2
*D12
 70
     1
 10
0.0
 20
0.0
 30
0.0
  3
*D12
  1

  0
LINE
  5
B8
  8
0
  6
CONTINUOUS
 62
     7
 10
129.06634999999989
 20
99.271049000000005
 30
0.0
 11
129.06634999999989
 21
94.368483999999995
 31
0.0
  0
LINE
  5
B9
  8
0
  6
CONTINUOUS
 62
     7
 10
129.06634999999989
 20
99.271049000000005
 30
0.0
 11
129.06634999999989
 21
101.27105
 31
0.0
  0
INSERT
  5
BA
  8
0
  6
CONTINUOUS
 62
     7
  2
_DOT
 10
129.06634999999989
 20
99.271049000000005
 30
0.0
 50
270.0
  0
INSERT
  5
BB
  8
0
  6
CONTINUOUS
 62
     7
  2
_DOT
 10
129.06634999999989
 20
101.27105
 30
0.0
 50
90.0
  0
LINE
  5
BC
  8
0
  6
CONTINUOUS
 62
     7
 10
106.60635000000001
 20
99.271049000000005
 30
0.0
 11
130.2663399999999
 21
99.271049000000005
 31
0.0
  0
LINE
  5
BD
  8
0
  6
CONTINUOUS
 62
     7
 10
106.60635000000001
 20
101.27105
 30
0.0
 11
130.2663399999999
 21
101.27105
 31
0.0
  0
TEXT
  5
BE
  8
0
  6
CONTINUOUS
 62
     7
 10
128.2663499999999
 20
94.368482
 30
0.0
 40
3.2000000000000002
  1
2
 50
90.000003000000007
  0
POINT
  5
BF
  8
DEFPOINTS
  6
CONTINUOUS
 62
     7
 10
104.0663499999999
 20
99.271049000000005
 30
0.0
  0
POINT
  5
C0
  8
DEFPOINTS
  6
CONTINUOUS
 62
     7
 10
104.0663499999999
 20
101.27105
 30
0.0
  0
POINT
  5
C1
  8
DEFPOINTS
  6
CONTINUOUS
 62
     7
 10
129.06634999999989
 20
101.27105
 30
0.0
  0
ENDBLK
  5
C2
  8
0
  0
BLOCK
  8
0
  2
*D13
 70
     1
 10
0.0
 20
0.0
 30
0.0
  3
*D13
  1

  0
LINE
  5
C5
  8
0
  6
CONTINUOUS
 62
     7
 10
129.06634999999989
 20
148.27106000000001
 30
0.0
 11
129.06634999999989
 21
153.34319999999991
 31
0.0
  0
LINE
  5
C6
  8
0
  6
CONTINUOUS
 62
     7
 10
129.06634999999989
 20
146.27106000000001
 30
0.0
 11
129.06634999999989
 21
148.27106000000001
 31
0.0
  0
INSERT
  5
C7
  8
0
  6
CONTINUOUS
 62
     7
  2
_DOT
 10
129.06634999999989
 20
146.27106000000001
 30
0.0
 50
270.0
  0
INSERT
  5
C8
  8
0
  6
CONTINUOUS
 62
     7
  2
_DOT
 10
129.06634999999989
 20
148.27106000000001
 30
0.0
 50
90.0
  0
LINE
  5
C9
  8
0
  6
CONTINUOUS
 62
     7
 10
106.60635000000001
 20
148.27106000000001
 30
0.0
 11
130.2663399999999
 21
148.27106000000001
 31
0.0
  0
TEXT
  5
CA
  8
0
  6
CONTINUOUS
 62
     7
 10
128.2663499999999
 20
151.05719999999991
 30
0.0
 40
3.2000000000000002
  1
2
 50
90.000003000000007
  0
POINT
  5
CB
  8
DEFPOINTS
  6
CONTINUOUS
 62
     7
 10
104.0663499999999
 20
146.27106000000001
 30
0.0
  0
POINT
  5
CC
  8
DEFPOINTS
  6
CONTINUOUS
 62
     7
 10
104.0663499999999
 20
148.27106000000001
 30
0.0
  0
POINT
  5
CD
  8
DEFPOINTS
  6
CONTINUOUS
 62
     7
 10
129.06634999999989
 20
148.27106000000001
 30
0.0
  0
ENDBLK
  5
CE
  8
0
  0
BLOCK
  8
0
  2
*D14
 70
     1
 10
0.0
 20
0.0
 30
0.0
  3
*D14
  1

  0
LINE
  5
D1
  8
0
  6
CONTINUOUS
 62
     7
 10
119.06635
 20
146.27106000000001
 30
0.0
 11
119.06635
 21
122.27105
 31
0.0
  0
INSERT
  5
D2
  8
0
  6
CONTINUOUS
 62
     7
  2
_DOT
 10
119.06635
 20
146.27106000000001
 30
0.0
 50
90.0
  0
INSERT
  5
D3
  8
0
  6
CONTINUOUS
 62
     7
  2
_DOT
 10
119.06635
 20
122.27105
 30
0.0
 50
270.0
  0
LINE
  5
D4
  8
0
  6
CONTINUOUS
 62
     7
 10
106.60635000000001
 20
146.27106000000001
 30
0.0
 11
120.26635
 21
146.27106000000001
 31
0.0
  0
LINE
  5
D5
  8
0
  6
CONTINUOUS
 62
     7
 10
84.106344999999976
 20
122.27105
 30
0.0
 11
120.26635
 21
122.27105
 31
0.0
  0
TEXT
  5
D6
  8
0
  6
CONTINUOUS
 62
     7
 10
118.26635
 20
131.52806000000001
 30
0.0
 40
3.2000000000000002
  1
24
 50
90.000003000000007
 41
1.028624999999999
  0
POINT
  5
D7
  8
DEFPOINTS
  6
CONTINUOUS
 62
     7
 10
104.0663499999999
 20
146.27106000000001
 30
0.0
  0
POINT
  5
D8
  8
DEFPOINTS
  6
CONTINUOUS
 62
     7
 10
81.566344999999998
 20
122.27105
 30
0.0
  0
POINT
  5
D9
  8
DEFPOINTS
  6
CONTINUOUS
 62
     7
 10
119.06635
 20
122.27105
 30
0.0
  0
ENDBLK
  5
DA
  8
0
  0
BLOCK
  8
0
  2
*D15
 70
     1
 10
0.0
 20
0.0
 30
0.0
  3
*D15
  1

  0
LINE
  5
DD
  8
0
  6
CONTINUOUS
 62
     7
 10
119.06635
 20
120.87105
 30
0.0
 11
119.06635
 21
101.27105
 31
0.0
  0
INSERT
  5
DE
  8
0
  6
CONTINUOUS
 62
     7
  2
_DOT
 10
119.06635
 20
120.87105
 30
0.0
 50
90.0
  0
INSERT
  5
DF
  8
0
  6
CONTINUOUS
 62
     7
  2
_DOT
 10
119.06635
 20
101.27105
 30
0.0
 50
270.0
  0
LINE
  5
E0
  8
0
  6
CONTINUOUS
 62
     7
 10
71.60634499999999
 20
120.87105
 30
0.0
 11
120.26635
 21
120.87105
 31
0.0
  0
LINE
  5
E1
  8
0
  6
CONTINUOUS
 62
     7
 10
106.60635000000001
 20
101.27105
 30
0.0
 11
120.26635
 21
101.27105
 31
0.0
  0
TEXT
  5
E2
  8
0
  6
CONTINUOUS
 62
     7
 10
118.26635
 20
105.12805
 30
0.0
 40
3.2000000000000002
  1
19.6
 50
90.000003000000007
 41
1.3928906000000001
  0
POINT
  5
E3
  8
DEFPOINTS
  6
CONTINUOUS
 62
     7
 10
69.066344999999998
 20
120.87105
 30
0.0
  0
POINT
  5
E4
  8
DEFPOINTS
  6
CONTINUOUS
 62
     7
 10
104.0663499999999
 20
101.27105
 30
0.0
  0
POINT
  5
E5
  8
DEFPOINTS
  6
CONTINUOUS
 62
     7
 10
119.06635
 20
101.27105
 30
0.0
  0
ENDBLK
  5
E6
  8
0
  0
BLOCK
  8
0
  2
*D16
 70
     1
 10
0.0
 20
0.0
 30
0.0
  3
*D16
  1

  0
LINE
  5
E9
  8
0
  6
CONTINUOUS
 62
     7
 10
19.066347
 20
101.27105
 30
0.0
 11
19.066347
 21
119.27105
 31
0.0
  0
INSERT
  5
EA
  8
0
  6
CONTINUOUS
 62
     7
  2
_DOT
 10
19.066347
 20
101.27105
 30
0.0
 50
270.0
  0
INSERT
  5
EB
  8
0
  6
CONTINUOUS
 62
     7
  2
_DOT
 10
19.066347
 20
119.27105
 30
0.0
 50
90.0
  0
LINE
  5
EC
  8
0
  6
CONTINUOUS
 62
     7
 10
26.526347000000001
 20
101.27105
 30
0.0
 11
17.866347999999999
 21
101.27105
 31
0.0
  0
LINE
  5
ED
  8
0
  6
CONTINUOUS
 62
     7
 10
40.126347999999993
 20
119.27105
 30
0.0
 11
17.866347999999999
 21
119.27105
 31
0.0
  0
TEXT
  5
EE
  8
0
  6
CONTINUOUS
 62
     7
 10
18.266346999999989
 20
107.52804999999989
 30
0.0
 40
3.2000000000000002
  1
18
 50
90.000003000000007
 41
1.2857811999999991
  0
POINT
  5
EF
  8
DEFPOINTS
  6
CONTINUOUS
 62
     7
 10
29.06634699999999
 20
101.27105
 30
0.0
  0
POINT
  5
F0
  8
DEFPOINTS
  6
CONTINUOUS
 62
     7
 10
42.666347999999999
 20
119.27105
 30
0.0
  0
POINT
  5
F1
  8
DEFPOINTS
  6
CONTINUOUS
 62
     7
 10
19.066347
 20
119.27105
 30
0.0
  0
ENDBLK
  5
F2
  8
0
  0
BLOCK
  8
0
  2
*D17
 70
     1
 10
0.0
 20
0.0
 30
0.0
  3
*D17
  1

  0
LINE
  5
F5
  8
0
  6
CONTINUOUS
 62
     7
 10
19.066347
 20
146.27106000000001
 30
0.0
 11
19.066347
 21
128.27106000000001
 31
0.0
  0
INSERT
  5
F6
  8
0
  6
CONTINUOUS
 62
     7
  2
_DOT
 10
19.066347
 20
146.27106000000001
 30
0.0
 50
90.0
  0
INSERT
  5
F7
  8
0
  6
CONTINUOUS
 62
     7
  2
_DOT
 10
19.066347
 20
128.27106000000001
 30
0.0
 50
270.0
  0
LINE
  5
F8
  8
0
  6
CONTINUOUS
 62
     7
 10
26.526347000000001
 20
146.27106000000001
 30
0.0
 11
17.866347999999999
 21
146.27106000000001
 31
0.0
  0
LINE
  5
F9
  8
0
  6
CONTINUOUS
 62
     7
 10
40.126347999999993
 20
128.27106000000001
 30
0.0
 11
17.866347999999999
 21
128.27106000000001
 31
0.0
  0
TEXT
  5
FA
  8
0
  6
CONTINUOUS
 62
     7
 10
18.266346999999989
 20
134.52806000000001
 30
0.0
 40
3.2000000000000002
  1
18
 50
90.000003000000007
 41
1.2857811999999991
  0
POINT
  5
FB
  8
DEFPOINTS
  6
CONTINUOUS
 62
     7
 10
29.06634699999999
 20
146.27106000000001
 30
0.0
  0
POINT
  5
FC
  8
DEFPOINTS
  6
CONTINUOUS
 62
     7
 10
42.666347999999999
 20
128.27106000000001
 30
0.0
  0
POINT
  5
FD
  8
DEFPOINTS
  6
CONTINUOUS
 62
     7
 10
19.066347
 20
128.27106000000001
 30
0.0
  0
ENDBLK
  5
FE
  8
0
  0
BLOCK
  8
0
  2
*D18
 70
     1
 10
0.0
 20
0.0
 30
0.0
  3
*D18
  1

  0
LINE
  5
101
  8
0
  6
CONTINUOUS
 62
     7
 10
-90.933655000000002
 20
51.153827999999997
 30
0.0
 11
-90.933655000000002
 21
-58.846172000000003
 31
0.0
  0
INSERT
  5
102
  8
0
  6
CONTINUOUS
 62
     7
  2
_DOT
 10
-90.933655000000002
 20
51.153827999999997
 30
0.0
 50
90.0
  0
INSERT
  5
103
  8
0
  6
CONTINUOUS
 62
     7
  2
_DOT
 10
-90.933655000000002
 20
-58.846172000000003
 30
0.0
 50
270.0
  0
LINE
  5
104
  8
0
  6
CONTINUOUS
 62
     7
 10
-83.473654999999994
 20
51.153827999999997
 30
0.0
 11
-92.133651999999998
 21
51.153827999999997
 31
0.0
  0
LINE
  5
105
  8
0
  6
CONTINUOUS
 62
     7
 10
-83.473654999999994
 20
-58.846172000000003
 30
0.0
 11
-92.133651999999998
 21
-58.846172000000003
 31
0.0
  0
TEXT
  5
106
  8
0
  6
CONTINUOUS
 62
     7
 10
-91.733654999999999
 20
-8.1891732999999984
 30
0.0
 40
3.2000000000000002
  1
110
 50
90.000003000000007
 41
1.4370221000000001
  0
POINT
  5
107
  8
DEFPOINTS
  6
CONTINUOUS
 62
     7
 10
-80.933655000000002
 20
51.153827999999997
 30
0.0
  0
POINT
  5
108
  8
DEFPOINTS
  6
CONTINUOUS
 62
     7
 10
-80.933655000000002
 20
-58.846172000000003
 30
0.0
  0
POINT
  5
109
  8
DEFPOINTS
  6
CONTINUOUS
 62
     7
 10
-90.933655000000002
 20
-58.846172000000003
 30
0.0
  0
ENDBLK
  5
10A
  8
0
  0
BLOCK
  8
0
  2
*D19
 70
     1
 10
0.0
 20
0.0
 30
0.0
  3
*D19
  1

  0
LINE
  5
10D
  8
0
  6
CONTINUOUS
 62
     7
 10
-80.933655000000002
 20
61.153827999999997
 30
0.0
 11
-15.933652
 21
61.153827999999997
 31
0.0
  0
INSERT
  5
10E
  8
0
  6
CONTINUOUS
 62
     7
  2
_DOT
 10
-80.933655000000002
 20
61.153827999999997
 30
0.0
 50
180.0
  0
INSERT
  5
10F
  8
0
  6
CONTINUOUS
 62
     7
  2
_DOT
 10
-15.933652
 20
61.153827999999997
 30
0.0
  0
LINE
  5
110
  8
0
  6
CONTINUOUS
 62
     7
 10
-80.933655000000002
 20
53.693828000000003
 30
0.0
 11
-80.933655000000002
 21
62.353828
 31
0.0
  0
LINE
  5
111
  8
0
  6
CONTINUOUS
 62
     7
 10
-15.933652
 20
53.693828000000003
 30
0.0
 11
-15.933652
 21
62.353828
 31
0.0
  0
TEXT
  5
112
  8
0
  6
CONTINUOUS
 62
     7
 10
-51.176650999999993
 20
61.953828000000001
 30
0.0
 40
3.2000000000000002
  1
65
 41
1.028624999999999
  0
POINT
  5
113
  8
DEFPOINTS
  6
CONTINUOUS
 62
     7
 10
-80.933655000000002
 20
51.153827999999997
 30
0.0
  0
POINT
  5
114
  8
DEFPOINTS
  6
CONTINUOUS
 62
     7
 10
-15.933652
 20
51.153827999999997
 30
0.0
  0
POINT
  5
115
  8
DEFPOINTS
  6
CONTINUOUS
 62
     7
 10
-15.933652
 20
61.153827999999997
 30
0.0
  0
ENDBLK
  5
116
  8
0
  0
BLOCK
  8
0
  2
*D20
 70
     1
 10
0.0
 20
0.0
 30
0.0
  3
*D20
  1

  0
LINE
  5
119
  8
0
  6
CONTINUOUS
 62
     7
 10
129.06634999999989
 20
146.27106000000001
 30
0.0
 11
129.06634999999989
 21
101.27105
 31
0.0
  0
INSERT
  5
11A
  8
0
  6
CONTINUOUS
 62
     7
  2
_DOT
 10
129.06634999999989
 20
146.27106000000001
 30
0.0
 50
90.0
  0
INSERT
  5
11B
  8
0
  6
CONTINUOUS
 62
     7
  2
_DOT
 10
129.06634999999989
 20
101.27105
 30
0.0
 50
270.0
  0
LINE
  5
11C
  8
0
  6
CONTINUOUS
 62
     7
 10
106.60635000000001
 20
146.27106000000001
 30
0.0
 11
130.2663399999999
 21
146.27106000000001
 31
0.0
  0
LINE
  5
11D
  8
0
  6
CONTINUOUS
 62
     7
 10
106.60635000000001
 20
101.27105
 30
0.0
 11
130.2663399999999
 21
101.27105
 31
0.0
  0
TEXT
  5
11E
  8
0
  6
CONTINUOUS
 62
     7
 10
128.2663499999999
 20
121.02806
 30
0.0
 40
3.2000000000000002
  1
Dt
 50
90.000003000000007
 41
1.028624999999999
  0
POINT
  5
11F
  8
DEFPOINTS
  6
CONTINUOUS
 62
     7
 10
104.0663499999999
 20
146.27106000000001
 30
0.0
  0
POINT
  5
120
  8
DEFPOINTS
  6
CONTINUOUS
 62
     7
 10
104.0663499999999
 20
101.27105
 30
0.0
  0
POINT
  5
121
  8
DEFPOINTS
  6
CONTINUOUS
 62
     7
 10
129.06634999999989
 20
101.27105
 30
0.0
  0
ENDBLK
  5
122
  8
0
  0
BLOCK
  8
0
  2
*D21
 70
     1
 10
0.0
 20
0.0
 30
0.0
  3
*D21
  1

  0
LINE
  5
125
  8
0
  6
CONTINUOUS
 62
     7
 10
9.0663470999999998
 20
146.27106000000001
 30
0.0
 11
9.0663470999999998
 21
127.47105000000001
 31
0.0
  0
INSERT
  5
126
  8
0
  6
CONTINUOUS
 62
     7
  2
_DOT
 10
9.0663470999999998
 20
146.27106000000001
 30
0.0
 50
90.0
  0
INSERT
  5
127
  8
0
  6
CONTINUOUS
 62
     7
  2
_DOT
 10
9.0663470999999998
 20
127.47105000000001
 30
0.0
 50
270.0
  0
LINE
  5
128
  8
0
  6
CONTINUOUS
 62
     7
 10
26.526347000000001
 20
146.27106000000001
 30
0.0
 11
7.8663473000000002
 21
146.27106000000001
 31
0.0
  0
LINE
  5
129
  8
0
  6
CONTINUOUS
 62
     7
 10
40.126347999999993
 20
127.47105000000001
 30
0.0
 11
7.8663473000000002
 21
127.47105000000001
 31
0.0
  0
TEXT
  5
12A
  8
0
  6
CONTINUOUS
 62
     7
 10
8.2663474000000008
 20
130.92805999999999
 30
0.0
 40
3.2000000000000002
  1
18.8
 50
90.000003000000007
 41
1.3928906000000001
  0
POINT
  5
12B
  8
DEFPOINTS
  6
CONTINUOUS
 62
     7
 10
29.06634699999999
 20
146.27106000000001
 30
0.0
  0
POINT
  5
12C
  8
DEFPOINTS
  6
CONTINUOUS
 62
     7
 10
42.666347999999999
 20
127.47105000000001
 30
0.0
  0
POINT
  5
12D
  8
DEFPOINTS
  6
CONTINUOUS
 62
     7
 10
9.0663470999999998
 20
127.47105000000001
 30
0.0
  0
ENDBLK
  5
12E
  8
0
  0
BLOCK
  8
0
  2
*D22
 70
     1
 10
0.0
 20
0.0
 30
0.0
  3
*D22
  1

  0
LINE
  5
131
  8
0
  6
CONTINUOUS
 62
     7
 10
9.0663470999999998
 20
101.27105
 30
0.0
 11
9.0663470999999998
 21
120.07105
 31
0.0
  0
INSERT
  5
132
  8
0
  6
CONTINUOUS
 62
     7
  2
_DOT
 10
9.0663470999999998
 20
101.27105
 30
0.0
 50
270.0
  0
INSERT
  5
133
  8
0
  6
CONTINUOUS
 62
     7
  2
_DOT
 10
9.0663470999999998
 20
120.07105
 30
0.0
 50
90.0
  0
LINE
  5
134
  8
0
  6
CONTINUOUS
 62
     7
 10
26.526347000000001
 20
101.27105
 30
0.0
 11
7.8663473000000002
 21
101.27105
 31
0.0
  0
LINE
  5
135
  8
0
  6
CONTINUOUS
 62
     7
 10
40.126347999999993
 20
120.07105
 30
0.0
 11
7.8663473000000002
 21
120.07105
 31
0.0
  0
TEXT
  5
136
  8
0
  6
CONTINUOUS
 62
     7
 10
8.2663474000000008
 20
104.72805
 30
0.0
 40
3.2000000000000002
  1
18.8
 50
90.000003000000007
 41
1.3928906000000001
  0
POINT
  5
137
  8
DEFPOINTS
  6
CONTINUOUS
 62
     7
 10
29.06634699999999
 20
101.27105
 30
0.0
  0
POINT
  5
138
  8
DEFPOINTS
  6
CONTINUOUS
 62
     7
 10
42.666347999999999
 20
120.07105
 30
0.0
  0
POINT
  5
139
  8
DEFPOINTS
  6
CONTINUOUS
 62
     7
 10
9.0663470999999998
 20
120.07105
 30
0.0
  0
ENDBLK
  5
13A
  8
0
  0
BLOCK
  8
0
  2
*D23
 70
     1
 10
0.0
 20
0.0
 30
0.0
  3
*D23
  1

  0
LINE
  5
13D
  8
0
  6
CONTINUOUS
 62
     7
 10
29.06634699999999
 20
66.153824
 30
0.0
 11
64.066344999999998
 21
66.153824
 31
0.0
  0
INSERT
  5
13E
  8
0
  6
CONTINUOUS
 62
     7
  2
_DOT
 10
29.06634699999999
 20
66.153824
 30
0.0
 50
180.0
  0
INSERT
  5
13F
  8
0
  6
CONTINUOUS
 62
     7
  2
_DOT
 10
64.066344999999998
 20
66.153824
 30
0.0
  0
LINE
  5
140
  8
0
  6
CONTINUOUS
 62
     7
 10
29.06634699999999
 20
57.693828000000003
 30
0.0
 11
29.06634699999999
 21
67.353820999999996
 31
0.0
  0
LINE
  5
141
  8
0
  6
CONTINUOUS
 62
     7
 10
64.066344999999998
 20
63.693828000000003
 30
0.0
 11
64.066344999999998
 21
67.353820999999996
 31
0.0
  0
TEXT
  5
142
  8
0
  6
CONTINUOUS
 62
     7
 10
43.823345000000003
 20
66.953823999999983
 30
0.0
 40
3.2000000000000002
  1
35
 41
1.028624999999999
  0
POINT
  5
143
  8
DEFPOINTS
  6
CONTINUOUS
 62
     7
 10
29.06634699999999
 20
55.153828000000011
 30
0.0
  0
POINT
  5
144
  8
DEFPOINTS
  6
CONTINUOUS
 62
     7
 10
64.066344999999998
 20
61.153827999999997
 30
0.0
  0
POINT
  5
145
  8
DEFPOINTS
  6
CONTINUOUS
 62
     7
 10
64.066344999999998
 20
66.153824
 30
0.0
  0
ENDBLK
  5
146
  8
0
  0
BLOCK
  8
0
  2
*D24
 70
     1
 10
0.0
 20
0.0
 30
0.0
  3
*D24
  1

  0
LINE
  5
149
  8
0
  6
CONTINUOUS
 62
     7
 10
64.066344999999998
 20
66.153824
 30
0.0
 11
104.0663499999999
 21
66.153824
 31
0.0
  0
INSERT
  5
14A
  8
0
  6
CONTINUOUS
 62
     7
  2
_DOT
 10
64.066344999999998
 20
66.153824
 30
0.0
 50
180.0
  0
INSERT
  5
14B
  8
0
  6
CONTINUOUS
 62
     7
  2
_DOT
 10
104.0663499999999
 20
66.153824
 30
0.0
  0
LINE
  5
14C
  8
0
  6
CONTINUOUS
 62
     7
 10
104.0663499999999
 20
57.693828000000003
 30
0.0
 11
104.0663499999999
 21
67.353820999999996
 31
0.0
  0
TEXT
  5
14D
  8
0
  6
CONTINUOUS
 62
     7
 10
81.323344999999975
 20
66.953823999999983
 30
0.0
 40
3.2000000000000002
  1
40
 41
1.102098199999999
  0
POINT
  5
14E
  8
DEFPOINTS
  6
CONTINUOUS
 62
     7
 10
64.066344999999998
 20
61.153827999999997
 30
0.0
  0
POINT
  5
14F
  8
DEFPOINTS
  6
CONTINUOUS
 62
     7
 10
104.0663499999999
 20
55.153828000000011
 30
0.0
  0
POINT
  5
150
  8
DEFPOINTS
  6
CONTINUOUS
 62
     7
 10
104.0663499999999
 20
66.153824
 30
0.0
  0
ENDBLK
  5
151
  8
0
  0
BLOCK
  8
0
  2
*D25
 70
     1
 10
0.0
 20
0.0
 30
0.0
  3
*D25
  1

  0
LINE
  5
154
  8
0
  6
CONTINUOUS
 62
     7
 10
52.5
 20
-2.0
 30
0.0
 11
52.5
 21
-20.0
 31
0.0
  0
INSERT
  5
155
  8
0
  6
CONTINUOUS
 62
     7
  2
_DOT
 10
52.5
 20
-2.0
 30
0.0
 50
90.0
  0
INSERT
  5
156
  8
0
  6
CONTINUOUS
 62
     7
  2
_DOT
 10
52.5
 20
-20.0
 30
0.0
 50
270.0
  0
LINE
  5
157
  8
0
  6
CONTINUOUS
 62
     7
 10
40.039999999999999
 20
-2.0
 30
0.0
 11
52.500098999999999
 21
-2.0
 31
0.0
  0
LINE
  5
158
  8
0
  6
CONTINUOUS
 62
     7
 10
20.816873000000001
 20
-20.0
 30
0.0
 11
52.500098999999999
 21
-20.0
 31
0.0
  0
TEXT
  5
159
  8
0
  6
CONTINUOUS
 62
     7
 10
51.75
 20
-13.5715
 30
0.0
 40
3.0
  1
18
 50
90.000003000000007
 41
1.2857499999999991
  0
POINT
  5
15A
  8
DEFPOINTS
  6
CONTINUOUS
 62
     7
 10
37.5
 20
-2.0
 30
0.0
  0
POINT
  5
15B
  8
DEFPOINTS
  6
CONTINUOUS
 62
     7
 10
18.276872999999998
 20
-20.0
 30
0.0
  0
POINT
  5
15C
  8
DEFPOINTS
  6
CONTINUOUS
 62
     7
 10
52.5
 20
-20.0
 30
0.0
  0
ENDBLK
  5
15D
  8
0
  0
BLOCK
  8
0
  2
*D26
 70
     1
 10
0.0
 20
0.0
 30
0.0
  3
*D26
  1

  0
LINE
  5
160
  8
0
  6
CONTINUOUS
 62
     7
 10
52.5
 20
-30.0
 30
0.0
 11
52.5
 21
-48.0
 31
0.0
  0
INSERT
  5
161
  8
0
  6
CONTINUOUS
 62
     7
  2
_DOT
 10
52.5
 20
-30.0
 30
0.0
 50
90.0
  0
INSERT
  5
162
  8
0
  6
CONTINUOUS
 62
     7
  2
_DOT
 10
52.5
 20
-48.0
 30
0.0
 50
270.0
  0
LINE
  5
163
  8
0
  6
CONTINUOUS
 62
     7
 10
20.816873000000001
 20
-30.0
 30
0.0
 11
52.500098999999999
 21
-30.0
 31
0.0
  0
LINE
  5
164
  8
0
  6
CONTINUOUS
 62
     7
 10
40.039999999999999
 20
-48.0
 30
0.0
 11
52.500098999999999
 21
-48.0
 31
0.0
  0
TEXT
  5
165
  8
0
  6
CONTINUOUS
 62
     7
 10
51.75
 20
-41.5715
 30
0.0
 40
3.0
  1
18
 50
90.000003000000007
 41
1.2857499999999991
  0
POINT
  5
166
  8
DEFPOINTS
  6
CONTINUOUS
 62
     7
 10
18.276872999999998
 20
-30.0
 30
0.0
  0
POINT
  5
167
  8
DEFPOINTS
  6
CONTINUOUS
 62
     7
 10
37.5
 20
-48.0
 30
0.0
  0
POINT
  5
168
  8
DEFPOINTS
  6
CONTINUOUS
 62
     7
 10
52.5
 20
-48.0
 30
0.0
  0
ENDBLK
  5
169
  8
0
  0
BLOCK
  8
0
  2
*D27
 70
     1
 10
0.0
 20
0.0
 30
0.0
  3
*D27
  1

  0
LINE
  5
16C
  8
0
  6
CONTINUOUS
 62
     7
 10
67.5
 20
-48.0
 30
0.0
 11
67.5
 21
-28.400002000000001
 31
0.0
  0
INSERT
  5
16D
  8
0
  6
CONTINUOUS
 62
     7
  2
_DOT
 10
67.5
 20
-48.0
 30
0.0
 50
270.0
  0
INSERT
  5
16E
  8
0
  6
CONTINUOUS
 62
     7
  2
_DOT
 10
67.5
 20
-28.400002000000001
 30
0.0
 50
90.0
  0
LINE
  5
16F
  8
0
  6
CONTINUOUS
 62
     7
 10
40.039999999999999
 20
-48.0
 30
0.0
 11
67.500099000000006
 21
-48.0
 31
0.0
  0
LINE
  5
170
  8
0
  6
CONTINUOUS
 62
     7
 10
5.0399998999999998
 20
-28.400002000000001
 30
0.0
 11
67.500099000000006
 21
-28.400002000000001
 31
0.0
  0
TEXT
  5
171
  8
0
  6
CONTINUOUS
 62
     7
 10
66.75
 20
-43.771496999999989
 30
0.0
 40
3.0
  1
19.6
 50
90.000003000000007
 41
1.3928750000000001
  0
POINT
  5
172
  8
DEFPOINTS
  6
CONTINUOUS
 62
     7
 10
37.5
 20
-48.0
 30
0.0
  0
POINT
  5
173
  8
DEFPOINTS
  6
CONTINUOUS
 62
     7
 10
2.5
 20
-28.400002000000001
 30
0.0
  0
POINT
  5
174
  8
DEFPOINTS
  6
CONTINUOUS
 62
     7
 10
67.5
 20
-28.400002000000001
 30
0.0
  0
ENDBLK
  5
175
  8
0
  0
BLOCK
  8
0
  2
*D28
 70
     1
 10
0.0
 20
0.0
 30
0.0
  3
*D28
  1

  0
LINE
  5
178
  8
0
  6
CONTINUOUS
 62
     7
 10
67.5
 20
-2.0
 30
0.0
 11
67.5
 21
-26.0
 31
0.0
  0
INSERT
  5
179
  8
0
  6
CONTINUOUS
 62
     7
  2
_DOT
 10
67.5
 20
-2.0
 30
0.0
 50
90.0
  0
INSERT
  5
17A
  8
0
  6
CONTINUOUS
 62
     7
  2
_DOT
 10
67.5
 20
-26.0
 30
0.0
 50
270.0
  0
LINE
  5
17B
  8
0
  6
CONTINUOUS
 62
     7
 10
40.039999999999999
 20
-2.0
 30
0.0
 11
67.500099000000006
 21
-2.0
 31
0.0
  0
LINE
  5
17C
  8
0
  6
CONTINUOUS
 62
     7
 10
17.539999999999999
 20
-26.0
 30
0.0
 11
67.500099000000006
 21
-26.0
 31
0.0
  0
TEXT
  5
17D
  8
0
  6
CONTINUOUS
 62
     7
 10
66.75
 20
-16.5715
 30
0.0
 40
3.0
  1
24
 50
90.000003000000007
 41
1.0285999999999991
  0
POINT
  5
17E
  8
DEFPOINTS
  6
CONTINUOUS
 62
     7
 10
37.5
 20
-2.0
 30
0.0
  0
POINT
  5
17F
  8
DEFPOINTS
  6
CONTINUOUS
 62
     7
 10
15.0
 20
-26.0
 30
0.0
  0
POINT
  5
180
  8
DEFPOINTS
  6
CONTINUOUS
 62
     7
 10
67.5
 20
-26.0
 30
0.0
  0
ENDBLK
  5
181
  8
0
  0
BLOCK
  8
0
  2
*D29
 70
     1
 10
0.0
 20
0.0
 30
0.0
  3
*D29
  1

  0
LINE
  5
184
  8
0
  6
CONTINUOUS
 62
     7
 10
82.5
 20
0.0
 30
0.0
 11
82.5
 21
7.1001282000000003
 31
0.0
  0
LINE
  5
185
  8
0
  6
CONTINUOUS
 62
     7
 10
82.5
 20
0.0
 30
0.0
 11
82.5
 21
-2.0
 31
0.0
  0
INSERT
  5
186
  8
0
  6
CONTINUOUS
 62
     7
  2
_DOT
 10
82.5
 20
0.0
 30
0.0
 50
90.0
  0
INSERT
  5
187
  8
0
  6
CONTINUOUS
 62
     7
  2
_DOT
 10
82.5
 20
-2.0
 30
0.0
 50
270.0
  0
LINE
  5
188
  8
0
  6
CONTINUOUS
 62
     7
 10
40.039999999999999
 20
0.0
 30
0.0
 11
82.500099000000006
 21
0.0
 31
0.0
  0
LINE
  5
189
  8
0
  6
CONTINUOUS
 62
     7
 10
40.039999999999999
 20
-2.0
 30
0.0
 11
82.500099000000006
 21
-2.0
 31
0.0
  0
TEXT
  5
18A
  8
0
  6
CONTINUOUS
 62
     7
 10
81.75
 20
4.9571253999999989
 30
0.0
 40
3.0
  1
2
 50
90.000003000000007
  0
POINT
  5
18B
  8
DEFPOINTS
  6
CONTINUOUS
 62
     7
 10
37.5
 20
0.0
 30
0.0
  0
POINT
  5
18C
  8
DEFPOINTS
  6
CONTINUOUS
 62
     7
 10
37.5
 20
-2.0
 30
0.0
  0
POINT
  5
18D
  8
DEFPOINTS
  6
CONTINUOUS
 62
     7
 10
82.5
 20
-2.0
 30
0.0
  0
ENDBLK
  5
18E
  8
0
  0
BLOCK
  8
0
  2
*D30
 70
     1
 10
0.0
 20
0.0
 30
0.0
  3
*D30
  1

  0
LINE
  5
191
  8
0
  6
CONTINUOUS
 62
     7
 10
82.5
 20
-2.0
 30
0.0
 11
82.5
 21
-48.0
 31
0.0
  0
INSERT
  5
192
  8
0
  6
CONTINUOUS
 62
     7
  2
_DOT
 10
82.5
 20
-2.0
 30
0.0
 50
90.0
  0
INSERT
  5
193
  8
0
  6
CONTINUOUS
 62
     7
  2
_DOT
 10
82.5
 20
-48.0
 30
0.0
 50
270.0
  0
LINE
  5
194
  8
0
  6
CONTINUOUS
 62
     7
 10
40.039999999999999
 20
-48.0
 30
0.0
 11
82.500099000000006
 21
-48.0
 31
0.0
  0
TEXT
  5
195
  8
0
  6
CONTINUOUS
 62
     7
 10
81.75
 20
-27.5715
 30
0.0
 40
3.0
  1
Dt
 50
90.000003000000007
 41
1.0285999999999991
  0
POINT
  5
196
  8
DEFPOINTS
  6
CONTINUOUS
 62
     7
 10
37.5
 20
-2.0
 30
0.0
  0
POINT
  5
197
  8
DEFPOINTS
  6
CONTINUOUS
 62
     7
 10
37.5
 20
-48.0
 30
0.0
  0
POINT
  5
198
  8
DEFPOINTS
  6
CONTINUOUS
 62
     7
 10
82.5
 20
-48.0
 30
0.0
  0
ENDBLK
  5
199
  8
0
  0
BLOCK
  8
0
  2
*D31
 70
     1
 10
0.0
 20
0.0
 30
0.0
  3
*D31
  1

  0
LINE
  5
19C
  8
0
  6
CONTINUOUS
 62
     7
 10
82.5
 20
-50.0
 30
0.0
 11
82.5
 21
-55.622955000000012
 31
0.0
  0
LINE
  5
19D
  8
0
  6
CONTINUOUS
 62
     7
 10
82.5
 20
-48.0
 30
0.0
 11
82.5
 21
-50.0
 31
0.0
  0
INSERT
  5
19E
  8
0
  6
CONTINUOUS
 62
     7
  2
_DOT
 10
82.5
 20
-48.0
 30
0.0
 50
90.0
  0
INSERT
  5
19F
  8
0
  6
CONTINUOUS
 62
     7
  2
_DOT
 10
82.5
 20
-50.0
 30
0.0
 50
270.0
  0
LINE
  5
1A0
  8
0
  6
CONTINUOUS
 62
     7
 10
40.039999999999999
 20
-50.0
 30
0.0
 11
82.500099000000006
 21
-50.0
 31
0.0
  0
TEXT
  5
1A1
  8
0
  6
CONTINUOUS
 62
     7
 10
81.75
 20
-55.622953000000003
 30
0.0
 40
3.0
  1
2
 50
90.000003000000007
  0
POINT
  5
1A2
  8
DEFPOINTS
  6
CONTINUOUS
 62
     7
 10
37.5
 20
-48.0
 30
0.0
  0
POINT
  5
1A3
  8
DEFPOINTS
  6
CONTINUOUS
 62
     7
 10
37.5
 20
-50.0
 30
0.0
  0
POINT
  5
1A4
  8
DEFPOINTS
  6
CONTINUOUS
 62
     7
 10
82.5
 20
-50.0
 30
0.0
  0
ENDBLK
  5
1A5
  8
0
  0
BLOCK
  8
0
  2
*D32
 70
     1
 10
0.0
 20
0.0
 30
0.0
  3
*D32
  1

  0
LINE
  5
1A8
  8
0
  6
CONTINUOUS
 62
     7
 10
-11.0
 20
-97.117226000000016
 30
0.0
 11
24.0
 21
-97.117226000000016
 31
0.0
  0
INSERT
  5
1A9
  8
0
  6
CONTINUOUS
 62
     7
  2
_DOT
 10
-11.0
 20
-97.117226000000016
 30
0.0
 50
180.0
  0
INSERT
  5
1AA
  8
0
  6
CONTINUOUS
 62
     7
  2
_DOT
 10
24.0
 20
-97.117226000000016
 30
0.0
  0
LINE
  5
1AB
  8
0
  6
CONTINUOUS
 62
     7
 10
-11.0
 20
-126.57722
 30
0.0
 11
-11.0
 21
-97.117125999999999
 31
0.0
  0
LINE
  5
1AC
  8
0
  6
CONTINUOUS
 62
     7
 10
24.0
 20
-126.57722
 30
0.0
 11
24.0
 21
-97.117125999999999
 31
0.0
  0
TEXT
  5
1AD
  8
0
  6
CONTINUOUS
 62
     7
 10
3.9284998999999989
 20
-96.367226000000002
 30
0.0
 40
3.0
  1
35
 41
1.0285999999999991
  0
POINT
  5
1AE
  8
DEFPOINTS
  6
CONTINUOUS
 62
     7
 10
-11.0
 20
-129.11722
 30
0.0
  0
POINT
  5
1AF
  8
DEFPOINTS
  6
CONTINUOUS
 62
     7
 10
24.0
 20
-129.11722
 30
0.0
  0
POINT
  5
1B0
  8
DEFPOINTS
  6
CONTINUOUS
 62
     7
 10
24.0
 20
-97.117226000000016
 30
0.0
  0
ENDBLK
  5
1B1
  8
0
  0
BLOCK
  8
0
  2
*D33
 70
     1
 10
0.0
 20
0.0
 30
0.0
  3
*D33
  1

  0
LINE
  5
1B4
  8
0
  6
CONTINUOUS
 62
     7
 10
-37.5
 20
-97.117226000000016
 30
0.0
 11
-11.0
 21
-97.117226000000016
 31
0.0
  0
INSERT
  5
1B5
  8
0
  6
CONTINUOUS
 62
     7
  2
_DOT
 10
-37.5
 20
-97.117226000000016
 30
0.0
 50
180.0
  0
INSERT
  5
1B6
  8
0
  6
CONTINUOUS
 62
     7
  2
_DOT
 10
-11.0
 20
-97.117226000000016
 30
0.0
  0
LINE
  5
1B7
  8
0
  6
CONTINUOUS
 62
     7
 10
-37.5
 20
-109.5772299999999
 30
0.0
 11
-37.5
 21
-97.117125999999999
 31
0.0
  0
LINE
  5
1B8
  8
0
  6
CONTINUOUS
 62
     7
 10
-11.0
 20
-126.57722
 30
0.0
 11
-11.0
 21
-97.117125999999999
 31
0.0
  0
TEXT
  5
1B9
  8
0
  6
CONTINUOUS
 62
     7
 10
-29.8215
 20
-96.367226000000002
 30
0.0
 40
3.0
  1
26.5
 41
1.2381111
  0
POINT
  5
1BA
  8
DEFPOINTS
  6
CONTINUOUS
 62
     7
 10
-37.5
 20
-112.11723000000001
 30
0.0
  0
POINT
  5
1BB
  8
DEFPOINTS
  6
CONTINUOUS
 62
     7
 10
-11.0
 20
-129.11722
 30
0.0
  0
POINT
  5
1BC
  8
DEFPOINTS
  6
CONTINUOUS
 62
     7
 10
-11.0
 20
-97.117226000000016
 30
0.0
  0
ENDBLK
  5
1BD
  8
0
  0
BLOCK
  8
0
  2
*D34
 70
     1
 10
0.0
 20
0.0
 30
0.0
  3
*D34
  1

  0
LINE
  5
1C0
  8
0
  6
CONTINUOUS
 62
     7
 10
24.0
 20
-97.117226000000016
 30
0.0
 11
37.5
 21
-97.117226000000016
 31
0.0
  0
INSERT
  5
1C1
  8
0
  6
CONTINUOUS
 62
     7
  2
_DOT
 10
24.0
 20
-97.117226000000016
 30
0.0
 50
180.0
  0
INSERT
  5
1C2
  8
0
  6
CONTINUOUS
 62
     7
  2
_DOT
 10
37.5
 20
-97.117226000000016
 30
0.0
  0
LINE
  5
1C3
  8
0
  6
CONTINUOUS
 62
     7
 10
37.5
 20
-109.5772299999999
 30
0.0
 11
37.5
 21
-97.117125999999999
 31
0.0
  0
TEXT
  5
1C4
  8
0
  6
CONTINUOUS
 62
     7
 10
20.029540000000001
 20
-96.367226000000002
 30
0.0
 40
3.0
  1
13.5
 41
1.3928750000000001
  0
POINT
  5
1C5
  8
DEFPOINTS
  6
CONTINUOUS
 62
     7
 10
24.0
 20
-129.11722
 30
0.0
  0
POINT
  5
1C6
  8
DEFPOINTS
  6
CONTINUOUS
 62
     7
 10
37.5
 20
-112.11723000000001
 30
0.0
  0
POINT
  5
1C7
  8
DEFPOINTS
  6
CONTINUOUS
 62
     7
 10
37.5
 20
-97.117226000000016
 30
0.0
  0
ENDBLK
  5
1C8
  8
0
  0
BLOCK
  8
0
  2
*D35
 70
     1
 10
0.0
 20
0.0
 30
0.0
  3
*D35
  1

  0
LINE
  5
1CB
  8
0
  6
CONTINUOUS
 62
     7
 10
-32.5
 20
-82.117225999999988
 30
0.0
 11
32.5
 21
-82.117225999999988
 31
0.0
  0
INSERT
  5
1CC
  8
0
  6
CONTINUOUS
 62
     7
  2
_DOT
 10
-32.5
 20
-82.117225999999988
 30
0.0
 50
180.0
  0
INSERT
  5
1CD
  8
0
  6
CONTINUOUS
 62
     7
  2
_DOT
 10
32.5
 20
-82.117225999999988
 30
0.0
  0
LINE
  5
1CE
  8
0
  6
CONTINUOUS
 62
     7
 10
-32.5
 20
-115.5772299999999
 30
0.0
 11
-32.5
 21
-82.117125999999999
 31
0.0
  0
LINE
  5
1CF
  8
0
  6
CONTINUOUS
 62
     7
 10
32.5
 20
-115.5772299999999
 30
0.0
 11
32.5
 21
-82.117125999999999
 31
0.0
  0
TEXT
  5
1D0
  8
0
  6
CONTINUOUS
 62
     7
 10
-7.071500099999998
 20
-81.367226000000002
 30
0.0
 40
3.0
  1
切カキ６５
 41
0.84891958
  0
POINT
  5
1D1
  8
DEFPOINTS
  6
CONTINUOUS
 62
     7
 10
-32.5
 20
-118.11723000000001
 30
0.0
  0
POINT
  5
1D2
  8
DEFPOINTS
  6
CONTINUOUS
 62
     7
 10
32.5
 20
-118.11723000000001
 30
0.0
  0
POINT
  5
1D3
  8
DEFPOINTS
  6
CONTINUOUS
 62
     7
 10
32.5
 20
-82.117225999999988
 30
0.0
  0
ENDBLK
  5
1D4
  8
0
  0
BLOCK
  8
0
  2
*D36
 70
     1
 10
0.0
 20
0.0
 30
0.0
  3
*D36
  1

  0
LINE
  5
1D7
  8
0
  6
CONTINUOUS
 62
     7
 10
-37.5
 20
-67.117226000000002
 30
0.0
 11
37.5
 21
-67.117226000000002
 31
0.0
  0
INSERT
  5
1D8
  8
0
  6
CONTINUOUS
 62
     7
  2
_DOT
 10
-37.5
 20
-67.117226000000002
 30
0.0
 50
180.0
  0
INSERT
  5
1D9
  8
0
  6
CONTINUOUS
 62
     7
  2
_DOT
 10
37.5
 20
-67.117226000000002
 30
0.0
  0
LINE
  5
1DA
  8
0
  6
CONTINUOUS
 62
     7
 10
-37.5
 20
-109.5772299999999
 30
0.0
 11
-37.5
 21
-67.117125999999999
 31
0.0
  0
LINE
  5
1DB
  8
0
  6
CONTINUOUS
 62
     7
 10
37.5
 20
-109.5772299999999
 30
0.0
 11
37.5
 21
-67.117125999999999
 31
0.0
  0
TEXT
  5
1DC
  8
0
  6
CONTINUOUS
 62
     7
 10
-2.5715001000000002
 20
-66.367226000000002
 30
0.0
 40
3.0
  1
75
 41
1.0285999999999991
  0
POINT
  5
1DD
  8
DEFPOINTS
  6
CONTINUOUS
 62
     7
 10
-37.5
 20
-112.11723000000001
 30
0.0
  0
POINT
  5
1DE
  8
DEFPOINTS
  6
CONTINUOUS
 62
     7
 10
37.5
 20
-112.11723000000001
 30
0.0
  0
POINT
  5
1DF
  8
DEFPOINTS
  6
CONTINUOUS
 62
     7
 10
37.5
 20
-67.117226000000002
 30
0.0
  0
ENDBLK
  5
1E0
  8
0
  0
BLOCK
  8
0
  2
*D37
 70
     1
 10
0.0
 20
0.0
 30
0.0
  3
*D37
  1

  0
LINE
  5
1E3
  8
0
  6
CONTINUOUS
 62
     7
 10
52.5
 20
-112.11723000000001
 30
0.0
 11
52.5
 21
-129.11722
 31
0.0
  0
INSERT
  5
1E4
  8
0
  6
CONTINUOUS
 62
     7
  2
_DOT
 10
52.5
 20
-112.11723000000001
 30
0.0
 50
90.0
  0
INSERT
  5
1E5
  8
0
  6
CONTINUOUS
 62
     7
  2
_DOT
 10
52.5
 20
-129.11722
 30
0.0
 50
270.0
  0
LINE
  5
1E6
  8
0
  6
CONTINUOUS
 62
     7
 10
40.039999999999999
 20
-112.11723000000001
 30
0.0
 11
52.500098999999999
 21
-112.11723000000001
 31
0.0
  0
LINE
  5
1E7
  8
0
  6
CONTINUOUS
 62
     7
 10
26.539999999999988
 20
-129.11722
 30
0.0
 11
52.500098999999999
 21
-129.11722
 31
0.0
  0
TEXT
  5
1E8
  8
0
  6
CONTINUOUS
 62
     7
 10
51.75
 20
-126.28981
 30
0.0
 40
3.0
  1
17
 50
90.000003000000007
 41
1.2857499999999991
  0
POINT
  5
1E9
  8
DEFPOINTS
  6
CONTINUOUS
 62
     7
 10
37.5
 20
-112.11723000000001
 30
0.0
  0
POINT
  5
1EA
  8
DEFPOINTS
  6
CONTINUOUS
 62
     7
 10
24.0
 20
-129.11722
 30
0.0
  0
POINT
  5
1EB
  8
DEFPOINTS
  6
CONTINUOUS
 62
     7
 10
52.5
 20
-129.11722
 30
0.0
  0
ENDBLK
  5
1EC
  8
0
  0
BLOCK
  8
0
  2
*D38
 70
     1
 10
0.0
 20
0.0
 30
0.0
  3
*D38
  1

  0
LINE
  5
1EF
  8
0
  6
CONTINUOUS
 62
     7
 10
52.5
 20
-129.11722
 30
0.0
 11
52.5
 21
-215.11722
 31
0.0
  0
INSERT
  5
1F0
  8
0
  6
CONTINUOUS
 62
     7
  2
_DOT
 10
52.5
 20
-129.11722
 30
0.0
 50
90.0
  0
INSERT
  5
1F1
  8
0
  6
CONTINUOUS
 62
     7
  2
_DOT
 10
52.5
 20
-215.11722
 30
0.0
 50
270.0
  0
LINE
  5
1F2
  8
0
  6
CONTINUOUS
 62
     7
 10
26.539999999999988
 20
-215.11722
 30
0.0
 11
52.500098999999999
 21
-215.11722
 31
0.0
  0
TEXT
  5
1F3
  8
0
  6
CONTINUOUS
 62
     7
 10
51.75
 20
-174.6887199999999
 30
0.0
 40
3.0
  1
86
 50
90.000003000000007
 41
1.0285999999999991
  0
POINT
  5
1F4
  8
DEFPOINTS
  6
CONTINUOUS
 62
     7
 10
24.0
 20
-129.11722
 30
0.0
  0
POINT
  5
1F5
  8
DEFPOINTS
  6
CONTINUOUS
 62
     7
 10
24.0
 20
-215.11722
 30
0.0
  0
POINT
  5
1F6
  8
DEFPOINTS
  6
CONTINUOUS
 62
     7
 10
52.5
 20
-215.11722
 30
0.0
  0
ENDBLK
  5
1F7
  8
0
  0
BLOCK
  8
0
  2
*D39
 70
     1
 10
0.0
 20
0.0
 30
0.0
  3
*D39
  1

  0
LINE
  5
1FA
  8
0
  6
CONTINUOUS
 62
     7
 10
52.5
 20
-215.11722
 30
0.0
 11
52.5
 21
-232.11722
 31
0.0
  0
INSERT
  5
1FB
  8
0
  6
CONTINUOUS
 62
     7
  2
_DOT
 10
52.5
 20
-215.11722
 30
0.0
 50
90.0
  0
INSERT
  5
1FC
  8
0
  6
CONTINUOUS
 62
     7
  2
_DOT
 10
52.5
 20
-232.11722
 30
0.0
 50
270.0
  0
LINE
  5
1FD
  8
0
  6
CONTINUOUS
 62
     7
 10
40.039999999999999
 20
-232.11722
 30
0.0
 11
52.500098999999999
 21
-232.11722
 31
0.0
  0
TEXT
  5
1FE
  8
0
  6
CONTINUOUS
 62
     7
 10
51.75
 20
-223.5824299999999
 30
0.0
 40
3.0
  1
17
 50
90.000003000000007
 41
1.2857499999999991
  0
POINT
  5
1FF
  8
DEFPOINTS
  6
CONTINUOUS
 62
     7
 10
24.0
 20
-215.11722
 30
0.0
  0
POINT
  5
200
  8
DEFPOINTS
  6
CONTINUOUS
 62
     7
 10
37.5
 20
-232.11722
 30
0.0
  0
POINT
  5
201
  8
DEFPOINTS
  6
CONTINUOUS
 62
     7
 10
52.5
 20
-232.11722
 30
0.0
  0
ENDBLK
  5
202
  8
0
  0
BLOCK
  8
0
  2
*D40
 70
     1
 10
0.0
 20
0.0
 30
0.0
  3
*D40
  1

  0
LINE
  5
205
  8
0
  6
CONTINUOUS
 62
     7
 10
67.5
 20
-117.11723000000001
 30
0.0
 11
67.5
 21
-227.11722
 31
0.0
  0
INSERT
  5
206
  8
0
  6
CONTINUOUS
 62
     7
  2
_DOT
 10
67.5
 20
-117.11723000000001
 30
0.0
 50
90.0
  0
INSERT
  5
207
  8
0
  6
CONTINUOUS
 62
     7
  2
_DOT
 10
67.5
 20
-227.11722
 30
0.0
 50
270.0
  0
LINE
  5
208
  8
0
  6
CONTINUOUS
 62
     7
 10
34.039999999999992
 20
-117.11723000000001
 30
0.0
 11
67.500099000000006
 21
-117.11723000000001
 31
0.0
  0
LINE
  5
209
  8
0
  6
CONTINUOUS
 62
     7
 10
34.039999999999992
 20
-227.11722
 30
0.0
 11
67.500099000000006
 21
-227.11722
 31
0.0
  0
TEXT
  5
20A
  8
0
  6
CONTINUOUS
 62
     7
 10
66.75
 20
-180.68871999999999
 30
0.0
 40
3.0
  1
切カキ１１０
 50
90.000003000000007
 41
0.84740485
  0
POINT
  5
20B
  8
DEFPOINTS
  6
CONTINUOUS
 62
     7
 10
31.5
 20
-117.11723000000001
 30
0.0
  0
POINT
  5
20C
  8
DEFPOINTS
  6
CONTINUOUS
 62
     7
 10
31.5
 20
-227.11722
 30
0.0
  0
POINT
  5
20D
  8
DEFPOINTS
  6
CONTINUOUS
 62
     7
 10
67.5
 20
-227.11722
 30
0.0
  0
ENDBLK
  5
20E
  8
0
  0
BLOCK
  8
0
  2
*D41
 70
     1
 10
0.0
 20
0.0
 30
0.0
  3
*D41
  1

  0
LINE
  5
211
  8
0
  6
CONTINUOUS
 62
     7
 10
82.5
 20
-112.11723000000001
 30
0.0
 11
82.5
 21
-232.11722
 31
0.0
  0
INSERT
  5
212
  8
0
  6
CONTINUOUS
 62
     7
  2
_DOT
 10
82.5
 20
-112.11723000000001
 30
0.0
 50
90.0
  0
INSERT
  5
213
  8
0
  6
CONTINUOUS
 62
     7
  2
_DOT
 10
82.5
 20
-232.11722
 30
0.0
 50
270.0
  0
LINE
  5
214
  8
0
  6
CONTINUOUS
 62
     7
 10
40.039999999999999
 20
-112.11723000000001
 30
0.0
 11
82.500099000000006
 21
-112.11723000000001
 31
0.0
  0
LINE
  5
215
  8
0
  6
CONTINUOUS
 62
     7
 10
40.039999999999999
 20
-232.11722
 30
0.0
 11
82.500099000000006
 21
-232.11722
 31
0.0
  0
TEXT
  5
216
  8
0
  6
CONTINUOUS
 62
     7
 10
81.75
 20
-176.1887199999999
 30
0.0
 40
3.0
  1
120
 50
90.000003000000007
 41
1.221449999999999
  0
POINT
  5
217
  8
DEFPOINTS
  6
CONTINUOUS
 62
     7
 10
37.5
 20
-112.11723000000001
 30
0.0
  0
POINT
  5
218
  8
DEFPOINTS
  6
CONTINUOUS
 62
     7
 10
37.5
 20
-232.11722
 30
0.0
  0
POINT
  5
219
  8
DEFPOINTS
  6
CONTINUOUS
 62
     7
 10
82.5
 20
-232.11722
 30
0.0
  0
ENDBLK
  5
21A
  8
0
  0
BLOCK
  8
0
  2
KOZU0001
 70
     0
 10
0.0
 20
0.0
 30
0.0
  3
KOZU0001
  1

  0
POINT
  5
21D
  8
0
  6
CONTINUOUS
 62
     7
 10
0.0
 20
0.0
 30
0.0
  0
LINE
  5
21E
  8
0
  6
CONTINUOUS
 62
     3
 10
-37.5
 20
-113.11723000000001
 30
0.0
 11
-37.5
 21
-231.11722
 31
0.0
  0
LINE
  5
21F
  8
0
  6
CONTINUOUS
 62
     3
 10
-36.5
 20
-232.11722
 30
0.0
 11
36.5
 21
-232.11722
 31
0.0
  0
LINE
  5
220
  8
0
  6
CONTINUOUS
 62
     3
 10
-36.5
 20
-112.11723000000001
 30
0.0
 11
36.5
 21
-112.11723000000001
 31
0.0
  0
LINE
  5
221
  8
0
  6
CONTINUOUS
 62
     3
 10
-11.0
 20
-215.11722
 30
0.0
 11
24.0
 21
-215.11722
 31
0.0
  0
LINE
  5
222
  8
0
  6
CONTINUOUS
 62
     3
 10
-11.0
 20
-129.11722
 30
0.0
 11
24.0
 21
-129.11722
 31
0.0
  0
LINE
  5
223
  8
0
  6
CONTINUOUS
 62
     3
 10
37.5
 20
-113.11723000000001
 30
0.0
 11
37.5
 21
-231.11722
 31
0.0
  0
LINE
  5
224
  8
0
  6
CENTER
 62
     7
 10
0.0
 20
-202.11722
 30
0.0
 11
0.0
 21
-212.11722
 31
0.0
  0
LINE
  5
225
  8
0
  6
CONTINUOUS
 62
     3
 10
-11.0
 20
-129.11722
 30
0.0
 11
-11.0
 21
-215.11722
 31
0.0
  0
LINE
  5
226
  8
0
  6
CONTINUOUS
 62
     7
 10
-2.0
 20
-207.91723999999999
 30
0.0
 11
-1.0
 21
-207.91723999999999
 31
0.0
  0
LINE
  5
227
  8
0
  6
CENTER
 62
     7
 10
5.0
 20
-207.11721999999989
 30
0.0
 11
-5.0
 21
-207.11721999999989
 31
0.0
  0
LINE
  5
228
  8
0
  6
CONTINUOUS
 62
     3
 10
24.0
 20
-129.11722
 30
0.0
 11
24.0
 21
-215.11722
 31
0.0
  0
LINE
  5
229
  8
0
  6
CONTINUOUS
 62
     3
 10
-37.5
 20
0.0
 30
0.0
 11
-37.5
 21
-2.0
 31
0.0
  0
LINE
  5
22A
  8
0
  6
CONTINUOUS
 62
     7
 10
-2.4999962
 20
-207.41721999999999
 30
0.0
 11
-2.4999962
 21
-206.81723
 31
0.0
  0
LINE
  5
22B
  8
0
  6
CONTINUOUS
 62
     7
 10
2.5000037999999991
 20
-207.41721999999999
 30
0.0
 11
2.5000037999999991
 21
-206.81723
 31
0.0
  0
LINE
  5
22C
  8
0
  6
CONTINUOUS
 62
     7
 10
-2.0
 20
-206.31723
 30
0.0
 11
-1.0
 21
-206.31723
 31
0.0
  0
LINE
  5
22D
  8
0
  6
CONTINUOUS
 62
     7
 10
-0.29999924
 20
-209.61722
 30
0.0
 11
0.29999924
 21
-209.61722
 31
0.0
  0
LINE
  5
22E
  8
0
  6
CONTINUOUS
 62
     7
 10
-0.29999924
 20
-204.61721999999989
 30
0.0
 11
0.29999924
 21
-204.61721999999989
 31
0.0
  0
LINE
  5
22F
  8
0
  6
CONTINUOUS
 62
     7
 10
-0.79999924
 20
-205.11721999999989
 30
0.0
 11
-0.79999924
 21
-206.11722999999989
 31
0.0
  0
LINE
  5
230
  8
0
  6
CONTINUOUS
 62
     7
 10
0.79999924
 20
-205.11721999999989
 30
0.0
 11
0.79999924
 21
-206.11722999999989
 31
0.0
  0
LINE
  5
231
  8
0
  6
CONTINUOUS
 62
     7
 10
0.79999924
 20
-208.11722999999989
 30
0.0
 11
0.79999924
 21
-209.11721999999989
 31
0.0
  0
LINE
  5
232
  8
0
  6
CONTINUOUS
 62
     7
 10
-0.79999924
 20
-208.11722999999989
 30
0.0
 11
-0.79999924
 21
-209.11721999999989
 31
0.0
  0
LINE
  5
233
  8
0
  6
CONTINUOUS
 62
     7
 10
1.0
 20
-207.91723999999999
 30
0.0
 11
2.0
 21
-207.91723999999999
 31
0.0
  0
LINE
  5
234
  8
0
  6
CONTINUOUS
 62
     7
 10
1.0
 20
-206.31723
 30
0.0
 11
2.0
 21
-206.31723
 31
0.0
  0
LINE
  5
235
  8
0
  6
CONTINUOUS
 62
     7
 10
-2.0
 20
-136.31723
 30
0.0
 11
-1.0
 21
-136.31723
 31
0.0
  0
LINE
  5
236
  8
0
  6
CONTINUOUS
 62
     7
 10
-2.0
 20
-137.91723999999991
 30
0.0
 11
-1.0
 21
-137.91723999999991
 31
0.0
  0
LINE
  5
237
  8
0
  6
CONTINUOUS
 62
     7
 10
2.5000037999999991
 20
-137.4172199999999
 30
0.0
 11
2.5000037999999991
 21
-136.81722999999991
 31
0.0
  0
LINE
  5
238
  8
0
  6
CONTINUOUS
 62
     7
 10
-2.4999962
 20
-137.4172199999999
 30
0.0
 11
-2.4999962
 21
-136.81722999999991
 31
0.0
  0
LINE
  5
239
  8
0
  6
CONTINUOUS
 62
     7
 10
-0.29999924
 20
-139.61722
 30
0.0
 11
0.29999924
 21
-139.61722
 31
0.0
  0
LINE
  5
23A
  8
0
  6
CONTINUOUS
 62
     7
 10
-0.29999924
 20
-134.61722
 30
0.0
 11
0.29999924
 21
-134.61722
 31
0.0
  0
LINE
  5
23B
  8
0
  6
CONTINUOUS
 62
     7
 10
-0.79999924
 20
-135.11722
 30
0.0
 11
-0.79999924
 21
-136.11723000000001
 31
0.0
  0
LINE
  5
23C
  8
0
  6
CONTINUOUS
 62
     7
 10
0.79999924
 20
-135.11722
 30
0.0
 11
0.79999924
 21
-136.11723000000001
 31
0.0
  0
LINE
  5
23D
  8
0
  6
CONTINUOUS
 62
     7
 10
0.79999924
 20
-138.11723000000001
 30
0.0
 11
0.79999924
 21
-139.11721999999989
 31
0.0
  0
LINE
  5
23E
  8
0
  6
CONTINUOUS
 62
     7
 10
-0.79999924
 20
-138.11723000000001
 30
0.0
 11
-0.79999924
 21
-139.11721999999989
 31
0.0
  0
LINE
  5
23F
  8
0
  6
CONTINUOUS
 62
     7
 10
1.0
 20
-137.91723999999991
 30
0.0
 11
2.0
 21
-137.91723999999991
 31
0.0
  0
LINE
  5
240
  8
0
  6
CONTINUOUS
 62
     7
 10
1.0
 20
-136.31723
 30
0.0
 11
2.0
 21
-136.31723
 31
0.0
  0
LINE
  5
241
  8
0
  6
CENTER
 62
     7
 10
5.0
 20
-137.11721999999989
 30
0.0
 11
-5.0
 21
-137.11721999999989
 31
0.0
  0
LINE
  5
242
  8
0
  6
CENTER
 62
     7
 10
0.0
 20
-132.11722
 30
0.0
 11
0.0
 21
-142.11721999999989
 31
0.0
  0
LINE
  5
243
  8
0
  6
CONTINUOUS
 62
     3
 10
37.5
 20
0.0
 30
0.0
 11
37.5
 21
-2.0
 31
0.0
  0
LINE
  5
244
  8
0
  6
CONTINUOUS
 62
     3
 10
-37.5
 20
0.0
 30
0.0
 11
37.5
 21
0.0
 31
0.0
  0
LINE
  5
245
  8
0
  6
CONTINUOUS
 62
     3
 10
-37.5
 20
-50.0
 30
0.0
 11
37.5
 21
-50.0
 31
0.0
  0
LINE
  5
246
  8
0
  6
CONTINUOUS
 62
     3
 10
-37.5
 20
-2.0
 30
0.0
 11
37.5
 21
-2.0
 31
0.0
  0
LINE
  5
247
  8
0
  6
CONTINUOUS
 62
     3
 10
-37.5
 20
-48.0
 30
0.0
 11
37.5
 21
-48.0
 31
0.0
  0
LINE
  5
248
  8
0
  6
CENTER
 62
     7
 10
0.0
 20
5.0
 30
0.0
 11
0.0
 21
-55.0
 31
0.0
  0
LINE
  5
249
  8
0
  6
CONTINUOUS
 62
     3
 10
-23.900002000000001
 20
-30.0
 30
0.0
 11
6.6999968999999986
 21
-30.0
 31
0.0
  0
LINE
  5
24A
  8
0
  6
CONTINUOUS
 62
     3
 10
31.899999999999991
 20
-3.6000060999999999
 30
0.0
 11
31.899999999999991
 21
-2.0
 31
0.0
  0
LINE
  5
24B
  8
0
  6
CONTINUOUS
 62
     3
 10
-32.5
 20
-46.400002000000001
 30
0.0
 11
31.899999999999991
 21
-46.400002000000001
 31
0.0
  0
LINE
  5
24C
  8
0
  6
CONTINUOUS
 62
     3
 10
-32.5
 20
-46.400002000000001
 30
0.0
 11
-32.5
 21
-48.0
 31
0.0
  0
LINE
  5
24D
  8
0
  6
CONTINUOUS
 62
     3
 10
-26.900002000000001
 20
-33.0
 30
0.0
 11
-26.900002000000001
 21
-46.400002000000001
 31
0.0
  0
LINE
  5
24E
  8
0
  6
CONTINUOUS
 62
     3
 10
-32.5
 20
-3.6000060999999999
 30
0.0
 11
31.899999999999991
 21
-3.6000060999999999
 31
0.0
  0
LINE
  5
24F
  8
0
  6
CONTINUOUS
 62
     3
 10
-2.5
 20
-28.400002000000001
 30
0.0
 11
2.5
 21
-28.400002000000001
 31
0.0
  0
LINE
  5
250
  8
0
  6
CONTINUOUS
 62
     3
 10
-32.5
 20
-3.6000060999999999
 30
0.0
 11
-32.5
 21
-2.0
 31
0.0
  0
LINE
  5
251
  8
0
  6
CONTINUOUS
 62
     3
 10
15.0
 20
-2.0
 30
0.0
 11
15.0
 21
-26.0
 31
0.0
  0
LINE
  5
252
  8
0
  6
CONTINUOUS
 62
     3
 10
-2.5000011999999998
 20
-28.399997999999989
 30
0.0
 11
-3.5000011999999998
 21
-29.999995999999999
 31
0.0
  0
LINE
  5
253
  8
0
  6
CONTINUOUS
 62
     3
 10
2.499999799999999
 20
-28.400002000000001
 30
0.0
 11
3.499999799999999
 21
-30.0
 31
0.0
  0
LINE
  5
254
  8
0
  6
CONTINUOUS
 62
     3
 10
-26.900002000000001
 20
-17.0
 30
0.0
 11
-26.900002000000001
 21
-3.6000060999999999
 31
0.0
  0
LINE
  5
255
  8
0
  6
CONTINUOUS
 62
     3
 10
-23.900002000000001
 20
-20.0
 30
0.0
 11
-15.0
 21
-20.0
 31
0.0
  0
LINE
  5
256
  8
0
  6
CONTINUOUS
 62
     3
 10
-15.0
 20
-26.0
 30
0.0
 11
15.0
 21
-26.0
 31
0.0
  0
LINE
  5
257
  8
0
  6
CONTINUOUS
 62
     3
 10
-15.0
 20
-2.0
 30
0.0
 11
-15.0
 21
-26.0
 31
0.0
  0
LINE
  5
258
  8
0
  6
CONTINUOUS
 62
     3
 10
2.0
 20
-26.0
 30
0.0
 11
2.0
 21
-28.400002000000001
 31
0.0
  0
LINE
  5
259
  8
0
  6
CONTINUOUS
 62
     3
 10
-2.0
 20
-26.0
 30
0.0
 11
-2.0
 21
-28.400002000000001
 31
0.0
  0
LINE
  5
25A
  8
0
  6
CONTINUOUS
 62
     3
 10
-37.5
 20
-48.0
 30
0.0
 11
-37.5
 21
-50.0
 31
0.0
  0
LINE
  5
25B
  8
0
  6
CONTINUOUS
 62
     3
 10
37.5
 20
-48.0
 30
0.0
 11
37.5
 21
-50.0
 31
0.0
  0
LINE
  5
25C
  8
0
  6
CONTINUOUS
 62
     3
 10
31.899999999999991
 20
-46.400002000000001
 30
0.0
 11
31.899999999999991
 21
-48.0
 31
0.0
  0
LINE
  5
25D
  8
0
  6
DASHED
 62
     3
 10
-31.5
 20
-226.11722
 30
0.0
 11
31.5
 21
-226.11722
 31
0.0
  0
LINE
  5
25E
  8
0
  6
DASHED
 62
     3
 10
-31.5
 20
-118.11723000000001
 30
0.0
 11
-31.5
 21
-226.11722
 31
0.0
  0
LINE
  5
25F
  8
0
  6
DASHED
 62
     3
 10
-31.5
 20
-118.11723000000001
 30
0.0
 11
31.5
 21
-118.11723000000001
 31
0.0
  0
LINE
  5
260
  8
0
  6
DASHED
 62
     3
 10
31.5
 20
-118.11723000000001
 30
0.0
 11
31.5
 21
-226.11722
 31
0.0
  0
ARC
  5
261
  8
0
  6
CONTINUOUS
 62
     7
 10
0.29999924
 20
-205.11721999999989
 30
0.0
 40
0.5
 50
0.0
 51
89.999982999999986
  0
ARC
  5
262
  8
0
  6
CONTINUOUS
 62
     7
 10
2.0
 20
-207.41721999999999
 30
0.0
 40
0.5
 50
269.99997000000002
 51
0.0
  0
ARC
  5
263
  8
0
  6
CONTINUOUS
 62
     7
 10
-2.0
 20
-206.81723
 30
0.0
 40
0.5
 50
90.0
 51
180.0
  0
ARC
  5
264
  8
0
  6
CONTINUOUS
 62
     7
 10
-2.0
 20
-207.41721999999999
 30
0.0
 40
0.5
 50
180.0
 51
269.99995000000001
  0
CIRCLE
  5
265
  8
0
  6
CONTINUOUS
 62
     3
 10
0.0
 20
-207.11721999999989
 30
0.0
 40
3.0
  0
ARC
  5
266
  8
0
  6
CONTINUOUS
 62
     7
 10
0.29999924
 20
-209.11721999999989
 30
0.0
 40
0.5
 50
270.00002000000001
 51
0.0
  0
ARC
  5
267
  8
0
  6
CONTINUOUS
 62
     7
 10
2.0
 20
-206.81723
 30
0.0
 40
0.5
 50
0.0
 51
90.0
  0
ARC
  5
268
  8
0
  6
CONTINUOUS
 62
     7
 10
-0.29999924
 20
-209.11721999999989
 30
0.0
 40
0.5
 50
180.0
 51
270.00002999999992
  0
ARC
  5
269
  8
0
  6
CONTINUOUS
 62
     7
 10
-0.29999924
 20
-205.11721999999989
 30
0.0
 40
0.5
 50
89.999982999999986
 51
180.0
  0
ARC
  5
26A
  8
0
  6
CONTINUOUS
 62
     7
 10
-1.0
 20
-206.11722999999989
 30
0.0
 40
0.2
 50
270.00002000000001
 51
0.0
  0
ARC
  5
26B
  8
0
  6
CONTINUOUS
 62
     7
 10
-1.0
 20
-208.11722999999989
 30
0.0
 40
0.2
 50
0.0
 51
89.999982999999986
  0
ARC
  5
26C
  8
0
  6
CONTINUOUS
 62
     7
 10
1.0
 20
-206.11722999999989
 30
0.0
 40
0.2
 50
180.0
 51
270.00002999999992
  0
ARC
  5
26D
  8
0
  6
CONTINUOUS
 62
     7
 10
1.0
 20
-208.11722999999989
 30
0.0
 40
0.2
 50
89.999966000000015
 51
180.0
  0
CIRCLE
  5
26E
  8
0
  6
CONTINUOUS
 62
     3
 10
0.0
 20
-137.11721999999989
 30
0.0
 40
3.0
  0
ARC
  5
26F
  8
0
  6
CONTINUOUS
 62
     7
 10
-2.0
 20
-137.4172199999999
 30
0.0
 40
0.5
 50
180.0
 51
269.99995000000001
  0
ARC
  5
270
  8
0
  6
CONTINUOUS
 62
     7
 10
-2.0
 20
-136.81722999999991
 30
0.0
 40
0.5
 50
90.0
 51
180.0
  0
ARC
  5
271
  8
0
  6
CONTINUOUS
 62
     7
 10
2.0
 20
-137.4172199999999
 30
0.0
 40
0.5
 50
269.99997000000002
 51
0.0
  0
ARC
  5
272
  8
0
  6
CONTINUOUS
 62
     7
 10
2.0
 20
-136.81722999999991
 30
0.0
 40
0.5
 50
0.0
 51
90.0
  0
ARC
  5
273
  8
0
  6
CONTINUOUS
 62
     7
 10
-0.29999924
 20
-139.11721999999989
 30
0.0
 40
0.5
 50
180.0
 51
270.00002999999992
  0
ARC
  5
274
  8
0
  6
CONTINUOUS
 62
     7
 10
0.29999924
 20
-139.11721999999989
 30
0.0
 40
0.5
 50
270.00002000000001
 51
0.0
  0
ARC
  5
275
  8
0
  6
CONTINUOUS
 62
     7
 10
0.29999924
 20
-135.11722
 30
0.0
 40
0.5
 50
0.0
 51
89.999982999999986
  0
ARC
  5
276
  8
0
  6
CONTINUOUS
 62
     7
 10
-0.29999924
 20
-135.11722
 30
0.0
 40
0.5
 50
89.999982999999986
 51
180.0
  0
ARC
  5
277
  8
0
  6
CONTINUOUS
 62
     7
 10
1.0
 20
-136.11723000000001
 30
0.0
 40
0.2
 50
180.0
 51
270.00002999999992
  0
ARC
  5
278
  8
0
  6
CONTINUOUS
 62
     7
 10
-1.0
 20
-136.11723000000001
 30
0.0
 40
0.2
 50
270.00002000000001
 51
0.0
  0
ARC
  5
279
  8
0
  6
CONTINUOUS
 62
     7
 10
-1.0
 20
-138.11723000000001
 30
0.0
 40
0.2
 50
0.0
 51
89.999982999999986
  0
ARC
  5
27A
  8
0
  6
CONTINUOUS
 62
     7
 10
1.0
 20
-138.11723000000001
 30
0.0
 40
0.2
 50
89.999966000000015
 51
180.0
  0
ARC
  5
27B
  8
0
  6
CONTINUOUS
 62
     3
 10
6.6999968999999986
 20
-48.0
 30
0.0
 40
18.0
 50
5.0996842999999989
 51
89.999981999999974
  0
ARC
  5
27C
  8
0
  6
CONTINUOUS
 62
     3
 10
-23.900002000000001
 20
-33.0
 30
0.0
 40
3.0
 50
90.0
 51
180.0
  0
ARC
  5
27D
  8
0
  6
CONTINUOUS
 62
     3
 10
-23.900002000000001
 20
-17.0
 30
0.0
 40
3.0
 50
179.99995999999999
 51
269.99995999999987
  0
ARC
  5
27E
  8
0
  6
CONTINUOUS
 62
     3
 10
6.6999968999999986
 20
-2.0
 30
0.0
 40
18.0
 50
297.45884000000001
 51
354.90026
  0
ARC
  5
27F
  8
0
  6
CONTINUOUS
 62
     7
 10
-36.5
 20
-113.11723000000001
 30
0.0
 40
1.0
 50
90.0
 51
180.0
  0
ARC
  5
280
  8
0
  6
CONTINUOUS
 62
     7
 10
-36.5
 20
-231.11722
 30
0.0
 40
1.0
 50
180.0
 51
270.0
  0
ARC
  5
281
  8
0
  6
CONTINUOUS
 62
     7
 10
36.5
 20
-113.11723000000001
 30
0.0
 40
1.0
 50
0.0
 51
90.0
  0
ARC
  5
282
  8
0
  6
CONTINUOUS
 62
     7
 10
36.5
 20
-231.11722
 30
0.0
 40
1.0
 50
270.0
 51
0.0
  0
DIMENSION
  5
283
  8
0
  6
CONTINUOUS
 62
     7
  2
*D25
 10
52.5
 20
-20.0
 30
0.0
 11
52.5
 21
-11.0
 31
0.0
  3
DIMSTYLE
 13
37.5
 23
-2.0
 33
0.0
 14
18.276872999999998
 24
-20.0
 34
0.0
 50
90.0
1001
ACAD
1000
DSTYLE
1002
{
1070
    77
1070
     1
1070
   172
1070
     1
1002
}
  0
DIMENSION
  5
284
  8
0
  6
CONTINUOUS
 62
     7
  2
*D26
 10
52.5
 20
-48.0
 30
0.0
 11
52.5
 21
-39.0
 31
0.0
  3
DIMSTYLE
 13
18.276872999999998
 23
-30.0
 33
0.0
 14
37.5
 24
-48.0
 34
0.0
 50
90.0
1001
ACAD
1000
DSTYLE
1002
{
1070
    77
1070
     1
1070
   172
1070
     1
1002
}
  0
DIMENSION
  5
285
  8
0
  6
CONTINUOUS
 62
     7
  2
*D27
 10
67.5
 20
-28.400002000000001
 30
0.0
 11
67.5
 21
-38.199996999999989
 31
0.0
  3
DIMSTYLE
 13
37.5
 23
-48.0
 33
0.0
 14
2.5
 24
-28.400002000000001
 34
0.0
 50
90.0
1001
ACAD
1000
DSTYLE
1002
{
1070
    77
1070
     1
1070
   172
1070
     1
1002
}
  0
DIMENSION
  5
286
  8
0
  6
CONTINUOUS
 62
     7
  2
*D28
 10
67.5
 20
-26.0
 30
0.0
 11
67.5
 21
-14.0
 31
0.0
  3
DIMSTYLE
 13
37.5
 23
-2.0
 33
0.0
 14
15.0
 24
-26.0
 34
0.0
 50
90.0
1001
ACAD
1000
DSTYLE
1002
{
1070
    77
1070
     1
1070
   172
1070
     1
1002
}
  0
DIMENSION
  5
287
  8
0
  6
CONTINUOUS
 62
     7
  2
*D29
 10
82.5
 20
-2.0
 30
0.0
 11
82.5
 21
6.0286254999999986
 31
0.0
  3
DIMSTYLE
 13
37.5
 23
0.0
 33
0.0
 14
37.5
 24
-2.0
 34
0.0
 50
90.0
1001
ACAD
1000
DSTYLE
1002
{
1070
    77
1070
     1
1070
   172
1070
     1
1002
}
  0
DIMENSION
  5
288
  8
0
  6
CONTINUOUS
 62
     7
  2
*D30
 10
82.5
 20
-48.0
 30
0.0
 11
82.5
 21
-25.0
 31
0.0
  3
DIMSTYLE
 13
37.5
 23
-2.0
 33
0.0
 14
37.5
 24
-48.0
 34
0.0
 50
90.0
1001
ACAD
1000
DSTYLE
1002
{
1070
    77
1070
     1
1070
   172
1070
     1
1070
    75
1070
     1
1002
}
  0
DIMENSION
  5
289
  8
0
  6
CONTINUOUS
 62
     7
  2
*D31
 10
82.5
 20
-50.0
 30
0.0
 11
82.5
 21
-54.551453000000002
 31
0.0
  3
DIMSTYLE
 13
37.5
 23
-48.0
 33
0.0
 14
37.5
 24
-50.0
 34
0.0
 50
90.0
1001
ACAD
1000
DSTYLE
1002
{
1070
    77
1070
     1
1070
   172
1070
     1
1070
    75
1070
     1
1002
}
  0
DIMENSION
  5
28A
  8
0
  6
CONTINUOUS
 62
     7
  2
*D32
 10
24.0
 20
-97.117226000000016
 30
0.0
 11
6.5
 21
-97.117226000000016
 31
0.0
  3
DIMSTYLE
 13
-11.0
 23
-129.11722
 33
0.0
 14
24.0
 24
-129.11722
 34
0.0
1001
ACAD
1000
DSTYLE
1002
{
1070
    77
1070
     1
1070
   172
1070
     1
1002
}
  0
DIMENSION
  5
28B
  8
0
  6
CONTINUOUS
 62
     7
  2
*D33
 10
-11.0
 20
-97.117226000000016
 30
0.0
 11
-24.25
 21
-97.117226000000016
 31
0.0
  3
DIMSTYLE
 13
-37.5
 23
-112.11723000000001
 33
0.0
 14
-11.0
 24
-129.11722
 34
0.0
1001
ACAD
1000
DSTYLE
1002
{
1070
    77
1070
     1
1070
   172
1070
     1
1002
}
  0
DIMENSION
  5
28C
  8
0
  6
CONTINUOUS
 62
     7
  2
*D34
 10
37.5
 20
-97.117226000000016
 30
0.0
 11
25.601040000000001
 21
-97.117226000000016
 31
0.0
  3
DIMSTYLE
 13
24.0
 23
-129.11722
 33
0.0
 14
37.5
 24
-112.11723000000001
 34
0.0
1001
ACAD
1000
DSTYLE
1002
{
1070
    77
1070
     1
1070
   172
1070
     1
1070
    75
1070
     1
1002
}
  0
DIMENSION
  5
28D
  8
0
  6
CONTINUOUS
 62
     7
  2
*D35
 10
32.5
 20
-82.117225999999988
 30
0.0
 11
0.0
 21
-82.117225999999988
 31
0.0
  3
DIMSTYLE
 13
-32.5
 23
-118.11723000000001
 33
0.0
 14
32.5
 24
-118.11723000000001
 34
0.0
1001
ACAD
1000
DSTYLE
1002
{
1070
    77
1070
     1
1070
   172
1070
     1
1002
}
  0
DIMENSION
  5
28E
  8
0
  6
CONTINUOUS
 62
     7
  2
*D36
 10
37.5
 20
-67.117226000000002
 30
0.0
 11
0.0
 21
-67.117226000000002
 31
0.0
  3
DIMSTYLE
 13
-37.5
 23
-112.11723000000001
 33
0.0
 14
37.5
 24
-112.11723000000001
 34
0.0
1001
ACAD
1000
DSTYLE
1002
{
1070
    77
1070
     1
1070
   172
1070
     1
1002
}
  0
DIMENSION
  5
28F
  8
0
  6
CONTINUOUS
 62
     7
  2
*D37
 10
52.5
 20
-129.11722
 30
0.0
 11
52.5
 21
-123.7183099999999
 31
0.0
  3
DIMSTYLE
 13
37.5
 23
-112.11723000000001
 33
0.0
 14
24.0
 24
-129.11722
 34
0.0
 50
90.0
1001
ACAD
1000
DSTYLE
1002
{
1070
    77
1070
     1
1070
   172
1070
     1
1002
}
  0
DIMENSION
  5
290
  8
0
  6
CONTINUOUS
 62
     7
  2
*D38
 10
52.5
 20
-215.11722
 30
0.0
 11
52.5
 21
-172.11721999999989
 31
0.0
  3
DIMSTYLE
 13
24.0
 23
-129.11722
 33
0.0
 14
24.0
 24
-215.11722
 34
0.0
 50
90.0
1001
ACAD
1000
DSTYLE
1002
{
1070
    77
1070
     1
1070
   172
1070
     1
1070
    75
1070
     1
1002
}
  0
DIMENSION
  5
291
  8
0
  6
CONTINUOUS
 62
     7
  2
*D39
 10
52.5
 20
-232.11722
 30
0.0
 11
52.5
 21
-221.01092999999989
 31
0.0
  3
DIMSTYLE
 13
24.0
 23
-215.11722
 33
0.0
 14
37.5
 24
-232.11722
 34
0.0
 50
90.0
1001
ACAD
1000
DSTYLE
1002
{
1070
    77
1070
     1
1070
   172
1070
     1
1070
    75
1070
     1
1002
}
  0
DIMENSION
  5
292
  8
0
  6
CONTINUOUS
 62
     7
  2
*D40
 10
67.5
 20
-227.11722
 30
0.0
 11
67.5
 21
-172.11721999999989
 31
0.0
  3
DIMSTYLE
 13
31.5
 23
-117.11723000000001
 33
0.0
 14
31.5
 24
-227.11722
 34
0.0
 50
90.0
1001
ACAD
1000
DSTYLE
1002
{
1070
    77
1070
     1
1070
   172
1070
     1
1002
}
  0
INSERT
  5
294
  8
0
  6
CONTINUOUS
 62
     7
  2
KOZU0004
 10
37.499996000000003
 20
-112.11723000000001
 30
0.0
  0
DIMENSION
  5
295
  8
0
  6
CONTINUOUS
 62
     7
  2
*D41
 10
82.5
 20
-232.11722
 30
0.0
 11
82.5
 21
-172.11721999999989
 31
0.0
  3
DIMSTYLE
 13
37.5
 23
-112.11723000000001
 33
0.0
 14
37.5
 24
-232.11722
 34
0.0
 50
90.0
1001
ACAD
1000
DSTYLE
1002
{
1070
    77
1070
     1
1070
   172
1070
     1
1002
}
  0
ENDBLK
  5
296
  8
0
  0
BLOCK
  8
0
  2
KOZU0004
 70
     0
 10
0.0
 20
0.0
 30
0.0
  3
KOZU0004
  1

  0
LINE
  5
2C7
  8
0
  6
CONTINUOUS
 62
     7
 10
0.0
 20
0.0
 30
0.0
 11
14.12388599999999
 21
21.523116999999999
 31
0.0
  0
LINE
  5
2C8
  8
0
  6
CONTINUOUS
 62
     7
 10
14.12388599999999
 20
21.523116999999999
 30
0.0
 11
28.564838000000002
 21
21.523116999999999
 31
0.0
  0
LINE
  5
2C9
  8
0
  6
CONTINUOUS
 62
     7
 10
0.0
 20
0.0
 30
0.0
 11
0.8098559299999999
 21
3.0568174999999989
 31
0.0
  0
LINE
  5
2CA
  8
0
  6
CONTINUOUS
 62
     7
 10
0.0
 20
0.0
 30
0.0
 11
2.481975199999999
 21
1.959540399999999
 31
0.0
  0
TEXT
  5
2CB
  8
0
  6
CONTINUOUS
 62
     7
 10
15.76483599999999
 20
22.323116999999989
 30
0.0
 40
3.2000000000000002
  1
4-R1
 41
1.0783411000000001
  0
ENDBLK
  5
2CC
  8
0
  0
BLOCK
  8
0
  2
KOZU0002
 70
     0
 10
0.0
 20
0.0
 30
0.0
  3
KOZU0002
  1

  0
POINT
  5
299
  8
0
  6
CONTINUOUS
 62
     7
 10
0.0
 20
0.0
 30
0.0
  0
POINT
  5
29A
  8
0
  6
CONTINUOUS
 62
     7
 10
0.0
 20
0.0
 30
0.0
  0
LINE
  5
29B
  8
0
  6
CONTINUOUS
 62
     7
 10
-1.5
 20
-70.5
 30
0.0
 11
-1.0
 21
-70.5
 31
0.0
  0
LINE
  5
29C
  8
0
  6
CONTINUOUS
 62
     7
 10
-1.5
 20
-69.5
 30
0.0
 11
-1.0
 21
-69.5
 31
0.0
  0
LINE
  5
29D
  8
0
  6
CONTINUOUS
 62
     7
 10
-0.5
 20
-71.5
 30
0.0
 11
-0.5
 21
-71.0
 31
0.0
  0
LINE
  5
29E
  8
0
  6
CONTINUOUS
 62
     7
 10
0.5
 20
-71.5
 30
0.0
 11
0.5
 21
-71.0
 31
0.0
  0
LINE
  5
29F
  8
0
  6
CONTINUOUS
 62
     7
 10
-1.5
 20
0.5
 30
0.0
 11
-1.0
 21
0.5
 31
0.0
  0
LINE
  5
2A0
  8
0
  6
CONTINUOUS
 62
     7
 10
-1.5
 20
-0.5
 30
0.0
 11
-1.0
 21
-0.5
 31
0.0
  0
LINE
  5
2A1
  8
0
  6
CONTINUOUS
 62
     7
 10
-0.5
 20
-1.5
 30
0.0
 11
-0.5
 21
-1.0
 31
0.0
  0
LINE
  5
2A2
  8
0
  6
CONTINUOUS
 62
     7
 10
0.5
 20
-1.5
 30
0.0
 11
0.5
 21
-1.0
 31
0.0
  0
LINE
  5
2A3
  8
0
  6
CONTINUOUS
 62
     7
 10
-0.5
 20
-69.0
 30
0.0
 11
-0.5
 21
-68.5
 31
0.0
  0
LINE
  5
2A4
  8
0
  6
CONTINUOUS
 62
     7
 10
0.5
 20
-69.0
 30
0.0
 11
0.5
 21
-68.5
 31
0.0
  0
LINE
  5
2A5
  8
0
  6
CONTINUOUS
 62
     7
 10
1.0
 20
-69.5
 30
0.0
 11
1.5
 21
-69.5
 31
0.0
  0
LINE
  5
2A6
  8
0
  6
CONTINUOUS
 62
     7
 10
1.0
 20
-70.5
 30
0.0
 11
1.5
 21
-70.5
 31
0.0
  0
LINE
  5
2A7
  8
0
  6
CONTINUOUS
 62
     7
 10
1.0
 20
-0.5
 30
0.0
 11
1.5
 21
-0.5
 31
0.0
  0
LINE
  5
2A8
  8
0
  6
CONTINUOUS
 62
     7
 10
1.0
 20
0.5
 30
0.0
 11
1.5
 21
0.5
 31
0.0
  0
LINE
  5
2A9
  8
0
  6
CONTINUOUS
 62
     7
 10
0.5
 20
1.0
 30
0.0
 11
0.5
 21
1.5
 31
0.0
  0
LINE
  5
2AA
  8
0
  6
CONTINUOUS
 62
     7
 10
-0.5
 20
1.0
 30
0.0
 11
-0.5
 21
1.5
 31
0.0
  0
CIRCLE
  5
2AB
  8
0
  6
CONTINUOUS
 62
     7
 10
0.0
 20
-70.0
 30
0.0
 40
3.0
  0
CIRCLE
  5
2AC
  8
0
  6
CONTINUOUS
 62
     7
 10
0.0
 20
0.0
 30
0.0
 40
3.0
  0
ARC
  5
2AD
  8
0
  6
CONTINUOUS
 62
     7
 10
0.0
 20
-68.5
 30
0.0
 40
0.5
 50
0.0
 51
180.0
  0
ARC
  5
2AE
  8
0
  6
CONTINUOUS
 62
     7
 10
0.0
 20
-71.5
 30
0.0
 40
0.5
 50
180.0
 51
0.0
  0
ARC
  5
2AF
  8
0
  6
CONTINUOUS
 62
     7
 10
-1.5
 20
-70.0
 30
0.0
 40
0.5
 50
90.0
 51
269.99997000000002
  0
ARC
  5
2B0
  8
0
  6
CONTINUOUS
 62
     7
 10
1.5
 20
-70.0
 30
0.0
 40
0.5
 50
269.99998999999991
 51
90.0
  0
ARC
  5
2B1
  8
0
  6
CONTINUOUS
 62
     7
 10
1.0
 20
-71.0
 30
0.0
 40
0.5
 50
90.0
 51
180.0
  0
ARC
  5
2B2
  8
0
  6
CONTINUOUS
 62
     7
 10
-1.0
 20
-69.0
 30
0.0
 40
0.5
 50
269.99998999999991
 51
0.0
  0
ARC
  5
2B3
  8
0
  6
CONTINUOUS
 62
     7
 10
-1.0
 20
-71.0
 30
0.0
 40
0.5
 50
0.0
 51
90.0
  0
ARC
  5
2B4
  8
0
  6
CONTINUOUS
 62
     7
 10
1.0
 20
-69.0
 30
0.0
 40
0.5
 50
180.0
 51
269.99997000000002
  0
ARC
  5
2B5
  8
0
  6
CONTINUOUS
 62
     7
 10
1.5
 20
0.0
 30
0.0
 40
0.5
 50
269.99998999999991
 51
90.0
  0
ARC
  5
2B6
  8
0
  6
CONTINUOUS
 62
     7
 10
0.0
 20
1.5
 30
0.0
 40
0.5
 50
0.000013660378
 51
179.99996999999991
  0
ARC
  5
2B7
  8
0
  6
CONTINUOUS
 62
     7
 10
-1.5
 20
0.0
 30
0.0
 40
0.5
 50
90.0
 51
269.99997000000002
  0
ARC
  5
2B8
  8
0
  6
CONTINUOUS
 62
     7
 10
0.0
 20
-1.5
 30
0.0
 40
0.5
 50
179.99996999999991
 51
0.0
  0
ARC
  5
2B9
  8
0
  6
CONTINUOUS
 62
     7
 10
-1.0
 20
1.0
 30
0.0
 40
0.5
 50
269.99998999999991
 51
0.000013660378
  0
ARC
  5
2BA
  8
0
  6
CONTINUOUS
 62
     7
 10
1.0
 20
-1.0
 30
0.0
 40
0.5
 50
90.0
 51
179.99997999999991
  0
ARC
  5
2BB
  8
0
  6
CONTINUOUS
 62
     7
 10
-1.0
 20
-1.0
 30
0.0
 40
0.5
 50
0.000020490568
 51
90.0
  0
ARC
  5
2BC
  8
0
  6
CONTINUOUS
 62
     7
 10
1.0
 20
1.0
 30
0.0
 40
0.5
 50
179.99996999999991
 51
269.99997000000002
  0
ENDBLK
  5
2BD
  8
0
  0
BLOCK
  8
0
  2
KOZU0003
 70
     0
 10
0.0
 20
0.0
 30
0.0
  3
KOZU0003
  1

  0
LINE
  5
2C0
  8
0
  6
CONTINUOUS
 62
     7
 10
0.0
 20
0.0
 30
0.0
 11
9.4879836999999991
 21
9.880161300000001
 31
0.0
  0
LINE
  5
2C1
  8
0
  6
CONTINUOUS
 62
     7
 10
9.4879836999999991
 20
9.880161300000001
 30
0.0
 11
25.226303000000001
 21
9.880161300000001
 31
0.0
  0
LINE
  5
2C2
  8
0
  6
CONTINUOUS
 62
     7
 10
0.0
 20
0.0
 30
0.0
 11
1.761241899999999
 21
2.645421499999999
 31
0.0
  0
LINE
  5
2C3
  8
0
  6
CONTINUOUS
 62
     7
 10
0.0
 20
0.0
 30
0.0
 11
2.5719569999999989
 21
1.8668863999999989
 31
0.0
  0
TEXT
  5
2C4
  8
0
  6
CONTINUOUS
 62
     7
 10
12.426306
 20
10.680161
 30
0.0
 40
3.2000000000000002
  1
４－Ｒ１
 41
0.8512700499999999
  0
ENDBLK
  5
2C5
  8
0
  0
BLOCK
  8
0
  2
KOZU0005
 70
     0
 10
0.0
 20
0.0
 30
0.0
  3
KOZU0005
  1

  0
LINE
  5
2CF
  8
0
  6
CONTINUOUS
 62
     7
 10
-18.440083999999992
 20
-58.846172000000003
 30
0.0
 11
-15.933652
 21
-56.33973499999999
 31
0.0
  0
LINE
  5
2D0
  8
0
  6
CONTINUOUS
 62
     7
 10
-22.930208
 20
-58.846172000000003
 30
0.0
 11
-15.933652
 21
-51.849601999999997
 31
0.0
  0
LINE
  5
2D1
  8
0
  6
CONTINUOUS
 62
     7
 10
-27.420331999999998
 20
-58.846172000000003
 30
0.0
 11
-15.933652
 21
-47.359470000000002
 31
0.0
  0
LINE
  5
2D2
  8
0
  6
CONTINUOUS
 62
     7
 10
-31.910454999999988
 20
-58.846172000000003
 30
0.0
 11
-15.933652
 21
-42.869337000000002
 31
0.0
  0
LINE
  5
2D3
  8
0
  6
CONTINUOUS
 62
     7
 10
-36.400579
 20
-58.846172000000003
 30
0.0
 11
-15.933652
 21
-38.379204999999999
 31
0.0
  0
LINE
  5
2D4
  8
0
  6
CONTINUOUS
 62
     7
 10
-40.890701999999997
 20
-58.846172000000003
 30
0.0
 11
-15.933652
 21
-33.889071999999999
 31
0.0
  0
LINE
  5
2D5
  8
0
  6
CONTINUOUS
 62
     7
 10
-45.380825999999999
 20
-58.846172000000003
 30
0.0
 11
-15.933652
 21
-29.39894
 31
0.0
  0
LINE
  5
2D6
  8
0
  6
CONTINUOUS
 62
     7
 10
-49.870948999999989
 20
-58.846172000000003
 30
0.0
 11
-15.933652
 21
-24.908806999999989
 31
0.0
  0
LINE
  5
2D7
  8
0
  6
CONTINUOUS
 62
     7
 10
-54.36107299999999
 20
-58.846172000000003
 30
0.0
 11
-15.933652
 21
-20.41867499999999
 31
0.0
  0
LINE
  5
2D8
  8
0
  6
CONTINUOUS
 62
     7
 10
-58.851195999999987
 20
-58.846172000000003
 30
0.0
 11
-15.933652
 21
-15.928542
 31
0.0
  0
LINE
  5
2D9
  8
0
  6
CONTINUOUS
 62
     7
 10
-63.341320000000003
 20
-58.846172000000003
 30
0.0
 11
-15.933652
 21
-11.438409999999999
 31
0.0
  0
LINE
  5
2DA
  8
0
  6
CONTINUOUS
 62
     7
 10
-67.831442999999993
 20
-58.846172000000003
 30
0.0
 11
-15.933652
 21
-6.9482774000000003
 31
0.0
  0
LINE
  5
2DB
  8
0
  6
CONTINUOUS
 62
     7
 10
-72.321567000000002
 20
-58.846172000000003
 30
0.0
 11
-15.933652
 21
-2.458145
 31
0.0
  0
LINE
  5
2DC
  8
0
  6
CONTINUOUS
 62
     7
 10
-76.811689999999999
 20
-58.846172000000003
 30
0.0
 11
-15.933652
 21
2.0319875000000001
 31
0.0
  0
LINE
  5
2DD
  8
0
  6
CONTINUOUS
 62
     7
 10
-80.933655000000002
 20
-58.478012999999997
 30
0.0
 11
-15.933652
 21
6.5221200000000001
 31
0.0
  0
LINE
  5
2DE
  8
0
  6
CONTINUOUS
 62
     7
 10
-80.933655000000002
 20
-53.987879999999997
 30
0.0
 11
-15.933652
 21
11.012252
 31
0.0
  0
LINE
  5
2DF
  8
0
  6
CONTINUOUS
 62
     7
 10
-80.933655000000002
 20
-49.497748000000001
 30
0.0
 11
-15.933652
 21
15.502385
 31
0.0
  0
LINE
  5
2E0
  8
0
  6
CONTINUOUS
 62
     7
 10
-80.933655000000002
 20
-45.007615000000001
 30
0.0
 11
-15.933652
 21
19.992516999999999
 31
0.0
  0
LINE
  5
2E1
  8
0
  6
CONTINUOUS
 62
     7
 10
-80.933655000000002
 20
-40.517482999999991
 30
0.0
 11
-15.933652
 21
24.48265
 31
0.0
  0
LINE
  5
2E2
  8
0
  6
CONTINUOUS
 62
     7
 10
-80.933655000000002
 20
-36.027349999999998
 30
0.0
 11
-15.933652
 21
28.972781999999999
 31
0.0
  0
LINE
  5
2E3
  8
0
  6
CONTINUOUS
 62
     7
 10
-80.933655000000002
 20
-31.537217999999999
 30
0.0
 11
-15.933652
 21
33.462915000000002
 31
0.0
  0
LINE
  5
2E4
  8
0
  6
CONTINUOUS
 62
     7
 10
-80.933655000000002
 20
-27.047084999999999
 30
0.0
 11
-15.933652
 21
37.953046999999991
 31
0.0
  0
LINE
  5
2E5
  8
0
  6
CONTINUOUS
 62
     7
 10
-80.933655000000002
 20
-22.556953
 30
0.0
 11
-15.933652
 21
42.443179999999991
 31
0.0
  0
LINE
  5
2E6
  8
0
  6
CONTINUOUS
 62
     7
 10
-80.933655000000002
 20
-18.06682
 30
0.0
 11
-15.933652
 21
46.933312000000001
 31
0.0
  0
LINE
  5
2E7
  8
0
  6
CONTINUOUS
 62
     7
 10
-80.933655000000002
 20
-13.576688000000001
 30
0.0
 11
-16.203268999999999
 21
51.153827999999997
 31
0.0
  0
LINE
  5
2E8
  8
0
  6
CONTINUOUS
 62
     7
 10
-80.933655000000002
 20
-9.0865554999999993
 30
0.0
 11
-20.693391999999999
 21
51.153827999999997
 31
0.0
  0
LINE
  5
2E9
  8
0
  6
CONTINUOUS
 62
     7
 10
-80.933655000000002
 20
-4.5964229999999997
 30
0.0
 11
-25.183516000000001
 21
51.153827999999997
 31
0.0
  0
LINE
  5
2EA
  8
0
  6
CONTINUOUS
 62
     7
 10
-80.933655000000002
 20
-0.10629056
 30
0.0
 11
-29.673639000000001
 21
51.153827999999997
 31
0.0
  0
LINE
  5
2EB
  8
0
  6
CONTINUOUS
 62
     7
 10
-80.933655000000002
 20
4.3838419000000002
 30
0.0
 11
-34.163763000000003
 21
51.153827999999997
 31
0.0
  0
LINE
  5
2EC
  8
0
  6
CONTINUOUS
 62
     7
 10
-80.933655000000002
 20
8.8739743999999998
 30
0.0
 11
-38.653886
 21
51.153827999999997
 31
0.0
  0
LINE
  5
2ED
  8
0
  6
CONTINUOUS
 62
     7
 10
-80.933655000000002
 20
13.364107000000001
 30
0.0
 11
-43.144009999999987
 21
51.153827999999997
 31
0.0
  0
LINE
  5
2EE
  8
0
  6
CONTINUOUS
 62
     7
 10
-80.933655000000002
 20
17.854239
 30
0.0
 11
-47.634132999999991
 21
51.153827999999997
 31
0.0
  0
LINE
  5
2EF
  8
0
  6
CONTINUOUS
 62
     7
 10
-80.933655000000002
 20
22.344371999999989
 30
0.0
 11
-52.124257
 21
51.153827999999997
 31
0.0
  0
LINE
  5
2F0
  8
0
  6
CONTINUOUS
 62
     7
 10
-80.933655000000002
 20
26.834503999999988
 30
0.0
 11
-56.614379999999997
 21
51.153827999999997
 31
0.0
  0
LINE
  5
2F1
  8
0
  6
CONTINUOUS
 62
     7
 10
-80.933655000000002
 20
31.324636999999999
 30
0.0
 11
-61.104504000000013
 21
51.153827999999997
 31
0.0
  0
LINE
  5
2F2
  8
0
  6
CONTINUOUS
 62
     7
 10
-80.933655000000002
 20
35.814768999999998
 30
0.0
 11
-65.594627000000003
 21
51.153827999999997
 31
0.0
  0
LINE
  5
2F3
  8
0
  6
CONTINUOUS
 62
     7
 10
-80.933655000000002
 20
40.304901999999998
 30
0.0
 11
-70.084750999999997
 21
51.153827999999997
 31
0.0
  0
LINE
  5
2F4
  8
0
  6
CONTINUOUS
 62
     7
 10
-80.933655000000002
 20
44.795034000000001
 30
0.0
 11
-74.574873999999994
 21
51.153827999999997
 31
0.0
  0
LINE
  5
2F5
  8
0
  6
CONTINUOUS
 62
     7
 10
-80.933655000000002
 20
49.285167000000001
 30
0.0
 11
-79.064998000000003
 21
51.153827999999997
 31
0.0
  0
ENDBLK
  5
2F6
  8
0
  0
ENDSEC
  0
SECTION
  2
ENTITIES
  0
LINE
  5
2F7
  8
0
  6
CONTINUOUS
 62
     7
 10
170.0
 20
173.0
 30
0.0
 11
170.0
 21
-100.0
 31
0.0
  0
LINE
  5
2F8
  8
0
  6
CONTINUOUS
 62
     7
 10
-211.0
 20
-100.0
 30
0.0
 11
170.0
 21
-100.0
 31
0.0
  0
LINE
  5
2F9
  8
0
  6
CONTINUOUS
 62
     7
 10
-211.0
 20
173.0
 30
0.0
 11
170.0
 21
173.0
 31
0.0
  0
LINE
  5
2FA
  8
0
  6
CONTINUOUS
 62
     7
 10
-211.0
 20
173.0
 30
0.0
 11
-211.0
 21
-100.0
 31
0.0
  0
LINE
  5
2FB
  8
0
  6
CONTINUOUS
 62
     7
 10
-191.0
 20
173.0
 30
0.0
 11
-191.0
 21
77.0
 31
0.0
  0
LINE
  5
2FC
  8
0
  6
CONTINUOUS
 62
     7
 10
-211.0
 20
165.0
 30
0.0
 11
-87.0
 21
165.0
 31
0.0
  0
LINE
  5
2FD
  8
0
  6
CONTINUOUS
 62
     7
 10
-211.0
 20
157.0
 30
0.0
 11
-87.0
 21
157.0
 31
0.0
  0
LINE
  5
2FE
  8
0
  6
CONTINUOUS
 62
     7
 10
-211.0
 20
149.0
 30
0.0
 11
-87.0
 21
149.0
 31
0.0
  0
LINE
  5
2FF
  8
0
  6
CONTINUOUS
 62
     7
 10
-211.0
 20
141.0
 30
0.0
 11
-87.0
 21
141.0
 31
0.0
  0
LINE
  5
300
  8
0
  6
CONTINUOUS
 62
     7
 10
-191.0
 20
117.0
 30
0.0
 11
-87.0
 21
117.0
 31
0.0
  0
LINE
  5
301
  8
0
  6
CONTINUOUS
 62
     7
 10
-191.0
 20
109.0
 30
0.0
 11
-87.0
 21
109.0
 31
0.0
  0
LINE
  5
302
  8
0
  6
CONTINUOUS
 62
     7
 10
-211.0
 20
101.0
 30
0.0
 11
-87.0
 21
101.0
 31
0.0
  0
LINE
  5
303
  8
0
  6
CONTINUOUS
 62
     7
 10
-191.0
 20
93.0
 30
0.0
 11
-87.0
 21
93.0
 31
0.0
  0
LINE
  5
304
  8
0
  6
CONTINUOUS
 62
     7
 10
-191.0
 20
85.0
 30
0.0
 11
-87.0
 21
85.0
 31
0.0
  0
LINE
  5
305
  8
0
  6
CONTINUOUS
 62
     7
 10
-211.0
 20
77.0
 30
0.0
 11
-87.0
 21
77.0
 31
0.0
  0
LINE
  5
306
  8
0
  6
CONTINUOUS
 62
     7
 10
-211.0
 20
173.0
 30
0.0
 11
-211.0
 21
77.0
 31
0.0
  0
LINE
  5
307
  8
0
  6
CONTINUOUS
 62
     7
 10
-211.0
 20
173.0
 30
0.0
 11
-87.0
 21
173.0
 31
0.0
  0
LINE
  5
308
  8
0
  6
CONTINUOUS
 62
     7
 10
-87.0
 20
173.0
 30
0.0
 11
-87.0
 21
77.0
 31
0.0
  0
LINE
  5
309
  8
0
  6
CONTINUOUS
 62
     7
 10
-211.0
 20
133.0
 30
0.0
 11
-87.0
 21
133.0
 31
0.0
  0
LINE
  5
30A
  8
0
  6
CONTINUOUS
 62
     7
 10
-211.0
 20
125.0
 30
0.0
 11
-87.0
 21
125.0
 31
0.0
  0
LINE
  5
30B
  8
0
  6
CONTINUOUS
 62
     7
 10
-191.0
 20
117.0
 30
0.0
 11
-87.0
 21
117.0
 31
0.0
  0
LINE
  5
30C
  8
0
  6
CONTINUOUS
 62
     3
 10
29.06634699999999
 20
55.153828000000011
 30
0.0
 11
29.06634699999999
 21
-62.846171999999989
 31
0.0
  0
LINE
  5
30D
  8
0
  6
CONTINUOUS
 62
     3
 10
30.06634699999999
 20
-63.846172000000003
 30
0.0
 11
103.0663499999999
 21
-63.846172000000003
 31
0.0
  0
LINE
  5
30E
  8
0
  6
CONTINUOUS
 62
     3
 10
30.06634699999999
 20
56.153827999999997
 30
0.0
 11
103.0663499999999
 21
56.153827999999997
 31
0.0
  0
LINE
  5
30F
  8
0
  6
CONTINUOUS
 62
     3
 10
55.566349000000002
 20
-46.846171999999989
 30
0.0
 11
90.566344999999984
 21
-46.846171999999989
 31
0.0
  0
LINE
  5
310
  8
0
  6
CONTINUOUS
 62
     3
 10
55.566349000000002
 20
39.153827999999997
 30
0.0
 11
90.566344999999984
 21
39.153827999999997
 31
0.0
  0
LINE
  5
311
  8
0
  6
CONTINUOUS
 62
     3
 10
104.0663499999999
 20
55.153828000000011
 30
0.0
 11
104.0663499999999
 21
-62.846171999999989
 31
0.0
  0
LINE
  5
312
  8
0
  6
CENTER
 62
     7
 10
64.066344999999998
 20
61.153827999999997
 30
0.0
 11
64.066344999999998
 21
-68.846176
 31
0.0
  0
LINE
  5
313
  8
0
  6
CONTINUOUS
 62
     3
 10
55.566349000000002
 20
39.153827999999997
 30
0.0
 11
55.566349000000002
 21
-46.846171999999989
 31
0.0
  0
LINE
  5
314
  8
0
  6
CENTER
 62
     7
 10
72.066344999999984
 20
-38.846171999999989
 30
0.0
 11
56.066349000000002
 21
-38.846171999999989
 31
0.0
  0
LINE
  5
315
  8
0
  6
CONTINUOUS
 62
     3
 10
90.566344999999984
 20
39.153827999999997
 30
0.0
 11
90.566344999999984
 21
-46.846171999999989
 31
0.0
  0
LINE
  5
316
  8
0
  6
CONTINUOUS
 62
     3
 10
29.06634699999999
 20
148.27106000000001
 30
0.0
 11
29.06634699999999
 21
146.27106000000001
 31
0.0
  0
LINE
  5
317
  8
0
  6
CENTER
 62
     7
 10
72.066344999999984
 20
31.153828000000001
 30
0.0
 11
56.066349000000002
 21
31.153828000000001
 31
0.0
  0
LINE
  5
318
  8
0
  6
CONTINUOUS
 62
     3
 10
104.0663499999999
 20
148.27106000000001
 30
0.0
 11
104.0663499999999
 21
146.27106000000001
 31
0.0
  0
LINE
  5
319
  8
0
  6
CONTINUOUS
 62
     3
 10
29.06634699999999
 20
148.27106000000001
 30
0.0
 11
104.0663499999999
 21
148.27106000000001
 31
0.0
  0
LINE
  5
31A
  8
0
  6
CONTINUOUS
 62
     3
 10
29.06634699999999
 20
99.271049000000005
 30
0.0
 11
104.0663499999999
 21
99.271049000000005
 31
0.0
  0
LINE
  5
31B
  8
0
  6
CONTINUOUS
 62
     3
 10
29.06634699999999
 20
146.27106000000001
 30
0.0
 11
104.0663499999999
 21
146.27106000000001
 31
0.0
  0
LINE
  5
31C
  8
0
  6
CONTINUOUS
 62
     3
 10
29.06634699999999
 20
101.27105
 30
0.0
 11
104.0663499999999
 21
101.27105
 31
0.0
  0
LINE
  5
31D
  8
0
  6
CENTER
 62
     7
 10
64.066344999999998
 20
153.27106000000001
 30
0.0
 11
64.066344999999998
 21
93.271049000000005
 31
0.0
  0
LINE
  5
31E
  8
0
  6
DASHED
 62
     3
 10
42.666347999999999
 20
119.27105
 30
0.0
 11
73.266341999999995
 21
119.27105
 31
0.0
  0
LINE
  5
31F
  8
0
  6
CONTINUOUS
 62
     3
 10
98.466346999999999
 20
145.47104999999999
 30
0.0
 11
98.466346999999999
 21
146.27106000000001
 31
0.0
  0
LINE
  5
320
  8
0
  6
CONTINUOUS
 62
     3
 10
34.066349000000002
 20
102.07104
 30
0.0
 11
34.066349000000002
 21
101.27105
 31
0.0
  0
LINE
  5
321
  8
0
  6
DASHED
 62
     3
 10
39.666347999999992
 20
116.2710499999999
 30
0.0
 11
39.666347999999992
 21
102.07104
 31
0.0
  0
LINE
  5
322
  8
0
  6
CONTINUOUS
 62
     3
 10
61.566344999999998
 20
120.87105
 30
0.0
 11
66.566344999999998
 21
120.87105
 31
0.0
  0
LINE
  5
323
  8
0
  6
CONTINUOUS
 62
     3
 10
34.066349000000002
 20
145.47104999999999
 30
0.0
 11
34.066349000000002
 21
146.27106000000001
 31
0.0
  0
LINE
  5
324
  8
0
  6
CONTINUOUS
 62
     3
 10
81.566344999999998
 20
146.27106000000001
 30
0.0
 11
81.566344999999998
 21
122.27105
 31
0.0
  0
LINE
  5
325
  8
0
  6
CONTINUOUS
 62
     3
 10
61.566344999999998
 20
120.87106
 30
0.0
 11
61.066341000000001
 21
120.0710399999999
 31
0.0
  0
LINE
  5
326
  8
0
  6
CONTINUOUS
 62
     3
 10
66.566344999999998
 20
120.87105
 30
0.0
 11
67.066344999999984
 21
120.07105
 31
0.0
  0
LINE
  5
327
  8
0
  6
DASHED
 62
     3
 10
39.666347999999992
 20
131.27106000000001
 30
0.0
 11
39.666347999999992
 21
145.47104999999999
 31
0.0
  0
LINE
  5
328
  8
0
  6
DASHED
 62
     3
 10
42.666347999999999
 20
128.27106000000001
 30
0.0
 11
51.566349000000002
 21
128.27106000000001
 31
0.0
  0
LINE
  5
329
  8
0
  6
CONTINUOUS
 62
     3
 10
51.566349000000002
 20
122.27105
 30
0.0
 11
81.566344999999998
 21
122.27105
 31
0.0
  0
LINE
  5
32A
  8
0
  6
CONTINUOUS
 62
     3
 10
51.566349000000002
 20
146.27106000000001
 30
0.0
 11
51.566349000000002
 21
122.27105
 31
0.0
  0
LINE
  5
32B
  8
0
  6
CONTINUOUS
 62
     3
 10
66.066344999999998
 20
122.27105
 30
0.0
 11
66.066344999999998
 21
120.87105
 31
0.0
  0
LINE
  5
32C
  8
0
  6
CONTINUOUS
 62
     3
 10
62.066344999999991
 20
122.27105
 30
0.0
 11
62.066344999999991
 21
120.87105
 31
0.0
  0
LINE
  5
32D
  8
0
  6
CONTINUOUS
 62
     3
 10
29.06634699999999
 20
101.27105
 30
0.0
 11
29.06634699999999
 21
99.271049000000005
 31
0.0
  0
LINE
  5
32E
  8
0
  6
CONTINUOUS
 62
     3
 10
104.0663499999999
 20
101.27105
 30
0.0
 11
104.0663499999999
 21
99.271049000000005
 31
0.0
  0
LINE
  5
32F
  8
0
  6
CONTINUOUS
 62
     3
 10
98.466346999999999
 20
102.07104
 30
0.0
 11
98.466346999999999
 21
101.27105
 31
0.0
  0
LINE
  5
330
  8
0
  6
CONTINUOUS
 62
     3
 10
-80.933655000000002
 20
51.153827999999997
 30
0.0
 11
-15.933652
 21
51.153827999999997
 31
0.0
  0
LINE
  5
331
  8
0
  6
CONTINUOUS
 62
     3
 10
-80.933655000000002
 20
51.153827999999997
 30
0.0
 11
-80.933655000000002
 21
-58.846172000000003
 31
0.0
  0
LINE
  5
332
  8
0
  6
CONTINUOUS
 62
     3
 10
-80.933655000000002
 20
-58.846172000000003
 30
0.0
 11
-15.933652
 21
-58.846172000000003
 31
0.0
  0
LINE
  5
333
  8
0
  6
CONTINUOUS
 62
     3
 10
-15.933652
 20
51.153827999999997
 30
0.0
 11
-15.933652
 21
-58.846172000000003
 31
0.0
  0
LINE
  5
334
  8
0
  6
CONTINUOUS
 62
     7
 10
62.566344999999998
 20
-39.346171999999989
 30
0.0
 11
63.066344999999998
 21
-39.346171999999989
 31
0.0
  0
LINE
  5
335
  8
0
  6
CONTINUOUS
 62
     7
 10
62.566344999999998
 20
-38.346171999999989
 30
0.0
 11
63.066344999999998
 21
-38.346171999999989
 31
0.0
  0
LINE
  5
336
  8
0
  6
CONTINUOUS
 62
     7
 10
63.566344999999998
 20
-40.346171999999989
 30
0.0
 11
63.566344999999998
 21
-39.846171999999989
 31
0.0
  0
LINE
  5
337
  8
0
  6
CONTINUOUS
 62
     7
 10
64.566344999999984
 20
-40.346171999999989
 30
0.0
 11
64.566344999999984
 21
-39.846171999999989
 31
0.0
  0
LINE
  5
338
  8
0
  6
CONTINUOUS
 62
     7
 10
62.566344999999998
 20
31.653828000000001
 30
0.0
 11
63.066344999999998
 21
31.653828000000001
 31
0.0
  0
LINE
  5
339
  8
0
  6
CONTINUOUS
 62
     7
 10
62.566344999999998
 20
30.653828000000001
 30
0.0
 11
63.066344999999998
 21
30.653828000000001
 31
0.0
  0
LINE
  5
33A
  8
0
  6
CONTINUOUS
 62
     7
 10
63.566344999999998
 20
29.653828000000001
 30
0.0
 11
63.566344999999998
 21
30.153828000000001
 31
0.0
  0
LINE
  5
33B
  8
0
  6
CONTINUOUS
 62
     7
 10
64.566344999999984
 20
29.653828000000001
 30
0.0
 11
64.566344999999984
 21
30.153828000000001
 31
0.0
  0
LINE
  5
33C
  8
0
  6
CONTINUOUS
 62
     7
 10
63.566344999999998
 20
-37.846171999999989
 30
0.0
 11
63.566344999999998
 21
-37.346171999999989
 31
0.0
  0
LINE
  5
33D
  8
0
  6
CONTINUOUS
 62
     7
 10
64.566344999999984
 20
-37.846171999999989
 30
0.0
 11
64.566344999999984
 21
-37.346171999999989
 31
0.0
  0
LINE
  5
33E
  8
0
  6
CONTINUOUS
 62
     7
 10
65.066344999999998
 20
-38.346171999999989
 30
0.0
 11
65.566344999999998
 21
-38.346171999999989
 31
0.0
  0
LINE
  5
33F
  8
0
  6
CONTINUOUS
 62
     7
 10
65.066344999999998
 20
-39.346171999999989
 30
0.0
 11
65.566344999999998
 21
-39.346171999999989
 31
0.0
  0
LINE
  5
340
  8
0
  6
CONTINUOUS
 62
     7
 10
65.066344999999998
 20
30.653828000000001
 30
0.0
 11
65.566344999999998
 21
30.653828000000001
 31
0.0
  0
LINE
  5
341
  8
0
  6
CONTINUOUS
 62
     7
 10
65.066344999999998
 20
31.653828000000001
 30
0.0
 11
65.566344999999998
 21
31.653828000000001
 31
0.0
  0
LINE
  5
342
  8
0
  6
CONTINUOUS
 62
     7
 10
64.566344999999984
 20
32.153827999999997
 30
0.0
 11
64.566344999999984
 21
32.653827999999997
 31
0.0
  0
LINE
  5
343
  8
0
  6
CONTINUOUS
 62
     7
 10
63.566344999999998
 20
32.153827999999997
 30
0.0
 11
63.566344999999998
 21
32.653827999999997
 31
0.0
  0
LINE
  5
344
  8
0
  6
CONTINUOUS
 62
     3
 10
38.866347999999988
 20
116.2710499999999
 30
0.0
 11
38.866347999999988
 21
102.07104
 31
0.0
  0
LINE
  5
345
  8
0
  6
CONTINUOUS
 62
     3
 10
42.666347999999999
 20
120.07105
 30
0.0
 11
73.266341999999995
 21
120.07105
 31
0.0
  0
LINE
  5
346
  8
0
  6
CONTINUOUS
 62
     3
 10
34.066349000000002
 20
102.07104
 30
0.0
 11
98.466346999999999
 21
102.07104
 31
0.0
  0
LINE
  5
347
  8
0
  6
CONTINUOUS
 62
     3
 10
34.066349000000002
 20
145.47104999999999
 30
0.0
 11
51.566349000000002
 21
145.47104999999999
 31
0.0
  0
LINE
  5
348
  8
0
  6
CONTINUOUS
 62
     3
 10
38.866347999999988
 20
131.27106000000001
 30
0.0
 11
38.866347999999988
 21
145.47104999999999
 31
0.0
  0
LINE
  5
349
  8
0
  6
CONTINUOUS
 62
     3
 10
42.666347999999999
 20
127.47105000000001
 30
0.0
 11
51.566349000000002
 21
127.47105000000001
 31
0.0
  0
LINE
  5
34A
  8
0
  6
CONTINUOUS
 62
     3
 10
81.566344999999998
 20
145.47104999999999
 30
0.0
 11
98.466346999999999
 21
145.47104999999999
 31
0.0
  0
CIRCLE
  5
34B
  8
0
  6
CONTINUOUS
 62
     7
 10
-145.23188999999991
 20
120.88303999999989
 30
0.0
 40
2.0
  0
ARC
  5
34C
  8
0
  6
DASHED
 62
     3
 10
73.266341999999995
 20
101.27105
 30
0.0
 40
18.0
 50
2.4388649999999998
 51
89.999976000000004
  0
ARC
  5
34D
  8
0
  6
DASHED
 62
     3
 10
42.666347999999999
 20
116.2710499999999
 30
0.0
 40
3.0
 50
90.0
 51
180.0
  0
ARC
  5
34E
  8
0
  6
DASHED
 62
     3
 10
42.666347999999999
 20
131.27106000000001
 30
0.0
 40
3.0
 50
180.0
 51
270.0
  0
ARC
  5
34F
  8
0
  6
DASHED
 62
     3
 10
73.266341999999995
 20
146.27106000000001
 30
0.0
 40
18.0
 50
297.45882999999992
 51
357.45267000000001
  0
ARC
  5
350
  8
0
  6
CONTINUOUS
 62
     7
 10
30.06634699999999
 20
55.153828000000011
 30
0.0
 40
1.0
 50
90.0
 51
180.0
  0
ARC
  5
351
  8
0
  6
CONTINUOUS
 62
     7
 10
30.06634699999999
 20
-62.846171999999989
 30
0.0
 40
1.0
 50
180.0
 51
270.0
  0
ARC
  5
352
  8
0
  6
CONTINUOUS
 62
     7
 10
103.0663499999999
 20
55.153828000000011
 30
0.0
 40
1.0
 50
0.0
 51
90.0
  0
ARC
  5
353
  8
0
  6
CONTINUOUS
 62
     7
 10
103.0663499999999
 20
-62.846171999999989
 30
0.0
 40
1.0
 50
270.0
 51
0.0
  0
CIRCLE
  5
354
  8
0
  6
CONTINUOUS
 62
     7
 10
-143.03188
 20
112.88303999999999
 30
0.0
 40
2.0
  0
CIRCLE
  5
355
  8
0
  6
CONTINUOUS
 62
     7
 10
64.066344999999998
 20
-38.846171999999989
 30
0.0
 40
3.0
  0
CIRCLE
  5
356
  8
0
  6
CONTINUOUS
 62
     7
 10
64.066344999999998
 20
31.153828000000001
 30
0.0
 40
3.0
  0
ARC
  5
357
  8
0
  6
CONTINUOUS
 62
     7
 10
64.066344999999998
 20
-37.346171999999989
 30
0.0
 40
0.5
 50
0.0
 51
180.0
  0
ARC
  5
358
  8
0
  6
CONTINUOUS
 62
     7
 10
64.066344999999998
 20
-40.346171999999989
 30
0.0
 40
0.5
 50
180.0
 51
0.0
  0
ARC
  5
359
  8
0
  6
CONTINUOUS
 62
     7
 10
62.566344999999998
 20
-38.846171999999989
 30
0.0
 40
0.5
 50
90.0
 51
270.0
  0
ARC
  5
35A
  8
0
  6
CONTINUOUS
 62
     7
 10
65.566344999999998
 20
-38.846171999999989
 30
0.0
 40
0.5
 50
270.0
 51
90.0
  0
ARC
  5
35B
  8
0
  6
CONTINUOUS
 62
     7
 10
65.066344999999998
 20
-39.846171999999989
 30
0.0
 40
0.5
 50
90.0
 51
180.0
  0
ARC
  5
35C
  8
0
  6
CONTINUOUS
 62
     7
 10
63.066344999999998
 20
-37.846171999999989
 30
0.0
 40
0.5
 50
270.0
 51
0.0
  0
ARC
  5
35D
  8
0
  6
CONTINUOUS
 62
     7
 10
63.066344999999998
 20
-39.846171999999989
 30
0.0
 40
0.5
 50
0.0
 51
90.0
  0
ARC
  5
35E
  8
0
  6
CONTINUOUS
 62
     7
 10
65.066344999999998
 20
-37.846171999999989
 30
0.0
 40
0.5
 50
180.0
 51
270.0
  0
ARC
  5
35F
  8
0
  6
CONTINUOUS
 62
     7
 10
65.566344999999998
 20
31.153828000000001
 30
0.0
 40
0.5
 50
270.0
 51
90.0
  0
ARC
  5
360
  8
0
  6
CONTINUOUS
 62
     7
 10
64.066344999999998
 20
32.653827999999997
 30
0.0
 40
0.5
 50
0.0
 51
180.0
  0
ARC
  5
361
  8
0
  6
CONTINUOUS
 62
     7
 10
62.566344999999998
 20
31.153828000000001
 30
0.0
 40
0.5
 50
90.0
 51
270.0
  0
ARC
  5
362
  8
0
  6
CONTINUOUS
 62
     7
 10
64.066344999999998
 20
29.653828000000001
 30
0.0
 40
0.5
 50
180.0
 51
0.0
  0
ARC
  5
363
  8
0
  6
CONTINUOUS
 62
     7
 10
63.066344999999998
 20
32.153827999999997
 30
0.0
 40
0.5
 50
270.0
 51
0.0
  0
ARC
  5
364
  8
0
  6
CONTINUOUS
 62
     7
 10
65.066344999999998
 20
30.153828000000001
 30
0.0
 40
0.5
 50
90.0
 51
180.0
  0
ARC
  5
365
  8
0
  6
CONTINUOUS
 62
     7
 10
63.066344999999998
 20
30.153828000000001
 30
0.0
 40
0.5
 50
0.0
 51
90.0
  0
ARC
  5
366
  8
0
  6
CONTINUOUS
 62
     7
 10
65.066344999999998
 20
32.153827999999997
 30
0.0
 40
0.5
 50
180.0
 51
270.0
  0
ARC
  5
367
  8
0
  6
CONTINUOUS
 62
     3
 10
42.666347999999999
 20
116.2710499999999
 30
0.0
 40
3.7999999999999989
 50
90.0
 51
180.0
  0
ARC
  5
368
  8
0
  6
CONTINUOUS
 62
     3
 10
73.266341999999995
 20
101.27105
 30
0.0
 40
18.799998999999989
 50
2.4388412999999991
 51
89.999976999999987
  0
ARC
  5
369
  8
0
  6
DASHED
 62
     3
 10
38.866347999999988
 20
102.07105
 30
0.0
 40
0.8000000099999999
 50
270.0
 51
0.0
  0
ARC
  5
36A
  8
0
  6
DASHED
 62
     3
 10
92.049316000000005
 20
102.07105
 30
0.0
 40
0.8000000099999999
 50
182.43883
 51
270.0
  0
ARC
  5
36B
  8
0
  6
CONTINUOUS
 62
     3
 10
42.666347999999999
 20
131.27106000000001
 30
0.0
 40
3.7999999999999989
 50
180.0
 51
270.0
  0
ARC
  5
36C
  8
0
  6
CONTINUOUS
 62
     3
 10
73.266341999999995
 20
146.27106000000001
 30
0.0
 40
18.799998999999989
 50
297.45884000000001
 51
357.56113999999991
  0
ARC
  5
36D
  8
0
  6
DASHED
 62
     3
 10
38.866347999999988
 20
145.47104999999999
 30
0.0
 40
0.8000000099999999
 50
0.0
 51
90.0
  0
ARC
  5
36E
  8
0
  6
DASHED
 62
     3
 10
92.049316000000005
 20
145.47104999999999
 30
0.0
 40
0.8000000099999999
 50
90.0
 51
177.56117
  0
TEXT
  5
36F
  8
0
  6
CONTINUOUS
 62
     7
 10
-205.34299999999999
 20
167.40000000000001
 30
0.0
 40
3.2000000000000002
  1
品　名
 41
0.85537027
  0
TEXT
  5
370
  8
0
  6
CONTINUOUS
 62
     7
 10
-205.34299999999999
 20
159.40000000000001
 30
0.0
 40
3.2000000000000002
  1
品　番
 41
0.85537027
  0
TEXT
  5
371
  8
0
  6
CONTINUOUS
 62
     7
 10
-188.14299999999989
 20
79.400000000000006
 30
0.0
 40
3.2000000000000002
  1
＊
 41
0.90047268
  0
TEXT
  5
372
  8
0
  6
CONTINUOUS
 62
     7
 10
-205.34299999999999
 20
151.40000000000001
 30
0.0
 40
3.2000000000000002
  1
材　質
 41
0.85537027
  0
TEXT
  5
373
  8
0
  6
CONTINUOUS
 62
     7
 10
-205.34299999999999
 20
143.40000000000001
 30
0.0
 40
3.2000000000000002
  1
仕上げ
 41
0.85537027
  0
TEXT
  5
374
  8
0
  6
CONTINUOUS
 62
     7
 10
-188.14299999999989
 20
103.40000000000001
 30
0.0
 40
3.2000000000000002
  1
＊
 41
0.90047268
  0
TEXT
  5
375
  8
0
  6
CONTINUOUS
 62
     7
 10
-188.1136699999999
 20
111.40000000000001
 30
0.0
 40
3.2000000000000002
  1
Ｍ４×Ｄ６×１２サラ小ネジ　＋　ＳＵＳ　２本付（Ｄｔ＝５０ｍｍ用）
 41
0.8199708799999999
  0
TEXT
  5
376
  8
0
  6
CONTINUOUS
 62
     7
 10
-208.54300000000001
 20
119.40000000000001
 30
0.0
 40
3.2000000000000002
  1
セットビス
 41
0.84892707
  0
TEXT
  5
377
  8
0
  6
CONTINUOUS
 62
     7
 10
-188.14299999999989
 20
119.40000000000001
 30
0.0
 40
3.2000000000000002
  1
Ｍ４×Ｄ６×６サラ小ネジ　＋　ＳＵＳ　２本付（Ｄｔ＝40ｍｍ用）
 41
0.8416021699999999
  0
TEXT
  5
378
  8
0
  6
CONTINUOUS
 62
     7
 10
-203.74299999999999
 20
95.400000000000006
 30
0.0
 40
3.2000000000000002
  1
備考
 41
0.8643907499999999
  0
TEXT
  5
379
  8
0
  6
CONTINUOUS
 62
     7
 10
-205.34299999999999
 20
135.40000000000001
 30
0.0
 40
3.2000000000000002
  1
定　尺
 41
0.85537027
  0
TEXT
  5
37A
  8
0
  6
CONTINUOUS
 62
     7
 10
-206.9429999999999
 20
127.40000000000001
 30
0.0
 40
3.2000000000000002
  1
左右勝手
 41
0.8512700499999999
  0
TEXT
  5
37B
  8
0
  6
CONTINUOUS
 62
     7
 10
-188.3785499999999
 20
134.96997999999999
 30
0.0
 40
3.2000000000000002
  1
＊
 41
0.90047268
  0
TEXT
  5
37C
  8
0
  6
CONTINUOUS
 62
     7
 10
-188.14299999999989
 20
167.40000000000001
 30
0.0
 40
3.2000000000000002
  1
掘り込み引手
 41
0.84741102
  0
TEXT
  5
37D
  8
0
  6
CONTINUOUS
 62
     7
 10
-188.14299999999989
 20
159.40000000000001
 30
0.0
 40
3.2000000000000002
  1
ＤＵ－７５
 41
0.84892707
  0
TEXT
  5
37E
  8
0
  6
CONTINUOUS
 62
     7
 10
-188.14299999999989
 20
151.40000000000001
 30
0.0
 40
3.2000000000000002
  1
ステンレス
 41
0.84892707
  0
TEXT
  5
37F
  8
0
  6
CONTINUOUS
 62
     7
 10
-188.14299999999989
 20
143.40000000000001
 30
0.0
 40
3.2000000000000002
  1
ヘアーライン
 41
0.84741102
  0
TEXT
  5
380
  8
0
  6
CONTINUOUS
 62
     7
 10
-188.3785499999999
 20
127.3661699999999
 30
0.0
 40
3.2000000000000002
  1
＊
 41
0.90047268
  0
TEXT
  5
381
  8
0
  6
CONTINUOUS
 62
     7
 10
-67.224031999999994
 20
-74.344208999999992
 30
0.0
 40
3.2000000000000002
  1
切欠推奨寸法
 41
0.84741102
  0
INSERT
  5
382
  8
0
  6
CONTINUOUS
 62
     7
  2
KOZU0005
 10
0.0
 20
0.0
 30
0.0
  0
DIMENSION
  5
383
  8
0
  6
CONTINUOUS
 62
     7
  2
*D1
 10
129.06634999999989
 20
-63.846172000000003
 30
0.0
 11
129.06634999999989
 21
-3.8461732999999998
 31
0.0
 13
103.0663499999999
 23
56.153827999999997
 33
0.0
 14
103.0663499999999
 24
-63.846172000000003
 34
0.0
 50
90.0
1001
ACAD
1000
DSTYLE
1002
{
1070
    77
1070
     1
1070
   172
1070
     1
1002
}
  0
DIMENSION
  5
384
  8
0
  6
CONTINUOUS
 62
     7
  2
*D2
 10
119.06635
 20
31.153828000000001
 30
0.0
 11
119.06635
 21
43.653827999999997
 31
0.0
 13
103.0663499999999
 23
56.153827999999997
 33
0.0
 14
74.566344999999984
 24
31.153828000000001
 34
0.0
 50
90.0
1001
ACAD
1000
DSTYLE
1002
{
1070
    77
1070
     1
1070
   172
1070
     1
1002
}
  0
DIMENSION
  5
385
  8
0
  6
CONTINUOUS
 62
     7
  2
*D3
 10
119.06635
 20
-38.846171999999989
 30
0.0
 11
119.06635
 21
-3.8461732999999998
 31
0.0
 13
74.566344999999984
 23
31.153828000000001
 33
0.0
 14
74.566344999999984
 24
-38.846171999999989
 34
0.0
 50
90.0
1001
ACAD
1000
DSTYLE
1002
{
1070
    77
1070
     1
1070
   172
1070
     1
1070
    75
1070
     1
1002
}
  0
DIMENSION
  5
386
  8
0
  6
CONTINUOUS
 62
     7
  2
*D4
 10
119.06635
 20
-63.846172000000003
 30
0.0
 11
119.06635
 21
-51.346172000000003
 31
0.0
 13
74.566344999999984
 23
-38.846171999999989
 33
0.0
 14
103.0663499999999
 24
-63.846172000000003
 34
0.0
 50
90.0
1001
ACAD
1000
DSTYLE
1002
{
1070
    77
1070
     1
1070
   172
1070
     1
1070
    75
1070
     1
1002
}
  0
DIMENSION
  5
387
  8
0
  6
CONTINUOUS
 62
     7
  2
*D5
 10
19.066347
 20
-46.846171999999989
 30
0.0
 11
19.066347
 21
-55.346171999999989
 31
0.0
 13
30.06634699999999
 23
-63.846172000000003
 33
0.0
 14
55.566349000000002
 24
-46.846171999999989
 34
0.0
 50
90.0
1001
ACAD
1000
DSTYLE
1002
{
1070
    77
1070
     1
1070
   172
1070
     1
1002
}
  0
DIMENSION
  5
388
  8
0
  6
CONTINUOUS
 62
     7
  2
*D6
 10
19.066347
 20
39.153827999999997
 30
0.0
 11
19.066347
 21
-3.8461732999999998
 31
0.0
 13
55.566349000000002
 23
-46.846171999999989
 33
0.0
 14
55.566349000000002
 24
39.153827999999997
 34
0.0
 50
90.0
1001
ACAD
1000
DSTYLE
1002
{
1070
    77
1070
     1
1070
   172
1070
     1
1002
}
  0
DIMENSION
  5
389
  8
0
  6
CONTINUOUS
 62
     7
  2
*D7
 10
19.066347
 20
56.153827999999997
 30
0.0
 11
19.066347
 21
47.653827999999997
 31
0.0
 13
55.566349000000002
 23
39.153827999999997
 33
0.0
 14
30.06634699999999
 24
56.153827999999997
 34
0.0
 50
90.0
1001
ACAD
1000
DSTYLE
1002
{
1070
    77
1070
     1
1070
   172
1070
     1
1002
}
  0
DIMENSION
  5
38A
  8
0
  6
CONTINUOUS
 62
     7
  2
*D8
 10
104.0663499999999
 20
76.153824
 30
0.0
 11
66.566344999999998
 21
76.153824
 31
0.0
 13
29.06634699999999
 23
55.153828000000011
 33
0.0
 14
104.0663499999999
 24
55.153828000000011
 34
0.0
1001
ACAD
1000
DSTYLE
1002
{
1070
    77
1070
     1
1070
   172
1070
     1
1002
}
  0
DIMENSION
  5
38B
  8
0
  6
CONTINUOUS
 62
     7
  2
*D9
 10
55.566349000000002
 20
-78.846176
 30
0.0
 11
42.316349000000002
 21
-78.846176
 31
0.0
 13
29.06634699999999
 23
-62.846171999999989
 33
0.0
 14
55.566349000000002
 24
-46.846171999999989
 34
0.0
1001
ACAD
1000
DSTYLE
1002
{
1070
    77
1070
     1
1070
   172
1070
     1
1002
}
  0
DIMENSION
  5
38C
  8
0
  6
CONTINUOUS
 62
     7
  2
*D10
 10
90.566344999999984
 20
-78.846176
 30
0.0
 11
73.066344999999998
 21
-78.846176
 31
0.0
 13
55.566349000000002
 23
-46.846171999999989
 33
0.0
 14
90.566344999999984
 24
-46.846171999999989
 34
0.0
1001
ACAD
1000
DSTYLE
1002
{
1070
    77
1070
     1
1070
   172
1070
     1
1070
    75
1070
     1
1002
}
  0
DIMENSION
  5
38D
  8
0
  6
CONTINUOUS
 62
     7
  2
*D11
 10
104.0663499999999
 20
-78.846176
 30
0.0
 11
97.316344999999998
 21
-78.846176
 31
0.0
 13
90.566344999999984
 23
-46.846171999999989
 33
0.0
 14
104.0663499999999
 24
-62.846171999999989
 34
0.0
1001
ACAD
1000
DSTYLE
1002
{
1070
    77
1070
     1
1070
   172
1070
     1
1070
    75
1070
     1
1002
}
  0
INSERT
  5
38E
  8
0
  6
CONTINUOUS
 62
     7
  2
KOZU0003
 10
104.0663499999999
 20
56.153827999999997
 30
0.0
  0
DIMENSION
  5
38F
  8
0
  6
CONTINUOUS
 62
     7
  2
*D12
 10
129.06634999999989
 20
101.27105
 30
0.0
 11
129.06634999999989
 21
95.511482000000001
 31
0.0
 13
104.0663499999999
 23
99.271049000000005
 33
0.0
 14
104.0663499999999
 24
101.27105
 34
0.0
 50
90.0
1001
ACAD
1000
DSTYLE
1002
{
1070
    77
1070
     1
1070
   172
1070
     1
1002
}
  0
DIMENSION
  5
390
  8
0
  6
CONTINUOUS
 62
     7
  2
*D13
 10
129.06634999999989
 20
148.27106000000001
 30
0.0
 11
129.06634999999989
 21
152.2002
 31
0.0
 13
104.0663499999999
 23
146.27106000000001
 33
0.0
 14
104.0663499999999
 24
148.27106000000001
 34
0.0
 50
90.0
1001
ACAD
1000
DSTYLE
1002
{
1070
    77
1070
     1
1070
   172
1070
     1
1070
    75
1070
     1
1002
}
  0
DIMENSION
  5
391
  8
0
  6
CONTINUOUS
 62
     7
  2
*D14
 10
119.06635
 20
122.27105
 30
0.0
 11
119.06635
 21
134.27105999999989
 31
0.0
 13
104.0663499999999
 23
146.27106000000001
 33
0.0
 14
81.566344999999998
 24
122.27105
 34
0.0
 50
90.0
1001
ACAD
1000
DSTYLE
1002
{
1070
    77
1070
     1
1070
   172
1070
     1
1002
}
  0
DIMENSION
  5
392
  8
0
  6
CONTINUOUS
 62
     7
  2
*D15
 10
119.06635
 20
101.27105
 30
0.0
 11
119.06635
 21
111.0710499999999
 31
0.0
 13
69.066344999999998
 23
120.87105
 33
0.0
 14
104.0663499999999
 24
101.27105
 34
0.0
 50
90.0
1001
ACAD
1000
DSTYLE
1002
{
1070
    77
1070
     1
1070
   172
1070
     1
1002
}
  0
DIMENSION
  5
393
  8
0
  6
CONTINUOUS
 62
     7
  2
*D16
 10
19.066347
 20
119.27105
 30
0.0
 11
19.066347
 21
110.27105
 31
0.0
 13
29.06634699999999
 23
101.27105
 33
0.0
 14
42.666347999999999
 24
119.27105
 34
0.0
 50
90.0
1001
ACAD
1000
DSTYLE
1002
{
1070
    77
1070
     1
1070
   172
1070
     1
1002
}
  0
DIMENSION
  5
394
  8
0
  6
CONTINUOUS
 62
     7
  2
*D17
 10
19.066347
 20
128.27106000000001
 30
0.0
 11
19.066347
 21
137.27106000000001
 31
0.0
 13
29.06634699999999
 23
146.27106000000001
 33
0.0
 14
42.666347999999999
 24
128.27106000000001
 34
0.0
 50
90.0
1001
ACAD
1000
DSTYLE
1002
{
1070
    77
1070
     1
1070
   172
1070
     1
1002
}
  0
DIMENSION
  5
395
  8
0
  6
CONTINUOUS
 62
     7
  2
*D18
 10
-90.933655000000002
 20
-58.846172000000003
 30
0.0
 11
-90.933655000000002
 21
-3.8461732999999998
 31
0.0
 13
-80.933655000000002
 23
51.153827999999997
 33
0.0
 14
-80.933655000000002
 24
-58.846172000000003
 34
0.0
 50
90.0
1001
ACAD
1000
DSTYLE
1002
{
1070
    77
1070
     1
1070
   172
1070
     1
1002
}
  0
DIMENSION
  5
396
  8
0
  6
CONTINUOUS
 62
     7
  2
*D19
 10
-15.933652
 20
61.153827999999997
 30
0.0
 11
-48.43365099999999
 21
61.153827999999997
 31
0.0
 13
-80.933655000000002
 23
51.153827999999997
 33
0.0
 14
-15.933652
 24
51.153827999999997
 34
0.0
1001
ACAD
1000
DSTYLE
1002
{
1070
    77
1070
     1
1070
   172
1070
     1
1002
}
  0
DIMENSION
  5
397
  8
0
  6
CONTINUOUS
 62
     7
  2
*D20
 10
129.06634999999989
 20
101.27105
 30
0.0
 11
129.06634999999989
 21
123.77105999999991
 31
0.0
 13
104.0663499999999
 23
146.27106000000001
 33
0.0
 14
104.0663499999999
 24
101.27105
 34
0.0
 50
90.0
1001
ACAD
1000
DSTYLE
1002
{
1070
    77
1070
     1
1070
   172
1070
     1
1002
}
  0
DIMENSION
  5
398
  8
0
  6
CONTINUOUS
 62
     7
  2
*D21
 10
9.0663470999999998
 20
127.47105000000001
 30
0.0
 11
9.0663470999999998
 21
136.87105999999989
 31
0.0
 13
29.06634699999999
 23
146.27106000000001
 33
0.0
 14
42.666347999999999
 24
127.47105000000001
 34
0.0
 50
90.0
1001
ACAD
1000
DSTYLE
1002
{
1070
    77
1070
     1
1070
   172
1070
     1
1002
}
  0
DIMENSION
  5
399
  8
0
  6
CONTINUOUS
 62
     7
  2
*D22
 10
9.0663470999999998
 20
120.07105
 30
0.0
 11
9.0663470999999998
 21
110.67104999999989
 31
0.0
 13
29.06634699999999
 23
101.27105
 33
0.0
 14
42.666347999999999
 24
120.07105
 34
0.0
 50
90.0
1001
ACAD
1000
DSTYLE
1002
{
1070
    77
1070
     1
1070
   172
1070
     1
1002
}
  0
DIMENSION
  5
39A
  8
0
  6
CONTINUOUS
 62
     7
  2
*D23
 10
64.066344999999998
 20
66.153824
 30
0.0
 11
46.566344999999998
 21
66.153824
 31
0.0
 13
29.06634699999999
 23
55.153828000000011
 33
0.0
 14
64.066344999999998
 24
61.153827999999997
 34
0.0
1001
ACAD
1000
DSTYLE
1002
{
1070
    77
1070
     1
1070
   172
1070
     1
1002
}
  0
DIMENSION
  5
39B
  8
0
  6
CONTINUOUS
 62
     7
  2
*D24
 10
104.0663499999999
 20
66.153824
 30
0.0
 11
84.066344999999998
 21
66.153824
 31
0.0
 13
64.066344999999998
 23
61.153827999999997
 33
0.0
 14
104.0663499999999
 24
55.153828000000011
 34
0.0
1001
ACAD
1000
DSTYLE
1002
{
1070
    77
1070
     1
1070
   172
1070
     1
1070
    75
1070
     1
1002
}
  0
ENDSEC
  0
EOF
