  0
SECTION
  2
HEADER
  9
$ACADVER
  1
AC1015
  9
$ACADMAINTVER
 70
    20
  9
$DWGCODEPAGE
  3
ANSI_932
  9
$INSBASE
 10
0.0
 20
0.0
 30
0.0
  9
$EXTMIN
 10
730.5709091316778
 20
-407.5984069194512
 30
-0.0000000349181948
  9
$EXTMAX
 10
1111.668642102253
 20
-134.5526290083394
 30
0.0000000814935746
  9
$LIMMIN
 10
219.4956354736257
 20
-100.0
  9
$LIMMAX
 10
627.9956354736257
 20
188.5
  9
$ORTHOMODE
 70
     0
  9
$REGENMODE
 70
     1
  9
$FILLMODE
 70
     1
  9
$QTEXTMODE
 70
     0
  9
$MIRRTEXT
 70
     1
  9
$LTSCALE
 40
1.0
  9
$ATTMODE
 70
     1
  9
$TEXTSIZE
 40
3.2
  9
$TRACEWID
 40
1.0
  9
$TEXTSTYLE
  7
STANDARD
  9
$CLAYER
  8
AM_0
  9
$CELTYPE
  6
ByLayer
  9
$CECOLOR
 62
   256
  9
$CELTSCALE
 40
1.0
  9
$DISPSILH
 70
     0
  9
$DIMSCALE
 40
1.0
  9
$DIMASZ
 40
1.0
  9
$DIMEXO
 40
1.0
  9
$DIMDLI
 40
10.0
  9
$DIMRND
 40
0.0
  9
$DIMDLE
 40
0.0
  9
$DIMEXE
 40
1.0
  9
$DIMTP
 40
0.2
  9
$DIMTM
 40
0.2
  9
$DIMTXT
 40
3.5
  9
$DIMCEN
 40
0.0
  9
$DIMTSZ
 40
0.0
  9
$DIMTOL
 70
     1
  9
$DIMLIM
 70
     0
  9
$DIMTIH
 70
     0
  9
$DIMTOH
 70
     0
  9
$DIMSE1
 70
     0
  9
$DIMSE2
 70
     0
  9
$DIMTAD
 70
     1
  9
$DIMZIN
 70
     8
  9
$DIMBLK
  1
Dot
  9
$DIMASO
 70
     1
  9
$DIMSHO
 70
     1
  9
$DIMPOST
  1

  9
$DIMAPOST
  1
"
  9
$DIMALT
 70
     0
  9
$DIMALTD
 70
     2
  9
$DIMALTF
 40
0.0393701
  9
$DIMLFAC
 40
1.0
  9
$DIMTOFL
 70
     1
  9
$DIMTVP
 40
0.0
  9
$DIMTIX
 70
     0
  9
$DIMSOXD
 70
     0
  9
$DIMSAH
 70
     1
  9
$DIMBLK1
  1

  9
$DIMBLK2
  1

  9
$DIMSTYLE
  2
SYS
  9
$DIMCLRD
 70
   256
  9
$DIMCLRE
 70
   256
  9
$DIMCLRT
 70
     7
  9
$DIMTFAC
 40
0.6
  9
$DIMGAP
 40
1.5
  9
$DIMJUST
 70
     0
  9
$DIMSD1
 70
     0
  9
$DIMSD2
 70
     0
  9
$DIMTOLJ
 70
     0
  9
$DIMTZIN
 70
     8
  9
$DIMALTZ
 70
     0
  9
$DIMALTTZ
 70
     0
  9
$DIMUPT
 70
     0
  9
$DIMDEC
 70
     1
  9
$DIMTDEC
 70
     1
  9
$DIMALTU
 70
     2
  9
$DIMALTTD
 70
     2
  9
$DIMTXSTY
  7
STANDARD
  9
$DIMAUNIT
 70
     0
  9
$DIMADEC
 70
     0
  9
$DIMALTRND
 40
0.0
  9
$DIMAZIN
 70
     2
  9
$DIMDSEP
 70
    46
  9
$DIMATFIT
 70
     3
  9
$DIMFRAC
 70
     0
  9
$DIMLDRBLK
  1
OPEN30
  9
$DIMLUNIT
 70
     2
  9
$DIMLWD
 70
    -1
  9
$DIMLWE
 70
    -1
  9
$DIMTMOVE
 70
     0
  9
$LUNITS
 70
     2
  9
$LUPREC
 70
     2
  9
$SKETCHINC
 40
1.0
  9
$FILLETRAD
 40
3.0
  9
$AUNITS
 70
     0
  9
$AUPREC
 70
     0
  9
$MENU
  1
.
  9
$ELEVATION
 40
0.0
  9
$PELEVATION
 40
0.0
  9
$THICKNESS
 40
0.0
  9
$LIMCHECK
 70
     0
  9
$CHAMFERA
 40
0.5
  9
$CHAMFERB
 40
0.5
  9
$CHAMFERC
 40
20.0
  9
$CHAMFERD
 40
0.0
  9
$SKPOLY
 70
     0
  9
$TDCREATE
 40
2452002.615067627
  9
$TDUCREATE
 40
2452002.240067627
  9
$TDUPDATE
 40
2454886.436461586
  9
$TDUUPDATE
 40
2454886.061461586
  9
$TDINDWG
 40
17.8719034259
  9
$TDUSRTIMER
 40
17.8718979861
  9
$USRTIMER
 70
     1
  9
$ANGBASE
 50
0.0
  9
$ANGDIR
 70
     0
  9
$PDMODE
 70
     0
  9
$PDSIZE
 40
0.0
  9
$PLINEWID
 40
0.0
  9
$SPLFRAME
 70
     0
  9
$SPLINETYPE
 70
     6
  9
$SPLINESEGS
 70
     8
  9
$HANDSEED
  5
1D9EF
  9
$SURFTAB1
 70
     6
  9
$SURFTAB2
 70
     6
  9
$SURFTYPE
 70
     6
  9
$SURFU
 70
     6
  9
$SURFV
 70
     6
  9
$UCSBASE
  2

  9
$UCSNAME
  2

  9
$UCSORG
 10
0.0
 20
0.0
 30
0.0
  9
$UCSXDIR
 10
1.0
 20
0.0
 30
0.0
  9
$UCSYDIR
 10
0.0
 20
1.0
 30
0.0
  9
$UCSORTHOREF
  2

  9
$UCSORTHOVIEW
 70
     0
  9
$UCSORGTOP
 10
0.0
 20
0.0
 30
0.0
  9
$UCSORGBOTTOM
 10
0.0
 20
0.0
 30
0.0
  9
$UCSORGLEFT
 10
0.0
 20
0.0
 30
0.0
  9
$UCSORGRIGHT
 10
0.0
 20
0.0
 30
0.0
  9
$UCSORGFRONT
 10
0.0
 20
0.0
 30
0.0
  9
$UCSORGBACK
 10
0.0
 20
0.0
 30
0.0
  9
$PUCSBASE
  2

  9
$PUCSNAME
  2

  9
$PUCSORG
 10
0.0
 20
0.0
 30
0.0
  9
$PUCSXDIR
 10
1.0
 20
0.0
 30
0.0
  9
$PUCSYDIR
 10
0.0
 20
1.0
 30
0.0
  9
$PUCSORTHOREF
  2

  9
$PUCSORTHOVIEW
 70
     0
  9
$PUCSORGTOP
 10
0.0
 20
0.0
 30
0.0
  9
$PUCSORGBOTTOM
 10
0.0
 20
0.0
 30
0.0
  9
$PUCSORGLEFT
 10
0.0
 20
0.0
 30
0.0
  9
$PUCSORGRIGHT
 10
0.0
 20
0.0
 30
0.0
  9
$PUCSORGFRONT
 10
0.0
 20
0.0
 30
0.0
  9
$PUCSORGBACK
 10
0.0
 20
0.0
 30
0.0
  9
$USERI1
 70
     0
  9
$USERI2
 70
     0
  9
$USERI3
 70
     0
  9
$USERI4
 70
     0
  9
$USERI5
 70
     0
  9
$USERR1
 40
0.0
  9
$USERR2
 40
0.0
  9
$USERR3
 40
0.0
  9
$USERR4
 40
0.0
  9
$USERR5
 40
0.0
  9
$WORLDVIEW
 70
     1
  9
$SHADEDGE
 70
     3
  9
$SHADEDIF
 70
    70
  9
$TILEMODE
 70
     1
  9
$MAXACTVP
 70
    64
  9
$PINSBASE
 10
0.0
 20
0.0
 30
0.0
  9
$PLIMCHECK
 70
     0
  9
$PEXTMIN
 10
1.000000000000000E+20
 20
1.000000000000000E+20
 30
1.000000000000000E+20
  9
$PEXTMAX
 10
-1.000000000000000E+20
 20
-1.000000000000000E+20
 30
-1.000000000000000E+20
  9
$PLIMMIN
 10
-3.17498779296875
 20
-3.174999952316281
  9
$PLIMMAX
 10
293.4970092773438
 20
206.692492723465
  9
$UNITMODE
 70
     0
  9
$VISRETAIN
 70
     1
  9
$PLINEGEN
 70
     0
  9
$PSLTSCALE
 70
     1
  9
$TREEDEPTH
 70
  3020
  9
$CMLSTYLE
  2
Standard
  9
$CMLJUST
 70
     0
  9
$CMLSCALE
 40
20.0
  9
$PROXYGRAPHICS
 70
     1
  9
$MEASUREMENT
 70
     1
  9
$CELWEIGHT
370
    -1
  9
$ENDCAPS
280
     0
  9
$JOINSTYLE
280
     0
  9
$LWDISPLAY
290
     0
  9
$INSUNITS
 70
     4
  9
$HYPERLINKBASE
  1

  9
$STYLESHEET
  1
monochrome.ctb
  9
$XEDIT
290
     1
  9
$CEPSNTYPE
380
     0
  9
$PSTYLEMODE
290
     1
  9
$FINGERPRINTGUID
  2
{83FB3AA1-FF18-4BFE-AFE0-611B71DE056D}
  9
$VERSIONGUID
  2
{A5ADF8B3-DD2D-4FC1-B59A-BB3A731924D6}
  9
$EXTNAMES
290
     1
  9
$PSVPSCALE
 40
0.0
  9
$OLESTARTUP
290
     0
  0
ENDSEC
  0
SECTION
  2
CLASSES
  0
CLASS
  1
ACDBDICTIONARYWDFLT
  2
AcDbDictionaryWithDefault
  3
ObjectDBX Classes
 90
        0
280
     0
281
     0
  0
CLASS
  1
ACDBPLACEHOLDER
  2
AcDbPlaceHolder
  3
ObjectDBX Classes
 90
        0
280
     0
281
     0
  0
CLASS
  1
LAYOUT
  2
AcDbLayout
  3
ObjectDBX Classes
 90
        0
280
     0
281
     0
  0
CLASS
  1
AMGSETTINGSOBJ
  2
AmgSettingsObj
  3
"AcadM|Product Description: AutoCAD Mechanical|Company: Autodesk"
 90
        0
280
     0
281
     0
  0
CLASS
  1
ACME_DOCUMENT
  2
AcMeDbDoc
  3
AcMeServices
 90
        0
280
     0
281
     0
  0
CLASS
  1
ACMESCOPE
  2
AcMeScope
  3
AcMeServices
 90
        0
280
     0
281
     0
  0
CLASS
  1
ACMECOMMANDHISTORY
  2
AcMeCommandHistory
  3
AcMeServices
 90
        0
280
     0
281
     0
  0
CLASS
  1
DICTIONARYVAR
  2
AcDbDictionaryVar
  3
ObjectDBX Classes
 90
        0
280
     0
281
     0
  0
CLASS
  1
ACIMSYSVARMAN
  2
AcImSysVarManager
  3
AcMeServices
 90
        0
280
     0
281
     0
  0
CLASS
  1
ACIMREALSYSVAR
  2
AcImRealSysVar
  3
AcMeServices
 90
        0
280
     0
281
     0
  0
CLASS
  1
ACIMINTSYSVAR
  2
AcImIntSysVar
  3
AcMeServices
 90
        0
280
     0
281
     0
  0
CLASS
  1
ACMEDRAWINGMAN
  2
AcMeDrawingMan
  3
AcMeServices
 90
        0
280
     0
281
     0
  0
CLASS
  1
ACMEVIEW
  2
AcMeView
  3
AcMeServices
 90
        0
280
     0
281
     0
  0
CLASS
  1
ACDBENTITYCACHE
  2
AcMeEntityCache
  3
AcMeServices
 90
        0
280
     0
281
     0
  0
CLASS
  1
GSMANAGER
  2
AcMeGSManager
  3
AcMeServices
 90
        0
280
     0
281
     0
  0
CLASS
  1
AMDTINTERNALREACTOR
  2
AmdtInternalReactor
  3
AcMeServices
 90
        0
280
     0
281
     0
  0
CLASS
  1
ACMESTATEMGR
  2
AcMeStateMgr
  3
AcMeServices
 90
        0
280
     0
281
     0
  0
CLASS
  1
ACGREFMASTER
  2
AcGrefMaster
  3
AcAttribServices
 90
        0
280
     0
281
     0
  0
CLASS
  1
ACME_DATABASE
  2
AcMeDbDatabase
  3
AcMeServices
 90
        0
280
     0
281
     0
  0
CLASS
  1
ACRFINSADJUSTERMGR
  2
AcRfInsAdjusterMgr
  3
AcMeServices
 90
        0
280
     0
281
     0
  0
CLASS
  1
ACGREFACADMASTER
  2
AcGrefacadMaster
  3
AcGrefServices
 90
        0
280
     0
281
     0
  0
CLASS
  1
AMIMASTER
  2
AmiMaster
  3
AmiServices
 90
        0
280
     0
281
     0
  0
CLASS
  1
ACMDATADICTIONARY
  2
AcmDataDictionary
  3
"AcmSymBB|Product Description: AutoCAD Mechanical|Company: Autodesk"
 90
        0
280
     0
281
     0
  0
CLASS
  1
ACMDATAENTRYBLOCK
  2
AcmDataEntryBlock
  3
"AcmSymBB|Product Description: AutoCAD Mechanical|Company: Autodesk"
 90
    32768
280
     0
281
     0
  0
CLASS
  1
ACIMSTRSYSVAR
  2
AcImStrSysVar
  3
AcMeServices
 90
        0
280
     0
281
     0
  0
CLASS
  1
ACMSTANDARDISO
  2
AcmStandardISO
  3
"Amdt_StdImp|Product Description: AutoCAD Mechanical|Company: Autodesk"
 90
        0
280
     0
281
     0
  0
CLASS
  1
AMGOBJPROPCFG
  2
AmgObjPropCfg
  3
"AmgLay|Product Description: AutoCAD Mechanical|Company: Autodesk"
 90
        1
280
     0
281
     0
  0
CLASS
  1
AMDTEDGESTANDARDISO
  2
AmdtEdgeStdISO
  3
"Amdt_StdImp|Product Description: AutoCAD Mechanical|Company: Autodesk"
 90
    32768
280
     0
281
     0
  0
CLASS
  1
ACMSURFSTANDARDISO
  2
AcmSurfTextStdISO
  3
"Amdt_StdImp|Product Description: AutoCAD Mechanical|Company: Autodesk"
 90
        0
280
     0
281
     0
  0
CLASS
  1
ACMFCFSTANDARDISO
  2
AcmFCFStdISO
  3
"Amdt_StdImp|Product Description: AutoCAD Mechanical|Company: Autodesk"
 90
        0
280
     0
281
     0
  0
CLASS
  1
ACMWELDSTANDARDISO
  2
AcmWeldingStdISO
  3
"Amdt_StdImp|Product Description: AutoCAD Mechanical|Company: Autodesk"
 90
        0
280
     0
281
     0
  0
CLASS
  1
ACMIDSTANDARDISO
  2
AcmIdStdISO
  3
"Amdt_StdImp|Product Description: AutoCAD Mechanical|Company: Autodesk"
 90
        0
280
     0
281
     0
  0
CLASS
  1
ACMDATUMSTANDARDISO
  2
AcmDatumStdISO
  3
"Amdt_StdImp|Product Description: AutoCAD Mechanical|Company: Autodesk"
 90
        0
280
     0
281
     0
  0
CLASS
  1
ACMBOMSTANDARDISO
  2
AcmBOMStdISO
  3
"Amdt_StdImp|Product Description: AutoCAD Mechanical|Company: Autodesk"
 90
        0
280
     0
281
     0
  0
CLASS
  1
ACMDETAILSTANDARDISO
  2
AmdtDetailSymStdISO
  3
"Amdt_StdImp|Product Description: AutoCAD Mechanical|Company: Autodesk"
 90
        0
280
     0
281
     0
  0
CLASS
  1
ACMSECTIONSTANDARDISO
  2
AmdtSectionSymStdISO
  3
"Amdt_StdImp|Product Description: AutoCAD Mechanical|Company: Autodesk"
 90
        0
280
     0
281
     0
  0
CLASS
  1
ACMCENTERLINESTANDARDISO
  2
AmdtCenterLineStdISO
  3
"Amdt_StdImp|Product Description: AutoCAD Mechanical|Company: Autodesk"
 90
        0
280
     0
281
     0
  0
CLASS
  1
ACAMGLAYSTD
  2
AcAmgLayStd
  3
"AmgLay|Product Description: AutoCAD Mechanical|Company: Autodesk"
 90
        0
280
     0
281
     0
  0
CLASS
  1
ACAMGDIMSTD
  2
AcAmgDimStd
  3
"AmgDim|Product Description: AutoCAD Mechanical|Company: Autodesk"
 90
        0
280
     0
281
     0
  0
CLASS
  1
ACAMGTITLESTD
  2
AcAmgTitleStd
  3
"AmgTitle|Product Description: AutoCAD Mechanical|Company: Autodesk"
 90
        0
280
     0
281
     0
  0
CLASS
  1
ACAMGFILTERDAT
  2
AcAmgFilterDat
  3
"AcadM|Product Description: AutoCAD Mechanical|Company: Autodesk"
 90
    32768
280
     0
281
     0
  0
CLASS
  1
LAYER_INDEX
  2
AcDbLayerIndex
  3
ObjectDBX Classes
 90
    32768
280
     0
281
     0
  0
CLASS
  1
IDBUFFER
  2
AcDbIdBuffer
  3
ObjectDBX Classes
 90
    32768
280
     0
281
     0
  0
CLASS
  1
PLOTSETTINGS
  2
AcDbPlotSettings
  3
ObjectDBX Classes
 90
        0
280
     0
281
     0
  0
CLASS
  1
AMDTFORMULAUPDATEDISPATCHER
  2
AmdtFormulaUpdateDispatcher
  3
AcMeServices
 90
    32768
280
     0
281
     0
  0
CLASS
  1
ACMSTANDARDANSI
  2
AcmStandardANSI
  3
"Amdt_StdImp|Product Description: AutoCAD Mechanical|Company: Autodesk"
 90
    32768
280
     0
281
     0
  0
CLASS
  1
ACMSURFSTANDARDANSI
  2
AcmSurfTextStdANSI
  3
"Amdt_StdImp|Product Description: AutoCAD Mechanical|Company: Autodesk"
 90
    32768
280
     0
281
     0
  0
CLASS
  1
ACMFCFSTANDARDANSI
  2
AcmFCFStdANSI
  3
"Amdt_StdImp|Product Description: AutoCAD Mechanical|Company: Autodesk"
 90
    32768
280
     0
281
     0
  0
CLASS
  1
ACMWELDSTANDARDANSI
  2
AcmWeldingStdANSI
  3
"Amdt_StdImp|Product Description: AutoCAD Mechanical|Company: Autodesk"
 90
    32768
280
     0
281
     0
  0
CLASS
  1
ACMIDSTANDARDANSI
  2
AcmIdStdANSI
  3
"Amdt_StdImp|Product Description: AutoCAD Mechanical|Company: Autodesk"
 90
    32768
280
     0
281
     0
  0
CLASS
  1
ACMDATUMSTANDARDANSI
  2
AcmDatumStdANSI
  3
"Amdt_StdImp|Product Description: AutoCAD Mechanical|Company: Autodesk"
 90
    32768
280
     0
281
     0
  0
CLASS
  1
ACMBOMSTANDARDANSI
  2
AcmBOMStdANSI
  3
"Amdt_StdImp|Product Description: AutoCAD Mechanical|Company: Autodesk"
 90
    32768
280
     0
281
     0
  0
CLASS
  1
ACMDETAILSTANDARDANSI
  2
AmdtDetailSymStdANSI
  3
"Amdt_StdImp|Product Description: AutoCAD Mechanical|Company: Autodesk"
 90
    32768
280
     0
281
     0
  0
CLASS
  1
ACMSECTIONSTANDARDANSI
  2
AmdtSectionSymStdANSI
  3
"Amdt_StdImp|Product Description: AutoCAD Mechanical|Company: Autodesk"
 90
    32768
280
     0
281
     0
  0
CLASS
  1
ACMCENTERLINESTANDARDANSI
  2
AmdtCenterLineStdANSI
  3
"Amdt_StdImp|Product Description: AutoCAD Mechanical|Company: Autodesk"
 90
    32768
280
     0
281
     0
  0
CLASS
  1
ACMBOM
  2
AcmBom
  3
"AcmSymBB|Product Description: AutoCAD Mechanical|Company: Autodesk"
 90
    32768
280
     0
281
     0
  0
CLASS
  1
ACMDATAENTRYPART
  2
AcmDataEntryPart
  3
"AcmSymBB|Product Description: AutoCAD Mechanical|Company: Autodesk"
 90
    32768
280
     0
281
     0
  0
CLASS
  1
ACMPARTREF
  2
AcmPartRef
  3
"AcmSymBB|Product Description: AutoCAD Mechanical|Company: Autodesk"
 90
    35839
280
     0
281
     1
  0
CLASS
  1
ACDBCIRCARCRES
  2
AcDbCircArcRes
  3
AcGrefServices
 90
    32768
280
     0
281
     0
  0
CLASS
  1
ACMBOMROW
  2
AcmBomRow
  3
"AcmSymBB|Product Description: AutoCAD Mechanical|Company: Autodesk"
 90
    32768
280
     0
281
     0
  0
CLASS
  1
ACMBALLOON
  2
AcmBalloon
  3
"AcmSymBB|Product Description: AutoCAD Mechanical|Company: Autodesk"
 90
    35839
280
     0
281
     1
  0
CLASS
  1
AMDTNOTE
  2
AmdtNote
  3
"AcmSymBB|Product Description: AutoCAD Mechanical|Company: Autodesk"
 90
    35839
280
     0
281
     1
  0
CLASS
  1
STDPART2D
  2
AmgStdPart
  3
"g3vace|Class: AmgStdPart|Product Description: AutoCAD Mechanical|Company: Autodesk"
 90
    35839
280
     0
281
     1
  0
CLASS
  1
ACDBSTDPARTRES_LINE
  2
AcDbStdPartRes_Line
  3
"g3vace|Class: AcDbStdPartRes_Line|Product Description: AutoCAD Mechanical|Company: Autodesk"
 90
    32768
280
     0
281
     0
  0
CLASS
  1
ACMDATAENTRY
  2
AcmDataEntry
  3
"AcmSymBB|Product Description: AutoCAD Mechanical|Company: Autodesk"
 90
    32768
280
     0
281
     0
  0
CLASS
  1
ACDBOPPOLYLINERES
  2
AcDbOpPolylineRes
  3
AcGrefServices
 90
    32768
280
     0
281
     0
  0
CLASS
  1
ACMPARTLIST
  2
AcmPartList
  3
"AcmSymBB|Product Description: AutoCAD Mechanical|Company: Autodesk"
 90
    35839
280
     0
281
     1
  0
CLASS
  1
ACDBLINERES
  2
AcDbLineRes
  3
AcGrefServices
 90
    32768
280
     0
281
     0
  0
CLASS
  1
ACRFINSADJ
  2
AcRfInsAdjuster
  3
AcMeServices
 90
    32768
280
     0
281
     0
  0
CLASS
  1
AM_DRAWING_MGR
  2
AcDmDwgMgr
  3
AcMechDwgViewMgmt
 90
        0
280
     0
281
     0
  0
CLASS
  1
AM_DWG_DOCUMENT
  2
AcDmDwgDocument
  3
AcMechDwgViewMgmt
 90
        0
280
     0
281
     0
  0
CLASS
  1
AM_DWG_SHEET
  2
AcDmSheet
  3
AcMechDwgViewMgmt
 90
        0
280
     0
281
     0
  0
CLASS
  1
AM_VIEWDIMPARMAP
  2
AcDmViewDimParMap
  3
AcMechDwgViewMgmt
 90
        0
280
     0
281
     0
  0
CLASS
  1
AM_DWGMGR_NAME
  2
AcDmDwgMgrName
  3
AcMechDwgViewMgmt
 90
        0
280
     0
281
     0
  0
CLASS
  1
AMDTMENUSTATEMGR
  2
AmdtMenuStateMgr
  3
McadcomServices
 90
        0
280
     0
281
     0
  0
CLASS
  1
AMDTMCOMMENUSTATE
  2
AmdtMcomMenuState
  3
McadcomServices
 90
        0
280
     0
281
     0
  0
CLASS
  1
ASAPP
  2
AcAsAppObject
  3
AutoSurfServices
 90
        0
280
     0
281
     0
  0
CLASS
  1
IM_STATIC_MAN
  2
AcImStaticVarManager
  3
AcMeServices
 90
    32768
280
     0
281
     0
  0
CLASS
  1
ACIMDBLSTATICVAR
  2
AcImDblStaticVar
  3
AcMeServices
 90
    32768
280
     0
281
     0
  0
CLASS
  1
ACIMSTRSTATICVAR
  2
AcImStrStaticVar
  3
AcMeServices
 90
    32768
280
     0
281
     0
  0
CLASS
  1
ACIMINTSTATICVAR
  2
AcImIntStaticVar
  3
AcMeServices
 90
    32768
280
     0
281
     0
  0
CLASS
  1
ACASGREFMASTER
  2
AcAsGrefMaster
  3
AutoSurfResolverServices
 90
        0
280
     0
281
     0
  0
CLASS
  1
ACADGREFMODULE
  2
AcAdGrefModule
  3
AdGrefServices
 90
        0
280
     0
281
     0
  0
CLASS
  1
AMDTMAPISURFMOUDULE
  2
AmdtMApiSurfModule
  3
MApiSurfServices
 90
        0
280
     0
281
     0
  0
CLASS
  1
MAPIAMMOUDLE
  2
MApiAmModule
  3
MApiAmServices
 90
        0
280
     0
281
     0
  0
CLASS
  1
AMDTADMENUSTATE
  2
AmdtAdMenuState
  3
DesignerServices
 90
        0
280
     0
281
     0
  0
CLASS
  1
ADAPPL
  2
AcAdAppl
  3
DesignerServices
 90
        0
280
     0
281
     0
  0
CLASS
  1
DEPMGR
  2
AcAdDepMgr
  3
DesignerServices
 90
        0
280
     0
281
     0
  0
CLASS
  1
PARAMMGR
  2
AcAdParamMgr
  3
DesignerServices
 90
        0
280
     0
281
     0
  0
CLASS
  1
PARAMSCOPE
  2
AcAdParamScope
  3
DesignerServices
 90
        0
280
     0
281
     0
  0
CLASS
  1
NAMEDAPPL
  2
AcAdNamedAppl
  3
DesignerServices
 90
        0
280
     0
281
     0
  0
CLASS
  1
ADHNTMPLT
  2
AdHoleNoteTemplateMgr
  3
DesignerServices
 90
    32768
280
     0
281
     0
  0
CLASS
  1
AM_HNTEMPLATE_MGR_NAME
  2
AdHoleNoteTemplateMgrName
  3
DesignerServices
 90
    32768
280
     0
281
     0
  0
CLASS
  1
AMDTDMMENUSTATE
  2
AmdtDmMenuState
  3
AcMechDwgViewMgmt
 90
        0
280
     0
281
     0
  0
CLASS
  1
MAPIADMODULE
  2
MApiAdModule
  3
MApiAdServices
 90
        0
280
     0
281
     0
  0
CLASS
  1
AMDTAMMENUSTATE
  2
AmdtAmMenuState
  3
DesignerAssemblies
 90
        0
280
     0
281
     0
  0
CLASS
  1
ACAMPROJECT
  2
AcAmProject
  3
DesignerAssemblies
 90
        0
280
     0
281
     0
  0
CLASS
  1
ACAMGRCOMPDEF
  2
AcAmGrCompDef
  3
DesignerAssemblies
 90
        0
280
     0
281
     0
  0
CLASS
  1
ACCMCONTEXT
  2
AcCmContext
  3
DesignerAssemblies
 90
        0
280
     0
281
     0
  0
CLASS
  1
ACAMCOMPDEF
  2
AcAmCompDef
  3
DesignerAssemblies
 90
        0
280
     0
281
     0
  0
CLASS
  1
ACAMCOMPDEFMGR
  2
AcAmCompDefMgr
  3
DesignerAssemblies
 90
        0
280
     0
281
     0
  0
CLASS
  1
AMCONTEXTMGR
  2
AcAmContextMgr
  3
DesignerAssemblies
 90
        0
280
     0
281
     0
  0
CLASS
  1
ACAMCONTEXTMODELER
  2
AcAmContextModeler
  3
DesignerAssemblies
 90
        0
280
     0
281
     0
  0
CLASS
  1
CATALOGSTATE
  2
AcAmCatalogState
  3
DesignerAssemblies
 90
        0
280
     0
281
     0
  0
CLASS
  1
ACAMGRCOMPDEFSET
  2
AcAmGrCompDefSet
  3
DesignerAssemblies
 90
        0
280
     0
281
     0
  0
CLASS
  1
AMDTBROWSERDBTAB
  2
AmdtBrowserDbTab
  3
McadcomServices
 90
        0
280
     0
281
     0
  0
CLASS
  1
CBROWSERAPPOBJECT
  2
CBrowserAppObject
  3
McadcomServices
 90
        0
280
     0
281
     0
  0
CLASS
  1
DM_PLACEHOLDER
  2
AcDmSelsetPlaceholder
  3
AcMechDwgViewMgmt
 90
        0
280
     0
281
     0
  0
CLASS
  1
ACMPICKOBJ
  2
AcmPickEnt
  3
"AcmSymBB|Product Description: AutoCAD Mechanical|Company: Autodesk"
 90
    32768
280
     0
281
     1
  0
CLASS
  1
ACMNOTESTANDARDISO
  2
AmdtNoteStdISO
  3
"Amdt_StdImp|Product Description: AutoCAD Mechanical|Company: Autodesk"
 90
        0
280
     0
281
     0
  0
CLASS
  1
ACMNOTESTANDARDANSI
  2
AmdtNoteStdANSI
  3
"Amdt_StdImp|Product Description: AutoCAD Mechanical|Company: Autodesk"
 90
    32768
280
     0
281
     0
  0
CLASS
  1
TABLESTYLE
  2
AcDbTableStyle
  3
ObjectDBX Classes
 90
     4095
280
     0
281
     0
  0
CLASS
  1
ACMTHREADLINESTANDARDISO
  2
AmdtThreadLineStdISO
  3
"Amdt_StdImp|Product Description: AutoCAD Mechanical|Company: Autodesk"
 90
        0
280
     0
281
     0
  0
CLASS
  1
ACMTHREADLINESTANDARDANSI
  2
AmdtThreadLineStdANSI
  3
"Amdt_StdImp|Product Description: AutoCAD Mechanical|Company: Autodesk"
 90
    32768
280
     0
281
     0
  0
CLASS
  1
SORTENTSTABLE
  2
AcDbSortentsTable
  3
ObjectDBX Classes
 90
        0
280
     0
281
     0
  0
CLASS
  1
AMDTNOTETEMPLATEDB
  2
AmdtNoteTemplateDB
  3
AMDT_STDIMP_MODULE_NAME
 90
        0
280
     0
281
     0
  0
CLASS
  1
AMDTACMWBLOCKBOMENTITY
  2
AmdtAcmWblockBomEntity
  3
"AcmSymBB|Product Description: AutoCAD Mechanical|Company: Autodesk"
 90
     3071
280
     0
281
     1
  0
CLASS
  1
MATERIAL
  2
AcDbMaterial
  3
ObjectDBX Classes
 90
     1024
280
     0
281
     0
  0
CLASS
  1
VISUALSTYLE
  2
AcDbVisualStyle
  3
ObjectDBX Classes
 90
     4095
280
     0
281
     0
  0
CLASS
  1
ACRFATTGENMGR
  2
AcRfAttGeneralMgr
  3
AcAttribServices
 90
    32768
280
     0
281
     0
  0
CLASS
  1
ACRFOBJATTMGR
  2
AcRfObjAttGroupMgr
  3
AcAttribServices
 90
    32768
280
     0
281
     0
  0
CLASS
  1
ACRFMCADAPIATTHOLDER
  2
AcRfMCADAPIAttHolder
  3
AcAttribServices
 90
    32768
280
     0
281
     0
  0
CLASS
  1
AMDTSYSATTR
  2
AmdtSystemAttribute
  3
AcAttribServices
 90
    32768
280
     0
281
     0
  0
CLASS
  1
ACMTAPERSTANDARDISO
  2
AcmTaperStdISO
  3
"Amdt_StdImp|Product Description: AutoCAD Mechanical|Company: Autodesk"
 90
        0
280
     0
281
     0
  0
CLASS
  1
ACMTAPERSTANDARDANSI
  2
AcmTaperStdANSI
  3
"Amdt_StdImp|Product Description: AutoCAD Mechanical|Company: Autodesk"
 90
    32768
280
     0
281
     0
  0
CLASS
  1
AMDTEDGESTANDARDISO13715
  2
AmdtEdgeStdISO13715
  3
"Amdt_StdImp|Product Description: AutoCAD Mechanical|Company: Autodesk"
 90
        0
280
     0
281
     0
  0
CLASS
  1
ACAMGHOLECHARTSTDISO
  2
AcAmgHoleChartStdISO
  3
ACMSYMBB_MODULE_NAME
 90
        0
280
     0
281
     0
  0
CLASS
  1
ACAMGHOLECHARTSTDANSI
  2
AcAmgHoleChartStdANSI
  3
ACMSYMBB_MODULE_NAME
 90
    32768
280
     0
281
     0
  0
CLASS
  1
CAMSSTRUCTBTNSTATE
  2
StructBtnState
  3
L"DesignerAssemblies"
 90
        0
280
     0
281
     0
  0
CLASS
  1
ARC_DIMENSION
  2
AcDbArcDimension
  3
ObjectDBX Classes
 90
    33793
280
     0
281
     1
  0
CLASS
  1
DIMASSOC
  2
AcDbDimAssoc
  3
"AcDbDimAssoc|Product Desc:     AcDim ARX App For Dimension|Company:          Autodesk, Inc.|WEB Address:      www.autodesk.com"
 90
        0
280
     0
281
     0
  0
ENDSEC
  0
SECTION
  2
TABLES
  0
TABLE
  2
VPORT
  5
8
330
0
100
AcDbSymbolTable
 70
     1
  0
VPORT
  5
1D88D
330
8
100
AcDbSymbolTableRecord
100
AcDbViewportTableRecord
  2
*Active
 70
     0
 10
0.0
 20
0.0
 11
1.0
 21
1.0
 12
921.1197756169656
 22
-271.0755179638953
 13
0.0
 23
0.0
 14
2.5
 24
2.5
 15
10.0
 25
10.0
 16
0.0
 26
0.0
 36
1.0
 17
0.0
 27
0.0
 37
0.0
 40
285.7077610052568
 41
1.342329545454545
 42
50.0
 43
-1370.695619172058
 44
-1370.695619172058
 50
0.0
 51
0.0
 71
    16
 72
   100
 73
     1
 74
     3
 75
     0
 76
     0
 77
     0
 78
     1
281
     0
 65
     0
110
0.0
120
0.0
130
0.0
111
1.0
121
0.0
131
0.0
112
0.0
122
1.0
132
0.0
 79
     0
146
0.0
  0
ENDTAB
  0
TABLE
  2
LTYPE
  5
5
330
0
100
AcDbSymbolTable
 70
    33
  0
LTYPE
  5
14
330
5
100
AcDbSymbolTableRecord
100
AcDbLinetypeTableRecord
  2
ByBlock
 70
     0
  3

 72
    65
 73
     0
 40
0.0
  0
LTYPE
  5
15
330
5
100
AcDbSymbolTableRecord
100
AcDbLinetypeTableRecord
  2
ByLayer
 70
     0
  3

 72
    65
 73
     0
 40
0.0
  0
LTYPE
  5
16
330
5
100
AcDbSymbolTableRecord
100
AcDbLinetypeTableRecord
  2
Continuous
 70
     0
  3
Solid line
 72
    65
 73
     0
 40
0.0
  0
LTYPE
  5
4F
330
5
100
AcDbSymbolTableRecord
100
AcDbLinetypeTableRecord
  2
AM_ISO02W050
 70
     0
  3
__ __ __ __ __ __ __ __ __ __ __ __ __ __ __
 72
    65
 73
     2
 40
7.5
 49
6.0
 74
     0
 49
-1.5
 74
     0
  0
LTYPE
  5
52
330
5
100
AcDbSymbolTableRecord
100
AcDbLinetypeTableRecord
  2
Amconstr
 70
     0
  3
_______________________
 72
    65
 73
     2
 40
9999.0
 49
9999.0
 74
     0
 49
0.0
 74
     0
  0
LTYPE
  5
64
330
5
100
AcDbSymbolTableRecord
100
AcDbLinetypeTableRecord
  2
ACISOWELD
 70
     0
  3
_ _ _ _ _
 72
    65
 73
     2
 40
2.0
 49
2.0
 74
     0
 49
-1.0
 74
     0
  0
LTYPE
  5
65
330
5
100
AcDbSymbolTableRecord
100
AcDbLinetypeTableRecord
  2
ACISOTGB
 70
     0
  3
__ . . __ . .
 72
    65
 73
     6
 40
9.0
 49
4.0
 74
     0
 49
-1.0
 74
     0
 49
1.0
 74
     0
 49
-1.0
 74
     0
 49
1.0
 74
     0
 49
-1.0
 74
     0
  0
LTYPE
  5
66
330
5
100
AcDbSymbolTableRecord
100
AcDbLinetypeTableRecord
  2
ACISOTGL
 70
     0
  3
_ _ _ _ _
 72
    65
 73
     2
 40
3.0
 49
2.0
 74
     0
 49
-1.0
 74
     0
  0
LTYPE
  5
69
330
5
100
AcDbSymbolTableRecord
100
AcDbLinetypeTableRecord
  2
CENTER
 70
     0
  3
__ . __
 72
    65
 73
     4
 40
7.0
 49
4.0
 74
     0
 49
-1.0
 74
     0
 49
1.0
 74
     0
 49
-1.0
 74
     0
  0
LTYPE
  5
A6E
330
5
100
AcDbSymbolTableRecord
100
AcDbLinetypeTableRecord
  2
PHANTOM2
 70
     0
  3
Phantom (.5x) ___ _ _ ___ _ _ ___ _ _ ___ _ _
 72
    65
 73
     6
 40
31.75
 49
15.875
 74
     0
 49
-3.174999999999998
 74
     0
 49
3.174999999999998
 74
     0
 49
-3.174999999999998
 74
     0
 49
3.174999999999998
 74
     0
 49
-3.174999999999998
 74
     0
  0
LTYPE
  5
FA3
330
5
100
AcDbSymbolTableRecord
100
AcDbLinetypeTableRecord
  2
ACANSTGB
 70
     0
  3
__ . . __ . .
 72
    65
 73
     6
 40
0.35433070866
 49
0.15748031496
 74
     0
 49
-0.03937007874
 74
     0
 49
0.03937007874
 74
     0
 49
-0.03937007874
 74
     0
 49
0.03937007874
 74
     0
 49
-0.03937007874
 74
     0
  0
LTYPE
  5
FA4
330
5
100
AcDbSymbolTableRecord
100
AcDbLinetypeTableRecord
  2
ACANSTGL
 70
     0
  3
_ _ _ _ _
 72
    65
 73
     2
 40
0.11811023622
 49
0.07874015748
 74
     0
 49
-0.03937007874
 74
     0
  0
LTYPE
  5
4DED
330
5
100
AcDbSymbolTableRecord
100
AcDbLinetypeTableRecord
  2
中線
 70
     0
  3
___________________
 72
    65
 73
     2
 40
2.0
 49
1.0
 74
     0
 49
1.0
 74
     0
  0
LTYPE
  5
4DF6
330
5
100
AcDbSymbolTableRecord
100
AcDbLinetypeTableRecord
  2
細線
 70
     0
  3
___________________
 72
    65
 73
     2
 40
2.0
 49
1.0
 74
     0
 49
1.0
 74
     0
  0
LTYPE
  5
4DF7
330
5
100
AcDbSymbolTableRecord
100
AcDbLinetypeTableRecord
  2
太線
 70
     0
  3
___________________
 72
    65
 73
     2
 40
2.0
 49
1.0
 74
     0
 49
1.0
 74
     0
  0
LTYPE
  5
4EA7
330
5
100
AcDbSymbolTableRecord
100
AcDbLinetypeTableRecord
  2
文字
 70
     0
  3
_________________
 72
    65
 73
     2
 40
2.0
 49
1.0
 74
     0
 49
1.0
 74
     0
  0
LTYPE
  5
4EA9
330
5
100
AcDbSymbolTableRecord
100
AcDbLinetypeTableRecord
  2
寸法線
 70
     0
  3
________________
 72
    65
 73
     2
 40
2.0
 49
1.0
 74
     0
 49
1.0
 74
     0
  0
LTYPE
  5
4F12
330
5
100
AcDbSymbolTableRecord
100
AcDbLinetypeTableRecord
  2
ハッチング
 70
     0
  3
_________________
 72
    65
 73
     2
 40
2.0
 49
1.0
 74
     0
 49
1.0
 74
     0
  0
LTYPE
  5
5180
330
5
100
AcDbSymbolTableRecord
100
AcDbLinetypeTableRecord
  2
陰線1
 70
     0
  3
__ __ __ __
 72
    65
 73
     2
 40
4.0
 49
2.2
 74
     0
 49
-1.8
 74
     0
  0
LTYPE
  5
5182
330
5
100
AcDbSymbolTableRecord
100
AcDbLinetypeTableRecord
  2
切断線
 70
     0
  3
/\/-/\/-/\/-/\/-/\/-/\/
 72
    65
 73
     2
 40
11.0001
 49
0.0001
 74
     4
 75
   135
340
56
 46
0.04
 50
0.0
 44
0.0
 45
0.0
 49
-11.0
 74
     0
  0
LTYPE
  5
5183
330
5
100
AcDbSymbolTableRecord
100
AcDbLinetypeTableRecord
  2
想像線1
 70
     0
  3
__ __ __ _____ __ __ ____
 72
    65
 73
     6
 40
14.5
 49
6.0
 74
     0
 49
-1.5
 74
     0
 49
2.0
 74
     0
 49
-1.5
 74
     0
 49
2.0
 74
     0
 49
-1.5
 74
     0
  0
LTYPE
  5
5185
330
5
100
AcDbSymbolTableRecord
100
AcDbLinetypeTableRecord
  2
中心線1
 70
     0
  3
___ _ ___ _ ___
 72
    65
 73
     4
 40
18.0
 49
12.0
 74
     0
 49
-2.0
 74
     0
 49
2.0
 74
     0
 49
-2.0
 74
     0
  0
LTYPE
  5
5188
330
5
100
AcDbSymbolTableRecord
100
AcDbLinetypeTableRecord
  2
補助線
 70
     0
  3
______________
 72
    65
 73
     2
 40
2.0
 49
1.0
 74
     0
 49
1.0
 74
     0
  0
LTYPE
  5
139B9
330
5
100
AcDbSymbolTableRecord
100
AcDbLinetypeTableRecord
  2
想像線2
 70
     0
  3
__ _ _ __ _ _ __
 72
    65
 73
     6
 40
6.9
 49
2.5
 74
     0
 49
-0.8
 74
     0
 49
1.0
 74
     0
 49
-0.8
 74
     0
 49
1.0
 74
     0
 49
-0.8
 74
     0
  0
LTYPE
  5
13C99
330
5
100
AcDbSymbolTableRecord
100
AcDbLinetypeTableRecord
  2
AM_ISO08W050
 70
     0
  3
____ . ____ . ____ . ____ . ____ . ____ . ____
 72
    65
 73
     4
 40
18.0
 49
12.0
 74
     0
 49
-1.5
 74
     0
 49
3.0
 74
     0
 49
-1.5
 74
     0
  0
LTYPE
  5
13C9A
330
5
100
AcDbSymbolTableRecord
100
AcDbLinetypeTableRecord
  2
AM_ISO09W050
 70
     0
  3
_____ . . _____ . . _____ . . ____ .. ____
 72
    65
 73
     6
 40
22.5
 49
12.0
 74
     0
 49
-1.5
 74
     0
 49
3.0
 74
     0
 49
-1.5
 74
     0
 49
3.0
 74
     0
 49
-1.5
 74
     0
  0
LTYPE
  5
13C9B
330
5
100
AcDbSymbolTableRecord
100
AcDbLinetypeTableRecord
  2
AM_ISO08W050x2
 70
     0
  3
__ . __ . __ . __ . __ . __
 72
    65
 73
     4
 40
9.0
 49
6.0
 74
     0
 49
-0.75
 74
     0
 49
1.5
 74
     0
 49
-0.75
 74
     0
  0
LTYPE
  5
13C9C
330
5
100
AcDbSymbolTableRecord
100
AcDbLinetypeTableRecord
  2
AM_ISO02W050x2
 70
     0
  3
 _ _ _ _ _ _ _ _ _ _ _ _
 72
    65
 73
     2
 40
3.75
 49
3.0
 74
     0
 49
-0.75
 74
     0
  0
LTYPE
  5
13C9D
330
5
100
AcDbSymbolTableRecord
100
AcDbLinetypeTableRecord
  2
Amzigzag
 70
     0
  3
/\/-/\/-/\/-/\/-/\/-/\/
 72
    65
 73
     2
 40
11.0001
 49
0.0001
 74
     4
 75
   135
340
56
 46
0.04
 50
0.0
 44
0.0
 45
0.0
 49
-11.0
 74
     0
  0
LTYPE
  5
1651E
330
5
100
AcDbSymbolTableRecord
100
AcDbLinetypeTableRecord
  2
HIDDEN
 70
     0
  3
Hidden __ __ __ __ __ __ __ __ __ __ __ __ __ _
 72
    65
 73
     2
 40
9.524999999999996
 49
6.349999999999997
 74
     0
 49
-3.174999999999998
 74
     0
  0
LTYPE
  5
1C00A
330
5
100
AcDbSymbolTableRecord
100
AcDbLinetypeTableRecord
  2
CENTER2
 70
     0
  3
Center (.5x) ___ _ ___ _ ___ _ ___ _ ___ _ ___
 72
    65
 73
     4
 40
1.125
 49
0.75
 74
     0
 49
-0.125
 74
     0
 49
0.125
 74
     0
 49
-0.125
 74
     0
  0
LTYPE
  5
1C00B
330
5
100
AcDbSymbolTableRecord
100
AcDbLinetypeTableRecord
  2
HIDDEN2
 70
     0
  3
Hidden (.5x) _ _ _ _ _ _ _ _ _ _ _ _ _ _ _ _ _
 72
    65
 73
     2
 40
0.1875
 49
0.125
 74
     0
 49
-0.0625
 74
     0
  0
LTYPE
  5
1C00C
330
5
100
AcDbSymbolTableRecord
100
AcDbLinetypeTableRecord
  2
Amzigzag2
 70
     0
  3
/\/-/\/-/\/-/\/-/\/-/\/
 72
    65
 73
     2
 40
0.4401
 49
0.0001
 74
     4
 75
   136
340
1C00D
 46
0.0016
 50
0.0
 44
0.0
 45
0.0
 49
-0.4400000000000003
 74
     0
  0
LTYPE
  5
1D11A
330
5
100
AcDbSymbolTableRecord
100
AcDbLinetypeTableRecord
  2
genzigzag
 70
     0
  3
/\/-/\/-/\/-/\/-/\/-/\/
 72
    65
 73
     2
 40
12.0001
 49
0.0001
 74
     4
 75
   135
340
1C00D
 46
2.0
 50
0.0
 44
0.0
 45
0.0
 49
-12.0
 74
     0
  0
ENDTAB
  0
TABLE
  2
LAYER
  5
2
102
{ACAD_XDICTIONARY
360
3F95
102
}
330
0
100
AcDbSymbolTable
 70
    33
  0
LAYER
  5
10
330
2
100
AcDbSymbolTableRecord
100
AcDbLayerTableRecord
  2
0
 70
     0
 62
     7
  6
Continuous
370
    -3
390
F
  0
LAYER
  5
6D1
330
2
100
AcDbSymbolTableRecord
100
AcDbLayerTableRecord
  2
Defpoints
 70
     0
 62
     7
  6
Continuous
290
     0
370
    -3
390
F
  0
LAYER
  5
A46
330
2
100
AcDbSymbolTableRecord
100
AcDbLayerTableRecord
  2
size
 70
     0
 62
     5
  6
Continuous
290
     0
370
    30
390
F
  0
LAYER
  5
A47
330
2
100
AcDbSymbolTableRecord
100
AcDbLayerTableRecord
  2
waku
 70
     0
 62
     7
  6
Continuous
370
    40
390
F
  0
LAYER
  5
A48
330
2
100
AcDbSymbolTableRecord
100
AcDbLayerTableRecord
  2
AM_6
 70
     0
 62
     2
  6
文字
370
    18
390
F
  0
LAYER
  5
3A31
330
2
100
AcDbSymbolTableRecord
100
AcDbLayerTableRecord
  2
hyosen1
 70
     0
 62
     1
  6
Continuous
370
    30
390
F
  0
LAYER
  5
5765
330
2
100
AcDbSymbolTableRecord
100
AcDbLayerTableRecord
  2
hyomoji
 70
     0
 62
     2
  6
Continuous
370
    20
390
F
  0
LAYER
  5
591A
330
2
100
AcDbSymbolTableRecord
100
AcDbLayerTableRecord
  2
hyosen2
 70
     0
 62
     1
  6
Continuous
370
    20
390
F
  0
LAYER
  5
5F85
330
2
100
AcDbSymbolTableRecord
100
AcDbLayerTableRecord
  2
AM_0
 70
     0
 62
     7
  6
中線
370
    30
390
F
  0
LAYER
  5
5F86
330
2
100
AcDbSymbolTableRecord
100
AcDbLayerTableRecord
  2
AM_1
 70
     0
 62
    30
  6
太線
370
    40
390
F
  0
LAYER
  5
5F87
330
2
100
AcDbSymbolTableRecord
100
AcDbLayerTableRecord
  2
AM_2
 70
     0
 62
     1
  6
細線
370
    15
390
F
  0
LAYER
  5
5F88
330
2
100
AcDbSymbolTableRecord
100
AcDbLayerTableRecord
  2
AM_3
 70
     0
 62
     6
  6
陰線1
370
    18
390
F
  0
LAYER
  5
5F89
330
2
100
AcDbSymbolTableRecord
100
AcDbLayerTableRecord
  2
AM_4
 70
     0
 62
     3
  6
補助線
370
    15
390
F
  0
LAYER
  5
5F8A
330
2
100
AcDbSymbolTableRecord
100
AcDbLayerTableRecord
  2
AM_5
 70
     0
 62
     3
  6
寸法線
370
    15
390
F
  0
LAYER
  5
5F8B
330
2
100
AcDbSymbolTableRecord
100
AcDbLayerTableRecord
  2
AM_7
 70
     0
 62
     4
  6
中心線1
370
    15
390
F
  0
LAYER
  5
5F8C
330
2
100
AcDbSymbolTableRecord
100
AcDbLayerTableRecord
  2
AM_8
 70
     0
 62
     1
  6
ハッチング
370
    15
390
F
  0
LAYER
  5
5F8D
330
2
100
AcDbSymbolTableRecord
100
AcDbLayerTableRecord
  2
AM_10
 70
     0
 62
     7
  6
切断線
370
    15
390
F
  0
LAYER
  5
642B
330
2
100
AcDbSymbolTableRecord
100
AcDbLayerTableRecord
  2
AM_CL
 70
     0
 62
     1
  6
Amconstr
370
     0
390
F
  0
LAYER
  5
65AF
330
2
100
AcDbSymbolTableRecord
100
AcDbLayerTableRecord
  2
AM_11
 70
     0
 62
     2
  6
想像線1
370
    15
390
F
  0
LAYER
  5
73C2
330
2
100
AcDbSymbolTableRecord
100
AcDbLayerTableRecord
  2
AM_12
 70
     0
 62
     7
  6
Continuous
290
     0
370
    20
390
F
  0
LAYER
  5
E33A
330
2
100
AcDbSymbolTableRecord
100
AcDbLayerTableRecord
  2
PV0001_1
 70
     0
 62
     7
  6
Continuous
370
    -3
390
F
  0
LAYER
  5
F630
330
2
100
AcDbSymbolTableRecord
100
AcDbLayerTableRecord
  2
IS0001D5_1
 70
     0
 62
     7
  6
Continuous
370
    -3
390
F
  0
LAYER
  5
F638
330
2
100
AcDbSymbolTableRecord
100
AcDbLayerTableRecord
  2
SS0001D22475_1
 70
     0
 62
     7
  6
Continuous
370
    -3
390
F
  0
LAYER
  5
11F6B
330
2
100
AcDbSymbolTableRecord
100
AcDbLayerTableRecord
  2
AM_PAREF
 70
     0
 62
     4
  6
Continuous
290
     0
370
    20
390
F
  0
LAYER
  5
13C9E
330
2
100
AcDbSymbolTableRecord
100
AcDbLayerTableRecord
  2
001
 70
     0
 62
     7
  6
Continuous
370
    -3
390
F
  0
LAYER
  5
1552B
330
2
100
AcDbSymbolTableRecord
100
AcDbLayerTableRecord
  2
AM_0N
 70
     0
 62
     7
  6
中線
370
    30
390
F
  0
LAYER
  5
1552F
330
2
100
AcDbSymbolTableRecord
100
AcDbLayerTableRecord
  2
AM_9
 70
     0
 62
  -253
  6
Continuous
370
     0
390
F
  0
LAYER
  5
15533
330
2
100
AcDbSymbolTableRecord
100
AcDbLayerTableRecord
  2
AM_7N
 70
     0
 62
     4
  6
中心線1
370
    15
390
F
  0
LAYER
  5
15535
330
2
100
AcDbSymbolTableRecord
100
AcDbLayerTableRecord
  2
AM_12N
 70
     0
 62
     7
  6
Continuous
290
     0
370
    20
390
F
  0
LAYER
  5
1D11B
330
2
100
AcDbSymbolTableRecord
100
AcDbLayerTableRecord
  2
パイプ-AM_0
 70
     0
 62
     7
  6
Continuous
370
    50
390
F
1001
ACAECLAYERSTANDARD
1000

1000

  0
LAYER
  5
1D11C
330
2
100
AcDbSymbolTableRecord
100
AcDbLayerTableRecord
  2
アーム-AM_0
 70
     0
 62
     7
  6
Continuous
370
    50
390
F
1001
ACAECLAYERSTANDARD
1000

1000

  0
LAYER
  5
1D11D
330
2
100
AcDbSymbolTableRecord
100
AcDbLayerTableRecord
  2
アーム-AM_7
 70
     0
 62
     4
  6
AM_ISO08W050
370
    25
390
F
1001
ACAECLAYERSTANDARD
1000

1000

  0
ENDTAB
  0
TABLE
  2
STYLE
  5
3
330
0
100
AcDbSymbolTable
 70
     8
  0
STYLE
  5
11
330
3
100
AcDbSymbolTableRecord
100
AcDbTextStyleTableRecord
  2
STANDARD
 70
     0
 40
0.0
 41
0.7
 50
0.0
 71
     0
 42
3.2
  3
romans.shx
  4
extfont.shx
  0
STYLE
  5
56
330
3
100
AcDbSymbolTableRecord
100
AcDbTextStyleTableRecord
  2

 70
     1
 40
0.0
 41
1.0
 50
0.0
 71
     0
 42
2.5
  3
ltypeshp.shx
  4

  0
STYLE
  5
58
330
3
100
AcDbSymbolTableRecord
100
AcDbTextStyleTableRecord
  2
ACISOTS
 70
     0
 40
0.0
 41
0.7
 50
0.0
 71
     0
 42
2.5
  3
romans.shx
  4
extfont.shx
  0
STYLE
  5
63
330
3
100
AcDbSymbolTableRecord
100
AcDbTextStyleTableRecord
  2
ACISOGDT
 70
     0
 40
0.0
 41
1.0
 50
0.0
 71
     0
 42
2.5
  3
amgdt.shx
  4

  0
STYLE
  5
A74
330
3
100
AcDbSymbolTableRecord
100
AcDbTextStyleTableRecord
  2
DIM
 70
     0
 40
0.0
 41
1.0
 50
0.0
 71
     0
 42
2.5
  3
monotxt.shx
  4
extfont.shx
  0
STYLE
  5
FA7
330
3
100
AcDbSymbolTableRecord
100
AcDbTextStyleTableRecord
  2
ACANSTS
 70
     0
 40
1.0
 41
1.0
 50
0.0
 71
     0
 42
0.2
  3
romans.shx
  4
extfont.shx
  0
STYLE
  5
FA8
330
3
100
AcDbSymbolTableRecord
100
AcDbTextStyleTableRecord
  2
ACANSGDT
 70
     0
 40
0.0
 41
1.0
 50
0.0
 71
     0
 42
0.2
  3
amgdtans.shx
  4

  0
STYLE
  5
1C00D
330
3
100
AcDbSymbolTableRecord
100
AcDbTextStyleTableRecord
  2

 70
     1
 40
0.0
 41
1.0
 50
0.0
 71
     0
 42
3.2
  3
genltshp.shx
  4

  0
ENDTAB
  0
TABLE
  2
VIEW
  5
6
330
0
100
AcDbSymbolTable
 70
     6
  0
VIEW
  5
AE1
330
6
100
AcDbSymbolTableRecord
100
AcDbViewTableRecord
  2
AM_VIEW1
 70
     0
 40
144.25
 10
334.3858514422121
 20
116.375
 41
229.7804319371728
 11
0.0
 21
0.0
 31
1.0
 12
0.0
 22
0.0
 32
0.0
 42
50.0
 43
-1370.695619172058
 44
-1370.695619172058
 50
0.0
 71
    16
281
     0
 72
     0
  0
VIEW
  5
AE2
330
6
100
AcDbSymbolTableRecord
100
AcDbViewTableRecord
  2
AM_VIEW2
 70
     0
 40
144.25
 10
513.1054195050393
 20
116.375
 41
229.7804319371728
 11
0.0
 21
0.0
 31
1.0
 12
0.0
 22
0.0
 32
0.0
 42
50.0
 43
-1370.695619172058
 44
-1370.695619172058
 50
0.0
 71
    16
281
     0
 72
     0
  0
VIEW
  5
AE3
330
6
100
AcDbSymbolTableRecord
100
AcDbViewTableRecord
  2
AM_VIEW3
 70
     0
 40
144.25
 10
334.3858514422121
 20
-27.875
 41
229.7804319371728
 11
0.0
 21
0.0
 31
1.0
 12
0.0
 22
0.0
 32
0.0
 42
50.0
 43
-1370.695619172058
 44
-1370.695619172058
 50
0.0
 71
    16
281
     0
 72
     0
  0
VIEW
  5
AE4
330
6
100
AcDbSymbolTableRecord
100
AcDbViewTableRecord
  2
AM_VIEW4
 70
     0
 40
144.25
 10
513.1054195050393
 20
-27.875
 41
229.7804319371728
 11
0.0
 21
0.0
 31
1.0
 12
0.0
 22
0.0
 32
0.0
 42
50.0
 43
-1370.695619172058
 44
-1370.695619172058
 50
0.0
 71
    16
281
     0
 72
     0
  0
VIEW
  5
AE5
330
6
100
AcDbSymbolTableRecord
100
AcDbViewTableRecord
  2
AM_VIEW5
 70
     0
 40
144.25
 10
423.7456354736257
 20
44.24999999999999
 41
229.7804319371728
 11
0.0
 21
0.0
 31
1.0
 12
0.0
 22
0.0
 32
0.0
 42
50.0
 43
-1370.695619172058
 44
-1370.695619172058
 50
0.0
 71
    16
281
     0
 72
     0
  0
VIEW
  5
AE6
330
6
100
AcDbSymbolTableRecord
100
AcDbViewTableRecord
  2
AM_VIEW6
 70
     0
 40
288.497115
 10
423.7456354736257
 20
44.24999999999999
 41
459.5562682657067
 11
0.0
 21
0.0
 31
1.0
 12
0.0
 22
0.0
 32
0.0
 42
50.0
 43
-1370.695619172058
 44
-1370.695619172058
 50
0.0
 71
    16
281
     0
 72
     0
  0
ENDTAB
  0
TABLE
  2
UCS
  5
7
330
0
100
AcDbSymbolTable
 70
     0
  0
ENDTAB
  0
TABLE
  2
APPID
  5
9
330
0
100
AcDbSymbolTable
 70
    56
  0
APPID
  5
12
330
9
100
AcDbSymbolTableRecord
100
AcDbRegAppTableRecord
  2
ACAD
 70
     0
  0
APPID
  5
30
330
9
100
AcDbSymbolTableRecord
100
AcDbRegAppTableRecord
  2
MCAD_NO_VIS
 70
     0
  0
APPID
  5
31
330
9
100
AcDbSymbolTableRecord
100
AcDbRegAppTableRecord
  2
ACAD_TEMP_GRAPHIC
 70
     0
  0
APPID
  5
44
330
9
100
AcDbSymbolTableRecord
100
AcDbRegAppTableRecord
  2
ACATTRIBSERVICES
 70
     0
  0
APPID
  5
7A1
330
9
100
AcDbSymbolTableRecord
100
AcDbRegAppTableRecord
  2
GENIUS_GENDIMSH_14
 70
     0
  0
APPID
  5
A49
330
9
100
AcDbSymbolTableRecord
100
AcDbRegAppTableRecord
  2
GENIUS_GENREC_14
 70
     0
  0
APPID
  5
A4A
330
9
100
AcDbSymbolTableRecord
100
AcDbRegAppTableRecord
  2
GENIUS_GENOBJ-N-REC_13
 70
     0
  0
APPID
  5
A4B
330
9
100
AcDbSymbolTableRecord
100
AcDbRegAppTableRecord
  2
GENIUS_GENODEF_13
 70
     0
  0
APPID
  5
A4C
330
9
100
AcDbSymbolTableRecord
100
AcDbRegAppTableRecord
  2
DCO15
 70
     0
  0
APPID
  5
ADC
330
9
100
AcDbSymbolTableRecord
100
AcDbRegAppTableRecord
  2
GENIUS_GENOLIS_13
 70
     0
  0
APPID
  5
ADD
330
9
100
AcDbSymbolTableRecord
100
AcDbRegAppTableRecord
  2
GENIUS_GENOENT_13
 70
     0
  0
APPID
  5
ADE
330
9
100
AcDbSymbolTableRecord
100
AcDbRegAppTableRecord
  2
GENIUS_GENOBJ-N-TIT_13
 70
     0
  0
APPID
  5
ADF
330
9
100
AcDbSymbolTableRecord
100
AcDbRegAppTableRecord
  2
GENIUS_GENTITLE_13
 70
     0
  0
APPID
  5
AE0
330
9
100
AcDbSymbolTableRecord
100
AcDbRegAppTableRecord
  2
GENIUS_GENOREF_13
 70
     0
  0
APPID
  5
AE7
330
9
100
AcDbSymbolTableRecord
100
AcDbRegAppTableRecord
  2
GENIUS_GENSCREG_15
 70
     0
  0
APPID
  5
AE8
330
9
100
AcDbSymbolTableRecord
100
AcDbRegAppTableRecord
  2
GENIUS_GENOBJ-N-SDF_13
 70
     0
  0
APPID
  5
FAF
330
9
100
AcDbSymbolTableRecord
100
AcDbRegAppTableRecord
  2
GENIUS_GENBLLY_14
 70
     0
  0
APPID
  5
FB0
330
9
100
AcDbSymbolTableRecord
100
AcDbRegAppTableRecord
  2
GENIUS_GENTRA_14
 70
     0
  0
APPID
  5
1285
330
9
100
AcDbSymbolTableRecord
100
AcDbRegAppTableRecord
  2
GENIUS_GENDTOL_13
 70
     0
  0
APPID
  5
142D
330
9
100
AcDbSymbolTableRecord
100
AcDbRegAppTableRecord
  2
GENIUS_GENOBJ-N-CEN_13
 70
     0
  0
APPID
  5
1AB5
330
9
100
AcDbSymbolTableRecord
100
AcDbRegAppTableRecord
  2
GENIUS_GENOBJ-N-CRS_13
 70
     0
  0
APPID
  5
1B36
330
9
100
AcDbSymbolTableRecord
100
AcDbRegAppTableRecord
  2
GENIUS_GENOBJ-N-HTC_13
 70
     0
  0
APPID
  5
1B37
330
9
100
AcDbSymbolTableRecord
100
AcDbRegAppTableRecord
  2
GENIUS_GENHATCH_13
 70
     0
  0
APPID
  5
216D
330
9
100
AcDbSymbolTableRecord
100
AcDbRegAppTableRecord
  2
GENIUS_GENOBJ-N-FIL_13
 70
     0
  0
APPID
  5
2356
330
9
100
AcDbSymbolTableRecord
100
AcDbRegAppTableRecord
  2
GEVID990412420
 70
     0
  0
APPID
  5
2357
330
9
100
AcDbSymbolTableRecord
100
AcDbRegAppTableRecord
  2
GEVDC
 70
     0
  0
APPID
  5
2358
330
9
100
AcDbSymbolTableRecord
100
AcDbRegAppTableRecord
  2
GEVCON
 70
     0
  0
APPID
  5
235B
330
9
100
AcDbSymbolTableRecord
100
AcDbRegAppTableRecord
  2
GEVRADREF
 70
     0
  0
APPID
  5
2360
330
9
100
AcDbSymbolTableRecord
100
AcDbRegAppTableRecord
  2
GENIUS_GENBH_13
 70
     0
  0
APPID
  5
2362
330
9
100
AcDbSymbolTableRecord
100
AcDbRegAppTableRecord
  2
GENIUS_GENOBJ-NBEHI-BHF_13
 70
     0
  0
APPID
  5
2364
330
9
100
AcDbSymbolTableRecord
100
AcDbRegAppTableRecord
  2
GENIUS_GENOBJ-NBEHI-BHB_13
 70
     0
  0
APPID
  5
2379
330
9
100
AcDbSymbolTableRecord
100
AcDbRegAppTableRecord
  2
GENIUS_GENOBJ-F-SCPASSM_13
 70
     0
  0
APPID
  5
3D74
330
9
100
AcDbSymbolTableRecord
100
AcDbRegAppTableRecord
  2
GENIUS_GENDIM_13
 70
     0
  0
APPID
  5
3D76
330
9
100
AcDbSymbolTableRecord
100
AcDbRegAppTableRecord
  2
GENIUS_GE3DTOL_13
 70
     0
  0
APPID
  5
3D9C
330
9
100
AcDbSymbolTableRecord
100
AcDbRegAppTableRecord
  2
AD_DRAW
 70
     0
  0
APPID
  5
3DE8
330
9
100
AcDbSymbolTableRecord
100
AcDbRegAppTableRecord
  2
ASURF_PCURVE_APPNAME
 70
     0
  0
APPID
  5
3DED
330
9
100
AcDbSymbolTableRecord
100
AcDbRegAppTableRecord
  2
AMG_3D2D_5.0
 70
     0
  0
APPID
  5
3E1B
330
9
100
AcDbSymbolTableRecord
100
AcDbRegAppTableRecord
  2
DESIGNERASSEMBLIES
 70
     0
  0
APPID
  5
3E20
330
9
100
AcDbSymbolTableRecord
100
AcDbRegAppTableRecord
  2
ACADM_DIM_EDIT
 70
     0
  0
APPID
  5
3E21
330
9
100
AcDbSymbolTableRecord
100
AcDbRegAppTableRecord
  2
AMDT_DM_ADJ
 70
     0
  0
APPID
  5
4143
330
9
100
AcDbSymbolTableRecord
100
AcDbRegAppTableRecord
  2
GENIUS_GENFIL_13
 70
     0
  0
APPID
  5
4144
330
9
100
AcDbSymbolTableRecord
100
AcDbRegAppTableRecord
  2
GENIUS_GENOBJ-N-CHA_13
 70
     0
  0
APPID
  5
4E17
330
9
100
AcDbSymbolTableRecord
100
AcDbRegAppTableRecord
  2
GEVID1008153417
 70
     0
  0
APPID
  5
4E58
330
9
100
AcDbSymbolTableRecord
100
AcDbRegAppTableRecord
  2
GEVID1008153418
 70
     0
  0
APPID
  5
4E5E
330
9
100
AcDbSymbolTableRecord
100
AcDbRegAppTableRecord
  2
GEVID1008153419
 70
     0
  0
APPID
  5
4E64
330
9
100
AcDbSymbolTableRecord
100
AcDbRegAppTableRecord
  2
GEVID1008153420
 70
     0
  0
APPID
  5
4E75
330
9
100
AcDbSymbolTableRecord
100
AcDbRegAppTableRecord
  2
GEVID1008153421
 70
     0
  0
APPID
  5
4EB7
330
9
100
AcDbSymbolTableRecord
100
AcDbRegAppTableRecord
  2
GENIUS_AMGTXT_16
 70
     0
  0
APPID
  5
7645
330
9
100
AcDbSymbolTableRecord
100
AcDbRegAppTableRecord
  2
GENIUS_GENOBJ-N-DIM_13
 70
     0
  0
APPID
  5
15528
330
9
100
AcDbSymbolTableRecord
100
AcDbRegAppTableRecord
  2
GEVID1113805677
 70
     0
  0
APPID
  5
164EA
330
9
100
AcDbSymbolTableRecord
100
AcDbRegAppTableRecord
  2
ACAD_DSTYLE_DIMARC_LENGTH_SYMBOL
 70
     0
  0
APPID
  5
164EB
330
9
100
AcDbSymbolTableRecord
100
AcDbRegAppTableRecord
  2
ACAD_DSTYLE_DIMJOGGED_JOGANGLE_SYMBOL
 70
     0
  0
APPID
  5
169CF
330
9
100
AcDbSymbolTableRecord
100
AcDbRegAppTableRecord
  2
ACAD_EXEMPT_FROM_CAD_STANDARDS
 70
     0
  0
APPID
  5
16A05
330
9
100
AcDbSymbolTableRecord
100
AcDbRegAppTableRecord
  2
GENIUS_GENCEN_19
 70
     0
  0
APPID
  5
1756F
330
9
100
AcDbSymbolTableRecord
100
AcDbRegAppTableRecord
  2
ACAD_PSEXT
 70
     0
  0
APPID
  5
1BBE4
330
9
100
AcDbSymbolTableRecord
100
AcDbRegAppTableRecord
  2
ACAECLAYERSTANDARD
 70
     0
  0
ENDTAB
  0
TABLE
  2
DIMSTYLE
  5
A
330
0
100
AcDbSymbolTable
 70
    32
100
AcDbDimStyleTable
 71
     3
340
2515
340
E921
340
FA9
  0
DIMSTYLE
105
A76
330
A
100
AcDbSymbolTableRecord
100
AcDbDimStyleTableRecord
  2
STANDARD
 70
     0
 41
3.0
 42
1.0
 43
7.0
 44
2.0
 73
     0
 74
     0
 77
     1
140
2.799999999999998
141
0.0
143
0.0394
147
0.7
171
     4
172
     1
173
     1
176
     3
177
     3
178
     2
271
     3
272
     3
273
     8
274
     4
289
     0
340
A74
341
A66
343
A66
344
A66
  0
DIMSTYLE
105
FA9
330
A
100
AcDbSymbolTableRecord
100
AcDbDimStyleTableRecord
  2
AM_ANSI
 70
     0
  4
mm
 41
0.1
 42
0.05
 43
0.5
 44
0.1
 47
0.1
 48
0.1
 78
     7
 79
     2
140
0.12
141
0.0
146
0.71
147
0.06
176
   256
177
   256
178
     2
274
     4
284
     7
340
11
371
    -1
372
    -1
1001
ACAD_DSTYLE_DIMJOGGED_JOGANGLE_SYMBOL
1070
   384
1040
0.7853981633974483
1001
ACAD_DSTYLE_DIMARC_LENGTH_SYMBOL
1070
   379
1070
     1
  0
DIMSTYLE
105
FAA
330
A
100
AcDbSymbolTableRecord
100
AcDbDimStyleTableRecord
  2
AM_ANSI$3
 70
     0
  4
mm
 41
0.1
 42
0.05
 43
0.5
 44
0.1
 47
0.1
 48
0.1
 78
     7
 79
     2
140
0.12
141
0.0
146
0.71
147
0.06
176
   256
177
   256
178
     2
274
     4
284
     7
288
     1
289
     0
340
11
371
    -1
372
    -1
1001
ACAD_DSTYLE_DIMJOGGED_JOGANGLE_SYMBOL
1070
   384
1040
0.7853981633974483
1001
ACAD_DSTYLE_DIMARC_LENGTH_SYMBOL
1070
   379
1070
     1
  0
DIMSTYLE
105
FAB
330
A
100
AcDbSymbolTableRecord
100
AcDbDimStyleTableRecord
  2
AM_ANSI$4
 70
     0
  4
mm
 41
0.1
 42
0.05
 43
0.5
 44
0.1
 47
0.1
 48
0.1
 78
     7
 79
     2
140
0.12
141
0.0
146
0.71
147
0.06
176
   256
177
   256
178
     2
274
     4
284
     7
288
     1
289
     0
340
11
371
    -1
372
    -1
1001
ACAD_DSTYLE_DIMJOGGED_JOGANGLE_SYMBOL
1070
   384
1040
0.7853981633974483
1001
ACAD_DSTYLE_DIMARC_LENGTH_SYMBOL
1070
   379
1070
     1
  0
DIMSTYLE
105
FAC
330
A
100
AcDbSymbolTableRecord
100
AcDbDimStyleTableRecord
  2
AM_ANSI$7
 70
     0
  4
mm
 41
0.1
 42
0.05
 43
0.5
 44
0.1
 47
0.1
 48
0.1
 78
     7
 79
     2
140
0.24
141
0.0
146
0.71
147
0.06
176
   256
177
   256
178
     2
274
     4
284
     7
340
11
371
    -1
372
    -1
1001
ACAD_DSTYLE_DIMJOGGED_JOGANGLE_SYMBOL
1070
   384
1040
0.7853981633974483
1001
ACAD_DSTYLE_DIMARC_LENGTH_SYMBOL
1070
   379
1070
     1
  0
DIMSTYLE
105
FAD
330
A
100
AcDbSymbolTableRecord
100
AcDbDimStyleTableRecord
  2
AM_ANSI$SF
 70
     0
  4
mm
 41
0.1
 42
0.05
 43
0.5
 44
0.1
 47
0.1
 48
0.1
 75
     1
 76
     1
 78
     7
 79
     2
140
0.12
141
0.0
146
0.71
147
0.06
176
   256
177
   256
178
     2
274
     4
284
     7
340
11
371
    -1
372
    -1
1001
ACAD_DSTYLE_DIMJOGGED_JOGANGLE_SYMBOL
1070
   384
1040
0.7853981633974483
1001
ACAD_DSTYLE_DIMARC_LENGTH_SYMBOL
1070
   379
1070
     1
  0
DIMSTYLE
105
FAE
330
A
100
AcDbSymbolTableRecord
100
AcDbDimStyleTableRecord
  2
AM_ANSI$SH
 70
     0
  4
mm
 41
0.1
 42
0.05
 43
0.5
 44
0.1
 47
0.1
 48
0.1
 75
     1
 76
     1
 78
     7
 79
     2
140
0.12
141
0.0
146
0.71
147
0.06
173
     1
176
   256
177
   256
178
     2
274
     4
284
     7
340
11
343
72
371
    -1
372
    -1
1001
ACAD_DSTYLE_DIMJOGGED_JOGANGLE_SYMBOL
1070
   384
1040
0.7853981633974483
1001
ACAD_DSTYLE_DIMARC_LENGTH_SYMBOL
1070
   379
1070
     1
  0
DIMSTYLE
105
2515
330
A
100
AcDbSymbolTableRecord
100
AcDbDimStyleTableRecord
  2
SYS
 70
     0
  4
"
 41
1.0
 42
1.0
 43
10.0
 44
1.0
 47
0.2
 48
0.2000000002
 71
     1
 73
     0
 74
     0
 77
     1
 78
     8
 79
     2
140
3.5
141
0.0
143
0.0393701
146
0.6
147
1.5
172
     1
176
   256
177
   256
178
     7
271
     2
272
     2
283
     0
284
     8
340
11
341
A66
342
6C4
371
    -1
372
    -1
1001
ACAD_DSTYLE_DIMJOGGED_JOGANGLE_SYMBOL
1070
   384
1040
0.7853981633974483
1001
ACAD_DSTYLE_DIMARC_LENGTH_SYMBOL
1070
   379
1070
     1
  0
DIMSTYLE
105
2516
330
A
100
AcDbSymbolTableRecord
100
AcDbDimStyleTableRecord
  2
SYS$3
 70
     0
  4
"
 41
2.0
 42
1.0
 43
10.0
 44
1.0
 47
0.1
 48
0.1
 73
     0
 74
     0
 77
     1
 78
     8
 79
     2
140
3.200000000000001
141
0.0
143
0.0393701
146
0.71
147
1.5
176
   256
177
   256
178
     2
271
     1
272
     1
283
     0
284
     8
288
     1
340
11
342
A66
371
    -1
372
    -1
1001
ACAD_DSTYLE_DIMJOGGED_JOGANGLE_SYMBOL
1070
   384
1040
0.7853981633974483
1001
ACAD_DSTYLE_DIMARC_LENGTH_SYMBOL
1070
   379
1070
     1
  0
DIMSTYLE
105
2517
330
A
100
AcDbSymbolTableRecord
100
AcDbDimStyleTableRecord
  2
SYS$4
 70
     0
  4
"
 41
2.0
 42
1.0
 43
10.0
 44
1.0
 47
0.1
 48
0.1
 73
     0
 74
     0
 77
     1
 78
     8
 79
     2
140
3.2
141
0.0
143
0.0393701
146
0.71
147
1.5
173
     1
176
   256
177
   256
178
     2
271
     2
272
     2
283
     0
284
     8
288
     1
340
11
344
A66
371
    -1
372
    -1
1001
ACAD_DSTYLE_DIMJOGGED_JOGANGLE_SYMBOL
1070
   384
1040
0.7853981633974483
1001
ACAD_DSTYLE_DIMARC_LENGTH_SYMBOL
1070
   379
1070
     1
  0
DIMSTYLE
105
2518
330
A
100
AcDbSymbolTableRecord
100
AcDbDimStyleTableRecord
  2
SYS$6
 70
     0
  4
"
 41
2.0
 42
1.0
 43
10.0
 44
1.0
 47
0.1
 48
0.1
 73
     0
 74
     0
 78
     8
 79
     2
140
3.2
141
0.0
143
0.0393701
146
0.71
147
1.5
172
     1
176
   256
177
   256
178
     2
271
     2
272
     2
283
     0
284
     8
340
11
341
A66
371
    -1
372
    -1
1001
ACAD_DSTYLE_DIMJOGGED_JOGANGLE_SYMBOL
1070
   384
1040
0.7853981633974483
1001
ACAD_DSTYLE_DIMARC_LENGTH_SYMBOL
1070
   379
1070
     1
  0
DIMSTYLE
105
2519
330
A
100
AcDbSymbolTableRecord
100
AcDbDimStyleTableRecord
  2
SYS$7
 70
     0
  4
"
 41
2.0
 42
1.5
 43
10.0
 44
1.0
 47
0.1
 48
0.1
 73
     0
 74
     0
 77
     1
 78
     8
 79
     2
140
3.2
141
0.0
143
0.0393701
146
0.71
147
1.5
172
     1
176
   256
177
   256
178
     2
271
     2
272
     2
283
     0
284
     8
340
11
341
A66
342
A66
371
    -1
372
    -1
1001
ACAD_DSTYLE_DIMJOGGED_JOGANGLE_SYMBOL
1070
   384
1040
0.7853981633974483
1001
ACAD_DSTYLE_DIMARC_LENGTH_SYMBOL
1070
   379
1070
     1
  0
DIMSTYLE
105
251A
330
A
100
AcDbSymbolTableRecord
100
AcDbDimStyleTableRecord
  2
SYS$SF
 70
     0
  4
"
 41
1.0
 42
1.0
 43
10.0
 44
1.0
 47
0.1
 48
0.1
 73
     0
 74
     0
 75
     1
 76
     1
 77
     1
 78
     8
 79
     2
140
3.2
141
0.0
143
0.0393701
146
0.71
147
1.5
172
     1
176
   256
177
   256
178
     2
271
     2
272
     2
283
     0
284
     8
340
11
341
6C4
342
6C4
371
    -1
372
    -1
1001
ACAD_DSTYLE_DIMJOGGED_JOGANGLE_SYMBOL
1070
   384
1040
0.7853981633974483
1001
ACAD_DSTYLE_DIMARC_LENGTH_SYMBOL
1070
   379
1070
     1
  0
DIMSTYLE
105
251B
330
A
100
AcDbSymbolTableRecord
100
AcDbDimStyleTableRecord
  2
SYS$SH
 70
     0
  4
"
 41
1.0
 42
1.0
 43
10.0
 44
1.0
 47
0.1
 48
0.1
 73
     0
 74
     0
 75
     1
 76
     1
 77
     1
 78
     8
 79
     2
140
3.2
141
0.0
143
0.0393701
144
2.0
146
0.71
147
1.5
172
     1
173
     1
176
   256
177
   256
178
     2
271
     2
272
     2
283
     0
284
     8
340
11
341
6C4
343
72
344
6C4
371
    -1
372
    -1
1001
ACAD_DSTYLE_DIMJOGGED_JOGANGLE_SYMBOL
1070
   384
1040
0.7853981633974483
1001
ACAD_DSTYLE_DIMARC_LENGTH_SYMBOL
1070
   379
1070
     1
  0
DIMSTYLE
105
2A59
330
A
100
AcDbSymbolTableRecord
100
AcDbDimStyleTableRecord
  2
SYS$2
 70
     0
  4
"
 41
1.0
 42
1.5
 43
10.0
 44
1.0
 47
0.1
 48
0.1
 73
     0
 74
     0
 77
     1
 78
     8
 79
     2
140
3.2
141
0.0
143
0.0393701
146
0.71
147
1.5
172
     1
176
   256
177
   256
178
     2
271
     2
272
     2
283
     0
284
     8
340
11
342
6C4
371
    -1
372
    -1
1001
ACAD_DSTYLE_DIMJOGGED_JOGANGLE_SYMBOL
1070
   384
1040
0.7853981633974483
1001
ACAD_DSTYLE_DIMARC_LENGTH_SYMBOL
1070
   379
1070
     1
  0
DIMSTYLE
105
2AAB
102
{ACAD_REACTORS
330
1D37E
330
1D381
330
1D283
330
1D284
330
1D285
330
1D293
330
1D294
330
1D2B4
330
1D2B5
330
1D2B6
330
1D2B7
330
1D2B8
330
1D2BA
330
1D2BD
330
1D2BE
330
1D2BF
330
1D2C0
102
}
330
A
100
AcDbSymbolTableRecord
100
AcDbDimStyleTableRecord
  2
SYS$0
 70
     0
  4
"
 41
1.0
 42
1.5
 43
10.0
 44
1.0
 47
0.1
 48
0.1
 73
     0
 74
     0
 77
     1
 78
     8
 79
     2
140
3.2
141
0.0
143
0.0393701
146
0.71
147
1.5
172
     1
176
   256
177
   256
178
     2
271
     1
272
     1
283
     0
284
     8
340
11
341
A66
342
6C4
371
    -1
372
    -1
1001
ACAD_DSTYLE_DIMJOGGED_JOGANGLE_SYMBOL
1070
   384
1040
0.7853981633974483
1001
ACAD_DSTYLE_DIMARC_LENGTH_SYMBOL
1070
   379
1070
     1
  0
DIMSTYLE
105
E333
330
A
100
AcDbSymbolTableRecord
100
AcDbDimStyleTableRecord
  2
SYMBOL
 70
     0
  4
"
 41
1.0
 42
1.0
 43
10.0
 44
1.0
 47
0.2
 48
0.2000000002
 71
     1
 73
     0
 74
     0
 77
     1
 78
     8
 79
     2
140
3.5
141
0.0
143
0.0393701
146
0.6
147
1.5
172
     1
176
   256
177
   256
178
     7
271
     2
272
     2
283
     0
284
     8
340
11
341
A66
342
6C4
371
    -1
372
    -1
  0
DIMSTYLE
105
E921
330
A
100
AcDbSymbolTableRecord
100
AcDbDimStyleTableRecord
  2
SYSORG1P25
 70
     0
  4
"
 41
1.0
 42
1.0
 43
10.0
 44
1.0
 47
0.2
 48
0.2000000002
 71
     1
 73
     0
 74
     0
 77
     1
 78
     8
 79
     2
140
3.5
141
0.0
143
0.0393701
144
1.25000317891954
146
0.6
147
1.5
172
     1
176
   256
177
   256
178
     7
271
     2
272
     2
283
     0
284
     8
340
11
341
A66
342
6C4
371
    -1
372
    -1
  0
DIMSTYLE
105
E922
330
A
100
AcDbSymbolTableRecord
100
AcDbDimStyleTableRecord
  2
SYSORG1P25$0
 70
     0
  4
"
 41
1.0
 42
1.5
 43
10.0
 44
1.0
 47
0.1
 48
0.1
 73
     0
 74
     0
 77
     1
 78
     8
 79
     2
140
3.2
141
0.0
143
0.0393701
144
1.25000317891954
146
0.71
147
1.5
172
     1
176
   256
177
   256
178
     2
271
     1
272
     1
283
     0
284
     8
340
11
341
A66
342
6C4
371
    -1
372
    -1
  0
DIMSTYLE
105
F629
330
A
100
AcDbSymbolTableRecord
100
AcDbDimStyleTableRecord
  2
SYSIS0P66667
 70
     0
  4
"
 40
0.6666666666666666
 41
1.0
 42
1.0
 43
10.0
 44
1.0
 47
0.2
 48
0.2000000002
 71
     1
 73
     0
 74
     0
 77
     1
 78
     8
 79
     2
140
3.5
141
0.0
143
0.0393701
144
0.66667
146
0.6
147
1.5
172
     1
176
   256
177
   256
178
     7
271
     2
272
     2
283
     0
284
     8
340
11
341
A66
342
6C4
371
    -1
372
    -1
  0
DIMSTYLE
105
F631
330
A
100
AcDbSymbolTableRecord
100
AcDbDimStyleTableRecord
  2
SYSSS0P8165
 70
     0
  4
"
 40
0.8164964717411271
 41
1.0
 42
1.0
 43
10.0
 44
1.0
 47
0.2
 48
0.2000000002
 71
     1
 73
     0
 74
     0
 77
     1
 78
     8
 79
     2
140
3.5
141
0.0
143
0.0393701
144
0.8164999999999999
146
0.6
147
1.5
172
     1
176
   256
177
   256
178
     7
271
     2
272
     2
283
     0
284
     8
340
11
341
A66
342
6C4
371
    -1
372
    -1
  0
DIMSTYLE
105
139BA
330
A
100
AcDbSymbolTableRecord
100
AcDbDimStyleTableRecord
  2
AM_ISO
 70
     0
  4
"
 41
2.5
 42
1.0
 43
10.0
 44
1.0
 47
0.1
 48
0.1
 73
     0
 74
     0
 77
     1
 78
     8
 79
     2
140
3.5
141
0.0
143
0.0393701
146
0.71
147
1.5
172
     1
176
   256
177
   256
178
     2
271
     2
272
     2
283
     0
284
     8
340
11
371
    -1
372
    -1
1001
ACAD_DSTYLE_DIMJOGGED_JOGANGLE_SYMBOL
1070
   384
1040
0.7853981633974483
1001
ACAD_DSTYLE_DIMARC_LENGTH_SYMBOL
1070
   379
1070
     1
  0
DIMSTYLE
105
13C9F
330
A
100
AcDbSymbolTableRecord
100
AcDbDimStyleTableRecord
  2
AM_ISO$3
 70
     0
  4
"
 41
0.8
 42
1.0
 43
10.0
 44
1.0
 47
0.1
 48
0.1
 73
     0
 77
     1
 78
     8
 79
     2
140
3.2
141
0.0
143
0.0393701
146
0.71
147
0.9999999999999996
176
   256
177
   256
178
     2
271
     2
272
     2
283
     0
284
     8
288
     1
289
     0
340
11
341
6C4
342
6C4
371
    -1
372
    -1
1001
ACAD_DSTYLE_DIMJOGGED_JOGANGLE_SYMBOL
1070
   384
1040
0.7853981633974483
1001
ACAD_DSTYLE_DIMARC_LENGTH_SYMBOL
1070
   379
1070
     1
  0
DIMSTYLE
105
13CA0
330
A
100
AcDbSymbolTableRecord
100
AcDbDimStyleTableRecord
  2
AM_ISO$4
 70
     0
  4
"
 41
0.8
 42
1.0
 43
10.0
 44
1.0
 47
0.1
 48
0.1
 73
     0
 77
     1
 78
     8
 79
     2
140
3.2
141
0.0
143
0.0393701
146
0.71
147
1.0
173
     1
176
   256
177
   256
178
     2
271
     2
272
     2
283
     0
284
     8
288
     1
289
     0
340
11
344
6C4
371
    -1
372
    -1
1001
ACAD_DSTYLE_DIMJOGGED_JOGANGLE_SYMBOL
1070
   384
1040
0.7853981633974483
1001
ACAD_DSTYLE_DIMARC_LENGTH_SYMBOL
1070
   379
1070
     1
  0
DIMSTYLE
105
13CA1
330
A
100
AcDbSymbolTableRecord
100
AcDbDimStyleTableRecord
  2
AM_ISO$6
 70
     0
  4
"
 41
0.8
 42
1.0
 43
10.0
 44
1.0
 47
0.1
 48
0.1
 73
     0
 74
     0
 78
     8
 79
     2
140
3.2
141
0.0
143
0.0393701
146
0.71
147
1.0
172
     1
176
   256
177
   256
178
     2
271
     2
272
     2
283
     0
284
     8
340
11
371
    -1
372
    -1
1001
ACAD_DSTYLE_DIMJOGGED_JOGANGLE_SYMBOL
1070
   384
1040
0.7853981633974483
1001
ACAD_DSTYLE_DIMARC_LENGTH_SYMBOL
1070
   379
1070
     1
  0
DIMSTYLE
105
13CA2
330
A
100
AcDbSymbolTableRecord
100
AcDbDimStyleTableRecord
  2
AM_ISO$7
 70
     0
  4
"
 41
0.8
 42
1.0
 43
10.0
 44
1.0
 47
0.1
 48
0.1
 73
     0
 74
     0
 77
     1
 78
     8
 79
     2
140
3.2
141
0.0
143
0.0393701
146
0.71
147
1.0
172
     1
176
   256
177
   256
178
     2
271
     2
272
     2
283
     0
284
     8
340
11
341
6C4
342
6C4
371
    -1
372
    -1
1001
ACAD_DSTYLE_DIMJOGGED_JOGANGLE_SYMBOL
1070
   384
1040
0.7853981633974483
1001
ACAD_DSTYLE_DIMARC_LENGTH_SYMBOL
1070
   379
1070
     1
  0
DIMSTYLE
105
13CA3
330
A
100
AcDbSymbolTableRecord
100
AcDbDimStyleTableRecord
  2
AM_ISO$SF
 70
     0
  4
"
 41
0.8
 42
1.0
 43
10.0
 44
1.0
 47
0.1
 48
0.1
 73
     0
 74
     0
 75
     1
 76
     1
 77
     1
 78
     8
 79
     2
140
3.2
141
0.0
143
0.0393701
146
0.71
147
1.0
172
     1
176
   256
177
   256
178
     2
271
     2
272
     2
283
     0
284
     8
340
11
341
6C4
342
6C4
371
    -1
372
    -1
1001
ACAD_DSTYLE_DIMJOGGED_JOGANGLE_SYMBOL
1070
   384
1040
0.7853981633974483
1001
ACAD_DSTYLE_DIMARC_LENGTH_SYMBOL
1070
   379
1070
     1
  0
DIMSTYLE
105
13CA4
330
A
100
AcDbSymbolTableRecord
100
AcDbDimStyleTableRecord
  2
AM_ISO$SH
 70
     0
  4
"
 41
0.8
 42
1.0
 43
10.0
 44
1.0
 47
0.1
 48
0.1
 73
     0
 74
     0
 75
     1
 76
     1
 77
     1
 78
     8
 79
     2
140
3.2
141
0.0
143
0.0393701
144
2.0
146
0.71
147
1.0
172
     1
176
   256
177
   256
178
     2
271
     2
272
     2
283
     0
284
     8
340
11
341
6C4
342
6C4
371
    -1
372
    -1
1001
ACAD_DSTYLE_DIMJOGGED_JOGANGLE_SYMBOL
1070
   384
1040
0.7853981633974483
1001
ACAD_DSTYLE_DIMARC_LENGTH_SYMBOL
1070
   379
1070
     1
  0
DIMSTYLE
105
13CA5
330
A
100
AcDbSymbolTableRecord
100
AcDbDimStyleTableRecord
  2
AM_ISO$0
 70
     0
  4
"
 41
0.8
 42
1.0
 43
10.0
 44
1.0
 47
0.1
 48
0.1
 73
     0
 74
     0
 77
     1
 78
     8
 79
     2
140
3.2
141
0.0
143
0.0393701
146
0.71
147
0.9999999999999996
172
     1
176
   256
177
   256
178
     2
271
     2
272
     2
283
     0
284
     8
340
11
341
6C4
342
6C4
371
    -1
372
    -1
1001
ACAD_DSTYLE_DIMJOGGED_JOGANGLE_SYMBOL
1070
   384
1040
0.7853981633974483
1001
ACAD_DSTYLE_DIMARC_LENGTH_SYMBOL
1070
   379
1070
     1
  0
DIMSTYLE
105
13CA6
330
A
100
AcDbSymbolTableRecord
100
AcDbDimStyleTableRecord
  2
AM_ISO$2
 70
     0
  4
"
 41
0.8
 42
1.0
 43
10.0
 44
1.0
 47
0.1
 48
0.1
 73
     0
 74
     0
 77
     3
 78
     8
 79
     2
140
3.200000000000001
141
0.0
143
0.0393701
146
0.71
147
0.9999999999999996
172
     1
176
   256
177
   256
178
     2
271
     2
272
     2
283
     0
284
     8
340
11
341
6C4
342
6C4
371
    -1
372
    -1
1001
ACAD_DSTYLE_DIMJOGGED_JOGANGLE_SYMBOL
1070
   384
1040
0.7853981633974483
1001
ACAD_DSTYLE_DIMARC_LENGTH_SYMBOL
1070
   379
1070
     1
  0
DIMSTYLE
105
1C00E
330
A
100
AcDbSymbolTableRecord
100
AcDbDimStyleTableRecord
  2
DIMSTYLE
 70
     0
 41
1.0
 42
2.54
 44
2.54
 73
     0
 74
     0
140
3.2
147
1.6
173
     1
279
     2
340
11
  0
ENDTAB
  0
TABLE
  2
BLOCK_RECORD
  5
1
330
0
100
AcDbSymbolTable
 70
    41
  0
BLOCK_RECORD
  5
1F
102
{ACAD_XDICTIONARY
360
8A
102
}
330
1
100
AcDbSymbolTableRecord
100
AcDbBlockTableRecord
  2
*Model_Space
340
22
  0
BLOCK_RECORD
  5
1B
330
1
100
AcDbSymbolTableRecord
100
AcDbBlockTableRecord
  2
*Paper_Space
340
1E
  0
BLOCK_RECORD
  5
23
330
1
100
AcDbSymbolTableRecord
100
AcDbBlockTableRecord
  2
*Paper_Space0
340
26
  0
BLOCK_RECORD
  5
72
330
1
100
AcDbSymbolTableRecord
100
AcDbBlockTableRecord
  2
GENAXEH
340
0
  0
BLOCK_RECORD
  5
6C4
330
1
100
AcDbSymbolTableRecord
100
AcDbBlockTableRecord
  2
_Dot
340
0
102
{BLKREFS
331
1D0B3
331
1D0B4
331
1D0BF
331
1D0C0
331
1D0CB
331
1D0CC
331
1D0D7
331
1D0D8
331
1D0E3
331
1D0E4
331
1D0EF
331
1D0F0
331
1D0FB
331
1D0FC
331
1D04F
331
1D050
331
1D060
331
1D061
331
1D06B
331
1D06C
331
1D077
331
1D078
331
1D083
331
1D084
331
1D107
331
1D108
331
1D08F
331
1D090
331
1D09B
331
1D09C
331
1D0A7
331
1D0A8
331
1D113
331
1D114
331
1D770
331
1D771
331
1D7A6
331
1D7A7
331
1D7AF
331
1D7B0
331
1D7BA
331
1D7BB
331
1D7C8
331
1D7C9
331
1D7E2
331
1D7E3
331
1D81F
331
1D820
331
1D828
331
1D829
331
1D831
331
1D832
331
1D83A
331
1D83B
331
1D843
331
1D844
331
1D84C
331
1D84D
331
1D855
331
1D856
331
1D85E
331
1D85F
331
1D867
331
1D868
331
1D871
331
1D872
331
1D87A
331
1D87B
102
}
  0
BLOCK_RECORD
  5
A66
330
1
100
AcDbSymbolTableRecord
100
AcDbBlockTableRecord
  2
_OPEN30
340
0
  0
BLOCK_RECORD
  5
1D3C5
330
1
100
AcDbSymbolTableRecord
100
AcDbBlockTableRecord
  2
*D21
340
0
  0
BLOCK_RECORD
  5
1D3CF
330
1
100
AcDbSymbolTableRecord
100
AcDbBlockTableRecord
  2
*D22
340
0
  0
BLOCK_RECORD
  5
1D3D9
330
1
100
AcDbSymbolTableRecord
100
AcDbBlockTableRecord
  2
*D23
340
0
  0
BLOCK_RECORD
  5
1D3E3
330
1
100
AcDbSymbolTableRecord
100
AcDbBlockTableRecord
  2
*D24
340
0
  0
BLOCK_RECORD
  5
1D3ED
330
1
100
AcDbSymbolTableRecord
100
AcDbBlockTableRecord
  2
*D25
340
0
  0
BLOCK_RECORD
  5
1D3F7
330
1
100
AcDbSymbolTableRecord
100
AcDbBlockTableRecord
  2
*D26
340
0
  0
BLOCK_RECORD
  5
1D401
330
1
100
AcDbSymbolTableRecord
100
AcDbBlockTableRecord
  2
*D27
340
0
  0
BLOCK_RECORD
  5
1D40B
330
1
100
AcDbSymbolTableRecord
100
AcDbBlockTableRecord
  2
*D28
340
0
  0
BLOCK_RECORD
  5
1D415
330
1
100
AcDbSymbolTableRecord
100
AcDbBlockTableRecord
  2
*D29
340
0
  0
BLOCK_RECORD
  5
1D41F
330
1
100
AcDbSymbolTableRecord
100
AcDbBlockTableRecord
  2
*D30
340
0
  0
BLOCK_RECORD
  5
1D429
330
1
100
AcDbSymbolTableRecord
100
AcDbBlockTableRecord
  2
*D31
340
0
  0
BLOCK_RECORD
  5
1D433
330
1
100
AcDbSymbolTableRecord
100
AcDbBlockTableRecord
  2
*D32
340
0
  0
BLOCK_RECORD
  5
1D43F
330
1
100
AcDbSymbolTableRecord
100
AcDbBlockTableRecord
  2
*D33
340
0
  0
BLOCK_RECORD
  5
1D44D
330
1
100
AcDbSymbolTableRecord
100
AcDbBlockTableRecord
  2
*D34
340
0
  0
BLOCK_RECORD
  5
1D457
330
1
100
AcDbSymbolTableRecord
100
AcDbBlockTableRecord
  2
*D35
340
0
  0
BLOCK_RECORD
  5
1D461
330
1
100
AcDbSymbolTableRecord
100
AcDbBlockTableRecord
  2
*D36
340
0
  0
BLOCK_RECORD
  5
1D46B
330
1
100
AcDbSymbolTableRecord
100
AcDbBlockTableRecord
  2
*D37
340
0
  0
BLOCK_RECORD
  5
1D881
102
{ACAD_XDICTIONARY
360
1D95D
102
}
330
1
100
AcDbSymbolTableRecord
100
AcDbBlockTableRecord
  2
*S4138
340
0
102
{BLKREFS
331
1D2B9
102
}
  0
ENDTAB
  0
ENDSEC
  0
SECTION
  2
BLOCKS
  0
BLOCK
  5
20
330
1F
100
AcDbEntity
  8
0
100
AcDbBlockBegin
  2
*Model_Space
 70
     0
 10
0.0
 20
0.0
 30
0.0
  3
*Model_Space
  1

  0
ENDBLK
  5
21
330
1F
100
AcDbEntity
  8
0
100
AcDbBlockEnd
  0
BLOCK
  5
1C
330
1B
100
AcDbEntity
 67
     1
  8
0
100
AcDbBlockBegin
  2
*Paper_Space
 70
     0
 10
0.0
 20
0.0
 30
0.0
  3
*Paper_Space
  1

  0
ENDBLK
  5
1D
330
1B
100
AcDbEntity
 67
     1
  8
0
100
AcDbBlockEnd
  0
BLOCK
  5
24
330
23
100
AcDbEntity
 67
     1
  8
0
100
AcDbBlockBegin
  2
*Paper_Space0
 70
     0
 10
0.0
 20
0.0
 30
0.0
  3
*Paper_Space0
  1

  0
ENDBLK
  5
25
330
23
100
AcDbEntity
 67
     1
  8
0
100
AcDbBlockEnd
  0
BLOCK
  5
74
330
72
100
AcDbEntity
  8
0
100
AcDbBlockBegin
  2
GENAXEH
 70
     0
 10
0.0
 20
0.0
 30
0.0
  3
GENAXEH
  1

  0
LINE
  5
73
330
72
100
AcDbEntity
  8
0
100
AcDbLine
 10
-1.0
 20
0.0
 30
0.0
 11
1.0
 21
0.0
 31
0.0
  0
ENDBLK
  5
75
330
72
100
AcDbEntity
  8
0
100
AcDbBlockEnd
  0
BLOCK
  5
6C7
330
6C4
100
AcDbEntity
  8
0
100
AcDbBlockBegin
  2
_Dot
 70
     0
 10
0.0
 20
0.0
 30
0.0
  3
_Dot
  1

  0
LWPOLYLINE
  5
6C5
330
6C4
100
AcDbEntity
  8
0
  6
ByBlock
 62
     0
100
AcDbPolyline
 90
        2
 70
     1
 43
0.5
 10
-0.25
 20
0.0
 42
1.0
 10
0.25
 20
0.0
 42
1.0
  0
LINE
  5
6C6
330
6C4
100
AcDbEntity
  8
0
  6
ByBlock
 62
     0
370
    -2
100
AcDbLine
 10
-0.5
 20
0.0
 30
0.0
 11
-1.0
 21
0.0
 31
0.0
  0
ENDBLK
  5
6C8
330
6C4
100
AcDbEntity
  8
0
100
AcDbBlockEnd
  0
BLOCK
  5
A6A
330
A66
100
AcDbEntity
  8
0
100
AcDbBlockBegin
  2
_OPEN30
 70
     0
 10
0.0
 20
0.0
 30
0.0
  3
_OPEN30
  1

  0
LINE
  5
A67
330
A66
100
AcDbEntity
  8
0
  6
ByBlock
 62
     0
100
AcDbLine
 10
-1.0
 20
0.26794919
 30
0.0
 11
0.0
 21
0.0
 31
0.0
  0
LINE
  5
A68
330
A66
100
AcDbEntity
  8
0
  6
ByBlock
 62
     0
100
AcDbLine
 10
0.0
 20
0.0
 30
0.0
 11
-1.0
 21
-0.26794919
 31
0.0
  0
LINE
  5
A69
330
A66
100
AcDbEntity
  8
0
  6
ByBlock
 62
     0
100
AcDbLine
 10
0.0
 20
0.0
 30
0.0
 11
-1.0
 21
0.0
 31
0.0
  0
ENDBLK
  5
A6B
330
A66
100
AcDbEntity
  8
0
100
AcDbBlockEnd
  0
BLOCK
  5
1D50B
330
1D3C5
100
AcDbEntity
  8
0
100
AcDbBlockBegin
  2
*D21
 70
     1
 10
0.0
 20
0.0
 30
0.0
  3
*D21
  1

  0
LINE
  5
1D864
330
1D3C5
100
AcDbEntity
  8
AM_5
100
AcDbLine
 10
805.4021118390661
 20
-279.9066309179583
 30
0.0
 11
805.4021118390661
 21
-255.4066309179584
 31
0.0
  0
LINE
  5
1D865
330
1D3C5
100
AcDbEntity
  8
AM_5
100
AcDbLine
 10
871.4021118390661
 20
-279.9066309179583
 30
0.0
 11
871.4021118390661
 21
-255.4066309179584
 31
0.0
  0
LINE
  5
1D866
330
1D3C5
100
AcDbEntity
  8
AM_5
100
AcDbLine
 10
806.4021118390661
 20
-256.4066309179584
 30
0.0
 11
870.4021118390661
 21
-256.4066309179584
 31
0.0
  0
INSERT
  5
1D867
330
1D3C5
100
AcDbEntity
  8
AM_5
100
AcDbBlockReference
  2
_Dot
 10
805.4021118390661
 20
-256.4066309179584
 30
0.0
 50
180.0
  0
INSERT
  5
1D868
330
1D3C5
100
AcDbEntity
  8
AM_5
100
AcDbBlockReference
  2
_Dot
 10
871.4021118390661
 20
-256.4066309179584
 30
0.0
  0
MTEXT
  5
1D869
330
1D3C5
100
AcDbEntity
  8
AM_5
 62
     2
100
AcDbMText
 10
838.4021118390661
 20
-253.3066309179584
 30
0.0
 40
3.2
 41
0.0
 71
     5
 72
     1
  1
66
 73
     1
 44
1.0
1001
ACAD
1000
MTEXTBEGIN
1070
    73
1070
     1
1070
    44
1040
1.0
1070
    74
1070
     0
1000
MTEXTEND
  0
POINT
  5
1D86A
330
1D3C5
100
AcDbEntity
  8
Defpoints
 62
     0
100
AcDbPoint
 10
805.4021118390661
 20
-281.4066309179584
 30
0.0
  0
POINT
  5
1D86B
330
1D3C5
100
AcDbEntity
  8
Defpoints
 62
     0
100
AcDbPoint
 10
871.4021118390661
 20
-281.4066309179583
 30
0.0
  0
POINT
  5
1D86C
330
1D3C5
100
AcDbEntity
  8
Defpoints
 62
     0
100
AcDbPoint
 10
871.4021118390661
 20
-256.4066309179584
 30
0.0
  0
ENDBLK
  5
1D50C
330
1D3C5
100
AcDbEntity
  8
0
100
AcDbBlockEnd
  0
BLOCK
  5
1D50D
330
1D3CF
100
AcDbEntity
  8
0
100
AcDbBlockBegin
  2
*D22
 70
     1
 10
0.0
 20
0.0
 30
0.0
  3
*D22
  1

  0
LINE
  5
1D81C
330
1D3CF
100
AcDbEntity
  8
AM_5
 48
1.01
100
AcDbLine
 10
764.3376592954918
 20
-272.9066309179551
 30
0.0
 11
764.3376592954918
 21
-329.8138242733804
 31
0.0
  0
LINE
  5
1D81D
330
1D3CF
100
AcDbEntity
  8
AM_5
 48
1.01
100
AcDbLine
 10
1048.902111839066
 20
-304.4066309179551
 30
0.0
 11
1048.902111839066
 21
-329.8138242733804
 31
0.0
  0
LINE
  5
1D81E
330
1D3CF
100
AcDbEntity
  8
AM_5
 48
1.01
100
AcDbLine
 10
765.3376592954919
 20
-328.8138242733804
 30
0.0
 11
1047.902111839066
 21
-328.8138242733804
 31
0.0
  0
INSERT
  5
1D81F
330
1D3CF
100
AcDbEntity
  8
AM_5
 48
1.01
100
AcDbBlockReference
  2
_Dot
 10
764.3376592954918
 20
-328.8138242733804
 30
0.0
 50
180.0
  0
INSERT
  5
1D820
330
1D3CF
100
AcDbEntity
  8
AM_5
 48
1.01
100
AcDbBlockReference
  2
_Dot
 10
1048.902111839066
 20
-328.8138242733804
 30
0.0
  0
MTEXT
  5
1D821
330
1D3CF
100
AcDbEntity
  8
AM_5
 62
     2
 48
1.01
100
AcDbMText
 10
911.7339379020902
 20
-325.7138242733804
 30
0.0
 40
3.2
 41
0.0
 71
     5
 72
     1
  1
C
 73
     1
 44
1.0
1001
ACAD
1000
MTEXTBEGIN
1070
    73
1070
     1
1070
    44
1040
1.0
1070
    74
1070
     0
1000
MTEXTEND
  0
POINT
  5
1D822
330
1D3CF
100
AcDbEntity
  8
Defpoints
 62
     0
 48
1.01
100
AcDbPoint
 10
764.3376592954918
 20
-271.4066309179551
 30
0.0
  0
POINT
  5
1D823
330
1D3CF
100
AcDbEntity
  8
Defpoints
 62
     0
 48
1.01
100
AcDbPoint
 10
1048.902111839066
 20
-302.9066309179551
 30
0.0
  0
POINT
  5
1D824
330
1D3CF
100
AcDbEntity
  8
Defpoints
 62
     0
 48
1.01
100
AcDbPoint
 10
1048.902111839066
 20
-328.8138242733804
 30
0.0
  0
ENDBLK
  5
1D50E
330
1D3CF
100
AcDbEntity
  8
0
100
AcDbBlockEnd
  0
BLOCK
  5
1D50F
330
1D3D9
100
AcDbEntity
  8
0
100
AcDbBlockBegin
  2
*D23
 70
     1
 10
0.0
 20
0.0
 30
0.0
  3
*D23
  1

  0
LINE
  5
1D825
330
1D3D9
100
AcDbEntity
  8
AM_5
 48
1.01
100
AcDbLine
 10
838.4021118390661
 20
-307.7540121180748
 30
0.0
 11
838.4021118390661
 21
-320.4782453414283
 31
0.0
  0
LINE
  5
1D826
330
1D3D9
100
AcDbEntity
  8
AM_5
 48
1.01
100
AcDbLine
 10
1048.902111839066
 20
-304.4066309179551
 30
0.0
 11
1048.902111839066
 21
-320.4782453414283
 31
0.0
  0
LINE
  5
1D827
330
1D3D9
100
AcDbEntity
  8
AM_5
 48
1.01
100
AcDbLine
 10
839.4021118390661
 20
-319.4782453414283
 30
0.0
 11
1047.902111839066
 21
-319.4782453414283
 31
0.0
  0
INSERT
  5
1D828
330
1D3D9
100
AcDbEntity
  8
AM_5
 48
1.01
100
AcDbBlockReference
  2
_Dot
 10
838.4021118390661
 20
-319.4782453414283
 30
0.0
 50
180.0
  0
INSERT
  5
1D829
330
1D3D9
100
AcDbEntity
  8
AM_5
 48
1.01
100
AcDbBlockReference
  2
_Dot
 10
1048.902111839066
 20
-319.4782453414283
 30
0.0
  0
MTEXT
  5
1D82A
330
1D3D9
100
AcDbEntity
  8
AM_5
 62
     2
 48
1.01
100
AcDbMText
 10
943.6521118390659
 20
-316.0734834366664
 30
0.0
 40
3.2
 41
0.0
 71
     5
 72
     1
  1
MIN317,  MAX550
 73
     1
 44
1.0
1001
ACAD
1000
MTEXTBEGIN
1070
    73
1070
     1
1070
    44
1040
1.0
1070
    74
1070
     0
1000
MTEXTEND
  0
POINT
  5
1D82B
330
1D3D9
100
AcDbEntity
  8
Defpoints
 62
     0
 48
1.01
100
AcDbPoint
 10
838.4021118390661
 20
-306.2540121180749
 30
0.0
  0
POINT
  5
1D82C
330
1D3D9
100
AcDbEntity
  8
Defpoints
 62
     0
 48
1.01
100
AcDbPoint
 10
1048.902111839066
 20
-302.9066309179551
 30
0.0
  0
POINT
  5
1D82D
330
1D3D9
100
AcDbEntity
  8
Defpoints
 62
     0
 48
1.01
100
AcDbPoint
 10
1048.902111839066
 20
-319.4782453414283
 30
0.0
  0
ENDBLK
  5
1D510
330
1D3D9
100
AcDbEntity
  8
0
100
AcDbBlockEnd
  0
BLOCK
  5
1D511
330
1D3E3
100
AcDbEntity
  8
0
100
AcDbBlockBegin
  2
*D24
 70
     1
 10
0.0
 20
0.0
 30
0.0
  3
*D24
  1

  0
LINE
  5
1D76D
330
1D3E3
100
AcDbEntity
  8
AM_5
 48
1.01
100
AcDbLine
 10
1072.402111839066
 20
-377.5140891936288
 30
0.0
 11
1102.902111839066
 21
-377.5140891936288
 31
0.0
  0
LINE
  5
1D76E
330
1D3E3
100
AcDbEntity
  8
AM_5
 48
1.01
100
AcDbLine
 10
872.9021118390667
 20
-341.4640891936298
 30
0.0
 11
1102.902111839066
 21
-341.4640891936298
 31
0.0
  0
LINE
  5
1D76F
330
1D3E3
100
AcDbEntity
  8
AM_5
 48
1.01
100
AcDbLine
 10
1101.902111839066
 20
-376.5140891936288
 30
0.0
 11
1101.902111839066
 21
-342.4640891936298
 31
0.0
  0
INSERT
  5
1D770
330
1D3E3
100
AcDbEntity
  8
AM_5
 48
1.01
100
AcDbBlockReference
  2
_Dot
 10
1101.902111839066
 20
-377.5140891936288
 30
0.0
 50
270.0
  0
INSERT
  5
1D771
330
1D3E3
100
AcDbEntity
  8
AM_5
 48
1.01
100
AcDbBlockReference
  2
_Dot
 10
1101.902111839066
 20
-341.4640891936298
 30
0.0
 50
90.0
  0
MTEXT
  5
1D772
330
1D3E3
100
AcDbEntity
  8
AM_5
 62
     2
 48
1.01
100
AcDbMText
 10
1098.802111839066
 20
-359.4890891936291
 30
0.0
 40
3.2
 41
0.0
 71
     5
 72
     1
  1
36
 11
0.0000000000000001
 21
1.0
 31
0.0
 73
     1
 44
1.0
1001
ACAD
1000
MTEXTBEGIN
1070
    73
1070
     1
1070
    44
1040
1.0
1070
    74
1070
     0
1000
MTEXTEND
  0
POINT
  5
1D773
330
1D3E3
100
AcDbEntity
  8
Defpoints
 62
     0
 48
1.01
100
AcDbPoint
 10
1070.902111839066
 20
-377.5140891936288
 30
0.0
  0
POINT
  5
1D774
330
1D3E3
100
AcDbEntity
  8
Defpoints
 62
     0
 48
1.01
100
AcDbPoint
 10
871.4021118390666
 20
-341.4640891936298
 30
0.0
  0
POINT
  5
1D775
330
1D3E3
100
AcDbEntity
  8
Defpoints
 62
     0
 48
1.01
100
AcDbPoint
 10
1101.902111839066
 20
-341.4640891936298
 30
0.0
  0
ENDBLK
  5
1D512
330
1D3E3
100
AcDbEntity
  8
0
100
AcDbBlockEnd
  0
BLOCK
  5
1D513
330
1D3ED
100
AcDbEntity
  8
0
100
AcDbBlockBegin
  2
*D25
 70
     1
 10
0.0
 20
0.0
 30
0.0
  3
*D25
  1

  0
LINE
  5
1D82E
330
1D3ED
100
AcDbEntity
  8
AM_5
 48
1.01
100
AcDbLine
 10
764.3376592954918
 20
-272.9066309179551
 30
0.0
 11
764.3376592954918
 21
-320.4782453414285
 31
0.0
  0
LINE
  5
1D82F
330
1D3ED
100
AcDbEntity
  8
AM_5
 48
1.01
100
AcDbLine
 10
838.4021118390661
 20
-307.7540121180748
 30
0.0
 11
838.4021118390661
 21
-320.4782453414285
 31
0.0
  0
LINE
  5
1D830
330
1D3ED
100
AcDbEntity
  8
AM_5
 48
1.01
100
AcDbLine
 10
765.3376592954919
 20
-319.4782453414285
 30
0.0
 11
837.4021118390661
 21
-319.4782453414285
 31
0.0
  0
INSERT
  5
1D831
330
1D3ED
100
AcDbEntity
  8
AM_5
 48
1.01
100
AcDbBlockReference
  2
_Dot
 10
764.3376592954918
 20
-319.4782453414285
 30
0.0
 50
180.0
  0
INSERT
  5
1D832
330
1D3ED
100
AcDbEntity
  8
AM_5
 48
1.01
100
AcDbBlockReference
  2
_Dot
 10
838.4021118390661
 20
-319.4782453414285
 30
0.0
  0
MTEXT
  5
1D833
330
1D3ED
100
AcDbEntity
  8
AM_5
 62
     2
 48
1.01
100
AcDbMText
 10
801.3698855672791
 20
-316.3782453414285
 30
0.0
 40
3.2
 41
0.0
 71
     5
 72
     1
  1
B
 73
     1
 44
1.0
1001
ACAD
1000
MTEXTBEGIN
1070
    73
1070
     1
1070
    44
1040
1.0
1070
    74
1070
     0
1000
MTEXTEND
  0
POINT
  5
1D834
330
1D3ED
100
AcDbEntity
  8
Defpoints
 62
     0
 48
1.01
100
AcDbPoint
 10
764.3376592954918
 20
-271.4066309179551
 30
0.0
  0
POINT
  5
1D835
330
1D3ED
100
AcDbEntity
  8
Defpoints
 62
     0
 48
1.01
100
AcDbPoint
 10
838.4021118390661
 20
-306.2540121180749
 30
0.0
  0
POINT
  5
1D836
330
1D3ED
100
AcDbEntity
  8
Defpoints
 62
     0
 48
1.01
100
AcDbPoint
 10
838.4021118390661
 20
-319.4782453414285
 30
0.0
  0
ENDBLK
  5
1D514
330
1D3ED
100
AcDbEntity
  8
0
100
AcDbBlockEnd
  0
BLOCK
  5
1D515
330
1D3F7
100
AcDbEntity
  8
0
100
AcDbBlockBegin
  2
*D26
 70
     1
 10
0.0
 20
0.0
 30
0.0
  3
*D26
  1

  0
LINE
  5
1D837
330
1D3F7
100
AcDbEntity
  8
AM_5
 48
1.01
100
AcDbLine
 10
753.9225277206086
 20
-221.4066309179551
 30
0.0
 11
745.6297667664411
 21
-221.4066309179551
 31
0.0
  0
LINE
  5
1D838
330
1D3F7
100
AcDbEntity
  8
AM_5
 48
1.01
100
AcDbLine
 10
760.8906803303554
 20
-271.4066309179551
 30
0.0
 11
745.6297667664407
 21
-271.4066309179551
 31
0.0
  0
LINE
  5
1D839
330
1D3F7
100
AcDbEntity
  8
AM_5
 48
1.01
100
AcDbLine
 10
746.6297667664409
 20
-222.4066309179551
 30
0.0
 11
746.6297667664409
 21
-270.4066309179551
 31
0.0
  0
INSERT
  5
1D83A
330
1D3F7
100
AcDbEntity
  8
AM_5
 48
1.01
100
AcDbBlockReference
  2
_Dot
 10
746.6297667664409
 20
-221.4066309179551
 30
0.0
 50
90.0
  0
INSERT
  5
1D83B
330
1D3F7
100
AcDbEntity
  8
AM_5
 48
1.01
100
AcDbBlockReference
  2
_Dot
 10
746.6297667664409
 20
-271.4066309179551
 30
0.0
 50
270.0
  0
MTEXT
  5
1D83C
330
1D3F7
100
AcDbEntity
  8
AM_5
 62
     2
 48
1.01
100
AcDbMText
 10
743.5297667664408
 20
-246.406630917955
 30
0.0
 40
3.2
 41
0.0
 71
     5
 72
     1
  1
A
 11
0.0000000000000001
 21
1.0
 31
0.0
 73
     1
 44
1.0
1001
ACAD
1000
MTEXTBEGIN
1070
    73
1070
     1
1070
    44
1040
1.0
1070
    74
1070
     0
1000
MTEXTEND
  0
POINT
  5
1D83D
330
1D3F7
100
AcDbEntity
  8
Defpoints
 62
     0
 48
1.01
100
AcDbPoint
 10
755.4225277206086
 20
-221.4066309179551
 30
0.0
  0
POINT
  5
1D83E
330
1D3F7
100
AcDbEntity
  8
Defpoints
 62
     0
 48
1.01
100
AcDbPoint
 10
762.3906803303554
 20
-271.4066309179551
 30
0.0
  0
POINT
  5
1D83F
330
1D3F7
100
AcDbEntity
  8
Defpoints
 62
     0
 48
1.01
100
AcDbPoint
 10
746.6297667664409
 20
-271.4066309179551
 30
0.0
  0
ENDBLK
  5
1D516
330
1D3F7
100
AcDbEntity
  8
0
100
AcDbBlockEnd
  0
BLOCK
  5
1D517
330
1D401
100
AcDbEntity
  8
0
100
AcDbBlockBegin
  2
*D27
 70
     1
 10
0.0
 20
0.0
 30
0.0
  3
*D27
  1

  0
LINE
  5
1D840
330
1D401
100
AcDbEntity
  8
AM_5
 48
1.01
100
AcDbLine
 10
1064.902111839066
 20
-288.4066309179551
 30
0.0
 11
1084.902112839066
 21
-288.4066309179551
 31
0.0
  0
LINE
  5
1D841
330
1D401
100
AcDbEntity
  8
AM_5
 48
1.01
100
AcDbLine
 10
1081.802111839066
 20
-271.4066309179551
 30
0.0
 11
1084.902112839066
 21
-271.4066309179551
 31
0.0
  0
LINE
  5
1D842
330
1D401
100
AcDbEntity
  8
AM_5
 48
1.01
100
AcDbLine
 10
1083.902112839066
 20
-287.4066309179551
 30
0.0
 11
1083.902112839066
 21
-272.4066309179551
 31
0.0
  0
INSERT
  5
1D843
330
1D401
100
AcDbEntity
  8
AM_5
 48
1.01
100
AcDbBlockReference
  2
_Dot
 10
1083.902112839066
 20
-288.4066309179551
 30
0.0
 50
270.0
  0
INSERT
  5
1D844
330
1D401
100
AcDbEntity
  8
AM_5
 48
1.01
100
AcDbBlockReference
  2
_Dot
 10
1083.902112839066
 20
-271.4066309179551
 30
0.0
 50
90.0
  0
MTEXT
  5
1D845
330
1D401
100
AcDbEntity
  8
AM_5
 62
     2
 48
1.01
100
AcDbMText
 10
1080.802112839066
 20
-279.9066309179549
 30
0.0
 40
3.2
 41
0.0
 71
     5
 72
     1
  1
17
 11
0.0000000000000001
 21
1.0
 31
0.0
 73
     1
 44
1.0
1001
ACAD
1000
MTEXTBEGIN
1070
    73
1070
     1
1070
    44
1040
1.0
1070
    74
1070
     0
1000
MTEXTEND
  0
POINT
  5
1D846
330
1D401
100
AcDbEntity
  8
Defpoints
 62
     0
 48
1.01
100
AcDbPoint
 10
1063.402111839066
 20
-288.4066309179551
 30
0.0
  0
POINT
  5
1D847
330
1D401
100
AcDbEntity
  8
Defpoints
 62
     0
 48
1.01
100
AcDbPoint
 10
1080.302111839066
 20
-271.4066309179551
 30
0.0
  0
POINT
  5
1D848
330
1D401
100
AcDbEntity
  8
Defpoints
 62
     0
 48
1.01
100
AcDbPoint
 10
1083.902112839066
 20
-271.4066309179551
 30
0.0
  0
ENDBLK
  5
1D518
330
1D401
100
AcDbEntity
  8
0
100
AcDbBlockEnd
  0
BLOCK
  5
1D519
330
1D40B
100
AcDbEntity
  8
0
100
AcDbBlockBegin
  2
*D28
 70
     1
 10
0.0
 20
0.0
 30
0.0
  3
*D28
  1

  0
LINE
  5
1D877
330
1D40B
100
AcDbEntity
  8
AM_5
 48
1.01
100
AcDbLine
 10
1071.902111839065
 20
-379.0140891936288
 30
0.0
 11
1071.902111839065
 21
-398.0955363242854
 31
0.0
  0
LINE
  5
1D878
330
1D40B
100
AcDbEntity
  8
AM_5
 48
1.01
100
AcDbLine
 10
1025.902111839065
 20
-379.0140891936288
 30
0.0
 11
1025.902111839065
 21
-398.0955363242854
 31
0.0
  0
LINE
  5
1D879
330
1D40B
100
AcDbEntity
  8
AM_5
 48
1.01
100
AcDbLine
 10
1070.902111839065
 20
-397.0955363242854
 30
0.0
 11
1026.902111839065
 21
-397.0955363242854
 31
0.0
  0
INSERT
  5
1D87A
330
1D40B
100
AcDbEntity
  8
AM_5
 48
1.01
100
AcDbBlockReference
  2
_Dot
 10
1071.902111839065
 20
-397.0955363242854
 30
0.0
  0
INSERT
  5
1D87B
330
1D40B
100
AcDbEntity
  8
AM_5
 48
1.01
100
AcDbBlockReference
  2
_Dot
 10
1025.902111839065
 20
-397.0955363242854
 30
0.0
 50
180.0
  0
MTEXT
  5
1D87C
330
1D40B
100
AcDbEntity
  8
AM_5
 62
     2
 48
1.01
100
AcDbMText
 10
1048.902111839066
 20
-393.9955363242853
 30
0.0
 40
3.2
 41
0.0
 71
     5
 72
     1
  1
46
 73
     1
 44
1.0
1001
ACAD
1000
MTEXTBEGIN
1070
    73
1070
     1
1070
    44
1040
1.0
1070
    74
1070
     0
1000
MTEXTEND
  0
POINT
  5
1D87D
330
1D40B
100
AcDbEntity
  8
Defpoints
 62
     0
 48
1.01
100
AcDbPoint
 10
1071.902111839065
 20
-377.5140891936288
 30
0.0
  0
POINT
  5
1D87E
330
1D40B
100
AcDbEntity
  8
Defpoints
 62
     0
 48
1.01
100
AcDbPoint
 10
1025.902111839065
 20
-377.5140891936288
 30
0.0
  0
POINT
  5
1D87F
330
1D40B
100
AcDbEntity
  8
Defpoints
 62
     0
 48
1.01
100
AcDbPoint
 10
1025.902111839065
 20
-397.0955363242854
 30
0.0
  0
ENDBLK
  5
1D51A
330
1D40B
100
AcDbEntity
  8
0
100
AcDbBlockEnd
  0
BLOCK
  5
1D51B
330
1D415
100
AcDbEntity
  8
0
100
AcDbBlockBegin
  2
*D29
 70
     1
 10
0.0
 20
0.0
 30
0.0
  3
*D29
  1

  0
LINE
  5
1D86E
330
1D415
100
AcDbEntity
  8
AM_5
 48
1.01
100
AcDbLine
 10
1065.902111839066
 20
-380.7640891936288
 30
0.0
 11
1065.902111839066
 21
-390.7565024656792
 31
0.0
  0
LINE
  5
1D86F
330
1D415
100
AcDbEntity
  8
AM_5
 48
1.01
100
AcDbLine
 10
1031.902111839066
 20
-380.7640891936288
 30
0.0
 11
1031.902111839066
 21
-390.7565024656792
 31
0.0
  0
LINE
  5
1D870
330
1D415
100
AcDbEntity
  8
AM_5
 48
1.01
100
AcDbLine
 10
1064.902111839066
 20
-389.7565024656791
 30
0.0
 11
1032.902111839066
 21
-389.7565024656791
 31
0.0
  0
INSERT
  5
1D871
330
1D415
100
AcDbEntity
  8
AM_5
 48
1.01
100
AcDbBlockReference
  2
_Dot
 10
1065.902111839066
 20
-389.7565024656791
 30
0.0
  0
INSERT
  5
1D872
330
1D415
100
AcDbEntity
  8
AM_5
 48
1.01
100
AcDbBlockReference
  2
_Dot
 10
1031.902111839066
 20
-389.7565024656791
 30
0.0
 50
180.0
  0
MTEXT
  5
1D873
330
1D415
100
AcDbEntity
  8
AM_5
 62
     2
 48
1.01
100
AcDbMText
 10
1048.902111839066
 20
-386.6565024656792
 30
0.0
 40
3.2
 41
0.0
 71
     5
 72
     1
  1
34
 73
     1
 44
1.0
1001
ACAD
1000
MTEXTBEGIN
1070
    73
1070
     1
1070
    44
1040
1.0
1070
    74
1070
     0
1000
MTEXTEND
  0
POINT
  5
1D874
330
1D415
100
AcDbEntity
  8
Defpoints
 62
     0
 48
1.01
100
AcDbPoint
 10
1065.902111839066
 20
-379.2640891936288
 30
0.0
  0
POINT
  5
1D875
330
1D415
100
AcDbEntity
  8
Defpoints
 62
     0
 48
1.01
100
AcDbPoint
 10
1031.902111839066
 20
-379.2640891936288
 30
0.0
  0
POINT
  5
1D876
330
1D415
100
AcDbEntity
  8
Defpoints
 62
     0
 48
1.01
100
AcDbPoint
 10
1031.902111839066
 20
-389.7565024656791
 30
0.0
  0
ENDBLK
  5
1D51C
330
1D415
100
AcDbEntity
  8
0
100
AcDbBlockEnd
  0
BLOCK
  5
1D51D
330
1D41F
100
AcDbEntity
  8
0
100
AcDbBlockBegin
  2
*D30
 70
     1
 10
0.0
 20
0.0
 30
0.0
  3
*D30
  1

  0
LINE
  5
1D7A3
330
1D41F
100
AcDbEntity
  8
AM_5
 48
1.01
100
AcDbLine
 10
1075.652111839066
 20
-371.0140891936288
 30
0.0
 11
1083.975881594076
 21
-371.0140891936288
 31
0.0
  0
LINE
  5
1D7A4
330
1D41F
100
AcDbEntity
  8
AM_5
 48
1.01
100
AcDbLine
 10
1072.40211183907
 20
-360.5140891936288
 30
0.0
 11
1083.975881594076
 21
-360.5140891936288
 31
0.0
  0
LINE
  5
1D7A5
330
1D41F
100
AcDbEntity
  8
AM_5
 48
1.01
100
AcDbLine
 10
1082.975881594076
 20
-370.0140891936288
 30
0.0
 11
1082.975881594076
 21
-361.5140891936288
 31
0.0
  0
INSERT
  5
1D7A6
330
1D41F
100
AcDbEntity
  8
AM_5
 48
1.01
100
AcDbBlockReference
  2
_Dot
 10
1082.975881594076
 20
-371.0140891936288
 30
0.0
 50
270.0
  0
INSERT
  5
1D7A7
330
1D41F
100
AcDbEntity
  8
AM_5
 48
1.01
100
AcDbBlockReference
  2
_Dot
 10
1082.975881594076
 20
-360.5140891936288
 30
0.0
 50
90.0
  0
MTEXT
  5
1D7A8
330
1D41F
100
AcDbEntity
  8
AM_5
 62
     2
 48
1.01
100
AcDbMText
 10
1079.875881594076
 20
-365.7640891936286
 30
0.0
 40
3.2
 41
0.0
 71
     5
 72
     1
  1
10.5
 11
0.0000000000000001
 21
1.0
 31
0.0
 73
     1
 44
1.0
1001
ACAD
1000
MTEXTBEGIN
1070
    73
1070
     1
1070
    44
1040
1.0
1070
    74
1070
     0
1000
MTEXTEND
  0
POINT
  5
1D7A9
330
1D41F
100
AcDbEntity
  8
Defpoints
 62
     0
 48
1.01
100
AcDbPoint
 10
1074.152111839066
 20
-371.0140891936288
 30
0.0
  0
POINT
  5
1D7AA
330
1D41F
100
AcDbEntity
  8
Defpoints
 62
     0
 48
1.01
100
AcDbPoint
 10
1070.90211183907
 20
-360.5140891936288
 30
0.0
  0
POINT
  5
1D7AB
330
1D41F
100
AcDbEntity
  8
Defpoints
 62
     0
 48
1.01
100
AcDbPoint
 10
1082.975881594076
 20
-360.5140891936288
 30
0.0
  0
ENDBLK
  5
1D51E
330
1D41F
100
AcDbEntity
  8
0
100
AcDbBlockEnd
  0
BLOCK
  5
1D51F
330
1D429
100
AcDbEntity
  8
0
100
AcDbBlockBegin
  2
*D31
 70
     1
 10
0.0
 20
0.0
 30
0.0
  3
*D31
  1

  0
LINE
  5
1D7AC
330
1D429
100
AcDbEntity
  8
AM_5
 48
1.01
100
AcDbLine
 10
1073.402111839065
 20
-377.5140891936334
 30
0.0
 11
1093.766477120637
 21
-377.5140891936334
 31
0.0
  0
LINE
  5
1D7AD
330
1D429
100
AcDbEntity
  8
AM_5
 48
1.01
100
AcDbLine
 10
1072.40211183907
 20
-360.5140891936288
 30
0.0
 11
1093.766477120637
 21
-360.5140891936288
 31
0.0
  0
LINE
  5
1D7AE
330
1D429
100
AcDbEntity
  8
AM_5
 48
1.01
100
AcDbLine
 10
1092.766477120637
 20
-376.5140891936334
 30
0.0
 11
1092.766477120637
 21
-361.5140891936288
 31
0.0
  0
INSERT
  5
1D7AF
330
1D429
100
AcDbEntity
  8
AM_5
 48
1.01
100
AcDbBlockReference
  2
_Dot
 10
1092.766477120637
 20
-377.5140891936334
 30
0.0
 50
270.0
  0
INSERT
  5
1D7B0
330
1D429
100
AcDbEntity
  8
AM_5
 48
1.01
100
AcDbBlockReference
  2
_Dot
 10
1092.766477120637
 20
-360.5140891936288
 30
0.0
 50
90.0
  0
MTEXT
  5
1D7B1
330
1D429
100
AcDbEntity
  8
AM_5
 62
     2
 48
1.01
100
AcDbMText
 10
1089.666477120637
 20
-369.0140891936309
 30
0.0
 40
3.2
 41
0.0
 71
     5
 72
     1
  1
17
 11
0.0000000000000001
 21
1.0
 31
0.0
 73
     1
 44
1.0
1001
ACAD
1000
MTEXTBEGIN
1070
    73
1070
     1
1070
    44
1040
1.0
1070
    74
1070
     0
1000
MTEXTEND
  0
POINT
  5
1D7B2
330
1D429
100
AcDbEntity
  8
Defpoints
 62
     0
 48
1.01
100
AcDbPoint
 10
1071.902111839065
 20
-377.5140891936334
 30
0.0
  0
POINT
  5
1D7B3
330
1D429
100
AcDbEntity
  8
Defpoints
 62
     0
 48
1.01
100
AcDbPoint
 10
1070.90211183907
 20
-360.5140891936288
 30
0.0
  0
POINT
  5
1D7B4
330
1D429
100
AcDbEntity
  8
Defpoints
 62
     0
 48
1.01
100
AcDbPoint
 10
1092.766477120637
 20
-360.5140891936288
 30
0.0
  0
ENDBLK
  5
1D520
330
1D429
100
AcDbEntity
  8
0
100
AcDbBlockEnd
  0
BLOCK
  5
1D521
330
1D433
100
AcDbEntity
  8
0
100
AcDbBlockBegin
  2
*D32
 70
     1
 10
0.0
 20
0.0
 30
0.0
  3
*D32
  1

  0
LINE
  5
1D7B5
330
1D433
100
AcDbEntity
  8
AM_5
 48
1.01
100
AcDbLine
 10
803.9021118390667
 20
-343.4640891936298
 30
0.0
 11
796.4021118390667
 21
-343.4640891936298
 31
0.0
  0
LINE
  5
1D7B6
330
1D433
100
AcDbEntity
  8
AM_5
 48
1.01
100
AcDbLine
 10
803.9021118390667
 20
-341.4640891936298
 30
0.0
 11
796.4021118390667
 21
-341.4640891936298
 31
0.0
  0
LINE
  5
1D7B7
330
1D433
100
AcDbEntity
  8
AM_5
 48
1.01
100
AcDbLine
 10
797.4021118390667
 20
-344.4640891936298
 30
0.0
 11
797.4021118390667
 21
-345.4640891936298
 31
0.0
  0
LINE
  5
1D7B8
330
1D433
100
AcDbEntity
  8
AM_5
 48
1.01
100
AcDbLine
 10
797.4021118390667
 20
-340.4640891936298
 30
0.0
 11
797.4021118390667
 21
-334.9707558602964
 31
0.0
  0
LINE
  5
1D7B9
330
1D433
100
AcDbEntity
  8
AM_5
 48
1.01
100
AcDbLine
 10
797.4021118390667
 20
-343.4640891936298
 30
0.0
 11
797.4021118390667
 21
-341.4640891936298
 31
0.0
  0
INSERT
  5
1D7BA
330
1D433
100
AcDbEntity
  8
AM_5
 48
1.01
100
AcDbBlockReference
  2
_Dot
 10
797.4021118390667
 20
-343.4640891936298
 30
0.0
 50
90.0
  0
INSERT
  5
1D7BB
330
1D433
100
AcDbEntity
  8
AM_5
 48
1.01
100
AcDbBlockReference
  2
_Dot
 10
797.4021118390667
 20
-341.4640891936298
 30
0.0
 50
270.0
  0
MTEXT
  5
1D7BC
330
1D433
100
AcDbEntity
  8
AM_5
 62
     2
 48
1.01
100
AcDbMText
 10
794.3021118390668
 20
-337.217422526963
 30
0.0
 40
3.2
 41
0.0
 71
     5
 72
     1
  1
2
 11
0.0000000000000001
 21
1.0
 31
0.0
 73
     1
 44
1.0
1001
ACAD
1000
MTEXTBEGIN
1070
    73
1070
     1
1070
    44
1040
1.0
1070
    74
1070
     0
1000
MTEXTEND
  0
POINT
  5
1D7BD
330
1D433
100
AcDbEntity
  8
Defpoints
 62
     0
 48
1.01
100
AcDbPoint
 10
805.4021118390666
 20
-343.4640891936298
 30
0.0
  0
POINT
  5
1D7BE
330
1D433
100
AcDbEntity
  8
Defpoints
 62
     0
 48
1.01
100
AcDbPoint
 10
805.4021118390666
 20
-341.4640891936298
 30
0.0
  0
POINT
  5
1D7BF
330
1D433
100
AcDbEntity
  8
Defpoints
 62
     0
 48
1.01
100
AcDbPoint
 10
797.4021118390667
 20
-341.4640891936298
 30
0.0
  0
ENDBLK
  5
1D522
330
1D433
100
AcDbEntity
  8
0
100
AcDbBlockEnd
  0
BLOCK
  5
1D523
330
1D43F
100
AcDbEntity
  8
0
100
AcDbBlockBegin
  2
*D33
 70
     1
 10
0.0
 20
0.0
 30
0.0
  3
*D33
  1

  0
LINE
  5
1D7C0
330
1D43F
100
AcDbEntity
  8
AM_5
 48
1.01
100
AcDbLine
 10
825.6021118390712
 20
-358.4640891936298
 30
0.0
 11
788.4021118390671
 21
-358.4640891936298
 31
0.0
  0
LINE
  5
1D7C1
330
1D43F
100
AcDbEntity
  8
AM_5
 48
1.01
100
AcDbLine
 10
825.6021118390712
 20
-359.4640891936298
 30
0.0
 11
788.4021118390671
 21
-359.4640891936298
 31
0.0
  0
LINE
  5
1D7C2
330
1D43F
100
AcDbEntity
  8
AM_5
 48
1.01
100
AcDbLine
 10
789.4021118390669
 20
-357.4640891936298
 30
0.0
 11
789.4021118390669
 21
-356.4640891936298
 31
0.0
  0
LINE
  5
1D7C3
330
1D43F
100
AcDbEntity
  8
AM_5
 48
1.01
100
AcDbLine
 10
789.4021118390669
 20
-360.4640891936298
 30
0.0
 11
789.4021118390669
 21
-361.4640891936298
 31
0.0
  0
LINE
  5
1D7C4
330
1D43F
100
AcDbEntity
  8
AM_5
 48
1.01
100
AcDbLine
 10
789.4021118390669
 20
-365.4995006785
 30
0.0
 11
789.4021118390669
 21
-359.4640891936298
 31
0.0
  0
MTEXT
  5
1D7C5
330
1D43F
100
AcDbEntity
  8
AM_5
 62
     2
 48
1.01
100
AcDbMText
 10
786.302111839067
 20
-363.7328340118332
 30
0.0
 40
3.2
 41
0.0
 71
     5
 72
     1
  1
1
 11
0.0000000000000001
 21
1.0
 31
0.0
 73
     1
 44
1.0
1001
ACAD
1000
MTEXTBEGIN
1070
    73
1070
     1
1070
    44
1040
1.0
1070
    74
1070
     0
1000
MTEXTEND
  0
LINE
  5
1D7C6
330
1D43F
100
AcDbEntity
  8
AM_5
 48
1.01
100
AcDbLine
 10
789.4021118390669
 20
-358.4640891936298
 30
0.0
 11
789.4021118390669
 21
-359.4640891936298
 31
0.0
  0
LINE
  5
1D7C7
330
1D43F
100
AcDbEntity
  8
AM_5
 48
1.01
100
AcDbLine
 10
789.4021118390669
 20
-358.4640891936298
 30
0.0
 11
789.4021118390669
 21
-359.4640891936298
 31
0.0
  0
INSERT
  5
1D7C8
330
1D43F
100
AcDbEntity
  8
AM_5
 48
1.01
100
AcDbBlockReference
  2
_Dot
 10
789.4021118390669
 20
-358.4640891936298
 30
0.0
 50
270.0
  0
INSERT
  5
1D7C9
330
1D43F
100
AcDbEntity
  8
AM_5
 48
1.01
100
AcDbBlockReference
  2
_Dot
 10
789.4021118390669
 20
-359.4640891936298
 30
0.0
 50
90.0
  0
POINT
  5
1D7CA
330
1D43F
100
AcDbEntity
  8
Defpoints
 62
     0
 48
1.01
100
AcDbPoint
 10
827.1021118390711
 20
-358.4640891936298
 30
0.0
  0
POINT
  5
1D7CB
330
1D43F
100
AcDbEntity
  8
Defpoints
 62
     0
 48
1.01
100
AcDbPoint
 10
827.1021118390711
 20
-359.4640891936298
 30
0.0
  0
POINT
  5
1D7CC
330
1D43F
100
AcDbEntity
  8
Defpoints
 62
     0
 48
1.01
100
AcDbPoint
 10
789.4021118390669
 20
-359.4640891936298
 30
0.0
  0
ENDBLK
  5
1D524
330
1D43F
100
AcDbEntity
  8
0
100
AcDbBlockEnd
  0
BLOCK
  5
1D525
330
1D44D
100
AcDbEntity
  8
0
100
AcDbBlockBegin
  2
*D34
 70
     1
 10
0.0
 20
0.0
 30
0.0
  3
*D34
  1

  0
LINE
  5
1D849
330
1D44D
100
AcDbEntity
  8
AM_5
 48
1.01
100
AcDbLine
 10
804.9021118390662
 20
-280.4066309179551
 30
0.0
 11
788.4021118390663
 21
-280.4066309179551
 31
0.0
  0
LINE
  5
1D84A
330
1D44D
100
AcDbEntity
  8
AM_5
 48
1.01
100
AcDbLine
 10
805.2424905981691
 20
-296.4066309179583
 30
0.0
 11
788.4021118390663
 21
-296.4066309179583
 31
0.0
  0
LINE
  5
1D84B
330
1D44D
100
AcDbEntity
  8
AM_5
 48
1.01
100
AcDbLine
 10
789.4021118390663
 20
-281.4066309179551
 30
0.0
 11
789.4021118390663
 21
-295.4066309179583
 31
0.0
  0
INSERT
  5
1D84C
330
1D44D
100
AcDbEntity
  8
AM_5
 48
1.01
100
AcDbBlockReference
  2
_Dot
 10
789.4021118390663
 20
-280.4066309179551
 30
0.0
 50
90.0
  0
INSERT
  5
1D84D
330
1D44D
100
AcDbEntity
  8
AM_5
 48
1.01
100
AcDbBlockReference
  2
_Dot
 10
789.4021118390663
 20
-296.4066309179583
 30
0.0
 50
270.0
  0
MTEXT
  5
1D84E
330
1D44D
100
AcDbEntity
  8
AM_5
 62
     2
 48
1.01
100
AcDbMText
 10
786.3021118390663
 20
-288.4066309179567
 30
0.0
 40
3.2
 41
0.0
 71
     5
 72
     1
  1
16
 11
0.0000000000000001
 21
1.0
 31
0.0
 73
     1
 44
1.0
1001
ACAD
1000
MTEXTBEGIN
1070
    73
1070
     1
1070
    44
1040
1.0
1070
    74
1070
     0
1000
MTEXTEND
  0
POINT
  5
1D84F
330
1D44D
100
AcDbEntity
  8
Defpoints
 62
     0
 48
1.01
100
AcDbPoint
 10
806.4021118390661
 20
-280.4066309179551
 30
0.0
  0
POINT
  5
1D850
330
1D44D
100
AcDbEntity
  8
Defpoints
 62
     0
 48
1.01
100
AcDbPoint
 10
806.742490598169
 20
-296.4066309179583
 30
0.0
  0
POINT
  5
1D851
330
1D44D
100
AcDbEntity
  8
Defpoints
 62
     0
 48
1.01
100
AcDbPoint
 10
789.4021118390663
 20
-296.4066309179583
 30
0.0
  0
ENDBLK
  5
1D526
330
1D44D
100
AcDbEntity
  8
0
100
AcDbBlockEnd
  0
BLOCK
  5
1D527
330
1D457
100
AcDbEntity
  8
0
100
AcDbBlockBegin
  2
*D35
 70
     1
 10
0.0
 20
0.0
 30
0.0
  3
*D35
  1

  0
LINE
  5
1D852
330
1D457
100
AcDbEntity
  8
AM_5
 48
1.01
100
AcDbLine
 10
832.3105498631985
 20
-275.9066309179524
 30
0.0
 11
779.2775972773547
 21
-275.9066309179524
 31
0.0
  0
LINE
  5
1D853
330
1D457
100
AcDbEntity
  8
AM_5
 48
1.01
100
AcDbLine
 10
832.3105498631655
 20
-300.9066309179525
 30
0.0
 11
779.2775972773547
 21
-300.9066309179525
 31
0.0
  0
LINE
  5
1D854
330
1D457
100
AcDbEntity
  8
AM_5
 48
1.01
100
AcDbLine
 10
780.2775972773547
 20
-276.9066309179525
 30
0.0
 11
780.2775972773547
 21
-299.9066309179525
 31
0.0
  0
INSERT
  5
1D855
330
1D457
100
AcDbEntity
  8
AM_5
 48
1.01
100
AcDbBlockReference
  2
_Dot
 10
780.2775972773547
 20
-275.9066309179524
 30
0.0
 50
90.0
  0
INSERT
  5
1D856
330
1D457
100
AcDbEntity
  8
AM_5
 48
1.01
100
AcDbBlockReference
  2
_Dot
 10
780.2775972773547
 20
-300.9066309179525
 30
0.0
 50
270.0
  0
MTEXT
  5
1D857
330
1D457
100
AcDbEntity
  8
AM_5
 62
     2
 48
1.01
100
AcDbMText
 10
777.1775972773548
 20
-288.4066309179523
 30
0.0
 40
3.2
 41
0.0
 71
     5
 72
     1
  1
25
 11
0.0000000000000001
 21
1.0
 31
0.0
 73
     1
 44
1.0
1001
ACAD
1000
MTEXTBEGIN
1070
    73
1070
     1
1070
    44
1040
1.0
1070
    74
1070
     0
1000
MTEXTEND
  0
POINT
  5
1D858
330
1D457
100
AcDbEntity
  8
Defpoints
 62
     0
 48
1.01
100
AcDbPoint
 10
833.8105498631987
 20
-275.9066309179524
 30
0.0
  0
POINT
  5
1D859
330
1D457
100
AcDbEntity
  8
Defpoints
 62
     0
 48
1.01
100
AcDbPoint
 10
833.8105498631653
 20
-300.9066309179525
 30
0.0
  0
POINT
  5
1D85A
330
1D457
100
AcDbEntity
  8
Defpoints
 62
     0
 48
1.01
100
AcDbPoint
 10
780.2775972773547
 20
-300.9066309179525
 30
0.0
  0
ENDBLK
  5
1D528
330
1D457
100
AcDbEntity
  8
0
100
AcDbBlockEnd
  0
BLOCK
  5
1D529
330
1D461
100
AcDbEntity
  8
0
100
AcDbBlockBegin
  2
*D36
 70
     1
 10
0.0
 20
0.0
 30
0.0
  3
*D36
  1

  0
LINE
  5
1D7DF
330
1D461
100
AcDbEntity
  8
AM_5
 48
1.01
100
AcDbLine
 10
803.9021118390667
 20
-341.4640891936298
 30
0.0
 11
788.4021118390671
 21
-341.4640891936298
 31
0.0
  0
LINE
  5
1D7E0
330
1D461
100
AcDbEntity
  8
AM_5
 48
1.01
100
AcDbLine
 10
825.6021118390712
 20
-358.4640891936298
 30
0.0
 11
788.4021118390671
 21
-358.4640891936298
 31
0.0
  0
LINE
  5
1D7E1
330
1D461
100
AcDbEntity
  8
AM_5
 48
1.01
100
AcDbLine
 10
789.4021118390669
 20
-342.4640891936298
 30
0.0
 11
789.4021118390669
 21
-357.4640891936298
 31
0.0
  0
INSERT
  5
1D7E2
330
1D461
100
AcDbEntity
  8
AM_5
 48
1.01
100
AcDbBlockReference
  2
_Dot
 10
789.4021118390669
 20
-341.4640891936298
 30
0.0
 50
90.0
  0
INSERT
  5
1D7E3
330
1D461
100
AcDbEntity
  8
AM_5
 48
1.01
100
AcDbBlockReference
  2
_Dot
 10
789.4021118390669
 20
-358.4640891936298
 30
0.0
 50
270.0
  0
MTEXT
  5
1D7E4
330
1D461
100
AcDbEntity
  8
AM_5
 62
     2
 48
1.01
100
AcDbMText
 10
786.302111839067
 20
-349.9640891936297
 30
0.0
 40
3.2
 41
0.0
 71
     5
 72
     1
  1
17
 11
0.0000000000000001
 21
1.0
 31
0.0
 73
     1
 44
1.0
1001
ACAD
1000
MTEXTBEGIN
1070
    73
1070
     1
1070
    44
1040
1.0
1070
    74
1070
     0
1000
MTEXTEND
  0
POINT
  5
1D7E5
330
1D461
100
AcDbEntity
  8
Defpoints
 62
     0
 48
1.01
100
AcDbPoint
 10
805.4021118390666
 20
-341.4640891936298
 30
0.0
  0
POINT
  5
1D7E6
330
1D461
100
AcDbEntity
  8
Defpoints
 62
     0
 48
1.01
100
AcDbPoint
 10
827.1021118390711
 20
-358.4640891936298
 30
0.0
  0
POINT
  5
1D7E7
330
1D461
100
AcDbEntity
  8
Defpoints
 62
     0
 48
1.01
100
AcDbPoint
 10
789.4021118390669
 20
-358.4640891936298
 30
0.0
  0
ENDBLK
  5
1D52A
330
1D461
100
AcDbEntity
  8
0
100
AcDbBlockEnd
  0
BLOCK
  5
1D52B
330
1D46B
100
AcDbEntity
  8
0
100
AcDbBlockBegin
  2
*D37
 70
     1
 10
0.0
 20
0.0
 30
0.0
  3
*D37
  1

  0
LINE
  5
1D85B
330
1D46B
100
AcDbEntity
  8
AM_5
100
AcDbLine
 10
810.9021118390661
 20
-274.9066309179583
 30
0.0
 11
810.9021118390661
 21
-263.4066309179583
 31
0.0
  0
LINE
  5
1D85C
330
1D46B
100
AcDbEntity
  8
AM_5
100
AcDbLine
 10
865.9021118390661
 20
-274.9066309179583
 30
0.0
 11
865.9021118390661
 21
-263.4066309179583
 31
0.0
  0
LINE
  5
1D85D
330
1D46B
100
AcDbEntity
  8
AM_5
100
AcDbLine
 10
811.902111839066
 20
-264.4066309179583
 30
0.0
 11
864.9021118390662
 21
-264.4066309179583
 31
0.0
  0
INSERT
  5
1D85E
330
1D46B
100
AcDbEntity
  8
AM_5
100
AcDbBlockReference
  2
_Dot
 10
810.9021118390661
 20
-264.4066309179583
 30
0.0
 50
180.0
  0
INSERT
  5
1D85F
330
1D46B
100
AcDbEntity
  8
AM_5
100
AcDbBlockReference
  2
_Dot
 10
865.9021118390661
 20
-264.4066309179583
 30
0.0
  0
MTEXT
  5
1D860
330
1D46B
100
AcDbEntity
  8
AM_5
 62
     2
100
AcDbMText
 10
838.4021118390661
 20
-261.3066309179583
 30
0.0
 40
3.2
 41
0.0
 71
     5
 72
     1
  1
55
 73
     1
 44
1.0
1001
ACAD
1000
MTEXTBEGIN
1070
    73
1070
     1
1070
    44
1040
1.0
1070
    74
1070
     0
1000
MTEXTEND
  0
POINT
  5
1D861
330
1D46B
100
AcDbEntity
  8
Defpoints
 62
     0
100
AcDbPoint
 10
810.9021118390661
 20
-276.4066309179583
 30
0.0
  0
POINT
  5
1D862
330
1D46B
100
AcDbEntity
  8
Defpoints
 62
     0
100
AcDbPoint
 10
865.9021118390661
 20
-276.4066309179583
 30
0.0
  0
POINT
  5
1D863
330
1D46B
100
AcDbEntity
  8
Defpoints
 62
     0
100
AcDbPoint
 10
865.9021118390661
 20
-264.4066309179583
 30
0.0
  0
ENDBLK
  5
1D52C
330
1D46B
100
AcDbEntity
  8
0
100
AcDbBlockEnd
  0
BLOCK
  5
1D888
330
1D881
100
AcDbEntity
  8
0
100
AcDbBlockBegin
  2
*S4138
 70
     1
 10
0.0
 20
0.0
 30
0.0
  3
*S4138
  1

  0
LINE
  5
1D882
330
1D881
100
AcDbEntity
  8
AM_5
 62
     3
 48
1.01
100
AcDbLine
 10
991.9281966119218
 20
-385.6031830223313
 30
0.0
 11
1021.758081750175
 21
-385.6031830223313
 31
0.0
  0
LINE
  5
1D883
330
1D881
100
AcDbEntity
  8
AM_5
 62
     3
 48
1.01
100
AcDbLine
 10
1021.758081750175
 20
-385.6031830223313
 30
0.0
 11
1028.004311552328
 21
-375.670847159217
 31
0.0
  0
LINE
  5
1D884
330
1D881
100
AcDbEntity
  8
AM_5
 62
     3
 48
1.01
100
AcDbLine
 10
1028.004311552328
 20
-375.670847159217
 30
0.0
 11
1029.069026939341
 21
-373.9778081328924
 31
0.0
  0
LINE
  5
1D885
330
1D881
100
AcDbEntity
  8
AM_5
 62
     3
 48
1.01
100
AcDbLine
 10
1028.45795998807
 20
-375.9561367847476
 30
0.0
 11
1029.069026939341
 21
-373.9778081328924
 31
0.0
  0
LINE
  5
1D886
330
1D881
100
AcDbEntity
  8
AM_5
 62
     3
 48
1.01
100
AcDbLine
 10
1029.069026939341
 20
-373.9778081328924
 30
0.0
 11
1027.550663116586
 21
-375.3855575336863
 31
0.0
  0
MTEXT
  5
1D887
330
1D881
100
AcDbEntity
  8
AM_5
 62
     2
100
AcDbMText
 10
1020.408196611922
 20
-384.5795709190328
 30
0.0
 40
3.2
 41
0.0
 71
     9
 72
     5
  1
2-φ5.2×φ8.5サラ
 73
     1
 44
1.0
1001
ACAD
1000
MTEXTBEGIN
1070
    73
1070
     1
1070
    44
1040
1.0
1070
    74
1070
     0
1000
MTEXTEND
  0
ENDBLK
  5
1D889
330
1D881
100
AcDbEntity
  8
0
100
AcDbBlockEnd
  0
ENDSEC
  0
SECTION
  2
ENTITIES
  0
AMDTACMWBLOCKBOMENTITY
  5
1B1F0
330
1F
100
AcDbEntity
  8
AM_5
 92
        8
310
0800000000000000
  0
AMDTACMWBLOCKBOMENTITY
  5
1B1F1
330
1F
100
AcDbEntity
  8
AM_5
 92
        8
310
0800000000000000
  0
AMDTACMWBLOCKBOMENTITY
  5
1B1F2
330
1F
100
AcDbEntity
  8
AM_5
 92
        8
310
0800000000000000
  0
AMDTACMWBLOCKBOMENTITY
  5
1B1F3
330
1F
100
AcDbEntity
  8
AM_5
 92
        8
310
0800000000000000
  0
AMDTACMWBLOCKBOMENTITY
  5
1B1F4
330
1F
100
AcDbEntity
  8
AM_5
 92
        8
310
0800000000000000
  0
AMDTACMWBLOCKBOMENTITY
  5
1B1F5
330
1F
100
AcDbEntity
  8
AM_5
 92
        8
310
0800000000000000
  0
AMDTACMWBLOCKBOMENTITY
  5
1B1F6
330
1F
100
AcDbEntity
  8
AM_5
 92
        8
310
0800000000000000
  0
AMDTACMWBLOCKBOMENTITY
  5
1B1F7
330
1F
100
AcDbEntity
  8
AM_5
 92
        8
310
0800000000000000
  0
AMDTACMWBLOCKBOMENTITY
  5
1B1F8
330
1F
100
AcDbEntity
  8
AM_5
 92
        8
310
0800000000000000
  0
AMDTACMWBLOCKBOMENTITY
  5
1B1F9
330
1F
100
AcDbEntity
  8
AM_5
 92
        8
310
0800000000000000
  0
LINE
  5
1C0AA
330
1F
100
AcDbEntity
  8
0
  6
Continuous
 62
     7
100
AcDbLine
 10
1111.614186521806
 20
-134.5620284009599
 30
0.0
 11
1111.614186521806
 21
-407.5620284009596
 31
0.0
  0
LINE
  5
1C0AB
330
1F
100
AcDbEntity
  8
0
  6
Continuous
 62
     7
100
AcDbLine
 10
730.6141865218059
 20
-407.5620284009596
 30
0.0
 11
1111.614186521806
 21
-407.5620284009596
 31
0.0
  0
LINE
  5
1C0AC
330
1F
100
AcDbEntity
  8
0
  6
Continuous
 62
     7
100
AcDbLine
 10
730.6141865218059
 20
-134.5620284009599
 30
0.0
 11
1111.614186521806
 21
-134.5620284009599
 31
0.0
  0
LINE
  5
1C0AD
330
1F
100
AcDbEntity
  8
0
  6
Continuous
 62
     7
100
AcDbLine
 10
730.6141865218059
 20
-134.5620284009599
 30
0.0
 11
730.6141865218059
 21
-407.5620284009596
 31
0.0
  0
LINE
  5
1C0AE
330
1F
100
AcDbEntity
  8
AM_2
100
AcDbLine
 10
750.6141865218059
 20
-134.5620284009599
 30
0.0
 11
750.6141865218059
 21
-206.5620284009599
 31
0.0
  0
LINE
  5
1C0AF
330
1F
100
AcDbEntity
  8
AM_2
100
AcDbLine
 10
730.6141865218059
 20
-142.5620284009599
 30
0.0
 11
845.6141865218057
 21
-142.5620284009599
 31
0.0
  0
LINE
  5
1C0B0
330
1F
100
AcDbEntity
  8
AM_2
100
AcDbLine
 10
730.6141865218059
 20
-150.5620284009599
 30
0.0
 11
845.6141865218057
 21
-150.5620284009599
 31
0.0
  0
LINE
  5
1C0B1
330
1F
100
AcDbEntity
  8
AM_2
100
AcDbLine
 10
730.6141865218059
 20
-158.5620284009599
 30
0.0
 11
845.6141865218057
 21
-158.5620284009599
 31
0.0
  0
LINE
  5
1C0B2
330
1F
100
AcDbEntity
  8
AM_2
100
AcDbLine
 10
730.6141865218059
 20
-166.5620284009599
 30
0.0
 11
845.6141865218057
 21
-166.5620284009599
 31
0.0
  0
LINE
  5
1C0B3
330
1F
100
AcDbEntity
  8
AM_2
100
AcDbLine
 10
750.6141865218059
 20
-182.5620284009599
 30
0.0
 11
845.6141865218057
 21
-182.5620284009599
 31
0.0
  0
LINE
  5
1C0B5
330
1F
100
AcDbEntity
  8
AM_2
100
AcDbLine
 10
730.6141865218059
 20
-190.5620284009598
 30
0.0
 11
845.6141865218057
 21
-190.5620284009598
 31
0.0
  0
LINE
  5
1C0B6
330
1F
100
AcDbEntity
  8
AM_2
100
AcDbLine
 10
750.6141865218059
 20
-198.5620284009599
 30
0.0
 11
845.6141865218057
 21
-198.5620284009599
 31
0.0
  0
LINE
  5
1C0B8
330
1F
100
AcDbEntity
  8
AM_0
100
AcDbLine
 10
730.6141865218059
 20
-206.5620284009599
 30
0.0
 11
845.6141865218057
 21
-206.5620284009599
 31
0.0
  0
LINE
  5
1C0BB
330
1F
100
AcDbEntity
  8
AM_0
100
AcDbLine
 10
845.6141865218057
 20
-134.5620284009599
 30
0.0
 11
845.6141865218057
 21
-206.5620284009599
 31
0.0
  0
LINE
  5
1C0BC
330
1F
100
AcDbEntity
  8
AM_2
100
AcDbLine
 10
730.6141865218059
 20
-174.5620284009599
 30
0.0
 11
845.6141865218057
 21
-174.5620284009599
 31
0.0
  0
LINE
  5
1C0BD
330
1F
100
AcDbEntity
  8
AM_2
100
AcDbLine
 10
750.6141865218059
 20
-182.5620284009599
 30
0.0
 11
845.6141865218057
 21
-182.5620284009599
 31
0.0
  0
TEXT
  5
1C0FB
330
1F
100
AcDbEntity
  8
0
  6
Continuous
 62
     7
100
AcDbText
 10
753.4711865218057
 20
-204.1620284009599
 30
0.0
 40
3.2
  1
 
 41
0.8444834799999998
100
AcDbText
  0
TEXT
  5
1C0FC
330
1F
100
AcDbEntity
  8
AM_6
100
AcDbText
 10
736.2711865218059
 20
-140.1620284009599
 30
0.0
 40
3.2
  1
品　名
 41
0.85537027
100
AcDbText
  0
TEXT
  5
1C0FD
330
1F
100
AcDbEntity
  8
AM_6
100
AcDbText
 10
736.2711865218059
 20
-148.1620284009599
 30
0.0
 40
3.2
  1
品　番
 41
0.85537027
100
AcDbText
  0
TEXT
  5
1C100
330
1F
100
AcDbEntity
  8
AM_6
100
AcDbText
 10
736.2711865218059
 20
-156.1620284009599
 30
0.0
 40
3.2
  1
材　質
 41
0.85537027
100
AcDbText
  0
TEXT
  5
1C101
330
1F
100
AcDbEntity
  8
AM_6
100
AcDbText
 10
736.2711865218059
 20
-164.1620284009599
 30
0.0
 40
3.2
  1
仕上げ
 41
0.85537027
100
AcDbText
  0
TEXT
  5
1C104
330
1F
100
AcDbEntity
  8
AM_6
100
AcDbText
 10
733.0711865218058
 20
-180.1620284009599
 30
0.0
 40
3.2
  1
セットビス
 41
0.84892707
100
AcDbText
  0
TEXT
  5
1C106
330
1F
100
AcDbEntity
  8
AM_6
100
AcDbText
 10
737.8711865218057
 20
-196.1620284009599
 30
0.0
 40
3.2
  1
備考
 41
0.8643907499999999
100
AcDbText
  0
TEXT
  5
1C107
330
1F
100
AcDbEntity
  8
AM_6
100
AcDbText
 10
734.6711865218057
 20
-172.1620284009599
 30
0.0
 40
3.2
  1
左右勝手
 41
0.8512700499999999
100
AcDbText
  0
LINE
  5
1D27D
330
1F
100
AcDbEntity
  8
AM_2
100
AcDbLine
 10
987.7918923721907
 20
-196.7806658987258
 30
0.0
 11
868.1425573525064
 21
-196.7806658987258
 31
0.0
  0
LINE
  5
1D27E
330
1F
100
AcDbEntity
  8
AM_2
100
AcDbLine
 10
868.1425573525064
 20
-188.8686819145268
 30
0.0
 11
987.7918923721907
 21
-188.8686819145268
 31
0.0
  0
LWPOLYLINE
  5
1D27F
330
1F
100
AcDbEntity
  8
AM_0
 48
1.01
100
AcDbPolyline
 90
        4
 70
     1
 43
0.0
 10
868.1425573525064
 20
-180.9566979303279
 10
987.7918923721907
 20
-180.9566979303279
 10
987.7918923721907
 20
-204.6926498829248
 10
868.1425573525064
 20
-204.6926498829248
1001
GENIUS_GENREC_14
1002
{
1000
PYDIR
1011
868.1425573525064
1021
-204.6926498829248
1031
0.0
1002
}
1002
{
1000
PXDIR
1011
987.7918923721907
1021
-180.9566979303279
1031
0.0
1002
}
1002
{
1000
PORI
1011
868.1425573525064
1021
-180.9566979303279
1031
0.0
1002
}
1002
{
1000
PINS
1011
868.1425573525064
1021
-180.9566979303279
1031
0.0
1002
}
1002
{
1000
PINS2
1011
987.7918923721907
1021
-204.6926498829248
1031
0.0
1002
}
1002
{
1000
C
1070
     1
1002
}
1001
GENIUS_GENOBJ-N-REC_13
1002
{
1000
OWNER
1000
GEN
1002
}
1001
GENIUS_GENODEF_13
1002
{
1000
HIER
1070
     0
1002
}
1002
{
1000
MANEDIT
1070
     0
1002
}
1002
{
1000
NOSEL
1070
     0
1002
}
1002
{
1000
BEHIND
1070
     0
1002
}
1002
{
1000
OTHER
1070
     0
1002
}
1002
{
1000
REACTOR
1002
}
  0
MTEXT
  5
1D280
330
1F
100
AcDbEntity
  8
AM_6
 48
1.01
100
AcDbMText
 10
899.1276336912195
 20
-182.3894765564935
 30
0.0
 40
5.0
 41
36.54413778435424
 71
     1
 72
     5
  1
35
 73
     1
 44
1.0
1001
ACAD
1000
MTEXTBEGIN
1070
    73
1070
     1
1070
    44
1040
1.0
1070
    74
1070
     0
1000
MTEXTEND
  0
MTEXT
  5
1D281
330
1F
100
AcDbEntity
  8
AM_6
 48
1.01
100
AcDbMText
 10
897.5297557881484
 20
-190.3014605406924
 30
0.0
 40
5.0
 41
36.54413778435424
 71
     1
 72
     5
  1
160
 73
     1
 44
1.0
1001
ACAD
1000
MTEXTBEGIN
1070
    73
1070
     1
1070
    44
1040
1.0
1070
    74
1070
     0
1000
MTEXTEND
  0
MTEXT
  5
1D282
330
1F
100
AcDbEntity
  8
AM_6
 48
1.01
100
AcDbMText
 10
897.5297557881484
 20
-198.2134445248914
 30
0.0
 40
5.0
 41
36.54413778435424
 71
     1
 72
     5
  1
490
 73
     1
 44
1.0
1001
ACAD
1000
MTEXTBEGIN
1070
    73
1070
     1
1070
    44
1040
1.0
1070
    74
1070
     0
1000
MTEXTEND
  0
DIMENSION
  5
1D283
330
1F
100
AcDbEntity
  8
AM_5
 48
1.01
100
AcDbDimension
  2
*D22
 10
1048.902111839066
 20
-328.8138242733804
 30
0.0
 11
911.7339379020902
 21
-328.8138242733804
 31
0.0
 70
   160
  1
C
 71
     5
 42
284.564452543574
  3
SYS$0
100
AcDbAlignedDimension
 13
764.3376592954918
 23
-271.4066309179551
 33
0.0
 14
1048.902111839066
 24
-302.9066309179551
 34
0.0
100
AcDbRotatedDimension
  0
DIMENSION
  5
1D284
330
1F
100
AcDbEntity
  8
AM_5
 48
1.01
100
AcDbDimension
  2
*D23
 10
1048.902111839066
 20
-319.4782453414283
 30
0.0
 11
943.6521118390659
 21
-316.0734834366664
 31
0.0
 70
    32
  1
MIN317,  MAX550
 71
     5
 42
210.4999999999999
  3
SYS$0
100
AcDbAlignedDimension
 13
838.4021118390661
 23
-306.2540121180749
 33
0.0
 14
1048.902111839066
 24
-302.9066309179551
 34
0.0
100
AcDbRotatedDimension
  0
DIMENSION
  5
1D285
330
1F
100
AcDbEntity
  8
AM_5
 48
1.01
100
AcDbDimension
  2
*D24
 10
1101.902111839066
 20
-341.4640891936298
 30
0.0
 11
1098.802111839066
 21
-359.4890891936291
 31
0.0
 70
    32
  1
36
 71
     5
 42
36.049999999999
  3
SYS$0
100
AcDbAlignedDimension
 13
1070.902111839066
 23
-377.5140891936288
 33
0.0
 14
871.4021118390666
 24
-341.4640891936298
 34
0.0
 50
90.0
100
AcDbRotatedDimension
  0
LINE
  5
1D286
330
1F
100
AcDbEntity
  8
AM_11
100
AcDbLine
 10
1091.830961397118
 20
-271.4066309179551
 30
0.0
 11
766.284638260628
 21
-271.4066309179551
 31
0.0
1001
GENIUS_GENREC_14
1002
{
1000
PYDIR
1011
766.284638260628
1021
-271.4066309179551
1031
0.0
1002
}
1002
{
1000
PXDIR
1011
1091.830961397118
1021
-232.975331402019
1031
0.0
1002
}
1002
{
1000
PORI
1011
766.284638260628
1021
-232.975331402019
1031
0.0
1002
}
1002
{
1000
PINS
1011
766.284638260628
1021
-232.975331402019
1031
0.0
1002
}
1002
{
1000
PINS2
1011
1091.830961397118
1021
-271.4066309179551
1031
0.0
1002
}
1002
{
1000
C
1070
     1
1002
}
1001
GENIUS_GENOBJ-N-REC_13
1002
{
1000
OWNER
1000
GEN
1002
}
1001
GENIUS_GENODEF_13
1002
{
1000
HIER
1070
     0
1002
}
1002
{
1000
MANEDIT
1070
     0
1002
}
1002
{
1000
NOSEL
1070
     0
1002
}
1002
{
1000
BEHIND
1070
     0
1002
}
1002
{
1000
OTHER
1070
     0
1002
}
1002
{
1000
REACTOR
1002
}
  0
LINE
  5
1D287
330
1F
100
AcDbEntity
  8
AM_11
100
AcDbLine
 10
766.284638260628
 20
-232.975331402019
 30
0.0
 11
1091.830961397118
 21
-232.975331402019
 31
0.0
1001
GENIUS_GENREC_14
1002
{
1000
PYDIR
1011
766.284638260628
1021
-271.4066309179551
1031
0.0
1002
}
1002
{
1000
PXDIR
1011
1091.830961397118
1021
-232.975331402019
1031
0.0
1002
}
1002
{
1000
PORI
1011
766.284638260628
1021
-232.975331402019
1031
0.0
1002
}
1002
{
1000
PINS
1011
766.284638260628
1021
-232.975331402019
1031
0.0
1002
}
1002
{
1000
PINS2
1011
1091.830961397118
1021
-271.4066309179551
1031
0.0
1002
}
1002
{
1000
C
1070
     1
1002
}
1001
GENIUS_GENOBJ-N-REC_13
1002
{
1000
OWNER
1000
GEN
1002
}
1001
GENIUS_GENODEF_13
1002
{
1000
HIER
1070
     0
1002
}
1002
{
1000
MANEDIT
1070
     0
1002
}
1002
{
1000
NOSEL
1070
     0
1002
}
1002
{
1000
BEHIND
1070
     0
1002
}
1002
{
1000
OTHER
1070
     0
1002
}
1002
{
1000
REACTOR
1002
}
  0
LINE
  5
1D288
330
1F
100
AcDbEntity
  8
AM_7
100
AcDbLine
 10
801.4021118390662
 20
-288.4066309179551
 30
0.0
 11
1063.402111839066
 21
-288.4066309179551
 31
0.0
1001
GENIUS_GENODEF_13
1002
{
1000
HIER
1070
     0
1002
}
1002
{
1000
MANEDIT
1070
     0
1002
}
1002
{
1000
NOSEL
1070
     0
1002
}
1002
{
1000
BEHIND
1070
     0
1002
}
1002
{
1000
OTHER
1070
     0
1002
}
1002
{
1000
REACTOR
1002
}
1001
GENIUS_GENOBJ-N-CEN_13
1002
{
1000
OWNER
1000
GEN
1002
}
  0
LINE
  5
1D289
330
1F
100
AcDbEntity
  8
AM_2
100
AcDbLine
 10
894.2507768712676
 20
-180.9566979303279
 30
0.0
 11
894.2507768712676
 21
-204.6926498829248
 31
0.0
  0
LINE
  5
1D28A
330
1F
100
AcDbEntity
  8
AM_0
100
AcDbLine
 10
878.6605909544475
 20
-180.9566979303279
 30
0.0
 11
878.6605909544475
 21
-204.6926498829248
 31
0.0
  0
MTEXT
  5
1D28B
330
1F
100
AcDbEntity
  8
AM_6
 48
1.01
100
AcDbMText
 10
881.6899019255654
 20
-198.2134445248914
 30
0.0
 40
5.0
 41
36.54413778435424
 71
     1
 72
     5
  1
495
 73
     1
 44
1.0
1001
ACAD
1000
MTEXTBEGIN
1070
    73
1070
     1
1070
    44
1040
1.0
1070
    74
1070
     0
1000
MTEXTEND
  0
MTEXT
  5
1D28C
330
1F
100
AcDbEntity
  8
AM_6
 48
1.01
100
AcDbMText
 10
881.6899019255654
 20
-190.3014605406924
 30
0.0
 40
5.0
 41
36.54413778435424
 71
     1
 72
     5
  1
160
 73
     1
 44
1.0
1001
ACAD
1000
MTEXTBEGIN
1070
    73
1070
     1
1070
    44
1040
1.0
1070
    74
1070
     0
1000
MTEXTEND
  0
MTEXT
  5
1D28D
330
1F
100
AcDbEntity
  8
AM_6
 48
1.01
100
AcDbMText
 10
871.9406692954564
 20
-198.2134445248914
 30
0.0
 40
5.0
 41
36.54413778435424
 71
     1
 72
     5
  1
C
 73
     1
 44
1.0
1001
ACAD
1000
MTEXTBEGIN
1070
    73
1070
     1
1070
    44
1040
1.0
1070
    74
1070
     0
1000
MTEXTEND
  0
MTEXT
  5
1D28E
330
1F
100
AcDbEntity
  8
AM_6
 48
1.01
100
AcDbMText
 10
871.9406692954564
 20
-190.3014605406924
 30
0.0
 40
5.0
 41
36.54413778435424
 71
     1
 72
     5
  1
B
 73
     1
 44
1.0
1001
ACAD
1000
MTEXTBEGIN
1070
    73
1070
     1
1070
    44
1040
1.0
1070
    74
1070
     0
1000
MTEXTEND
  0
MTEXT
  5
1D28F
330
1F
100
AcDbEntity
  8
AM_6
 48
1.01
100
AcDbMText
 10
883.7871157201615
 20
-182.3894765564935
 30
0.0
 40
5.0
 41
36.54413778435424
 71
     1
 72
     5
  1
30
 73
     1
 44
1.0
1001
ACAD
1000
MTEXTBEGIN
1070
    73
1070
     1
1070
    44
1040
1.0
1070
    74
1070
     0
1000
MTEXTEND
  0
MTEXT
  5
1D290
330
1F
100
AcDbEntity
  8
AM_6
 48
1.01
100
AcDbMText
 10
871.9406692954564
 20
-182.3894765564935
 30
0.0
 40
5.0
 41
36.54413778435424
 71
     1
 72
     5
  1
A
 73
     1
 44
1.0
1001
ACAD
1000
MTEXTBEGIN
1070
    73
1070
     1
1070
    44
1040
1.0
1070
    74
1070
     0
1000
MTEXTEND
  0
MTEXT
  5
1D291
102
{ACAD_REACTORS
330
1D292
102
}
330
1F
100
AcDbEntity
  8
AM_5
 62
     2
 48
1.01
100
AcDbMText
 10
796.126860883574
 20
-308.5917802188368
 30
0.0
 40
3.2
 41
0.0
 71
     9
 72
     1
  1
2-%%C5×%%C8.5サラ
 73
     1
 44
1.0
1001
ACAD
1000
MTEXTBEGIN
1070
    73
1070
     1
1070
    44
1040
1.0
1070
    74
1070
     0
1000
MTEXTEND
  0
LEADER
  5
1D292
330
1F
100
AcDbEntity
  8
AM_5
 48
1.01
100
AcDbLeader
  3
SYS$7
 73
     0
 75
     1
 40
3.200000000000002
 41
23.27466666666665
 76
     3
 10
810.9021118390661
 20
-288.4066309179551
 30
0.0
 10
799.626860883574
 20
-310.0917802188368
 30
0.0
 10
797.6268608835741
 20
-310.0917802188368
 30
0.0
340
1D291
1001
ACAD
1000
DSTYLE
1002
{
1070
   147
1040
1.5
1070
    77
1070
     1
1002
}
  0
DIMENSION
  5
1D293
330
1F
100
AcDbEntity
  8
AM_5
 48
1.01
100
AcDbDimension
  2
*D25
 10
838.4021118390661
 20
-319.4782453414285
 30
0.0
 11
801.3698855672791
 21
-316.3782453414285
 31
0.0
 70
    32
  1
B
 71
     5
 42
74.06445254357412
  3
SYS$0
100
AcDbAlignedDimension
 13
764.3376592954918
 23
-271.4066309179551
 33
0.0
 14
838.4021118390661
 24
-306.2540121180749
 34
0.0
100
AcDbRotatedDimension
  0
DIMENSION
  5
1D294
330
1F
100
AcDbEntity
  8
AM_5
 48
1.01
100
AcDbDimension
  2
*D26
 10
746.6297667664409
 20
-271.4066309179551
 30
0.0
 11
743.5297667664408
 21
-246.406630917955
 31
0.0
 70
    32
  1
A
 71
     5
 42
50.0
  3
SYS$0
100
AcDbAlignedDimension
 13
755.4225277206086
 23
-221.4066309179551
 33
0.0
 14
762.3906803303554
 24
-271.4066309179551
 34
0.0
 50
90.0
100
AcDbRotatedDimension
  0
LWPOLYLINE
  5
1D295
330
1F
100
AcDbEntity
  8
AM_11
 48
1.01
100
AcDbPolyline
 90
        4
 70
     1
 43
0.0
 10
764.3376592954918
 20
-271.4066309179551
 10
766.284638260628
 20
-271.4066309179551
 10
766.2846382606284
 20
-225.9196998635542
 10
764.3376592954922
 20
-225.9196998635542
1001
GENIUS_GENREC_14
1002
{
1000
PYDIR
1011
764.3376592954922
1021
-225.9196998635542
1031
0.0
1002
}
1002
{
1000
PXDIR
1011
766.284638260628
1021
-271.4066309179551
1031
0.0
1002
}
1002
{
1000
PORI
1011
764.3376592954918
1021
-271.4066309179551
1031
0.0
1002
}
1002
{
1000
PINS
1011
764.3376592954918
1021
-271.4066309179551
1031
0.0
1002
}
1002
{
1000
PINS2
1011
766.2846382606284
1021
-225.9196998635542
1031
0.0
1002
}
1002
{
1000
C
1070
     1
1002
}
1001
GENIUS_GENOBJ-N-REC_13
1002
{
1000
OWNER
1000
GEN
1002
}
1001
GENIUS_GENODEF_13
1002
{
1000
HIER
1070
     0
1002
}
1002
{
1000
MANEDIT
1070
     0
1002
}
1002
{
1000
NOSEL
1070
     0
1002
}
1002
{
1000
BEHIND
1070
     0
1002
}
1002
{
1000
OTHER
1070
     0
1002
}
1002
{
1000
REACTOR
1002
}
  0
LWPOLYLINE
  5
1D296
330
1F
100
AcDbEntity
  8
AM_11
 48
1.01
100
AcDbPolyline
 90
        4
 70
     1
 43
0.0
 10
762.3906803303555
 20
-225.9196998635542
 10
764.3376592954922
 20
-225.9196998635542
 10
764.3376592954918
 20
-271.4066309179551
 10
762.3906803303554
 20
-271.4066309179551
1001
GENIUS_GENREC_14
1002
{
1000
PYDIR
1011
762.3906803303554
1021
-271.4066309179551
1031
0.0
1002
}
1002
{
1000
PXDIR
1011
764.3376592954922
1021
-225.9196998635542
1031
0.0
1002
}
1002
{
1000
PORI
1011
762.3906803303555
1021
-225.9196998635542
1031
0.0
1002
}
1002
{
1000
PINS
1011
762.3906803303555
1021
-225.9196998635542
1031
0.0
1002
}
1002
{
1000
PINS2
1011
764.3376592954918
1021
-271.4066309179551
1031
0.0
1002
}
1002
{
1000
C
1070
     1
1002
}
1001
GENIUS_GENODEF_13
1002
{
1000
HIER
1070
     0
1002
}
1002
{
1000
MANEDIT
1070
     0
1002
}
1002
{
1000
NOSEL
1070
     0
1002
}
1002
{
1000
BEHIND
1070
     0
1002
}
1002
{
1000
OTHER
1070
     0
1002
}
1002
{
1000
REACTOR
1002
}
1001
GENIUS_GENOBJ-N-REC_13
1002
{
1000
OWNER
1000
GEN
1002
}
  0
LINE
  5
1D297
330
1F
100
AcDbEntity
  8
AM_7
 48
0.8915131574883389
100
AcDbLine
 10
755.4225277206086
 20
-221.4066309179551
 30
0.0
 11
773.2527908703754
 21
-221.4066309179551
 31
0.0
1001
GENIUS_GENODEF_13
1002
{
1000
HIER
1070
     0
1002
}
1002
{
1000
MANEDIT
1070
     0
1002
}
1002
{
1000
NOSEL
1070
     0
1002
}
1002
{
1000
BEHIND
1070
     0
1002
}
1002
{
1000
OTHER
1070
     0
1002
}
1002
{
1000
REACTOR
1002
}
1001
GENIUS_GENOBJ-N-CEN_13
1002
{
1000
OWNER
1000
GEN
1002
}
  0
CIRCLE
  5
1D298
330
1F
100
AcDbEntity
  8
AM_11
 48
0.4915131574883276
100
AcDbCircle
 10
764.3376592954922
 20
-221.4066309179551
 30
0.0
 40
4.915131574883275
  0
LINE
  5
1D299
330
1F
100
AcDbEntity
  8
AM_7
 48
0.8915131574883275
100
AcDbLine
 10
764.3376592954922
 20
-212.4914993430718
 30
0.0
 11
764.3376592954922
 21
-230.3217624928384
 31
0.0
1001
GENIUS_GENODEF_13
1002
{
1000
HIER
1070
     0
1002
}
1002
{
1000
MANEDIT
1070
     0
1002
}
1002
{
1000
NOSEL
1070
     0
1002
}
1002
{
1000
BEHIND
1070
     0
1002
}
1002
{
1000
OTHER
1070
     0
1002
}
1002
{
1000
REACTOR
1002
}
1001
GENIUS_GENOBJ-N-CEN_13
1002
{
1000
OWNER
1000
GEN
1002
}
  0
MTEXT
  5
1D29A
330
1F
100
AcDbEntity
  8
AM_6
 48
1.01
100
AcDbMText
 10
905.7383180250315
 20
-243.8978009488043
 30
0.0
 40
16.0
 41
27.14637340405352
 71
     1
 72
     5
  1
扉
 73
     1
 44
1.0
1001
ACAD
1000
MTEXTBEGIN
1070
    73
1070
     1
1070
    44
1040
1.0
1070
    74
1070
     0
1000
MTEXTEND
  0
LINE
  5
1D29B
330
1F
100
AcDbEntity
  8
AM_7
100
AcDbLine
 10
838.4021118390661
 20
-270.5592497178354
 30
0.0
 11
838.4021118390661
 21
-306.2540121180749
 31
0.0
1001
GENIUS_GENODEF_13
1002
{
1000
HIER
1070
     0
1002
}
1002
{
1000
MANEDIT
1070
     0
1002
}
1002
{
1000
NOSEL
1070
     0
1002
}
1002
{
1000
BEHIND
1070
     0
1002
}
1002
{
1000
OTHER
1070
     0
1002
}
1002
{
1000
REACTOR
1002
}
1001
GENIUS_GENOBJ-N-CEN_13
1002
{
1000
OWNER
1000
GEN
1002
}
  0
LINE
  5
1D29C
330
1F
100
AcDbEntity
  8
AM_2
100
AcDbLine
 10
972.2017064553703
 20
-180.9566979303279
 30
0.0
 11
972.2017064553703
 21
-204.6926498829248
 31
0.0
  0
LINE
  5
1D29D
330
1F
100
AcDbEntity
  8
AM_2
100
AcDbLine
 10
956.6115205385498
 20
-180.9566979303279
 30
0.0
 11
956.6115205385498
 21
-204.6926498829248
 31
0.0
  0
LINE
  5
1D29E
330
1F
100
AcDbEntity
  8
AM_2
100
AcDbLine
 10
941.0213346217295
 20
-180.9566979303279
 30
0.0
 11
941.0213346217295
 21
-204.6926498829248
 31
0.0
  0
LINE
  5
1D29F
330
1F
100
AcDbEntity
  8
AM_2
100
AcDbLine
 10
925.4311487049088
 20
-180.9566979303279
 30
0.0
 11
925.4311487049088
 21
-204.6926498829248
 31
0.0
  0
LINE
  5
1D2A0
330
1F
100
AcDbEntity
  8
AM_2
100
AcDbLine
 10
909.8409627880887
 20
-180.9566979303279
 30
0.0
 11
909.8409627880887
 21
-204.6926498829248
 31
0.0
  0
MTEXT
  5
1D2A1
330
1F
100
AcDbEntity
  8
AM_6
 48
1.01
100
AcDbMText
 10
960.3176650239891
 20
-190.3014605406924
 30
0.0
 40
5.0
 41
36.54413778435424
 71
     1
 72
     5
  1
145
 73
     1
 44
1.0
1001
ACAD
1000
MTEXTBEGIN
1070
    73
1070
     1
1070
    44
1040
1.0
1070
    74
1070
     0
1000
MTEXTEND
  0
MTEXT
  5
1D2A2
330
1F
100
AcDbEntity
  8
AM_6
 48
1.01
100
AcDbMText
 10
960.3176650239891
 20
-198.2134445248914
 30
0.0
 40
5.0
 41
36.54413778435424
 71
     1
 72
     5
  1
475
 73
     1
 44
1.0
1001
ACAD
1000
MTEXTBEGIN
1070
    73
1070
     1
1070
    44
1040
1.0
1070
    74
1070
     0
1000
MTEXTEND
  0
MTEXT
  5
1D2A3
330
1F
100
AcDbEntity
  8
AM_6
 48
1.01
100
AcDbMText
 10
929.3291114660418
 20
-190.3014605406924
 30
0.0
 40
5.0
 41
36.54413778435424
 71
     1
 72
     5
  1
160
 73
     1
 44
1.0
1001
ACAD
1000
MTEXTBEGIN
1070
    73
1070
     1
1070
    44
1040
1.0
1070
    74
1070
     0
1000
MTEXTEND
  0
MTEXT
  5
1D2A4
330
1F
100
AcDbEntity
  8
AM_6
 48
1.01
100
AcDbMText
 10
929.3291114660418
 20
-198.2134445248914
 30
0.0
 40
5.0
 41
36.54413778435424
 71
     1
 72
     5
  1
480
 73
     1
 44
1.0
1001
ACAD
1000
MTEXTBEGIN
1070
    73
1070
     1
1070
    44
1040
1.0
1070
    74
1070
     0
1000
MTEXTEND
  0
MTEXT
  5
1D2A5
330
1F
100
AcDbEntity
  8
AM_6
 48
1.01
100
AcDbMText
 10
913.5194115273492
 20
-190.3014605406924
 30
0.0
 40
5.0
 41
36.54413778435424
 71
     1
 72
     5
  1
160
 73
     1
 44
1.0
1001
ACAD
1000
MTEXTBEGIN
1070
    73
1070
     1
1070
    44
1040
1.0
1070
    74
1070
     0
1000
MTEXTEND
  0
MTEXT
  5
1D2A6
330
1F
100
AcDbEntity
  8
AM_6
 48
1.01
100
AcDbMText
 10
913.5194115273492
 20
-198.2134445248914
 30
0.0
 40
5.0
 41
36.54413778435424
 71
     1
 72
     5
  1
485
 73
     1
 44
1.0
1001
ACAD
1000
MTEXTBEGIN
1070
    73
1070
     1
1070
    44
1040
1.0
1070
    74
1070
     0
1000
MTEXTEND
  0
MTEXT
  5
1D2A7
330
1F
100
AcDbEntity
  8
AM_6
 48
1.01
100
AcDbMText
 10
944.7936017306536
 20
-190.3014605406924
 30
0.0
 40
5.0
 41
36.54413778435424
 71
     1
 72
     5
  1
150
 73
     1
 44
1.0
1001
ACAD
1000
MTEXTBEGIN
1070
    73
1070
     1
1070
    44
1040
1.0
1070
    74
1070
     0
1000
MTEXTEND
  0
MTEXT
  5
1D2A8
330
1F
100
AcDbEntity
  8
AM_6
 48
1.01
100
AcDbMText
 10
944.7936017306536
 20
-198.2134445248914
 30
0.0
 40
5.0
 41
36.54413778435424
 71
     1
 72
     5
  1
475
 73
     1
 44
1.0
1001
ACAD
1000
MTEXTBEGIN
1070
    73
1070
     1
1070
    44
1040
1.0
1070
    74
1070
     0
1000
MTEXTEND
  0
MTEXT
  5
1D2A9
330
1F
100
AcDbEntity
  8
AM_6
 48
1.01
100
AcDbMText
 10
975.5617775077242
 20
-198.2134445248914
 30
0.0
 40
5.0
 41
36.54413778435424
 71
     1
 72
     5
  1
470
 73
     1
 44
1.0
1001
ACAD
1000
MTEXTBEGIN
1070
    73
1070
     1
1070
    44
1040
1.0
1070
    74
1070
     0
1000
MTEXTEND
  0
MTEXT
  5
1D2AA
330
1F
100
AcDbEntity
  8
AM_6
 48
1.01
100
AcDbMText
 10
975.5617775077242
 20
-190.3014605406924
 30
0.0
 40
5.0
 41
36.54413778435424
 71
     1
 72
     5
  1
145
 73
     1
 44
1.0
1001
ACAD
1000
MTEXTBEGIN
1070
    73
1070
     1
1070
    44
1040
1.0
1070
    74
1070
     0
1000
MTEXTEND
  0
MTEXT
  5
1D2AB
330
1F
100
AcDbEntity
  8
AM_6
 48
1.01
100
AcDbMText
 10
930.8374648383523
 20
-182.3894765564935
 30
0.0
 40
5.0
 41
36.54413778435424
 71
     1
 72
     5
  1
45
 73
     1
 44
1.0
1001
ACAD
1000
MTEXTBEGIN
1070
    73
1070
     1
1070
    44
1040
1.0
1070
    74
1070
     0
1000
MTEXTEND
  0
MTEXT
  5
1D2AC
330
1F
100
AcDbEntity
  8
AM_6
 48
1.01
100
AcDbMText
 10
915.0673550093973
 20
-182.3894765564935
 30
0.0
 40
5.0
 41
36.54413778435424
 71
     1
 72
     5
  1
40
 73
     1
 44
1.0
1001
ACAD
1000
MTEXTBEGIN
1070
    73
1070
     1
1070
    44
1040
1.0
1070
    74
1070
     0
1000
MTEXTEND
  0
MTEXT
  5
1D2AD
330
1F
100
AcDbEntity
  8
AM_6
 48
1.01
100
AcDbMText
 10
946.0505624120946
 20
-182.3894765564935
 30
0.0
 40
5.0
 41
36.54413778435424
 71
     1
 72
     5
  1
50
 73
     1
 44
1.0
1001
ACAD
1000
MTEXTBEGIN
1070
    73
1070
     1
1070
    44
1040
1.0
1070
    74
1070
     0
1000
MTEXTEND
  0
MTEXT
  5
1D2AE
330
1F
100
AcDbEntity
  8
AM_6
 48
1.01
100
AcDbMText
 10
961.6030812267849
 20
-182.3894765564935
 30
0.0
 40
5.0
 41
36.54413778435424
 71
     1
 72
     5
  1
55
 73
     1
 44
1.0
1001
ACAD
1000
MTEXTBEGIN
1070
    73
1070
     1
1070
    44
1040
1.0
1070
    74
1070
     0
1000
MTEXTEND
  0
MTEXT
  5
1D2AF
330
1F
100
AcDbEntity
  8
AM_6
 48
1.01
100
AcDbMText
 10
977.2427066016032
 20
-182.3894765564935
 30
0.0
 40
5.0
 41
36.54413778435424
 71
     1
 72
     5
  1
60
 73
     1
 44
1.0
1001
ACAD
1000
MTEXTBEGIN
1070
    73
1070
     1
1070
    44
1040
1.0
1070
    74
1070
     0
1000
MTEXTEND
  0
LINE
  5
1D2B0
330
1F
100
AcDbEntity
  8
AM_7
 48
0.825
100
AcDbLine
 10
1065.902111839066
 20
-362.7640891936288
 30
0.0
 11
1065.902111839066
 21
-379.2640891936288
 31
0.0
1001
GENIUS_GENODEF_13
1002
{
1000
HIER
1070
     0
1002
}
1002
{
1000
MANEDIT
1070
     0
1002
}
1002
{
1000
NOSEL
1070
     0
1002
}
1002
{
1000
BEHIND
1070
     0
1002
}
1002
{
1000
OTHER
1070
     0
1002
}
1002
{
1000
REACTOR
1002
}
1001
GENIUS_GENOBJ-N-CEN_13
1002
{
1000
OWNER
1000
GEN
1002
}
  0
LINE
  5
1D2B1
330
1F
100
AcDbEntity
  8
AM_7
 48
0.825
100
AcDbLine
 10
1057.652111839066
 20
-371.0140891936288
 30
0.0
 11
1074.152111839066
 21
-371.0140891936288
 31
0.0
1001
GENIUS_GENODEF_13
1002
{
1000
HIER
1070
     0
1002
}
1002
{
1000
MANEDIT
1070
     0
1002
}
1002
{
1000
NOSEL
1070
     0
1002
}
1002
{
1000
BEHIND
1070
     0
1002
}
1002
{
1000
OTHER
1070
     0
1002
}
1002
{
1000
REACTOR
1002
}
1001
GENIUS_GENOBJ-N-CEN_13
1002
{
1000
OWNER
1000
GEN
1002
}
  0
LINE
  5
1D2B2
330
1F
100
AcDbEntity
  8
AM_11
100
AcDbLine
 10
1091.830961397118
 20
-232.975331402019
 30
0.0
 11
1091.830961397118
 21
-271.4066309179551
 31
0.0
1001
GENIUS_GENREC_14
1002
{
1000
PYDIR
1011
757.4664634057555
1021
-271.4066309179551
1031
0.0
1002
}
1002
{
1000
PXDIR
1011
1091.830961397118
1021
-232.975331402019
1031
0.0
1002
}
1002
{
1000
PORI
1011
757.4664634057555
1021
-232.975331402019
1031
0.0
1002
}
1002
{
1000
PINS
1011
757.4664634057555
1021
-232.975331402019
1031
0.0
1002
}
1002
{
1000
PINS2
1011
1091.830961397118
1021
-271.4066309179551
1031
0.0
1002
}
1002
{
1000
C
1070
     1
1002
}
1001
GENIUS_GENOBJ-N-REC_13
1002
{
1000
OWNER
1000
GEN
1002
}
1001
GENIUS_GENODEF_13
1002
{
1000
HIER
1070
     0
1002
}
1002
{
1000
MANEDIT
1070
     0
1002
}
1002
{
1000
NOSEL
1070
     0
1002
}
1002
{
1000
BEHIND
1070
     0
1002
}
1002
{
1000
OTHER
1070
     0
1002
}
1002
{
1000
REACTOR
1002
}
  0
LINE
  5
1D2B3
330
1F
100
AcDbEntity
  8
AM_7
100
AcDbLine
 10
1048.902111839066
 20
-267.4066309179551
 30
0.0
 11
1048.902111839066
 21
-302.9066309179551
 31
0.0
1001
GENIUS_GENOBJ-N-CEN_13
1002
{
1000
OWNER
1000
GEN
1002
}
1001
GENIUS_GENODEF_13
1002
{
1000
HIER
1070
     0
1002
}
1002
{
1000
MANEDIT
1070
     0
1002
}
1002
{
1000
NOSEL
1070
     0
1002
}
1002
{
1000
BEHIND
1070
     0
1002
}
1002
{
1000
OTHER
1070
     0
1002
}
1002
{
1000
REACTOR
1002
}
  0
DIMENSION
  5
1D2B4
330
1F
100
AcDbEntity
  8
AM_5
 48
1.01
100
AcDbDimension
  2
*D27
 10
1083.902112839066
 20
-271.4066309179551
 30
0.0
 11
1080.802112839066
 21
-279.9066309179549
 31
0.0
 70
    32
 71
     5
 42
17.0
  3
SYS$0
100
AcDbAlignedDimension
 13
1063.402111839066
 23
-288.4066309179551
 33
0.0
 14
1080.302111839066
 24
-271.4066309179551
 34
0.0
 50
90.0
100
AcDbRotatedDimension
  0
DIMENSION
  5
1D2B5
330
1F
100
AcDbEntity
  8
AM_5
 48
1.01
100
AcDbDimension
  2
*D28
 10
1025.902111839065
 20
-397.0955363242854
 30
0.0
 11
1048.902111839066
 21
-393.9955363242853
 31
0.0
 70
    32
 71
     5
 42
46.0
  3
SYS$0
100
AcDbAlignedDimension
 13
1071.902111839065
 23
-377.5140891936288
 33
0.0
 14
1025.902111839065
 24
-377.5140891936288
 34
0.0
100
AcDbRotatedDimension
1001
ACAD
1000
DSTYLE
1002
{
1070
   271
1070
     2
1002
}
  0
DIMENSION
  5
1D2B6
330
1F
100
AcDbEntity
  8
AM_5
 48
1.01
100
AcDbDimension
  2
*D29
 10
1031.902111839066
 20
-389.7565024656791
 30
0.0
 11
1048.902111839066
 21
-386.6565024656792
 31
0.0
 70
    32
  1
<>
 71
     5
 42
34.0
  3
SYS$0
100
AcDbAlignedDimension
 13
1065.902111839066
 23
-379.2640891936288
 33
0.0
 14
1031.902111839066
 24
-379.2640891936288
 34
0.0
100
AcDbRotatedDimension
1001
ACAD
1000
DSTYLE
1002
{
1070
    47
1040
0.2
1070
    48
1040
0.2
1070
   271
1070
     2
1002
}
  0
DIMENSION
  5
1D2B7
330
1F
100
AcDbEntity
  8
AM_5
 48
1.01
100
AcDbDimension
  2
*D30
 10
1082.975881594076
 20
-360.5140891936288
 30
0.0
 11
1079.875881594076
 21
-365.7640891936286
 31
0.0
 70
    32
 71
     5
 42
10.5
  3
SYS$0
100
AcDbAlignedDimension
 13
1074.152111839066
 23
-371.0140891936288
 33
0.0
 14
1070.90211183907
 24
-360.5140891936288
 34
0.0
 50
90.0
100
AcDbRotatedDimension
1001
ACAD
1000
DSTYLE
1002
{
1070
   271
1070
     2
1002
}
  0
DIMENSION
  5
1D2B8
330
1F
100
AcDbEntity
  8
AM_5
 48
1.01
100
AcDbDimension
  2
*D31
 10
1092.766477120637
 20
-360.5140891936288
 30
0.0
 11
1089.666477120637
 21
-369.0140891936309
 31
0.0
 70
    32
 71
     5
 42
17.00000000000455
  3
SYS$0
100
AcDbAlignedDimension
 13
1071.902111839065
 23
-377.5140891936334
 33
0.0
 14
1070.90211183907
 24
-360.5140891936288
 34
0.0
 50
270.0
100
AcDbRotatedDimension
1001
ACAD
1000
DSTYLE
1002
{
1070
   271
1070
     2
1002
}
  0
INSERT
  5
1D2B9
330
1F
100
AcDbEntity
  8
AM_5
100
AcDbBlockReference
  2
*S4138
 10
0.0
 20
0.0
 30
0.0
  0
DIMENSION
  5
1D2BA
330
1F
100
AcDbEntity
  8
AM_5
 48
1.01
100
AcDbDimension
  2
*D32
 10
797.4021118390667
 20
-341.4640891936298
 30
0.0
 11
794.3021118390668
 21
-337.217422526963
 31
0.0
 70
    32
 71
     5
 42
2.0
  3
SYS$0
100
AcDbAlignedDimension
 13
805.4021118390666
 23
-343.4640891936298
 33
0.0
 14
805.4021118390666
 24
-341.4640891936298
 34
0.0
 50
90.0
100
AcDbRotatedDimension
1001
ACAD
1000
DSTYLE
1002
{
1070
    47
1040
0.2
1070
    48
1040
0.2
1070
   271
1070
     1
1070
   272
1070
     1
1070
   274
1070
     2
1002
}
  0
LINE
  5
1D2BB
330
1F
100
AcDbEntity
  8
AM_7
100
AcDbLine
 10
838.4021118390666
 20
-337.0265891936297
 30
0.0
 11
838.4021118390666
 21
-374.3376884339115
 31
0.0
1001
GENIUS_GENOBJ-N-CEN_13
1002
{
1000
OWNER
1000
GEN
1002
}
1001
GENIUS_GENODEF_13
1002
{
1000
HIER
1070
     0
1002
}
1002
{
1000
MANEDIT
1070
     0
1002
}
1002
{
1000
NOSEL
1070
     0
1002
}
1002
{
1000
BEHIND
1070
     0
1002
}
1002
{
1000
OTHER
1070
     0
1002
}
1002
{
1000
REACTOR
1002
}
  0
LINE
  5
1D2BC
330
1F
100
AcDbEntity
  8
AM_7
100
AcDbLine
 10
920.1821456634057
 20
-364.0640891936298
 30
0.0
 11
823.102111839071
 21
-364.0640891936298
 31
0.0
1001
GENIUS_GENODEF_13
1002
{
1000
HIER
1070
     0
1002
}
1002
{
1000
MANEDIT
1070
     0
1002
}
1002
{
1000
NOSEL
1070
     0
1002
}
1002
{
1000
BEHIND
1070
     0
1002
}
1002
{
1000
OTHER
1070
     0
1002
}
1002
{
1000
REACTOR
1002
}
1001
GENIUS_GENOBJ-N-CEN_13
1002
{
1000
OWNER
1000
GEN
1002
}
1001
GENIUS_GENCEN_19
1002
{
1040
4.0
1002
}
  0
DIMENSION
  5
1D2BD
330
1F
100
AcDbEntity
  8
AM_5
 48
1.01
100
AcDbDimension
  2
*D33
 10
789.4021118390669
 20
-359.4640891936298
 30
0.0
 11
788.8187697664712
 21
-363.7328340118332
 31
0.0
 70
   160
 71
     5
 42
1.000000000000113
  3
SYS$0
100
AcDbAlignedDimension
 13
827.1021118390711
 23
-358.4640891936298
 33
0.0
 14
827.1021118390711
 24
-359.4640891936298
 34
0.0
 50
90.0
100
AcDbRotatedDimension
1001
ACAD
1000
DSTYLE
1002
{
1070
    47
1040
0.2
1070
    48
1040
0.2
1070
   279
1070
     1
1002
}
  0
DIMENSION
  5
1D2BE
330
1F
100
AcDbEntity
  8
AM_5
 48
1.01
100
AcDbDimension
  2
*D34
 10
789.4021118390663
 20
-296.4066309179583
 30
0.0
 11
786.3021118390663
 21
-288.4066309179567
 31
0.0
 70
    32
 71
     5
 42
16.00000000000318
  3
SYS$0
100
AcDbAlignedDimension
 13
806.4021118390661
 23
-280.4066309179551
 33
0.0
 14
806.742490598169
 24
-296.4066309179583
 34
0.0
 50
90.0
100
AcDbRotatedDimension
1001
ACAD
1000
DSTYLE
1002
{
1070
    47
1040
0.2
1070
    48
1040
0.2
1070
   271
1070
     1
1070
   272
1070
     1
1070
   274
1070
     2
1002
}
  0
DIMENSION
  5
1D2BF
330
1F
100
AcDbEntity
  8
AM_5
 48
1.01
100
AcDbDimension
  2
*D35
 10
780.2775972773547
 20
-300.9066309179525
 30
0.0
 11
777.1775972773548
 21
-288.4066309179523
 31
0.0
 70
    32
 71
     5
 42
25.00000000000006
  3
SYS$0
100
AcDbAlignedDimension
 13
833.8105498631987
 23
-275.9066309179524
 33
0.0
 14
833.8105498631653
 24
-300.9066309179525
 34
0.0
 50
90.0
100
AcDbRotatedDimension
1001
ACAD
1000
DSTYLE
1002
{
1070
    47
1040
0.2
1070
    48
1040
0.2
1070
   271
1070
     1
1070
   272
1070
     1
1070
   274
1070
     2
1002
}
  0
DIMENSION
  5
1D2C0
330
1F
100
AcDbEntity
  8
AM_5
 48
1.01
100
AcDbDimension
  2
*D36
 10
789.4021118390669
 20
-358.4640891936298
 30
0.0
 11
786.302111839067
 21
-349.9640891936297
 31
0.0
 70
    32
 71
     5
 42
17.0
  3
SYS$0
100
AcDbAlignedDimension
 13
805.4021118390666
 23
-341.4640891936298
 33
0.0
 14
827.1021118390711
 24
-358.4640891936298
 34
0.0
 50
90.0
100
AcDbRotatedDimension
1001
ACAD
1000
DSTYLE
1002
{
1070
    47
1040
0.2
1070
    48
1040
0.2
1070
   271
1070
     1
1070
   272
1070
     1
1070
   274
1070
     2
1002
}
  0
LINE
  5
1D2C1
330
1F
100
AcDbEntity
  8
AM_10
  6
genzigzag
 48
0.95
100
AcDbLine
 10
920.1821456634057
 20
-373.5640891936299
 30
0.0
 11
920.1821456634057
 21
-354.5640891936299
 31
0.0
  0
LINE
  5
1D2C2
330
1F
100
AcDbEntity
  8
AM_10
  6
genzigzag
100
AcDbLine
 10
920.1821456634053
 20
-305.9066309179536
 30
0.0
 11
920.1821456634053
 21
-271.9066309179536
 31
0.0
  0
LINE
  5
1D2C3
330
1F
100
AcDbEntity
  8
AM_10
  6
genzigzag
 48
0.95
100
AcDbLine
 10
922.1821456634058
 20
-373.5640891936299
 30
0.0
 11
922.1821456634058
 21
-354.5640891936299
 31
0.0
  0
LINE
  5
1D2C4
330
1F
100
AcDbEntity
  8
AM_10
  6
genzigzag
100
AcDbLine
 10
922.1821456634046
 20
-305.9066309179538
 30
0.0
 11
922.1821456634053
 21
-271.9066309179536
 31
0.0
  0
LINE
  5
1D2C5
102
{ACAD_REACTORS
330
1D380
102
}
330
1F
100
AcDbEntity
  8
AM_7
100
AcDbLine
 10
865.9021118390661
 20
-300.4066309179583
 30
0.0
 11
865.9021118390661
 21
-276.4066309179583
 31
0.0
1001
GENIUS_GENOBJ-N-CEN_13
1002
{
1000
OWNER
1000
GEN
1002
}
1001
GENIUS_GENODEF_13
1002
{
1000
HIER
1070
     0
1002
}
1002
{
1000
MANEDIT
1070
     0
1002
}
1002
{
1000
NOSEL
1070
     0
1002
}
1002
{
1000
BEHIND
1070
     0
1002
}
1002
{
1000
OTHER
1070
     0
1002
}
1002
{
1000
REACTOR
1002
}
  0
LINE
  5
1D2C6
102
{ACAD_REACTORS
330
1D380
102
}
330
1F
100
AcDbEntity
  8
AM_7
100
AcDbLine
 10
810.9021118390661
 20
-300.4066309179583
 30
0.0
 11
810.9021118390661
 21
-276.4066309179583
 31
0.0
1001
GENIUS_GENOBJ-N-CEN_13
1002
{
1000
OWNER
1000
GEN
1002
}
1001
GENIUS_GENODEF_13
1002
{
1000
HIER
1070
     0
1002
}
1002
{
1000
MANEDIT
1070
     0
1002
}
1002
{
1000
NOSEL
1070
     0
1002
}
1002
{
1000
BEHIND
1070
     0
1002
}
1002
{
1000
OTHER
1070
     0
1002
}
1002
{
1000
REACTOR
1002
}
  0
LINE
  5
1D2C7
330
1F
100
AcDbEntity
  8
AM_0
100
AcDbLine
 10
833.8105498631987
 20
-275.9066309179555
 30
0.0
 11
920.1821456634053
 21
-275.9066309179563
 31
0.0
  0
LINE
  5
1D2C8
330
1F
100
AcDbEntity
  8
AM_0
100
AcDbLine
 10
920.1821456634053
 20
-300.9066309179561
 30
0.0
 11
833.8105498631987
 21
-300.9066309179555
 31
0.0
  0
ARC
  5
1D2C9
330
1F
100
AcDbEntity
  8
パイプ-AM_0
100
AcDbCircle
 10
842.1021118390704
 20
-288.4066309179665
 30
0.0
 40
15.0
100
AcDbArc
 50
123.5573097618483
 51
147.7690473644612
  0
ARC
  5
1D2CA
330
1F
100
AcDbEntity
  8
パイプ-AM_0
100
AcDbCircle
 10
842.1021118390704
 20
-288.4066309179665
 30
0.0
 40
15.0
100
AcDbArc
 50
212.2309526354656
 51
236.4426902380038
  0
LINE
  5
1D2CB
330
1F
100
AcDbEntity
  8
AM_0
 48
0.15
100
AcDbLine
 10
833.8105498631987
 20
-300.9066309179555
 30
0.0
 11
833.8105498631987
 21
-298.731724555372
 31
0.0
  0
LINE
  5
1D2CC
330
1F
100
AcDbEntity
  8
AM_0
 48
0.15
100
AcDbLine
 10
833.8105498631987
 20
-278.081537280515
 30
0.0
 11
833.8105498631987
 21
-275.9066309179555
 31
0.0
  0
ARC
  5
1D2CD
330
1F
100
AcDbEntity
  8
AM_0
100
AcDbCircle
 10
838.4021118390657
 20
-288.4066309179508
 30
0.0
 40
11.30000000000203
100
AcDbArc
 50
45.06955011778646
 51
134.9304498822135
  0
ARC
  5
1D2CE
330
1F
100
AcDbEntity
  8
AM_0
100
AcDbCircle
 10
838.4021118390657
 20
-288.4066309179508
 30
0.0
 40
11.29999999998873
100
AcDbArc
 50
225.0695501179616
 51
314.930449882036
  0
LINE
  5
1D2CF
330
1F
100
AcDbEntity
  8
AM_0
100
AcDbLine
 10
852.4021118390662
 20
-299.4066309179508
 30
0.0
 11
920.1821456634053
 21
-299.4066309179508
 31
0.0
1001
GENIUS_GENODEF_13
1002
{
1000
HIER
1070
     0
1002
}
1002
{
1000
MANEDIT
1070
     0
1002
}
1002
{
1000
NOSEL
1070
     0
1002
}
1002
{
1000
BEHIND
1070
     0
1002
}
1002
{
1000
OTHER
1070
     0
1002
}
1002
{
1000
REACTOR
1002
}
1001
GENIUS_GENOBJ-N-CEN_13
1002
{
1000
OWNER
1000
GEN
1002
}
  0
ARC
  5
1D2D0
330
1F
100
AcDbEntity
  8
AM_0
100
AcDbCircle
 10
852.4021118390662
 20
-298.4066309179508
 30
0.0
 40
1.0
100
AcDbArc
 50
180.0
 51
270.0
1001
GENIUS_GENOBJ-N-CEN_13
1002
{
1000
OWNER
1000
GEN
1002
}
1001
GENIUS_GENODEF_13
1002
{
1000
HIER
1070
     0
1002
}
1002
{
1000
MANEDIT
1070
     0
1002
}
1002
{
1000
NOSEL
1070
     0
1002
}
1002
{
1000
BEHIND
1070
     0
1002
}
1002
{
1000
OTHER
1070
     0
1002
}
1002
{
1000
REACTOR
1002
}
1001
GENIUS_GENOBJ-N-FIL_13
1002
{
1000
OWNER
1000
GEN
1002
}
  0
LINE
  5
1D2D1
330
1F
100
AcDbEntity
  8
AM_0
100
AcDbLine
 10
856.9021118390661
 20
-297.4066309179508
 30
0.0
 11
920.1821456634053
 21
-297.4066309179508
 31
0.0
1001
GENIUS_GENODEF_13
1002
{
1000
HIER
1070
     0
1002
}
1002
{
1000
MANEDIT
1070
     0
1002
}
1002
{
1000
NOSEL
1070
     0
1002
}
1002
{
1000
BEHIND
1070
     0
1002
}
1002
{
1000
OTHER
1070
     0
1002
}
1002
{
1000
REACTOR
1002
}
1001
GENIUS_GENOBJ-N-CEN_13
1002
{
1000
OWNER
1000
GEN
1002
}
  0
ARC
  5
1D2D2
330
1F
100
AcDbEntity
  8
AM_0
100
AcDbCircle
 10
856.9021118390661
 20
-296.4066309179508
 30
0.0
 40
1.0
100
AcDbArc
 50
180.0
 51
270.0
1001
GENIUS_GENOBJ-N-CEN_13
1002
{
1000
OWNER
1000
GEN
1002
}
1001
GENIUS_GENODEF_13
1002
{
1000
HIER
1070
     0
1002
}
1002
{
1000
MANEDIT
1070
     0
1002
}
1002
{
1000
NOSEL
1070
     0
1002
}
1002
{
1000
BEHIND
1070
     0
1002
}
1002
{
1000
OTHER
1070
     0
1002
}
1002
{
1000
REACTOR
1002
}
1001
GENIUS_GENOBJ-N-FIL_13
1002
{
1000
OWNER
1000
GEN
1002
}
  0
LINE
  5
1D2D3
330
1F
100
AcDbEntity
  8
AM_2
100
AcDbLine
 10
870.4021118390661
 20
-296.4066309179507
 30
0.0
 11
920.1821456634053
 21
-296.4066309179509
 31
0.0
1001
GENIUS_GENODEF_13
1002
{
1000
HIER
1070
     0
1002
}
1002
{
1000
MANEDIT
1070
     0
1002
}
1002
{
1000
NOSEL
1070
     0
1002
}
1002
{
1000
BEHIND
1070
     0
1002
}
1002
{
1000
OTHER
1070
     0
1002
}
1002
{
1000
REACTOR
1002
}
1001
GENIUS_GENOBJ-N-CEN_13
1002
{
1000
OWNER
1000
GEN
1002
}
  0
LINE
  5
1D2D4
330
1F
100
AcDbEntity
  8
AM_0
100
AcDbLine
 10
852.4021118390662
 20
-277.4066309179508
 30
0.0
 11
920.1821456634053
 21
-277.4066309179509
 31
0.0
1001
GENIUS_GENODEF_13
1002
{
1000
HIER
1070
     0
1002
}
1002
{
1000
MANEDIT
1070
     0
1002
}
1002
{
1000
NOSEL
1070
     0
1002
}
1002
{
1000
BEHIND
1070
     0
1002
}
1002
{
1000
OTHER
1070
     0
1002
}
1002
{
1000
REACTOR
1002
}
1001
GENIUS_GENOBJ-N-CEN_13
1002
{
1000
OWNER
1000
GEN
1002
}
  0
ARC
  5
1D2D5
330
1F
100
AcDbEntity
  8
AM_0
100
AcDbCircle
 10
852.4021118390662
 20
-278.4066309179508
 30
0.0
 40
1.0
100
AcDbArc
 50
90.0
 51
180.0
1001
GENIUS_GENOBJ-N-CEN_13
1002
{
1000
OWNER
1000
GEN
1002
}
1001
GENIUS_GENOBJ-N-FIL_13
1002
{
1000
OWNER
1000
GEN
1002
}
1001
GENIUS_GENODEF_13
1002
{
1000
HIER
1070
     0
1002
}
1002
{
1000
MANEDIT
1070
     0
1002
}
1002
{
1000
NOSEL
1070
     0
1002
}
1002
{
1000
BEHIND
1070
     0
1002
}
1002
{
1000
OTHER
1070
     0
1002
}
1002
{
1000
REACTOR
1002
}
  0
LINE
  5
1D2D6
330
1F
100
AcDbEntity
  8
AM_0
100
AcDbLine
 10
856.9021118390661
 20
-279.4066309179509
 30
0.0
 11
920.1821456634053
 21
-279.4066309179507
 31
0.0
1001
GENIUS_GENODEF_13
1002
{
1000
HIER
1070
     0
1002
}
1002
{
1000
MANEDIT
1070
     0
1002
}
1002
{
1000
NOSEL
1070
     0
1002
}
1002
{
1000
BEHIND
1070
     0
1002
}
1002
{
1000
OTHER
1070
     0
1002
}
1002
{
1000
REACTOR
1002
}
1001
GENIUS_GENOBJ-N-CEN_13
1002
{
1000
OWNER
1000
GEN
1002
}
  0
ARC
  5
1D2D7
330
1F
100
AcDbEntity
  8
AM_0
100
AcDbCircle
 10
856.9021118390661
 20
-280.4066309179508
 30
0.0
 40
1.0
100
AcDbArc
 50
90.0
 51
180.0
1001
GENIUS_GENOBJ-N-CEN_13
1002
{
1000
OWNER
1000
GEN
1002
}
1001
GENIUS_GENODEF_13
1002
{
1000
HIER
1070
     0
1002
}
1002
{
1000
MANEDIT
1070
     0
1002
}
1002
{
1000
NOSEL
1070
     0
1002
}
1002
{
1000
BEHIND
1070
     0
1002
}
1002
{
1000
OTHER
1070
     0
1002
}
1002
{
1000
REACTOR
1002
}
1001
GENIUS_GENOBJ-N-FIL_13
1002
{
1000
OWNER
1000
GEN
1002
}
  0
LINE
  5
1D2D8
330
1F
100
AcDbEntity
  8
AM_2
100
AcDbLine
 10
870.4021118390661
 20
-280.4066309179507
 30
0.0
 11
920.1821456634053
 21
-280.4066309179509
 31
0.0
1001
GENIUS_GENODEF_13
1002
{
1000
HIER
1070
     0
1002
}
1002
{
1000
MANEDIT
1070
     0
1002
}
1002
{
1000
NOSEL
1070
     0
1002
}
1002
{
1000
BEHIND
1070
     0
1002
}
1002
{
1000
OTHER
1070
     0
1002
}
1002
{
1000
REACTOR
1002
}
1001
GENIUS_GENOBJ-N-CEN_13
1002
{
1000
OWNER
1000
GEN
1002
}
  0
LINE
  5
1D2D9
330
1F
100
AcDbEntity
  8
AM_0
100
AcDbLine
 10
1071.902111839066
 20
-271.4066309179626
 30
0.0
 11
1025.902111839066
 21
-271.4066309179626
 31
0.0
  0
ARC
  5
1D2DA
330
1F
100
AcDbEntity
  8
AM_0
100
AcDbCircle
 10
1048.902111839066
 20
-288.4066309179626
 30
0.0
 40
10.5
100
AcDbArc
 50
180.0
 51
0.0
  0
LINE
  5
1D2DB
330
1F
100
AcDbEntity
  8
AM_7
 48
0.5437500000000001
100
AcDbLine
 10
1065.902111839066
 20
-277.8441309179626
 30
0.0
 11
1065.902111839066
 21
-266.9691309179626
 31
0.0
1001
GENIUS_GENOBJ-N-CEN_13
1002
{
1000
OWNER
1000
GEN
1002
}
1001
GENIUS_GENODEF_13
1002
{
1000
HIER
1070
     0
1002
}
1002
{
1000
MANEDIT
1070
     0
1002
}
1002
{
1000
NOSEL
1070
     0
1002
}
1002
{
1000
BEHIND
1070
     0
1002
}
1002
{
1000
OTHER
1070
     0
1002
}
1002
{
1000
REACTOR
1002
}
  0
LINE
  5
1D2DC
330
1F
100
AcDbEntity
  8
AM_0
 48
0.85
100
AcDbLine
 10
1059.402111839066
 20
-288.4066309179626
 30
0.0
 11
1059.402111839066
 21
-271.4066309179626
 31
0.0
  0
LINE
  5
1D2DD
330
1F
100
AcDbEntity
  8
AM_0
 48
0.625
100
AcDbLine
 10
1071.902111839066
 20
-273.4066309179626
 30
0.0
 11
1059.402111839066
 21
-273.4066309179626
 31
0.0
  0
LINE
  5
1D2DE
330
1F
100
AcDbEntity
  8
AM_0
 48
0.15
100
AcDbLine
 10
1071.902111839066
 20
-273.4066309179626
 30
0.0
 11
1071.902111839066
 21
-271.4066309179626
 31
0.0
  0
LINE
  5
1D2DF
330
1F
100
AcDbEntity
  8
AM_7
 48
0.5437500000000001
100
AcDbLine
 10
1031.902111839066
 20
-277.8441309179626
 30
0.0
 11
1031.902111839066
 21
-266.9691309179626
 31
0.0
1001
GENIUS_GENOBJ-N-CEN_13
1002
{
1000
OWNER
1000
GEN
1002
}
1001
GENIUS_GENODEF_13
1002
{
1000
HIER
1070
     0
1002
}
1002
{
1000
MANEDIT
1070
     0
1002
}
1002
{
1000
NOSEL
1070
     0
1002
}
1002
{
1000
BEHIND
1070
     0
1002
}
1002
{
1000
OTHER
1070
     0
1002
}
1002
{
1000
REACTOR
1002
}
  0
LINE
  5
1D2E0
330
1F
100
AcDbEntity
  8
AM_0
 48
0.85
100
AcDbLine
 10
1038.402111839066
 20
-288.4066309179626
 30
0.0
 11
1038.402111839066
 21
-271.4066309179626
 31
0.0
  0
LINE
  5
1D2E1
330
1F
100
AcDbEntity
  8
AM_0
 48
0.625
100
AcDbLine
 10
1038.402111839066
 20
-273.4066309179626
 30
0.0
 11
1025.902111839066
 21
-273.4066309179626
 31
0.0
  0
LINE
  5
1D2E2
330
1F
100
AcDbEntity
  8
AM_0
 48
0.15
100
AcDbLine
 10
1025.902111839066
 20
-273.4066309179626
 30
0.0
 11
1025.902111839066
 21
-271.4066309179626
 31
0.0
  0
LINE
  5
1D2E3
330
1F
100
AcDbEntity
  8
AM_3
 48
0.2599999999999909
100
AcDbLine
 10
1068.502111839066
 20
-271.7566309179626
 30
0.0
 11
1063.302111839066
 21
-271.7566309179626
 31
0.0
  0
LINE
  5
1D2E4
330
1F
100
AcDbEntity
  8
AM_3
 48
0.15
100
AcDbLine
 10
1061.652111839066
 20
-273.4066309179626
 30
0.0
 11
1063.302111839066
 21
-271.7566309179626
 31
0.0
  0
LINE
  5
1D2E5
330
1F
100
AcDbEntity
  8
AM_3
 48
0.15
100
AcDbLine
 10
1063.302111839066
 20
-271.7566309179626
 30
0.0
 11
1063.302111839066
 21
-271.4066309179626
 31
0.0
  0
LINE
  5
1D2E6
330
1F
100
AcDbEntity
  8
AM_3
 48
0.15
100
AcDbLine
 10
1070.152111839066
 20
-273.4066309179626
 30
0.0
 11
1068.502111839066
 21
-271.7566309179626
 31
0.0
  0
LINE
  5
1D2E7
330
1F
100
AcDbEntity
  8
AM_3
 48
0.15
100
AcDbLine
 10
1068.502111839066
 20
-271.7566309179626
 30
0.0
 11
1068.502111839066
 21
-271.4066309179626
 31
0.0
  0
LINE
  5
1D2E8
330
1F
100
AcDbEntity
  8
AM_3
 48
0.2599999999999909
100
AcDbLine
 10
1029.302111839066
 20
-271.7566309179626
 30
0.0
 11
1034.502111839066
 21
-271.7566309179626
 31
0.0
  0
LINE
  5
1D2E9
330
1F
100
AcDbEntity
  8
AM_3
 48
0.15
100
AcDbLine
 10
1036.152111839066
 20
-273.4066309179626
 30
0.0
 11
1034.502111839066
 21
-271.7566309179626
 31
0.0
  0
LINE
  5
1D2EA
330
1F
100
AcDbEntity
  8
AM_3
 48
0.15
100
AcDbLine
 10
1034.502111839066
 20
-271.7566309179626
 30
0.0
 11
1034.502111839066
 21
-271.4066309179626
 31
0.0
  0
LINE
  5
1D2EB
330
1F
100
AcDbEntity
  8
AM_3
 48
0.15
100
AcDbLine
 10
1027.652111839066
 20
-273.4066309179626
 30
0.0
 11
1029.302111839066
 21
-271.7566309179626
 31
0.0
  0
LINE
  5
1D2EC
330
1F
100
AcDbEntity
  8
AM_3
 48
0.15
100
AcDbLine
 10
1029.302111839066
 20
-271.7566309179626
 30
0.0
 11
1029.302111839066
 21
-271.4066309179626
 31
0.0
  0
LINE
  5
1D2ED
330
1F
100
AcDbEntity
  8
AM_0
 48
0.225
100
AcDbLine
 10
1033.902111839066
 20
-278.2566309179624
 30
0.0
 11
1038.402111839066
 21
-278.2566309179624
 31
0.0
  0
LINE
  5
1D2EE
330
1F
100
AcDbEntity
  8
AM_0
 48
0.3177970715664742
100
AcDbLine
 10
1057.946454282151
 20
-298.5566309179622
 30
0.0
 11
1051.590512850821
 21
-298.5566309179623
 31
0.0
  0
LINE
  5
1D2EF
330
1F
100
AcDbEntity
  8
AM_0
 48
0.6155799494122363
100
AcDbLine
 10
1046.213710827311
 20
-298.5566309179623
 30
0.0
 11
1033.902111839066
 21
-298.5566309179624
 31
0.0
  0
LINE
  5
1D2F0
330
1F
100
AcDbEntity
  8
AM_0
100
AcDbLine
 10
922.1821456634053
 20
-275.9066309179616
 30
0.0
 11
1033.902111839066
 21
-275.9066309179626
 31
0.0
  0
LINE
  5
1D2F1
330
1F
100
AcDbEntity
  8
AM_0
100
AcDbLine
 10
1033.902111839066
 20
-300.9066309179626
 30
0.0
 11
922.1821456634046
 21
-300.9066309179615
 31
0.0
  0
LINE
  5
1D2F2
330
1F
100
AcDbEntity
  8
AM_3
 48
0.15
100
AcDbLine
 10
1028.402111839066
 20
-284.9066309179607
 30
0.0
 11
1028.402111839066
 21
-281.9066309179628
 31
0.0
  0
LINE
  5
1D2F3
330
1F
100
AcDbEntity
  8
AM_0
 48
0.157499999999601
100
AcDbLine
 10
1057.946454282151
 20
-298.5566309179622
 30
0.0
 11
1057.946454282151
 21
-293.7404728515238
 31
0.0
  0
CIRCLE
  5
1D2F4
330
1F
100
AcDbEntity
  8
AM_0
 48
0.4499999999999205
100
AcDbCircle
 10
1048.902111839066
 20
-288.4066309179551
 30
0.0
 40
4.499999999999204
  0
LINE
  5
1D2F5
330
1F
100
AcDbEntity
  8
AM_0
100
AcDbLine
 10
922.1821456634046
 20
-299.4066309179552
 30
0.0
 11
1032.902111839066
 21
-299.4066309179554
 31
0.0
1001
GENIUS_GENODEF_13
1002
{
1000
HIER
1070
     0
1002
}
1002
{
1000
MANEDIT
1070
     0
1002
}
1002
{
1000
NOSEL
1070
     0
1002
}
1002
{
1000
BEHIND
1070
     0
1002
}
1002
{
1000
OTHER
1070
     0
1002
}
1002
{
1000
REACTOR
1002
}
1001
GENIUS_GENOBJ-N-CEN_13
1002
{
1000
OWNER
1000
GEN
1002
}
  0
ARC
  5
1D2F6
330
1F
100
AcDbEntity
  8
AM_0
100
AcDbCircle
 10
1032.902111839066
 20
-298.4066309179553
 30
0.0
 40
1.0
100
AcDbArc
 50
270.0
 51
0.0
1001
GENIUS_GENOBJ-N-CEN_13
1002
{
1000
OWNER
1000
GEN
1002
}
1001
GENIUS_GENOBJ-N-FIL_13
1002
{
1000
OWNER
1000
GEN
1002
}
1001
GENIUS_GENODEF_13
1002
{
1000
HIER
1070
     0
1002
}
1002
{
1000
MANEDIT
1070
     0
1002
}
1002
{
1000
NOSEL
1070
     0
1002
}
1002
{
1000
BEHIND
1070
     0
1002
}
1002
{
1000
OTHER
1070
     0
1002
}
1002
{
1000
REACTOR
1002
}
  0
LINE
  5
1D2F7
330
1F
100
AcDbEntity
  8
AM_0
100
AcDbLine
 10
922.1821456634046
 20
-297.4066309179552
 30
0.0
 11
1028.402111839066
 21
-297.4066309179553
 31
0.0
1001
GENIUS_GENODEF_13
1002
{
1000
HIER
1070
     0
1002
}
1002
{
1000
MANEDIT
1070
     0
1002
}
1002
{
1000
NOSEL
1070
     0
1002
}
1002
{
1000
BEHIND
1070
     0
1002
}
1002
{
1000
OTHER
1070
     0
1002
}
1002
{
1000
REACTOR
1002
}
1001
GENIUS_GENOBJ-N-CEN_13
1002
{
1000
OWNER
1000
GEN
1002
}
  0
LINE
  5
1D2F8
330
1F
100
AcDbEntity
  8
AM_2
100
AcDbLine
 10
922.1821456634046
 20
-296.4066309179553
 30
0.0
 11
1027.902111839066
 21
-296.4066309179552
 31
0.0
1001
GENIUS_GENODEF_13
1002
{
1000
HIER
1070
     0
1002
}
1002
{
1000
MANEDIT
1070
     0
1002
}
1002
{
1000
NOSEL
1070
     0
1002
}
1002
{
1000
BEHIND
1070
     0
1002
}
1002
{
1000
OTHER
1070
     0
1002
}
1002
{
1000
REACTOR
1002
}
1001
GENIUS_GENOBJ-N-CEN_13
1002
{
1000
OWNER
1000
GEN
1002
}
  0
LINE
  5
1D2F9
330
1F
100
AcDbEntity
  8
AM_0
100
AcDbLine
 10
922.1821456634046
 20
-277.4066309179552
 30
0.0
 11
1032.902111839066
 21
-277.4066309179551
 31
0.0
1001
GENIUS_GENODEF_13
1002
{
1000
HIER
1070
     0
1002
}
1002
{
1000
MANEDIT
1070
     0
1002
}
1002
{
1000
NOSEL
1070
     0
1002
}
1002
{
1000
BEHIND
1070
     0
1002
}
1002
{
1000
OTHER
1070
     0
1002
}
1002
{
1000
REACTOR
1002
}
1001
GENIUS_GENOBJ-N-CEN_13
1002
{
1000
OWNER
1000
GEN
1002
}
  0
ARC
  5
1D2FA
330
1F
100
AcDbEntity
  8
AM_0
100
AcDbCircle
 10
1032.902111839066
 20
-278.4066309179551
 30
0.0
 40
1.0
100
AcDbArc
 50
0.0
 51
90.0
1001
GENIUS_GENOBJ-N-CEN_13
1002
{
1000
OWNER
1000
GEN
1002
}
1001
GENIUS_GENODEF_13
1002
{
1000
HIER
1070
     0
1002
}
1002
{
1000
MANEDIT
1070
     0
1002
}
1002
{
1000
NOSEL
1070
     0
1002
}
1002
{
1000
BEHIND
1070
     0
1002
}
1002
{
1000
OTHER
1070
     0
1002
}
1002
{
1000
REACTOR
1002
}
1001
GENIUS_GENOBJ-N-FIL_13
1002
{
1000
OWNER
1000
GEN
1002
}
  0
LINE
  5
1D2FB
330
1F
100
AcDbEntity
  8
AM_0
100
AcDbLine
 10
922.1821456634046
 20
-279.4066309179553
 30
0.0
 11
1028.402111839066
 21
-279.4066309179552
 31
0.0
1001
GENIUS_GENODEF_13
1002
{
1000
HIER
1070
     0
1002
}
1002
{
1000
MANEDIT
1070
     0
1002
}
1002
{
1000
NOSEL
1070
     0
1002
}
1002
{
1000
BEHIND
1070
     0
1002
}
1002
{
1000
OTHER
1070
     0
1002
}
1002
{
1000
REACTOR
1002
}
1001
GENIUS_GENOBJ-N-CEN_13
1002
{
1000
OWNER
1000
GEN
1002
}
  0
LINE
  5
1D2FC
330
1F
100
AcDbEntity
  8
AM_2
100
AcDbLine
 10
922.1821456634053
 20
-280.4066309179552
 30
0.0
 11
1027.902111839066
 21
-280.4066309179551
 31
0.0
1001
GENIUS_GENODEF_13
1002
{
1000
HIER
1070
     0
1002
}
1002
{
1000
MANEDIT
1070
     0
1002
}
1002
{
1000
NOSEL
1070
     0
1002
}
1002
{
1000
BEHIND
1070
     0
1002
}
1002
{
1000
OTHER
1070
     0
1002
}
1002
{
1000
REACTOR
1002
}
1001
GENIUS_GENOBJ-N-CEN_13
1002
{
1000
OWNER
1000
GEN
1002
}
  0
LINE
  5
1D2FD
330
1F
100
AcDbEntity
  8
AM_0
 48
0.475000000000378
100
AcDbLine
 10
1033.902111839066
 20
-300.9066309179626
 30
0.0
 11
1033.902111839066
 21
-291.406630917955
 31
0.0
  0
LINE
  5
1D2FE
330
1F
100
AcDbEntity
  8
AM_3
 48
0.2999999999999915
100
AcDbLine
 10
1033.902111839066
 20
-291.406630917955
 30
0.0
 11
1033.902111839066
 21
-285.4066309179552
 31
0.0
  0
LINE
  5
1D2FF
330
1F
100
AcDbEntity
  8
AM_0
 48
0.4749999999996306
100
AcDbLine
 10
1033.902111839066
 20
-285.4066309179552
 30
0.0
 11
1033.902111839066
 21
-275.9066309179626
 31
0.0
  0
LINE
  5
1D300
330
1F
100
AcDbEntity
  8
AM_0
 48
0.8000000000000056
100
AcDbLine
 10
1029.402111839066
 20
-296.4066309179553
 30
0.0
 11
1029.402111839066
 21
-280.4066309179552
 31
0.0
  0
ARC
  5
1D301
330
1F
100
AcDbEntity
  8
AM_0
 48
0.3
100
AcDbCircle
 10
1028.402111839066
 20
-280.4066309179552
 30
0.0
 40
1.0
100
AcDbArc
 50
0.0
 51
90.0
1001
GENIUS_GENOBJ-N-FIL_13
1002
{
1000
OWNER
1000
GEN
1002
}
1001
GENIUS_GENODEF_13
1002
{
1000
HIER
1070
     0
1002
}
1002
{
1000
MANEDIT
1070
     0
1002
}
1002
{
1000
NOSEL
1070
     0
1002
}
1002
{
1000
BEHIND
1070
     0
1002
}
1002
{
1000
OTHER
1070
     0
1002
}
1002
{
1000
REACTOR
1002
}
  0
ARC
  5
1D302
330
1F
100
AcDbEntity
  8
AM_0
 48
0.3
100
AcDbCircle
 10
1028.402111839066
 20
-296.4066309179553
 30
0.0
 40
1.0
100
AcDbArc
 50
270.0
 51
0.0
1001
GENIUS_GENODEF_13
1002
{
1000
HIER
1070
     0
1002
}
1002
{
1000
MANEDIT
1070
     0
1002
}
1002
{
1000
NOSEL
1070
     0
1002
}
1002
{
1000
BEHIND
1070
     0
1002
}
1002
{
1000
OTHER
1070
     0
1002
}
1002
{
1000
REACTOR
1002
}
1001
GENIUS_GENOBJ-N-FIL_13
1002
{
1000
OWNER
1000
GEN
1002
}
  0
LINE
  5
1D303
330
1F
100
AcDbEntity
  8
AM_2
 48
0.7500000000000058
100
AcDbLine
 10
1028.402111839066
 20
-295.9066309179552
 30
0.0
 11
1028.402111839066
 21
-280.9066309179551
 31
0.0
  0
ARC
  5
1D304
330
1F
100
AcDbEntity
  8
AM_2
 48
0.3
100
AcDbCircle
 10
1027.902111839066
 20
-295.9066309179552
 30
0.0
 40
0.5
100
AcDbArc
 50
270.0
 51
0.0
1001
GENIUS_GENOBJ-N-FIL_13
1002
{
1000
OWNER
1000
GEN
1002
}
1001
GENIUS_GENODEF_13
1002
{
1000
HIER
1070
     0
1002
}
1002
{
1000
MANEDIT
1070
     0
1002
}
1002
{
1000
NOSEL
1070
     0
1002
}
1002
{
1000
BEHIND
1070
     0
1002
}
1002
{
1000
OTHER
1070
     0
1002
}
1002
{
1000
REACTOR
1002
}
  0
ARC
  5
1D305
330
1F
100
AcDbEntity
  8
AM_2
 48
0.3
100
AcDbCircle
 10
1027.902111839066
 20
-280.9066309179551
 30
0.0
 40
0.5
100
AcDbArc
 50
0.0
 51
90.0
1001
GENIUS_GENOBJ-N-FIL_13
1002
{
1000
OWNER
1000
GEN
1002
}
1001
GENIUS_GENODEF_13
1002
{
1000
HIER
1070
     0
1002
}
1002
{
1000
MANEDIT
1070
     0
1002
}
1002
{
1000
NOSEL
1070
     0
1002
}
1002
{
1000
BEHIND
1070
     0
1002
}
1002
{
1000
OTHER
1070
     0
1002
}
1002
{
1000
REACTOR
1002
}
  0
LINE
  5
1D306
330
1F
100
AcDbEntity
  8
AM_0
 48
0.2999999999999915
100
AcDbLine
 10
1034.402111839066
 20
-291.406630917955
 30
0.0
 11
1034.402111839066
 21
-285.4066309179552
 31
0.0
  0
LINE
  5
1D307
330
1F
100
AcDbEntity
  8
AM_0
 48
0.15
100
AcDbLine
 10
1033.902111839066
 20
-291.406630917955
 30
0.0
 11
1034.402111839066
 21
-291.406630917955
 31
0.0
1001
GENIUS_GENODEF_13
1002
{
1000
HIER
1070
     0
1002
}
1002
{
1000
MANEDIT
1070
     0
1002
}
1002
{
1000
NOSEL
1070
     0
1002
}
1002
{
1000
BEHIND
1070
     0
1002
}
1002
{
1000
OTHER
1070
     0
1002
}
1002
{
1000
REACTOR
1002
}
1001
GENIUS_GENOBJ-N-CEN_13
1002
{
1000
OWNER
1000
GEN
1002
}
  0
LINE
  5
1D308
330
1F
100
AcDbEntity
  8
AM_0
 48
0.15
100
AcDbLine
 10
1033.902111839066
 20
-285.4066309179552
 30
0.0
 11
1034.402111839066
 21
-285.4066309179552
 31
0.0
1001
GENIUS_GENODEF_13
1002
{
1000
HIER
1070
     0
1002
}
1002
{
1000
MANEDIT
1070
     0
1002
}
1002
{
1000
NOSEL
1070
     0
1002
}
1002
{
1000
BEHIND
1070
     0
1002
}
1002
{
1000
OTHER
1070
     0
1002
}
1002
{
1000
REACTOR
1002
}
1001
GENIUS_GENOBJ-N-CEN_13
1002
{
1000
OWNER
1000
GEN
1002
}
  0
ARC
  5
1D309
330
1F
100
AcDbEntity
  8
AM_0
100
AcDbCircle
 10
1046.902111839066
 20
-288.4066309179555
 30
0.0
 40
15.00000000000006
100
AcDbArc
 50
317.416289443968
 51
33.55730976191539
  0
LINE
  5
1D30A
330
1F
100
AcDbEntity
  8
アーム-AM_7
100
AcDbLine
 10
1048.902111839066
 20
-381.7395102464327
 30
0.0
 11
1048.902111839066
 21
-351.4886681408307
 31
0.0
1001
GENIUS_GENOBJ-N-CEN_13
1002
{
1000
OWNER
1000
GEN
1002
}
1001
GENIUS_GENODEF_13
1002
{
1000
HIER
1070
     0
1002
}
1002
{
1000
MANEDIT
1070
     0
1002
}
1002
{
1000
NOSEL
1070
     0
1002
}
1002
{
1000
BEHIND
1070
     0
1002
}
1002
{
1000
OTHER
1070
     0
1002
}
1002
{
1000
REACTOR
1002
}
  0
LINE
  5
1D30B
330
1F
100
AcDbEntity
  8
AM_0
 48
0.15
100
AcDbLine
 10
1055.402111839066
 20
-361.5140891936316
 30
0.0
 11
1055.402111839066
 21
-361.314089193629
 31
0.0
1001
GENIUS_GENOBJ-N-CEN_13
1002
{
1000
OWNER
1000
GEN
1002
}
1001
GENIUS_GENODEF_13
1002
{
1000
HIER
1070
     0
1002
}
1002
{
1000
MANEDIT
1070
     0
1002
}
1002
{
1000
NOSEL
1070
     0
1002
}
1002
{
1000
BEHIND
1070
     0
1002
}
1002
{
1000
OTHER
1070
     0
1002
}
1002
{
1000
REACTOR
1002
}
  0
LINE
  5
1D30C
330
1F
100
AcDbEntity
  8
AM_0
 48
0.15
100
AcDbLine
 10
1042.402111839066
 20
-361.5140891936316
 30
0.0
 11
1042.402111839066
 21
-361.314089193629
 31
0.0
1001
GENIUS_GENOBJ-N-CEN_13
1002
{
1000
OWNER
1000
GEN
1002
}
1001
GENIUS_GENODEF_13
1002
{
1000
HIER
1070
     0
1002
}
1002
{
1000
MANEDIT
1070
     0
1002
}
1002
{
1000
NOSEL
1070
     0
1002
}
1002
{
1000
BEHIND
1070
     0
1002
}
1002
{
1000
OTHER
1070
     0
1002
}
1002
{
1000
REACTOR
1002
}
  0
LINE
  5
1D30D
330
1F
100
AcDbEntity
  8
AM_0
 48
0.15
100
AcDbLine
 10
1058.902111839066
 20
-361.314089193629
 30
0.0
 11
1058.902111839066
 21
-360.5140891936288
 31
0.0
1001
GENIUS_GENOBJ-N-CEN_13
1002
{
1000
OWNER
1000
GEN
1002
}
1001
GENIUS_GENODEF_13
1002
{
1000
HIER
1070
     0
1002
}
1002
{
1000
MANEDIT
1070
     0
1002
}
1002
{
1000
NOSEL
1070
     0
1002
}
1002
{
1000
BEHIND
1070
     0
1002
}
1002
{
1000
OTHER
1070
     0
1002
}
1002
{
1000
REACTOR
1002
}
  0
LINE
  5
1D30E
330
1F
100
AcDbEntity
  8
AM_0
 48
0.15
100
AcDbLine
 10
1038.902111839066
 20
-361.314089193629
 30
0.0
 11
1038.902111839066
 21
-360.5140891936288
 31
0.0
1001
GENIUS_GENOBJ-N-CEN_13
1002
{
1000
OWNER
1000
GEN
1002
}
1001
GENIUS_GENODEF_13
1002
{
1000
HIER
1070
     0
1002
}
1002
{
1000
MANEDIT
1070
     0
1002
}
1002
{
1000
NOSEL
1070
     0
1002
}
1002
{
1000
BEHIND
1070
     0
1002
}
1002
{
1000
OTHER
1070
     0
1002
}
1002
{
1000
REACTOR
1002
}
  0
LINE
  5
1D30F
330
1F
100
AcDbEntity
  8
アーム-AM_0
100
AcDbLine
 10
1070.902111839066
 20
-377.5140891936288
 30
0.0
 11
1026.902111839066
 21
-377.5140891936288
 31
0.0
  0
LINE
  5
1D310
330
1F
100
AcDbEntity
  8
AM_0
100
AcDbLine
 10
1034.402111839066
 20
-360.5140891936288
 30
0.0
 11
1070.902111839066
 21
-360.5140891936288
 31
0.0
  0
LINE
  5
1D311
330
1F
100
AcDbEntity
  8
アーム-AM_0
 48
0.75
100
AcDbLine
 10
1071.902111839066
 20
-361.5140891936288
 30
0.0
 11
1071.902111839066
 21
-376.5140891936288
 31
0.0
  0
LINE
  5
1D312
330
1F
100
AcDbEntity
  8
アーム-AM_0
100
AcDbLine
 10
1059.402111839066
 20
-358.5140891936288
 30
0.0
 11
1038.402111839066
 21
-358.5140891936288
 31
0.0
  0
LINE
  5
1D313
330
1F
100
AcDbEntity
  8
アーム-AM_0
 48
0.15
100
AcDbLine
 10
1038.402111839066
 20
-358.5140891936288
 30
0.0
 11
1038.402111839066
 21
-360.5140891936288
 31
0.0
  0
ARC
  5
1D314
330
1F
100
AcDbEntity
  8
アーム-AM_0
 48
0.3
100
AcDbCircle
 10
1070.902111839066
 20
-361.5140891936288
 30
0.0
 40
1.0
100
AcDbArc
 50
0.0
 51
90.0
1001
GENIUS_GENODEF_13
1002
{
1000
HIER
1070
     0
1002
}
1002
{
1000
MANEDIT
1070
     0
1002
}
1002
{
1000
NOSEL
1070
     0
1002
}
1002
{
1000
BEHIND
1070
     0
1002
}
1002
{
1000
OTHER
1070
     0
1002
}
1002
{
1000
REACTOR
1002
}
1001
GENIUS_GENOBJ-N-FIL_13
1002
{
1000
OWNER
1000
GEN
1002
}
  0
ARC
  5
1D315
330
1F
100
AcDbEntity
  8
アーム-AM_0
 48
0.3
100
AcDbCircle
 10
1070.902111839066
 20
-376.5140891936288
 30
0.0
 40
1.0
100
AcDbArc
 50
270.0
 51
0.0
1001
GENIUS_GENOBJ-N-FIL_13
1002
{
1000
OWNER
1000
GEN
1002
}
1001
GENIUS_GENODEF_13
1002
{
1000
HIER
1070
     0
1002
}
1002
{
1000
MANEDIT
1070
     0
1002
}
1002
{
1000
NOSEL
1070
     0
1002
}
1002
{
1000
BEHIND
1070
     0
1002
}
1002
{
1000
OTHER
1070
     0
1002
}
1002
{
1000
REACTOR
1002
}
  0
CIRCLE
  5
1D316
330
1F
100
AcDbEntity
  8
アーム-AM_0
 48
0.4
100
AcDbCircle
 10
1065.902111839066
 20
-371.0140891936288
 30
0.0
 40
2.6
  0
LINE
  5
1D317
330
1F
100
AcDbEntity
  8
AM_0
 48
0.3974999999999483
100
AcDbLine
 10
1025.902111839066
 20
-368.5640891936298
 30
0.0
 11
1025.902111839066
 21
-376.5140891936288
 31
0.0
  0
LINE
  5
1D31A
330
1F
100
AcDbEntity
  8
アーム-AM_0
 48
0.15
100
AcDbLine
 10
1059.402111839066
 20
-358.5140891936288
 30
0.0
 11
1059.402111839066
 21
-360.5140891936288
 31
0.0
  0
ARC
  5
1D31B
330
1F
100
AcDbEntity
  8
アーム-AM_0
 48
0.3
100
AcDbCircle
 10
1026.902111839066
 20
-376.5140891936288
 30
0.0
 40
1.0
100
AcDbArc
 50
180.0
 51
270.0
1001
GENIUS_GENOBJ-N-FIL_13
1002
{
1000
OWNER
1000
GEN
1002
}
1001
GENIUS_GENODEF_13
1002
{
1000
HIER
1070
     0
1002
}
1002
{
1000
MANEDIT
1070
     0
1002
}
1002
{
1000
NOSEL
1070
     0
1002
}
1002
{
1000
BEHIND
1070
     0
1002
}
1002
{
1000
OTHER
1070
     0
1002
}
1002
{
1000
REACTOR
1002
}
  0
CIRCLE
  5
1D31C
330
1F
100
AcDbEntity
  8
AM_0
 48
0.425
100
AcDbCircle
 10
1065.902111839066
 20
-371.0140891936288
 30
0.0
 40
4.25
  0
ARC
  5
1D31D
330
1F
100
AcDbEntity
  8
アーム-AM_0
 48
0.3
100
AcDbCircle
 10
1031.902111839066
 20
-371.0140891936288
 30
0.0
 40
2.6
100
AcDbArc
 50
109.5572137354952
 51
70.44278626450476
  0
ARC
  5
1D31E
330
1F
100
AcDbEntity
  8
AM_0
 48
0.425
100
AcDbCircle
 10
1031.902111839066
 20
-371.0140891936288
 30
0.0
 40
4.25
100
AcDbArc
 50
144.7973164318299
 51
61.92751306414559
  0
LINE
  5
1D31F
330
1F
100
AcDbEntity
  8
AM_3
100
AcDbLine
 10
1033.902111839066
 20
-359.5640891936298
 30
0.0
 11
922.1821456634058
 21
-359.5640891936298
 31
0.0
  0
LINE
  5
1D320
330
1F
100
AcDbEntity
  8
AM_0
100
AcDbLine
 10
1028.195005057879
 20
-358.0640891936298
 30
0.0
 11
922.1821456634058
 21
-358.0640891936298
 31
0.0
  0
LINE
  5
1D321
330
1F
100
AcDbEntity
  8
AM_0
100
AcDbLine
 10
1033.902111839066
 20
-359.5640891936297
 30
0.0
 11
922.1821456634058
 21
-359.5640891936297
 31
0.0
  0
LINE
  5
1D322
330
1F
100
AcDbEntity
  8
AM_0
100
AcDbLine
 10
1033.902111839066
 20
-359.0640891936299
 30
0.0
 11
922.1821456634058
 21
-359.0640891936299
 31
0.0
  0
LINE
  5
1D323
330
1F
100
AcDbEntity
  8
AM_0
100
AcDbLine
 10
1033.902111839066
 20
-368.5640891936298
 30
0.0
 11
922.1821456634058
 21
-368.5640891936298
 31
0.0
  0
LINE
  5
1D324
330
1F
100
AcDbEntity
  8
AM_0
100
AcDbLine
 10
1057.946454282145
 20
-361.5140891936316
 30
0.0
 11
1033.902111839066
 21
-361.5140891936316
 31
0.0
  0
LINE
  5
1D325
330
1F
100
AcDbEntity
  8
AM_0
100
AcDbLine
 10
1061.902111839065
 20
-366.6140891936317
 30
0.0
 11
1033.902111839066
 21
-366.6140891936317
 31
0.0
  0
LINE
  5
1D326
330
1F
100
AcDbEntity
  8
AM_0
100
AcDbLine
 10
1061.902111839065
 20
-365.4140891936316
 30
0.0
 11
1057.946454282145
 21
-365.4140891936316
 31
0.0
  0
LINE
  5
1D327
330
1F
100
AcDbEntity
  8
AM_0
 48
0.6000000000000001
100
AcDbLine
 10
1042.902111839066
 20
-366.7140891936317
 30
0.0
 11
1054.902111839066
 21
-366.7140891936317
 31
0.0
  0
LINE
  5
1D328
330
1F
100
AcDbEntity
  8
AM_0
 48
0.4049999999999955
100
AcDbLine
 10
1044.852111839069
 20
-361.5140891936288
 30
0.0
 11
1052.952111839069
 21
-361.5140891936288
 31
0.0
  0
LINE
  5
1D329
330
1F
100
AcDbEntity
  8
AM_0
 48
0.9999999999999914
100
AcDbLine
 10
1038.902111839066
 20
-361.3140891936292
 30
0.0
 11
1058.902111839066
 21
-361.314089193629
 31
0.0
  0
ARC
  5
1D32A
330
1F
100
AcDbEntity
  8
パイプ-AM_0
 48
0.6498922651934107
100
AcDbCircle
 10
1048.902111839066
 20
-363.203011845563
 30
0.0
 40
6.498922651934106
100
AcDbArc
 50
46.17782532465827
 51
133.8221746753417
  0
LINE
  5
1D32B
330
1F
100
AcDbEntity
  8
パイプ-AM_0
 48
0.55
100
AcDbLine
 10
1043.402111839066
 20
-367.9140891936315
 30
0.0
 11
1054.402111839066
 21
-367.9140891936315
 31
0.0
  0
LINE
  5
1D32C
330
1F
100
AcDbEntity
  8
パイプ-AM_0
 48
0.15
100
AcDbLine
 10
1042.902111839066
 20
-367.4140891936315
 30
0.0
 11
1043.402111839066
 21
-367.9140891936315
 31
0.0
1001
GENIUS_GENFIL_13
1070
     0
1040
0.5
1040
0.5
1040
20.0
1040
0.0
1002
{
1002
}
1001
GENIUS_GENODEF_13
1002
{
1000
HIER
1070
     0
1002
}
1002
{
1000
MANEDIT
1070
     0
1002
}
1002
{
1000
NOSEL
1070
     0
1002
}
1002
{
1000
BEHIND
1070
     0
1002
}
1002
{
1000
OTHER
1070
     0
1002
}
1002
{
1000
REACTOR
1002
}
1001
GENIUS_GENOBJ-N-CHA_13
1002
{
1000
OWNER
1000
GEN
1002
}
  0
LINE
  5
1D32D
330
1F
100
AcDbEntity
  8
パイプ-AM_0
 48
0.15
100
AcDbLine
 10
1042.902111839066
 20
-366.7140891936316
 30
0.0
 11
1042.902111839066
 21
-367.4140891936315
 31
0.0
  0
LINE
  5
1D32E
330
1F
100
AcDbEntity
  8
パイプ-AM_0
 48
0.15
100
AcDbLine
 10
1054.902111839066
 20
-367.4140891936315
 30
0.0
 11
1054.902111839066
 21
-366.7140891936316
 31
0.0
  0
LINE
  5
1D32F
330
1F
100
AcDbEntity
  8
パイプ-AM_0
 48
0.15
100
AcDbLine
 10
1054.402111839066
 20
-367.9140891936315
 30
0.0
 11
1054.902111839066
 21
-367.4140891936315
 31
0.0
1001
GENIUS_GENFIL_13
1070
     0
1040
0.5
1040
0.5
1040
20.0
1040
0.0
1002
{
1002
}
1001
GENIUS_GENOBJ-N-CHA_13
1002
{
1000
OWNER
1000
GEN
1002
}
1001
GENIUS_GENODEF_13
1002
{
1000
HIER
1070
     0
1002
}
1002
{
1000
MANEDIT
1070
     0
1002
}
1002
{
1000
NOSEL
1070
     0
1002
}
1002
{
1000
BEHIND
1070
     0
1002
}
1002
{
1000
OTHER
1070
     0
1002
}
1002
{
1000
REACTOR
1002
}
  0
LINE
  5
1D330
330
1F
100
AcDbEntity
  8
AM_0
 48
0.15
100
AcDbLine
 10
1044.902111839066
 20
-366.7140891936317
 30
0.0
 11
1044.902111839066
 21
-366.6140891936317
 31
0.0
  0
LINE
  5
1D331
330
1F
100
AcDbEntity
  8
AM_0
 48
0.15
100
AcDbLine
 10
1052.902111839066
 20
-366.7140891936317
 30
0.0
 11
1052.902111839066
 21
-366.6140891936317
 31
0.0
  0
LINE
  5
1D332
330
1F
100
AcDbEntity
  8
AM_0
 48
0.6000000000000001
100
AcDbLine
 10
1042.902111839066
 20
-367.4140891936315
 30
0.0
 11
1054.902111839066
 21
-367.4140891936315
 31
0.0
  0
ARC
  5
1D333
330
1F
100
AcDbEntity
  8
AM_0
 48
0.3
100
AcDbCircle
 10
1033.902111839066
 20
-360.7640891936298
 30
0.0
 40
0.5
100
AcDbArc
 50
270.0
 51
0.0
1001
GENIUS_GENOBJ-N-FIL_13
1002
{
1000
OWNER
1000
GEN
1002
}
1001
GENIUS_GENODEF_13
1002
{
1000
HIER
1070
     0
1002
}
1002
{
1000
MANEDIT
1070
     0
1002
}
1002
{
1000
NOSEL
1070
     0
1002
}
1002
{
1000
BEHIND
1070
     0
1002
}
1002
{
1000
OTHER
1070
     0
1002
}
1002
{
1000
REACTOR
1002
}
  0
LINE
  5
1D334
330
1F
100
AcDbEntity
  8
AM_3
 48
0.15
100
AcDbLine
 10
1033.902111839066
 20
-360.7640891936298
 30
0.0
 11
1033.902111839066
 21
-361.26408919363
 31
0.0
  0
LINE
  5
1D335
330
1F
100
AcDbEntity
  8
AM_0
 48
0.15
100
AcDbLine
 10
1034.402111839066
 20
-359.5640891936298
 30
0.0
 11
1034.402111839066
 21
-360.7640891936298
 31
0.0
  0
ARC
  5
1D336
330
1F
100
AcDbEntity
  8
AM_0
 48
0.3
100
AcDbCircle
 10
1033.902111839066
 20
-359.5640891936298
 30
0.0
 40
0.5
100
AcDbArc
 50
0.0
 51
90.0
1001
GENIUS_GENOBJ-N-FIL_13
1002
{
1000
OWNER
1000
GEN
1002
}
1001
GENIUS_GENODEF_13
1002
{
1000
HIER
1070
     0
1002
}
1002
{
1000
MANEDIT
1070
     0
1002
}
1002
{
1000
NOSEL
1070
     0
1002
}
1002
{
1000
BEHIND
1070
     0
1002
}
1002
{
1000
OTHER
1070
     0
1002
}
1002
{
1000
REACTOR
1002
}
  0
LINE
  5
1D337
330
1F
100
AcDbEntity
  8
AM_3
 48
0.15
100
AcDbLine
 10
1033.902111839066
 20
-361.26408919363
 30
0.0
 11
1033.902111839066
 21
-361.5140891936316
 31
0.0
  0
LINE
  5
1D338
330
1F
100
AcDbEntity
  8
AM_0
 48
0.475
100
AcDbLine
 10
1033.902111839066
 20
-359.0640891936299
 30
0.0
 11
1033.902111839066
 21
-368.5640891936298
 31
0.0
  0
LINE
  5
1D339
330
1F
100
AcDbEntity
  8
AM_0
 48
0.15
100
AcDbLine
 10
1028.548558448473
 20
-358.2105358030367
 30
0.0
 11
1029.402111839066
 21
-359.0640891936299
 31
0.0
  0
ARC
  5
1D33A
330
1F
100
AcDbEntity
  8
AM_0
 48
0.3
100
AcDbCircle
 10
1028.195005057879
 20
-358.5640891936299
 30
0.0
 40
0.5
100
AcDbArc
 50
44.99999999999785
 51
90.0
1001
GENIUS_GENOBJ-N-FIL_13
1002
{
1000
OWNER
1000
GEN
1002
}
1001
GENIUS_GENODEF_13
1002
{
1000
HIER
1070
     0
1002
}
1002
{
1000
MANEDIT
1070
     0
1002
}
1002
{
1000
NOSEL
1070
     0
1002
}
1002
{
1000
BEHIND
1070
     0
1002
}
1002
{
1000
OTHER
1070
     0
1002
}
1002
{
1000
REACTOR
1002
}
  0
LINE
  5
1D33B
330
1F
100
AcDbEntity
  8
AM_0
 48
0.255000000000004
100
AcDbLine
 10
1057.946454282145
 20
-366.6140891936317
 30
0.0
 11
1057.946454282145
 21
-361.5140891936316
 31
0.0
  0
LINE
  5
1D33C
330
1F
100
AcDbEntity
  8
AM_0
 48
0.15
100
AcDbLine
 10
1061.902111839065
 20
-365.4140891936316
 30
0.0
 11
1061.902111839065
 21
-366.6140891936317
 31
0.0
  0
LINE
  5
1D33D
330
1F
100
AcDbEntity
  8
AM_3
 48
0.35
100
AcDbLine
 10
1026.902111839066
 20
-360.5140891936288
 30
0.0
 11
1034.402111839066
 21
-360.5140891936288
 31
0.0
  0
LINE
  5
1D33E
330
1F
100
AcDbEntity
  8
AM_3
 48
0.3525000000000518
100
AcDbLine
 10
1025.902111839066
 20
-361.5140891936288
 30
0.0
 11
1025.902111839066
 21
-368.5640891936298
 31
0.0
  0
ARC
  5
1D33F
330
1F
100
AcDbEntity
  8
AM_3
 48
0.3
100
AcDbCircle
 10
1026.902111839066
 20
-361.5140891936288
 30
0.0
 40
1.0
100
AcDbArc
 50
90.0
 51
180.0
1001
GENIUS_GENODEF_13
1002
{
1000
HIER
1070
     0
1002
}
1002
{
1000
MANEDIT
1070
     0
1002
}
1002
{
1000
NOSEL
1070
     0
1002
}
1002
{
1000
BEHIND
1070
     0
1002
}
1002
{
1000
OTHER
1070
     0
1002
}
1002
{
1000
REACTOR
1002
}
1001
GENIUS_GENOBJ-N-FIL_13
1002
{
1000
OWNER
1000
GEN
1002
}
  0
ARC
  5
1D340
330
1F
100
AcDbEntity
  8
AM_3
 48
0.3
100
AcDbCircle
 10
1031.902111839066
 20
-371.0140891936288
 30
0.0
 40
2.600000000000021
100
AcDbArc
 50
70.44278626450476
 51
109.5572137354952
  0
ARC
  5
1D341
330
1F
100
AcDbEntity
  8
AM_3
 48
0.425
100
AcDbCircle
 10
1031.902111839066
 20
-371.0140891936288
 30
0.0
 40
4.25
100
AcDbArc
 50
61.92751306414559
 51
144.7973164318299
  0
LINE
  5
1D342
330
1F
100
AcDbEntity
  8
AM_7
100
AcDbLine
 10
1037.902111839066
 20
-363.8140891936298
 30
0.0
 11
922.1821456634058
 21
-363.8140891936298
 31
0.0
1001
GENIUS_GENODEF_13
1002
{
1000
HIER
1070
     0
1002
}
1002
{
1000
MANEDIT
1070
     0
1002
}
1002
{
1000
NOSEL
1070
     0
1002
}
1002
{
1000
BEHIND
1070
     0
1002
}
1002
{
1000
OTHER
1070
     0
1002
}
1002
{
1000
REACTOR
1002
}
1001
GENIUS_GENOBJ-N-CEN_13
1002
{
1000
OWNER
1000
GEN
1002
}
1001
GENIUS_GENCEN_19
1002
{
1040
4.0
1002
}
  0
LINE
  5
1D343
330
1F
100
AcDbEntity
  8
AM_0
 48
0.9
100
AcDbLine
 10
871.4021118390666
 20
-341.4640891936297
 30
0.0
 11
853.4021118390667
 21
-341.4640891936297
 31
0.0
  0
LINE
  5
1D344
330
1F
100
AcDbEntity
  8
AM_0
 48
0.45
100
AcDbLine
 10
850.4021118390667
 20
-346.4640891936296
 30
0.0
 11
850.4021118390667
 21
-355.4640891936297
 31
0.0
  0
LINE
  5
1D345
330
1F
100
AcDbEntity
  8
AM_0
100
AcDbLine
 10
849.7021118390614
 20
-358.4640891936297
 30
0.0
 11
827.1021118390711
 21
-358.4640891936297
 31
0.0
  0
LINE
  5
1D346
330
1F
100
AcDbEntity
  8
AM_0
100
AcDbLine
 10
849.7021118390614
 20
-359.4640891936297
 30
0.0
 11
827.1021118390711
 21
-359.4640891936298
 31
0.0
  0
LINE
  5
1D347
330
1F
100
AcDbEntity
  8
AM_0
 48
0.9
100
AcDbLine
 10
871.4021118390666
 20
-343.4640891936297
 30
0.0
 11
853.4021118390667
 21
-343.4640891936297
 31
0.0
  0
ARC
  5
1D348
330
1F
100
AcDbEntity
  8
AM_0
 48
0.3
100
AcDbCircle
 10
847.4021118390666
 20
-355.4640891936297
 30
0.0
 40
3.0
100
AcDbArc
 50
270.0
 51
0.0
1001
GENIUS_GENODEF_13
1002
{
1000
HIER
1070
     0
1002
}
1002
{
1000
MANEDIT
1070
     0
1002
}
1002
{
1000
NOSEL
1070
     0
1002
}
1002
{
1000
BEHIND
1070
     0
1002
}
1002
{
1000
OTHER
1070
     0
1002
}
1002
{
1000
REACTOR
1002
}
1001
GENIUS_GENOBJ-N-FIL_13
1002
{
1000
OWNER
1000
GEN
1002
}
  0
ARC
  5
1D349
330
1F
100
AcDbEntity
  8
AM_0
 48
0.3
100
AcDbCircle
 10
853.4021118390667
 20
-346.4640891936296
 30
0.0
 40
3.0
100
AcDbArc
 50
90.0
 51
180.0
1001
GENIUS_GENOBJ-N-FIL_13
1002
{
1000
OWNER
1000
GEN
1002
}
1001
GENIUS_GENODEF_13
1002
{
1000
HIER
1070
     0
1002
}
1002
{
1000
MANEDIT
1070
     0
1002
}
1002
{
1000
NOSEL
1070
     0
1002
}
1002
{
1000
BEHIND
1070
     0
1002
}
1002
{
1000
OTHER
1070
     0
1002
}
1002
{
1000
REACTOR
1002
}
  0
ARC
  5
1D34A
330
1F
100
AcDbEntity
  8
AM_0
 48
0.5
100
AcDbCircle
 10
853.4021118390667
 20
-346.4640891936296
 30
0.0
 40
5.0
100
AcDbArc
 50
90.0
 51
126.8698976458375
1001
GENIUS_GENOBJ-N-FIL_13
1002
{
1000
OWNER
1000
GEN
1002
}
1001
GENIUS_GENODEF_13
1002
{
1000
HIER
1070
     0
1002
}
1002
{
1000
MANEDIT
1070
     0
1002
}
1002
{
1000
NOSEL
1070
     0
1002
}
1002
{
1000
BEHIND
1070
     0
1002
}
1002
{
1000
OTHER
1070
     0
1002
}
1002
{
1000
REACTOR
1002
}
  0
ARC
  5
1D34B
330
1F
100
AcDbEntity
  8
AM_0
 48
0.5
100
AcDbCircle
 10
823.4021118390668
 20
-346.4640891936296
 30
0.0
 40
5.0
100
AcDbArc
 50
0.0
 51
53.1301023541625
1001
GENIUS_GENOBJ-N-FIL_13
1002
{
1000
OWNER
1000
GEN
1002
}
1001
GENIUS_GENODEF_13
1002
{
1000
HIER
1070
     0
1002
}
1002
{
1000
MANEDIT
1070
     0
1002
}
1002
{
1000
NOSEL
1070
     0
1002
}
1002
{
1000
BEHIND
1070
     0
1002
}
1002
{
1000
OTHER
1070
     0
1002
}
1002
{
1000
REACTOR
1002
}
  0
ARC
  5
1D34C
330
1F
100
AcDbEntity
  8
AM_0
 48
0.3
100
AcDbCircle
 10
829.4021118390666
 20
-355.4640891936297
 30
0.0
 40
3.0
100
AcDbArc
 50
180.0
 51
270.0
1001
GENIUS_GENODEF_13
1002
{
1000
HIER
1070
     0
1002
}
1002
{
1000
MANEDIT
1070
     0
1002
}
1002
{
1000
NOSEL
1070
     0
1002
}
1002
{
1000
BEHIND
1070
     0
1002
}
1002
{
1000
OTHER
1070
     0
1002
}
1002
{
1000
REACTOR
1002
}
1001
GENIUS_GENOBJ-N-FIL_13
1002
{
1000
OWNER
1000
GEN
1002
}
  0
LINE
  5
1D34D
330
1F
100
AcDbEntity
  8
AM_0
 48
0.45
100
AcDbLine
 10
826.4021118390667
 20
-346.4640891936296
 30
0.0
 11
826.4021118390667
 21
-355.4640891936297
 31
0.0
  0
LINE
  5
1D34E
330
1F
100
AcDbEntity
  8
AM_0
 48
0.9
100
AcDbLine
 10
805.4021118390666
 20
-341.4640891936297
 30
0.0
 11
823.4021118390668
 21
-341.4640891936297
 31
0.0
  0
LINE
  5
1D34F
330
1F
100
AcDbEntity
  8
AM_0
 48
0.9
100
AcDbLine
 10
805.4021118390666
 20
-343.4640891936297
 30
0.0
 11
823.4021118390668
 21
-343.4640891936297
 31
0.0
  0
ARC
  5
1D350
330
1F
100
AcDbEntity
  8
AM_0
 48
0.3
100
AcDbCircle
 10
823.4021118390668
 20
-346.4640891936296
 30
0.0
 40
3.0
100
AcDbArc
 50
0.0
 51
90.0
1001
GENIUS_GENOBJ-N-FIL_13
1002
{
1000
OWNER
1000
GEN
1002
}
1001
GENIUS_GENODEF_13
1002
{
1000
HIER
1070
     0
1002
}
1002
{
1000
MANEDIT
1070
     0
1002
}
1002
{
1000
NOSEL
1070
     0
1002
}
1002
{
1000
BEHIND
1070
     0
1002
}
1002
{
1000
OTHER
1070
     0
1002
}
1002
{
1000
REACTOR
1002
}
  0
LINE
  5
1D351
330
1F
100
AcDbEntity
  8
AM_0
 48
0.45
100
AcDbLine
 10
850.4021118390667
 20
-355.4640891936297
 30
0.0
 11
850.4021118390667
 21
-346.4640891936296
 31
0.0
  0
LINE
  5
1D352
330
1F
100
AcDbEntity
  8
AM_0
 48
0.45
100
AcDbLine
 10
826.4021118390667
 20
-346.4640891936296
 30
0.0
 11
826.4021118390667
 21
-355.4640891936297
 31
0.0
  0
LINE
  5
1D353
330
1F
100
AcDbEntity
  8
AM_0
 48
0.15
100
AcDbLine
 10
871.4021118390666
 20
-343.4640891936297
 30
0.0
 11
871.4021118390666
 21
-341.4640891936297
 31
0.0
  0
LINE
  5
1D354
330
1F
100
AcDbEntity
  8
AM_0
 48
0.15
100
AcDbLine
 10
805.4021118390666
 20
-343.4640891936297
 30
0.0
 11
805.4021118390666
 21
-341.4640891936297
 31
0.0
  0
ARC
  5
1D355
330
1F
100
AcDbEntity
  8
AM_0
 48
0.5
100
AcDbCircle
 10
853.4021118390667
 20
-346.4640891936296
 30
0.0
 40
5.0
100
AcDbArc
 50
126.8698976458375
 51
180.0
1001
GENIUS_GENOBJ-N-FIL_13
1002
{
1000
OWNER
1000
GEN
1002
}
1001
GENIUS_GENODEF_13
1002
{
1000
HIER
1070
     0
1002
}
1002
{
1000
MANEDIT
1070
     0
1002
}
1002
{
1000
NOSEL
1070
     0
1002
}
1002
{
1000
BEHIND
1070
     0
1002
}
1002
{
1000
OTHER
1070
     0
1002
}
1002
{
1000
REACTOR
1002
}
  0
ARC
  5
1D356
330
1F
100
AcDbEntity
  8
AM_0
 48
0.5
100
AcDbCircle
 10
823.4021118390668
 20
-346.4640891936296
 30
0.0
 40
5.0
100
AcDbArc
 50
53.1301023541625
 51
90.0
1001
GENIUS_GENOBJ-N-FIL_13
1002
{
1000
OWNER
1000
GEN
1002
}
1001
GENIUS_GENODEF_13
1002
{
1000
HIER
1070
     0
1002
}
1002
{
1000
MANEDIT
1070
     0
1002
}
1002
{
1000
NOSEL
1070
     0
1002
}
1002
{
1000
BEHIND
1070
     0
1002
}
1002
{
1000
OTHER
1070
     0
1002
}
1002
{
1000
REACTOR
1002
}
  0
LINE
  5
1D357
330
1F
100
AcDbEntity
  8
AM_7
 48
0.5437500000000001
100
AcDbLine
 10
810.9021118390668
 20
-347.9015891936297
 30
0.0
 11
810.9021118390668
 21
-337.0265891936297
 31
0.0
1001
GENIUS_GENOBJ-N-CEN_13
1002
{
1000
OWNER
1000
GEN
1002
}
1001
GENIUS_GENODEF_13
1002
{
1000
HIER
1070
     0
1002
}
1002
{
1000
MANEDIT
1070
     0
1002
}
1002
{
1000
NOSEL
1070
     0
1002
}
1002
{
1000
BEHIND
1070
     0
1002
}
1002
{
1000
OTHER
1070
     0
1002
}
1002
{
1000
REACTOR
1002
}
  0
LINE
  5
1D358
330
1F
100
AcDbEntity
  8
AM_3
 48
0.2599999999999909
100
AcDbLine
 10
808.3021118390668
 20
-341.8140891936297
 30
0.0
 11
813.5021118390666
 21
-341.8140891936297
 31
0.0
  0
LINE
  5
1D359
330
1F
100
AcDbEntity
  8
AM_3
 48
0.15
100
AcDbLine
 10
815.1521118390666
 20
-343.4640891936297
 30
0.0
 11
813.5021118390666
 21
-341.8140891936297
 31
0.0
  0
LINE
  5
1D35A
330
1F
100
AcDbEntity
  8
AM_3
 48
0.15
100
AcDbLine
 10
813.5021118390666
 20
-341.8140891936297
 30
0.0
 11
813.5021118390666
 21
-341.4640891936297
 31
0.0
  0
LINE
  5
1D35B
330
1F
100
AcDbEntity
  8
AM_3
 48
0.15
100
AcDbLine
 10
806.6521118390667
 20
-343.4640891936297
 30
0.0
 11
808.3021118390668
 21
-341.8140891936297
 31
0.0
  0
LINE
  5
1D35C
330
1F
100
AcDbEntity
  8
AM_3
 48
0.15
100
AcDbLine
 10
808.3021118390668
 20
-341.8140891936297
 30
0.0
 11
808.3021118390668
 21
-341.4640891936297
 31
0.0
  0
LINE
  5
1D35D
330
1F
100
AcDbEntity
  8
AM_7
 48
0.5437500000000001
100
AcDbLine
 10
865.9021118390667
 20
-347.9015891936297
 30
0.0
 11
865.9021118390667
 21
-337.0265891936297
 31
0.0
1001
GENIUS_GENOBJ-N-CEN_13
1002
{
1000
OWNER
1000
GEN
1002
}
1001
GENIUS_GENODEF_13
1002
{
1000
HIER
1070
     0
1002
}
1002
{
1000
MANEDIT
1070
     0
1002
}
1002
{
1000
NOSEL
1070
     0
1002
}
1002
{
1000
BEHIND
1070
     0
1002
}
1002
{
1000
OTHER
1070
     0
1002
}
1002
{
1000
REACTOR
1002
}
  0
LINE
  5
1D35E
330
1F
100
AcDbEntity
  8
AM_3
 48
0.2599999999999909
100
AcDbLine
 10
863.3021118390669
 20
-341.8140891936297
 30
0.0
 11
868.5021118390666
 21
-341.8140891936297
 31
0.0
  0
LINE
  5
1D35F
330
1F
100
AcDbEntity
  8
AM_3
 48
0.15
100
AcDbLine
 10
870.1521118390665
 20
-343.4640891936297
 30
0.0
 11
868.5021118390666
 21
-341.8140891936297
 31
0.0
  0
LINE
  5
1D360
330
1F
100
AcDbEntity
  8
AM_3
 48
0.15
100
AcDbLine
 10
868.5021118390666
 20
-341.8140891936297
 30
0.0
 11
868.5021118390666
 21
-341.4640891936297
 31
0.0
  0
LINE
  5
1D361
330
1F
100
AcDbEntity
  8
AM_3
 48
0.15
100
AcDbLine
 10
861.6521118390666
 20
-343.4640891936297
 30
0.0
 11
863.3021118390669
 21
-341.8140891936297
 31
0.0
  0
LINE
  5
1D362
330
1F
100
AcDbEntity
  8
AM_3
 48
0.15
100
AcDbLine
 10
863.3021118390669
 20
-341.8140891936297
 30
0.0
 11
863.3021118390669
 21
-341.4640891936297
 31
0.0
  0
LINE
  5
1D363
330
1F
100
AcDbEntity
  8
AM_0
 48
0.6000000000000001
100
AcDbLine
 10
832.4021118390669
 20
-368.6640891936296
 30
0.0
 11
844.4021118390669
 21
-368.6640891936296
 31
0.0
  0
ARC
  5
1D364
330
1F
100
AcDbEntity
  8
AM_3
 48
0.6498922651934107
100
AcDbCircle
 10
838.4021118390666
 20
-361.1530118455636
 30
0.0
 40
6.498922651934106
100
AcDbArc
 50
46.17782532465827
 51
133.8221746753417
  0
LINE
  5
1D365
330
1F
100
AcDbEntity
  8
AM_0
 48
0.55
100
AcDbLine
 10
832.9021118390667
 20
-369.8640891936295
 30
0.0
 11
843.902111839067
 21
-369.8640891936295
 31
0.0
  0
LINE
  5
1D366
330
1F
100
AcDbEntity
  8
AM_0
 48
0.15
100
AcDbLine
 10
832.4021118390669
 20
-369.3640891936295
 30
0.0
 11
832.9021118390667
 21
-369.8640891936295
 31
0.0
1001
GENIUS_GENFIL_13
1070
     0
1040
0.5
1040
0.5
1040
20.0
1040
0.0
1002
{
1002
}
1001
GENIUS_GENODEF_13
1002
{
1000
HIER
1070
     0
1002
}
1002
{
1000
MANEDIT
1070
     0
1002
}
1002
{
1000
NOSEL
1070
     0
1002
}
1002
{
1000
BEHIND
1070
     0
1002
}
1002
{
1000
OTHER
1070
     0
1002
}
1002
{
1000
REACTOR
1002
}
1001
GENIUS_GENOBJ-N-CHA_13
1002
{
1000
OWNER
1000
GEN
1002
}
  0
LINE
  5
1D367
330
1F
100
AcDbEntity
  8
AM_0
 48
0.15
100
AcDbLine
 10
832.4021118390669
 20
-368.6640891936296
 30
0.0
 11
832.4021118390669
 21
-369.3640891936295
 31
0.0
  0
LINE
  5
1D368
330
1F
100
AcDbEntity
  8
AM_0
 48
0.15
100
AcDbLine
 10
844.4021118390669
 20
-369.3640891936295
 30
0.0
 11
844.4021118390669
 21
-368.6640891936296
 31
0.0
  0
LINE
  5
1D369
330
1F
100
AcDbEntity
  8
AM_0
 48
0.15
100
AcDbLine
 10
843.902111839067
 20
-369.8640891936295
 30
0.0
 11
844.4021118390669
 21
-369.3640891936295
 31
0.0
1001
GENIUS_GENFIL_13
1070
     0
1040
0.5
1040
0.5
1040
20.0
1040
0.0
1002
{
1002
}
1001
GENIUS_GENOBJ-N-CHA_13
1002
{
1000
OWNER
1000
GEN
1002
}
1001
GENIUS_GENODEF_13
1002
{
1000
HIER
1070
     0
1002
}
1002
{
1000
MANEDIT
1070
     0
1002
}
1002
{
1000
NOSEL
1070
     0
1002
}
1002
{
1000
BEHIND
1070
     0
1002
}
1002
{
1000
OTHER
1070
     0
1002
}
1002
{
1000
REACTOR
1002
}
  0
LINE
  5
1D36A
330
1F
100
AcDbEntity
  8
AM_0
 48
0.15
100
AcDbLine
 10
834.4021118390667
 20
-368.6640891936296
 30
0.0
 11
834.4021118390667
 21
-368.5640891936297
 31
0.0
  0
LINE
  5
1D36B
330
1F
100
AcDbEntity
  8
AM_0
 48
0.15
100
AcDbLine
 10
834.4021118390667
 20
-359.5640891936297
 30
0.0
 11
834.4021118390667
 21
-359.4640891936295
 31
0.0
  0
LINE
  5
1D36C
330
1F
100
AcDbEntity
  8
AM_0
 48
0.15
100
AcDbLine
 10
842.4021118390669
 20
-368.6640891936296
 30
0.0
 11
842.4021118390669
 21
-368.5640891936297
 31
0.0
  0
LINE
  5
1D36D
330
1F
100
AcDbEntity
  8
AM_0
 48
0.15
100
AcDbLine
 10
842.4021118390669
 20
-359.5640891936297
 30
0.0
 11
842.4021118390669
 21
-359.4640891936297
 31
0.0
  0
LINE
  5
1D36E
330
1F
100
AcDbEntity
  8
AM_0
 48
0.6000000000000001
100
AcDbLine
 10
832.4021118390669
 20
-369.3640891936295
 30
0.0
 11
844.4021118390669
 21
-369.3640891936295
 31
0.0
  0
LINE
  5
1D36F
330
1F
100
AcDbEntity
  8
AM_0
 48
0.15
100
AcDbLine
 10
827.1021118390711
 20
-358.4640891936297
 30
0.0
 11
827.1021118390711
 21
-359.4640891936297
 31
0.0
  0
LINE
  5
1D370
330
1F
100
AcDbEntity
  8
AM_0
 48
0.15
100
AcDbLine
 10
849.7021118390614
 20
-359.4640891936297
 30
0.0
 11
849.7021118390614
 21
-358.4640891936297
 31
0.0
  0
LINE
  5
1D371
330
1F
100
AcDbEntity
  8
AM_0
 48
0.4499999999999972
100
AcDbLine
 10
831.9021118390661
 20
-359.5640891936297
 30
0.0
 11
831.9021118390661
 21
-368.5640891936297
 31
0.0
  0
LINE
  5
1D372
330
1F
100
AcDbEntity
  8
AM_3
100
AcDbLine
 10
920.1821456634057
 20
-359.5640891936298
 30
0.0
 11
867.9021118390663
 21
-359.5640891936297
 31
0.0
  0
LINE
  5
1D373
330
1F
100
AcDbEntity
  8
AM_0
100
AcDbLine
 10
920.1821456634057
 20
-358.0640891936298
 30
0.0
 11
857.1092186202532
 21
-358.0640891936297
 31
0.0
  0
ARC
  5
1D374
330
1F
100
AcDbEntity
  8
AM_0
 48
0.3
100
AcDbCircle
 10
857.1092186202532
 20
-358.5640891936297
 30
0.0
 40
0.5
100
AcDbArc
 50
90.0
 51
134.9999999999998
1001
GENIUS_GENOBJ-N-FIL_13
1002
{
1000
OWNER
1000
GEN
1002
}
1001
GENIUS_GENODEF_13
1002
{
1000
HIER
1070
     0
1002
}
1002
{
1000
MANEDIT
1070
     0
1002
}
1002
{
1000
NOSEL
1070
     0
1002
}
1002
{
1000
BEHIND
1070
     0
1002
}
1002
{
1000
OTHER
1070
     0
1002
}
1002
{
1000
REACTOR
1002
}
  0
LINE
  5
1D375
330
1F
100
AcDbEntity
  8
AM_0
100
AcDbLine
 10
920.1821456634057
 20
-359.5640891936296
 30
0.0
 11
831.4021118390666
 21
-359.5640891936297
 31
0.0
  0
LINE
  5
1D376
330
1F
100
AcDbEntity
  8
AM_0
 48
0.15
100
AcDbLine
 10
831.9021118390661
 20
-360.0640891936296
 30
0.0
 11
831.4021118390666
 21
-360.0640891936296
 31
0.0
  0
LINE
  5
1D377
330
1F
100
AcDbEntity
  8
AM_0
100
AcDbLine
 10
920.1821456634057
 20
-359.0640891936296
 30
0.0
 11
851.4021118390667
 21
-359.0640891936297
 31
0.0
  0
LINE
  5
1D378
330
1F
100
AcDbEntity
  8
AM_0
100
AcDbLine
 10
920.1821456634057
 20
-368.5640891936296
 30
0.0
 11
827.1021118390711
 21
-368.5640891936297
 31
0.0
  0
LINE
  5
1D379
330
1F
100
AcDbEntity
  8
AM_0
 48
0.239999999999759
100
AcDbLine
 10
831.9021118390661
 20
-367.3640891936297
 30
0.0
 11
827.1021118390711
 21
-367.3640891936297
 31
0.0
  0
LINE
  5
1D37A
330
1F
100
AcDbEntity
  8
AM_0
 48
0.15
100
AcDbLine
 10
831.4021118390666
 20
-359.5640891936297
 30
0.0
 11
831.4021118390666
 21
-360.0640891936297
 31
0.0
1001
GENIUS_GENOBJ-N-CEN_13
1002
{
1000
OWNER
1000
GEN
1002
}
1001
GENIUS_GENODEF_13
1002
{
1000
HIER
1070
     0
1002
}
1002
{
1000
MANEDIT
1070
     0
1002
}
1002
{
1000
NOSEL
1070
     0
1002
}
1002
{
1000
BEHIND
1070
     0
1002
}
1002
{
1000
OTHER
1070
     0
1002
}
1002
{
1000
REACTOR
1002
}
  0
LINE
  5
1D37B
330
1F
100
AcDbEntity
  8
AM_0
 48
0.15
100
AcDbLine
 10
827.1021118390711
 20
-367.3640891936297
 30
0.0
 11
827.1021118390711
 21
-368.5640891936297
 31
0.0
  0
LINE
  5
1D37C
330
1F
100
AcDbEntity
  8
AM_0
 48
0.15
100
AcDbLine
 10
856.75566522966
 20
-358.2105358030363
 30
0.0
 11
855.9021118390667
 21
-359.0640891936297
 31
0.0
  0
ARC
  5
1D37D
330
1F
100
AcDbEntity
  8
AM_0
 48
0.3
100
AcDbCircle
 10
851.4021118390667
 20
-359.5640891936297
 30
0.0
 40
0.5
100
AcDbArc
 50
89.99999999999348
 51
180.0
1001
GENIUS_GENOBJ-N-FIL_13
1002
{
1000
OWNER
1000
GEN
1002
}
1001
GENIUS_GENODEF_13
1002
{
1000
HIER
1070
     0
1002
}
1002
{
1000
MANEDIT
1070
     0
1002
}
1002
{
1000
NOSEL
1070
     0
1002
}
1002
{
1000
BEHIND
1070
     0
1002
}
1002
{
1000
OTHER
1070
     0
1002
}
1002
{
1000
REACTOR
1002
}
  0
DIMENSION
  5
1D37E
102
{ACAD_XDICTIONARY
360
1D37F
102
}
102
{ACAD_REACTORS
330
1D380
102
}
330
1F
100
AcDbEntity
  8
AM_5
100
AcDbDimension
  2
*D37
 10
865.9021118390661
 20
-264.4066309179583
 30
0.0
 11
838.4021118390661
 21
-261.3066309179583
 31
0.0
 70
    32
 71
     5
 42
55.0
  3
SYS$0
100
AcDbAlignedDimension
 13
810.9021118390661
 23
-276.4066309179583
 33
0.0
 14
865.9021118390661
 24
-276.4066309179583
 34
0.0
100
AcDbRotatedDimension
  0
DIMENSION
  5
1D381
330
1F
100
AcDbEntity
  8
AM_5
100
AcDbDimension
  2
*D21
 10
871.4021118390661
 20
-256.4066309179584
 30
0.0
 11
838.4021118390661
 21
-253.3066309179584
 31
0.0
 70
    32
 71
     5
 42
66.0
  3
SYS$0
100
AcDbAlignedDimension
 13
805.4021118390661
 23
-281.4066309179584
 33
0.0
 14
871.4021118390661
 24
-281.4066309179583
 34
0.0
100
AcDbRotatedDimension
  0
LINE
  5
1D382
330
1F
100
AcDbEntity
  8
AM_0
100
AcDbLine
 10
1033.902111839065
 20
-283.4066309179553
 30
0.0
 11
1038.402111839066
 21
-283.4066309179553
 31
0.0
  0
LINE
  5
1D383
330
1F
100
AcDbEntity
  8
AM_0
100
AcDbLine
 10
1039.669019182756
 20
-293.4066309179554
 30
0.0
 11
1033.902111839065
 21
-293.4066309179554
 31
0.0
  0
LINE
  5
1D384
330
1F
100
AcDbEntity
  8
AM_0
100
AcDbLine
 10
851.4021118390662
 20
-278.4066309179508
 30
0.0
 11
851.4021118390662
 21
-281.4066309179551
 31
0.0
  0
LINE
  5
1D385
330
1F
100
AcDbEntity
  8
AM_0
100
AcDbLine
 10
851.4021118390662
 20
-295.4066309179551
 30
0.0
 11
851.4021118390662
 21
-298.4066309179508
 31
0.0
  0
LINE
  5
1D386
330
1F
100
AcDbEntity
  8
AM_0
 48
0.3133974596215694
100
AcDbLine
 10
821.1341626466348
 20
-281.4066309179551
 30
0.0
 11
827.4021118390662
 21
-281.4066309179551
 31
0.0
  0
LINE
  5
1D387
330
1F
100
AcDbEntity
  8
AM_0
 48
0.65
100
AcDbLine
 10
806.4021118390661
 20
-280.4066309179551
 30
0.0
 11
819.4021118390661
 21
-280.4066309179551
 31
0.0
  0
ARC
  5
1D388
330
1F
100
AcDbEntity
  8
AM_0
 48
0.3
100
AcDbCircle
 10
806.4021118390661
 20
-281.4066309179551
 30
0.0
 40
1.0
100
AcDbArc
 50
90.0
 51
180.0
1001
GENIUS_GENOBJ-N-FIL_13
1002
{
1000
OWNER
1000
GEN
1002
}
1001
GENIUS_GENODEF_13
1002
{
1000
HIER
1070
     0
1002
}
1002
{
1000
MANEDIT
1070
     0
1002
}
1002
{
1000
NOSEL
1070
     0
1002
}
1002
{
1000
BEHIND
1070
     0
1002
}
1002
{
1000
OTHER
1070
     0
1002
}
1002
{
1000
REACTOR
1002
}
  0
LINE
  5
1D389
330
1F
100
AcDbEntity
  8
AM_0
 48
0.7000000000000001
100
AcDbLine
 10
805.4021118390661
 20
-295.4066309179551
 30
0.0
 11
805.4021118390661
 21
-281.4066309179551
 31
0.0
  0
LINE
  5
1D38A
330
1F
100
AcDbEntity
  8
AM_3
 48
0.700000000000003
100
AcDbLine
 10
826.4021118390662
 20
-281.4066309179551
 30
0.0
 11
826.4021118390656
 21
-295.4066309179552
 31
0.0
  0
LINE
  5
1D38B
330
1F
100
AcDbEntity
  8
AM_0
100
AcDbLine
 10
827.402111839066
 20
-296.4066309179552
 30
0.0
 11
849.4021118390659
 21
-296.4066309179551
 31
0.0
  0
LINE
  5
1D38C
330
1F
100
AcDbEntity
  8
AM_0
 48
0.9499999999999886
100
AcDbLine
 10
828.9021118390666
 20
-294.4066309179552
 30
0.0
 11
847.9021118390662
 21
-294.4066309179551
 31
0.0
  0
ARC
  5
1D38D
330
1F
100
AcDbEntity
  8
AM_0
 48
0.3
100
AcDbCircle
 10
827.402111839066
 20
-295.4066309179552
 30
0.0
 40
1.0
100
AcDbArc
 50
179.9999999999966
 51
270.0
1001
GENIUS_GENODEF_13
1002
{
1000
HIER
1070
     0
1002
}
1002
{
1000
MANEDIT
1070
     0
1002
}
1002
{
1000
NOSEL
1070
     0
1002
}
1002
{
1000
BEHIND
1070
     0
1002
}
1002
{
1000
OTHER
1070
     0
1002
}
1002
{
1000
REACTOR
1002
}
1001
GENIUS_GENOBJ-N-FIL_13
1002
{
1000
OWNER
1000
GEN
1002
}
  0
LINE
  5
1D38E
330
1F
100
AcDbEntity
  8
AM_3
 48
0.700000000000003
100
AcDbLine
 10
850.4021118390657
 20
-295.4066309179552
 30
0.0
 11
850.4021118390662
 21
-281.4066309179551
 31
0.0
  0
ARC
  5
1D38F
330
1F
100
AcDbEntity
  8
AM_0
 48
0.3
100
AcDbCircle
 10
849.4021118390659
 20
-295.4066309179551
 30
0.0
 40
1.0
100
AcDbArc
 50
270.0
 51
359.9999999999968
1001
GENIUS_GENODEF_13
1002
{
1000
HIER
1070
     0
1002
}
1002
{
1000
MANEDIT
1070
     0
1002
}
1002
{
1000
NOSEL
1070
     0
1002
}
1002
{
1000
BEHIND
1070
     0
1002
}
1002
{
1000
OTHER
1070
     0
1002
}
1002
{
1000
REACTOR
1002
}
1001
GENIUS_GENOBJ-N-FIL_13
1002
{
1000
OWNER
1000
GEN
1002
}
  0
ARC
  5
1D390
330
1F
100
AcDbEntity
  8
AM_0
 48
0.3
100
AcDbCircle
 10
849.4021118390662
 20
-281.4066309179551
 30
0.0
 40
1.0
100
AcDbArc
 50
359.9999999999968
 51
90.0
1001
GENIUS_GENODEF_13
1002
{
1000
HIER
1070
     0
1002
}
1002
{
1000
MANEDIT
1070
     0
1002
}
1002
{
1000
NOSEL
1070
     0
1002
}
1002
{
1000
BEHIND
1070
     0
1002
}
1002
{
1000
OTHER
1070
     0
1002
}
1002
{
1000
REACTOR
1002
}
1001
GENIUS_GENOBJ-N-FIL_13
1002
{
1000
OWNER
1000
GEN
1002
}
  0
LINE
  5
1D391
330
1F
100
AcDbEntity
  8
AM_0
100
AcDbLine
 10
849.4021118390662
 20
-280.4066309179551
 30
0.0
 11
827.4021118390662
 21
-280.4066309179551
 31
0.0
  0
LINE
  5
1D392
330
1F
100
AcDbEntity
  8
AM_0
 48
0.9499999999999886
100
AcDbLine
 10
847.9021118390662
 20
-282.4066309179551
 30
0.0
 11
828.9021118390666
 21
-282.4066309179551
 31
0.0
  0
ARC
  5
1D393
330
1F
100
AcDbEntity
  8
AM_0
 48
0.3
100
AcDbCircle
 10
827.4021118390662
 20
-281.4066309179551
 30
0.0
 40
1.0
100
AcDbArc
 50
90.0
 51
179.9999999999966
1001
GENIUS_GENODEF_13
1002
{
1000
HIER
1070
     0
1002
}
1002
{
1000
MANEDIT
1070
     0
1002
}
1002
{
1000
NOSEL
1070
     0
1002
}
1002
{
1000
BEHIND
1070
     0
1002
}
1002
{
1000
OTHER
1070
     0
1002
}
1002
{
1000
REACTOR
1002
}
1001
GENIUS_GENOBJ-N-FIL_13
1002
{
1000
OWNER
1000
GEN
1002
}
  0
LINE
  5
1D394
330
1F
100
AcDbEntity
  8
AM_0
 48
0.3133974596215694
100
AcDbLine
 10
827.4021118390662
 20
-295.4066309179551
 30
0.0
 11
821.1341626466348
 21
-295.4066309179551
 31
0.0
  0
LINE
  5
1D395
330
1F
100
AcDbEntity
  8
AM_0
 48
0.65
100
AcDbLine
 10
819.4021118390661
 20
-296.4066309179551
 30
0.0
 11
806.4021118390661
 21
-296.4066309179551
 31
0.0
  0
ARC
  5
1D396
330
1F
100
AcDbEntity
  8
AM_0
 48
0.3
100
AcDbCircle
 10
806.4021118390661
 20
-295.4066309179551
 30
0.0
 40
1.0
100
AcDbArc
 50
180.0
 51
270.0
1001
GENIUS_GENODEF_13
1002
{
1000
HIER
1070
     0
1002
}
1002
{
1000
MANEDIT
1070
     0
1002
}
1002
{
1000
NOSEL
1070
     0
1002
}
1002
{
1000
BEHIND
1070
     0
1002
}
1002
{
1000
OTHER
1070
     0
1002
}
1002
{
1000
REACTOR
1002
}
1001
GENIUS_GENOBJ-N-FIL_13
1002
{
1000
OWNER
1000
GEN
1002
}
  0
CIRCLE
  5
1D397
330
1F
100
AcDbEntity
  8
AM_0
 48
0.4
100
AcDbCircle
 10
810.9021118390661
 20
-288.4066309179551
 30
0.0
 40
2.6
  0
CIRCLE
  5
1D398
330
1F
100
AcDbEntity
  8
AM_0
 48
0.4
100
AcDbCircle
 10
865.9021118390661
 20
-288.4066309179551
 30
0.0
 40
2.6
  0
CIRCLE
  5
1D399
330
1F
100
AcDbEntity
  8
AM_3
 48
0.425
100
AcDbCircle
 10
810.9021118390661
 20
-288.4066309179551
 30
0.0
 40
4.25
  0
CIRCLE
  5
1D39A
330
1F
100
AcDbEntity
  8
AM_3
 48
0.425
100
AcDbCircle
 10
865.9021118390661
 20
-288.4066309179551
 30
0.0
 40
4.25
  0
CIRCLE
  5
1D39B
330
1F
100
AcDbEntity
  8
AM_0
 48
0.4050000000000001
100
AcDbCircle
 10
838.4021118390661
 20
-288.4066309179551
 30
0.0
 40
4.049999999999998
  0
LINE
  5
1D39C
330
1F
100
AcDbEntity
  8
AM_0
 48
0.15
100
AcDbLine
 10
819.4021118390661
 20
-280.4066309179551
 30
0.0
 11
821.1341626466348
 21
-281.4066309179551
 31
0.0
  0
LINE
  5
1D39D
330
1F
100
AcDbEntity
  8
AM_0
 48
0.15
100
AcDbLine
 10
821.1341626466348
 20
-295.4066309179551
 30
0.0
 11
819.4021118390661
 21
-296.4066309179551
 31
0.0
  0
LINE
  5
1D39E
330
1F
100
AcDbEntity
  8
AM_0
 48
0.313397459621541
100
AcDbLine
 10
855.6700610314972
 20
-281.4066309179551
 30
0.0
 11
849.4021118390662
 21
-281.4066309179551
 31
0.0
  0
LINE
  5
1D39F
330
1F
100
AcDbEntity
  8
AM_0
 48
0.65
100
AcDbLine
 10
870.4021118390661
 20
-280.4066309179551
 30
0.0
 11
857.402111839066
 21
-280.4066309179551
 31
0.0
  0
ARC
  5
1D3A0
330
1F
100
AcDbEntity
  8
AM_0
 48
0.3
100
AcDbCircle
 10
870.4021118390661
 20
-281.4066309179551
 30
0.0
 40
1.0
100
AcDbArc
 50
0.0
 51
90.0
1001
GENIUS_GENOBJ-N-FIL_13
1002
{
1000
OWNER
1000
GEN
1002
}
1001
GENIUS_GENODEF_13
1002
{
1000
HIER
1070
     0
1002
}
1002
{
1000
MANEDIT
1070
     0
1002
}
1002
{
1000
NOSEL
1070
     0
1002
}
1002
{
1000
BEHIND
1070
     0
1002
}
1002
{
1000
OTHER
1070
     0
1002
}
1002
{
1000
REACTOR
1002
}
  0
LINE
  5
1D3A1
330
1F
100
AcDbEntity
  8
AM_0
 48
0.7000000000000001
100
AcDbLine
 10
871.4021118390661
 20
-295.4066309179551
 30
0.0
 11
871.4021118390661
 21
-281.4066309179551
 31
0.0
  0
LINE
  5
1D3A2
330
1F
100
AcDbEntity
  8
AM_0
 48
0.3133974596215751
100
AcDbLine
 10
849.4021118390659
 20
-295.4066309179551
 30
0.0
 11
855.6700610314972
 21
-295.4066309179551
 31
0.0
  0
LINE
  5
1D3A3
330
1F
100
AcDbEntity
  8
AM_0
 48
0.65
100
AcDbLine
 10
857.402111839066
 20
-296.4066309179551
 30
0.0
 11
870.4021118390661
 21
-296.4066309179551
 31
0.0
  0
ARC
  5
1D3A4
330
1F
100
AcDbEntity
  8
AM_0
 48
0.3
100
AcDbCircle
 10
870.4021118390661
 20
-295.4066309179551
 30
0.0
 40
1.0
100
AcDbArc
 50
270.0
 51
0.0
1001
GENIUS_GENODEF_13
1002
{
1000
HIER
1070
     0
1002
}
1002
{
1000
MANEDIT
1070
     0
1002
}
1002
{
1000
NOSEL
1070
     0
1002
}
1002
{
1000
BEHIND
1070
     0
1002
}
1002
{
1000
OTHER
1070
     0
1002
}
1002
{
1000
REACTOR
1002
}
1001
GENIUS_GENOBJ-N-FIL_13
1002
{
1000
OWNER
1000
GEN
1002
}
  0
LINE
  5
1D3A5
330
1F
100
AcDbEntity
  8
AM_0
 48
0.15
100
AcDbLine
 10
857.402111839066
 20
-280.4066309179551
 30
0.0
 11
855.6700610314972
 21
-281.4066309179551
 31
0.0
  0
LINE
  5
1D3A6
330
1F
100
AcDbEntity
  8
AM_0
 48
0.15
100
AcDbLine
 10
855.6700610314972
 20
-295.4066309179551
 30
0.0
 11
857.402111839066
 21
-296.4066309179551
 31
0.0
  0
LINE
  5
1D3A7
330
1F
100
AcDbEntity
  8
AM_0
 48
0.6000000000000001
100
AcDbLine
 10
828.4021118390663
 20
-294.4066309179551
 30
0.0
 11
828.4021118390663
 21
-282.4066309179551
 31
0.0
  0
ARC
  5
1D3A8
330
1F
100
AcDbEntity
  8
AM_0
 48
0.3
100
AcDbCircle
 10
827.4021118390662
 20
-282.4066309179551
 30
0.0
 40
1.0
100
AcDbArc
 50
0.0
 51
90.0
1001
GENIUS_GENODEF_13
1002
{
1000
HIER
1070
     0
1002
}
1002
{
1000
MANEDIT
1070
     0
1002
}
1002
{
1000
NOSEL
1070
     0
1002
}
1002
{
1000
BEHIND
1070
     0
1002
}
1002
{
1000
OTHER
1070
     0
1002
}
1002
{
1000
REACTOR
1002
}
1001
GENIUS_GENOBJ-N-FIL_13
1002
{
1000
OWNER
1000
GEN
1002
}
  0
LINE
  5
1D3A9
330
1F
100
AcDbEntity
  8
AM_0
 48
0.15
100
AcDbLine
 10
828.9021118390666
 20
-280.4066309179551
 30
0.0
 11
828.9021118390666
 21
-282.4066309179551
 31
0.0
  0
LINE
  5
1D3AA
330
1F
100
AcDbEntity
  8
AM_0
 48
0.15
100
AcDbLine
 10
828.9021118390666
 20
-294.4066309179552
 30
0.0
 11
828.9021118390666
 21
-296.4066309179552
 31
0.0
  0
LINE
  5
1D3AB
330
1F
100
AcDbEntity
  8
AM_0
 48
0.15
100
AcDbLine
 10
847.9021118390662
 20
-280.4066309179551
 30
0.0
 11
847.9021118390662
 21
-282.406630917955
 31
0.0
  0
LINE
  5
1D3AC
330
1F
100
AcDbEntity
  8
AM_0
 48
0.15
100
AcDbLine
 10
847.9021118390662
 20
-294.4066309179551
 30
0.0
 11
847.9021118390662
 21
-296.4066309179551
 31
0.0
  0
LINE
  5
1D3AD
330
1F
100
AcDbEntity
  8
AM_0
 48
0.6000000000000001
100
AcDbLine
 10
848.4021118390662
 20
-282.4066309179557
 30
0.0
 11
848.4021118390662
 21
-294.4066309179557
 31
0.0
  0
ARC
  5
1D3AE
330
1F
100
AcDbEntity
  8
AM_0
 48
0.3
100
AcDbCircle
 10
826.9725533667067
 20
-283.6055270988543
 30
0.0
 40
2.271683946069523
100
AcDbArc
 50
31.85400183297569
 51
72.33231443397251
  0
ARC
  5
1D3AF
330
1F
100
AcDbEntity
  8
AM_0
 48
0.3
100
AcDbCircle
 10
827.4021118390662
 20
-294.4066309179551
 30
0.0
 40
1.0
100
AcDbArc
 50
270.0
 51
0.0
1001
GENIUS_GENODEF_13
1002
{
1000
HIER
1070
     0
1002
}
1002
{
1000
MANEDIT
1070
     0
1002
}
1002
{
1000
NOSEL
1070
     0
1002
}
1002
{
1000
BEHIND
1070
     0
1002
}
1002
{
1000
OTHER
1070
     0
1002
}
1002
{
1000
REACTOR
1002
}
1001
GENIUS_GENOBJ-N-FIL_13
1002
{
1000
OWNER
1000
GEN
1002
}
  0
ARC
  5
1D3B0
330
1F
100
AcDbEntity
  8
AM_0
 48
0.3
100
AcDbCircle
 10
826.9725533667067
 20
-293.207734737056
 30
0.0
 40
2.271683946069523
100
AcDbArc
 50
287.6676855660276
 51
328.1459981670242
  0
ARC
  5
1D3B1
330
1F
100
AcDbEntity
  8
AM_0
 48
0.3
100
AcDbCircle
 10
849.4021118390662
 20
-282.4066309179557
 30
0.0
 40
1.0
100
AcDbArc
 50
90.0
 51
179.9999999999966
1001
GENIUS_GENODEF_13
1002
{
1000
HIER
1070
     0
1002
}
1002
{
1000
MANEDIT
1070
     0
1002
}
1002
{
1000
NOSEL
1070
     0
1002
}
1002
{
1000
BEHIND
1070
     0
1002
}
1002
{
1000
OTHER
1070
     0
1002
}
1002
{
1000
REACTOR
1002
}
1001
GENIUS_GENOBJ-N-FIL_13
1002
{
1000
OWNER
1000
GEN
1002
}
  0
ARC
  5
1D3B2
330
1F
100
AcDbEntity
  8
AM_0
 48
0.3
100
AcDbCircle
 10
849.8316703114259
 20
-283.605527098855
 30
0.0
 40
2.271683946069523
100
AcDbArc
 50
107.6676855660205
 51
148.1459981670148
  0
ARC
  5
1D3B3
330
1F
100
AcDbEntity
  8
AM_0
 48
0.3
100
AcDbCircle
 10
849.4021118390659
 20
-294.4066309179557
 30
0.0
 40
1.0
100
AcDbArc
 50
179.9999999999966
 51
270.0
1001
GENIUS_GENODEF_13
1002
{
1000
HIER
1070
     0
1002
}
1002
{
1000
MANEDIT
1070
     0
1002
}
1002
{
1000
NOSEL
1070
     0
1002
}
1002
{
1000
BEHIND
1070
     0
1002
}
1002
{
1000
OTHER
1070
     0
1002
}
1002
{
1000
REACTOR
1002
}
1001
GENIUS_GENOBJ-N-FIL_13
1002
{
1000
OWNER
1000
GEN
1002
}
  0
ARC
  5
1D3B4
330
1F
100
AcDbEntity
  8
AM_0
 48
0.3
100
AcDbCircle
 10
849.8316703114253
 20
-293.2077347370566
 30
0.0
 40
2.271683946069523
100
AcDbArc
 50
211.8540018329662
 51
252.3323144339785
  0
LINE
  5
1D3B5
330
1F
100
AcDbEntity
  8
AM_0
100
AcDbLine
 10
855.9021118390662
 20
-280.4066309179508
 30
0.0
 11
855.9021118390662
 21
-281.2726563217395
 31
0.0
  0
LINE
  5
1D3B6
330
1F
100
AcDbEntity
  8
AM_0
100
AcDbLine
 10
855.9021118390662
 20
-295.5406055141706
 30
0.0
 11
855.9021118390662
 21
-296.4066309179508
 31
0.0
  0
LINE
  5
1D3B7
330
1F
100
AcDbEntity
  8
AM_3
 48
0.9
100
AcDbLine
 10
847.4021118390663
 20
-356.4640891936297
 30
0.0
 11
829.4021118390663
 21
-356.4640891936297
 31
0.0
  0
ARC
  5
1D3B8
330
1F
100
AcDbEntity
  8
AM_3
 48
0.3
100
AcDbCircle
 10
829.4021118390665
 20
-355.4640891936297
 30
0.0
 40
1.000000000000227
100
AcDbArc
 50
179.9999999999739
 51
269.999999999987
1001
GENIUS_GENODEF_13
1002
{
1000
HIER
1070
     0
1002
}
1002
{
1000
MANEDIT
1070
     0
1002
}
1002
{
1000
NOSEL
1070
     0
1002
}
1002
{
1000
BEHIND
1070
     0
1002
}
1002
{
1000
OTHER
1070
     0
1002
}
1002
{
1000
REACTOR
1002
}
1001
GENIUS_GENOBJ-N-FIL_13
1002
{
1000
OWNER
1000
GEN
1002
}
  0
LINE
  5
1D3B9
330
1F
100
AcDbEntity
  8
AM_0
 48
0.3571136942631938
100
AcDbLine
 10
828.4021118390663
 20
-346.4640891936296
 30
0.0
 11
828.4021118390663
 21
-353.6063630788935
 31
0.0
  0
LINE
  5
1D3BA
330
1F
100
AcDbEntity
  8
AM_0
 48
0.8999999999999886
100
AcDbLine
 10
847.4021118390663
 20
-341.4640891936297
 30
0.0
 11
829.4021118390665
 21
-341.4640891936297
 31
0.0
  0
LINE
  5
1D3BB
330
1F
100
AcDbEntity
  8
AM_0
 48
0.500000000000182
100
AcDbLine
 10
828.9021118390662
 20
-341.9640891936297
 30
0.0
 11
828.9021118390662
 21
-351.9640891936334
 31
0.0
  0
ARC
  5
1D3BC
330
1F
100
AcDbEntity
  8
AM_0
 48
0.3
100
AcDbCircle
 10
829.4021118390665
 20
-341.9640891936297
 30
0.0
 40
0.5
100
AcDbArc
 50
90.0
 51
180.0
1001
GENIUS_GENOBJ-N-FIL_13
1002
{
1000
OWNER
1000
GEN
1002
}
1001
GENIUS_GENODEF_13
1002
{
1000
HIER
1070
     0
1002
}
1002
{
1000
MANEDIT
1070
     0
1002
}
1002
{
1000
NOSEL
1070
     0
1002
}
1002
{
1000
BEHIND
1070
     0
1002
}
1002
{
1000
OTHER
1070
     0
1002
}
1002
{
1000
REACTOR
1002
}
  0
ARC
  5
1D3BD
330
1F
100
AcDbEntity
  8
AM_0
 48
0.3
100
AcDbCircle
 10
847.4021118390663
 20
-341.9640891936297
 30
0.0
 40
0.5
100
AcDbArc
 50
0.0
 51
90.0
1001
GENIUS_GENOBJ-N-FIL_13
1002
{
1000
OWNER
1000
GEN
1002
}
1001
GENIUS_GENODEF_13
1002
{
1000
HIER
1070
     0
1002
}
1002
{
1000
MANEDIT
1070
     0
1002
}
1002
{
1000
NOSEL
1070
     0
1002
}
1002
{
1000
BEHIND
1070
     0
1002
}
1002
{
1000
OTHER
1070
     0
1002
}
1002
{
1000
REACTOR
1002
}
  0
ARC
  5
1D3BE
330
1F
100
AcDbEntity
  8
AM_0
 48
0.4278041552830977
100
AcDbCircle
 10
824.6427675249664
 20
-351.5645575407011
 30
0.0
 40
4.278041552830974
100
AcDbArc
 50
294.2833780312574
 51
354.6412663847754
  0
LINE
  5
1D3BF
330
1F
100
AcDbEntity
  8
AM_3
 48
0.15
100
AcDbLine
 10
828.4021118390663
 20
-355.4640891936297
 30
0.0
 11
828.4021118390663
 21
-353.6063630788935
 31
0.0
  0
LINE
  5
1D3C0
330
1F
100
AcDbEntity
  8
AM_0
 48
0.3571136942631938
100
AcDbLine
 10
848.4021118390662
 20
-346.4640891936296
 30
0.0
 11
848.4021118390662
 21
-353.6063630788935
 31
0.0
  0
LINE
  5
1D3C1
330
1F
100
AcDbEntity
  8
AM_3
 48
0.15
100
AcDbLine
 10
848.4021118390662
 20
-355.4640891936297
 30
0.0
 11
848.4021118390662
 21
-353.6063630788935
 31
0.0
  0
ARC
  5
1D3C2
330
1F
100
AcDbEntity
  8
AM_0
 48
0.4278041552830977
100
AcDbCircle
 10
852.1614561531659
 20
-351.5645575407011
 30
0.0
 40
4.278041552830974
100
AcDbArc
 50
185.3587336152246
 51
245.7166219687426
  0
LINE
  5
1D3C3
330
1F
100
AcDbEntity
  8
AM_0
 48
0.500000000000182
100
AcDbLine
 10
847.902111839066
 20
-341.9640891936297
 30
0.0
 11
847.9021118390662
 21
-351.9640891936334
 31
0.0
  0
ARC
  5
1D3C4
330
1F
100
AcDbEntity
  8
AM_3
 48
0.3
100
AcDbCircle
 10
847.4021118390661
 20
-355.4640891936297
 30
0.0
 40
1.000000000000227
100
AcDbArc
 50
270.000000000013
 51
0.0000000000260551
1001
GENIUS_GENODEF_13
1002
{
1000
HIER
1070
     0
1002
}
1002
{
1000
MANEDIT
1070
     0
1002
}
1002
{
1000
NOSEL
1070
     0
1002
}
1002
{
1000
BEHIND
1070
     0
1002
}
1002
{
1000
OTHER
1070
     0
1002
}
1002
{
1000
REACTOR
1002
}
1001
GENIUS_GENOBJ-N-FIL_13
1002
{
1000
OWNER
1000
GEN
1002
}
  0
LINE
  5
1D759
330
1F
100
AcDbEntity
  8
AM_7
 48
0.825
100
AcDbLine
 10
1031.902111839066
 20
-362.7640891936288
 30
0.0
 11
1031.902111839066
 21
-379.2640891936288
 31
0.0
1001
GENIUS_GENODEF_13
1002
{
1000
HIER
1070
     0
1002
}
1002
{
1000
MANEDIT
1070
     0
1002
}
1002
{
1000
NOSEL
1070
     0
1002
}
1002
{
1000
BEHIND
1070
     0
1002
}
1002
{
1000
OTHER
1070
     0
1002
}
1002
{
1000
REACTOR
1002
}
1001
GENIUS_GENOBJ-N-CEN_13
1002
{
1000
OWNER
1000
GEN
1002
}
  0
LINE
  5
1D75A
330
1F
100
AcDbEntity
  8
AM_7
 48
0.825
100
AcDbLine
 10
1023.652111839066
 20
-371.0140891936288
 30
0.0
 11
1040.152111839066
 21
-371.0140891936288
 31
0.0
1001
GENIUS_GENODEF_13
1002
{
1000
HIER
1070
     0
1002
}
1002
{
1000
MANEDIT
1070
     0
1002
}
1002
{
1000
NOSEL
1070
     0
1002
}
1002
{
1000
BEHIND
1070
     0
1002
}
1002
{
1000
OTHER
1070
     0
1002
}
1002
{
1000
REACTOR
1002
}
1001
GENIUS_GENOBJ-N-CEN_13
1002
{
1000
OWNER
1000
GEN
1002
}
  0
MTEXT
  5
1D813
330
1F
100
AcDbEntity
  8
AM_6
 48
1.01
100
AcDbMText
 10
753.8700840651516
 20
-178.5620284009599
 30
0.0
 40
3.2
 41
90.0
 71
     4
 72
     5
  1
呼び4.1×25サラタッピンネジ　+ SUS　:4本
 73
     1
 44
1.0
1001
ACAD
1000
MTEXTBEGIN
1070
    73
1070
     1
1070
    44
1040
1.0
1070
    74
1070
     0
1000
MTEXTEND
  0
MTEXT
  5
1D814
330
1F
100
AcDbEntity
  8
AM_6
 48
1.01
100
AcDbMText
 10
753.1587099358563
 20
-138.7762460479178
 30
0.0
 40
3.2
 41
90.0
 71
     4
 72
     5
  1
アームストッパー
 73
     1
 44
1.0
1001
ACAD
1000
MTEXTBEGIN
1070
    73
1070
     1
1070
    44
1040
1.0
1070
    74
1070
     0
1000
MTEXTEND
  0
MTEXT
  5
1D815
330
1F
100
AcDbEntity
  8
AM_6
 48
1.01
100
AcDbMText
 10
753.557620828054
 20
-146.7762460479178
 30
0.0
 40
3.2
 41
90.0
 71
     4
 72
     5
  1
DS-75
 73
     1
 44
1.0
1001
ACAD
1000
MTEXTBEGIN
1070
    73
1070
     1
1070
    44
1040
1.0
1070
    74
1070
     0
1000
MTEXTEND
  0
MTEXT
  5
1D816
330
1F
100
AcDbEntity
  8
AM_6
 48
1.01
100
AcDbMText
 10
753.557620828054
 20
-154.7762460479178
 30
0.0
 40
3.2
 41
90.0
 71
     4
 72
     5
  1
ステンレス
 73
     1
 44
1.0
1001
ACAD
1000
MTEXTBEGIN
1070
    73
1070
     1
1070
    44
1040
1.0
1070
    74
1070
     0
1000
MTEXTEND
  0
MTEXT
  5
1D817
330
1F
100
AcDbEntity
  8
AM_6
 48
1.01
100
AcDbMText
 10
753.557620828054
 20
-162.7762460479178
 30
0.0
 40
3.2
 41
90.0
 71
     4
 72
     5
  1
ヘアーライン仕上・クロームメッキ仕上・ゴールド仕上・ブロンズ仕上
 73
     1
 44
1.0
1001
ACAD
1000
MTEXTBEGIN
1070
    73
1070
     1
1070
    44
1040
1.0
1070
    74
1070
     0
1000
MTEXTEND
  0
CIRCLE
  5
1D9C4
330
1F
100
AcDbEntity
  8
AM_CL
100
AcDbCircle
 10
797.0567987445434
 20
-178.7878773069416
 30
0.0
 40
1.446762220420197
  0
ENDSEC
  0
SECTION
  2
OBJECTS
  0
DICTIONARY
  5
C
330
0
100
AcDbDictionary
281
     1
  3
ACAD_2007HEADERVARS_RT
350
1D9DD
  3
ACAD_COLOR
350
164C8
  3
ACAD_GROUP
350
D
  3
ACAD_LAYOUT
350
1A
  3
ACAD_MATERIAL
350
164C7
  3
ACAD_MLINESTYLE
350
17
  3
ACAD_PLOTSETTINGS
350
19
  3
ACAD_PLOTSTYLENAME
350
E
  3
ACAD_TABLESTYLE
350
164C9
  3
ACAD_VISUALSTYLE
350
1BDA3
  3
AcAsAppObject
350
3DA1
  3
ACASGREF_MASTER
350
3DE9
  3
ACDBHEADERROUNDTRIPXREC
350
1D88F
  3
AcDbVariableDictionary
350
34
  3
AcmDictionary
350
47
  3
AD_GREF_MODULE
350
3DEA
  3
AD_MAPI_MODULE
350
3E06
  3
AMG
350
2B
  3
AMGSNAPSETTINGS
350
7D
  3
ASE_INDEX_DICTIONARY
350
12397
  3
DWGPROPS
350
1D9DC
  3
MAPISURF_MODULE
350
3DEB
  3
SAKAE_DICT
350
F639
  0
DICTIONARY
  5
3F95
330
2
100
AcDbDictionary
280
     1
281
     1
  3
ACAD_LAYERFILTERS
360
3F98
  3
ACAD_LAYERSTATES
360
3F96
  0
DICTIONARY
  5
8A
330
1F
100
AcDbDictionary
280
     1
281
     1
  3
ACAD_SORTENTS
360
169EE
  0
DICTIONARY
  5
1D95D
330
1D881
100
AcDbDictionary
280
     1
281
     1
  3
ACAD_SORTENTS
360
1D9DB
  0
DICTIONARY
  5
1D37F
330
1D37E
100
AcDbDictionary
280
     1
281
     1
  3
ACAD_DIMASSOC
360
1D380
  0
DICTIONARY
  5
1D9DD
102
{ACAD_REACTORS
330
C
102
}
330
C
100
AcDbDictionary
281
     1
  3
DIMARCSYM
350
1D9DE
  0
DICTIONARY
  5
164C8
102
{ACAD_REACTORS
330
C
102
}
330
C
100
AcDbDictionary
281
     1
  0
DICTIONARY
  5
D
102
{ACAD_REACTORS
330
C
102
}
330
C
100
AcDbDictionary
281
     1
  0
DICTIONARY
  5
1A
102
{ACAD_REACTORS
330
C
102
}
330
C
100
AcDbDictionary
281
     1
  3
Model
350
22
  3
ﾚｲｱｳﾄ1
350
1E
  3
ﾚｲｱｳﾄ2
350
26
  0
DICTIONARY
  5
164C7
102
{ACAD_REACTORS
330
C
102
}
330
C
100
AcDbDictionary
281
     1
  3
ByBlock
350
1BDA2
  3
ByLayer
350
1BDA1
  3
Global
350
1BBE5
  0
DICTIONARY
  5
17
102
{ACAD_REACTORS
330
C
102
}
330
C
100
AcDbDictionary
281
     1
  3
Standard
350
18
  0
DICTIONARY
  5
19
102
{ACAD_REACTORS
330
C
102
}
330
C
100
AcDbDictionary
281
     1
  3
3100
350
1649A
  3
3101
350
1649B
  3
3200
350
1649C
  3
3201
350
1649D
  0
ACDBDICTIONARYWDFLT
  5
E
102
{ACAD_REACTORS
330
C
102
}
330
C
100
AcDbDictionary
281
     1
  3
Normal
350
F
100
AcDbDictionaryWithDefault
340
F
  0
DICTIONARY
  5
164C9
102
{ACAD_REACTORS
330
C
102
}
330
C
100
AcDbDictionary
281
     1
  3
Standard
350
164CA
  0
DICTIONARY
  5
1BDA3
102
{ACAD_REACTORS
330
C
102
}
330
C
100
AcDbDictionary
281
     1
  3
2dWireframe
350
1BDA9
  3
3D Hidden
350
1BDAB
  3
3dWireframe
350
1BDAA
  3
Basic
350
1BDA8
  3
Brighten
350
1BDAF
  3
ColorChange
350
1BDB3
  3
Conceptual
350
1BDAC
  3
Dim
350
1BDAE
  3
Facepattern
350
1BDB2
  3
Flat
350
1BDA4
  3
FlatWithEdges
350
1BDA5
  3
Gouraud
350
1BDA6
  3
GouraudWithEdges
350
1BDA7
  3
Linepattern
350
1BDB1
  3
Realistic
350
1BDAD
  3
Thicken
350
1BDB0
  0
ACAD_PROXY_OBJECT
  5
3DA1
102
{ACAD_REACTORS
330
C
102
}
330
C
100
AcDbProxyObject
 90
      499
 91
      576
 95
       23
 70
     0
 93
       10
310
407F
 94
        0
1001
ACAD
1000
AcRTDxfName
1000
ASAPP
1000
AcRTDxfName
1000
ASAPP
1000
AcRTDxfName
1000
ASAPP
1000
AcRTDxfName
1000
ASAPP
1000
AcRTDxfName
1000
ASAPP
1000
AcRTDxfName
1000
ASAPP
1000
AcRTDxfName
1000
ASAPP
  0
ACAD_PROXY_OBJECT
  5
3DE9
102
{ACAD_REACTORS
330
C
102
}
330
C
100
AcDbProxyObject
 90
      499
 91
      581
 95
       23
 70
     0
 93
       34
310
010000407F
 94
        0
1001
ACAD
1000
AcRTDxfName
1000
ACASGREFMASTER
1000
AcRTDxfName
1000
ACASGREFMASTER
1000
AcRTDxfName
1000
ACASGREFMASTER
1000
AcRTDxfName
1000
ACASGREFMASTER
1000
AcRTDxfName
1000
ACASGREFMASTER
1000
AcRTDxfName
1000
ACASGREFMASTER
1000
AcRTDxfName
1000
ACASGREFMASTER
  0
DICTIONARY
  5
1D88F
102
{ACAD_REACTORS
330
C
102
}
330
C
100
AcDbDictionary
281
     1
  0
DICTIONARY
  5
34
102
{ACAD_REACTORS
330
C
102
}
330
C
100
AcDbDictionary
281
     1
  3
CTABLESTYLE
350
16525
  3
DIMASSOC
350
D350
  3
INDEXCTL
350
35
  3
PROJECTNAME
350
1D88C
  3
SORTENTS
350
194C
  0
DICTIONARY
  5
47
102
{ACAD_REACTORS
330
C
102
}
330
C
100
AcDbDictionary
281
     1
  3
AcmBOM
350
7E8
  3
AcmStdDictionary
350
4C
  3
AMDTSECTSYM_ARROWCOLOR
350
164E9
  0
ACAD_PROXY_OBJECT
  5
3DEA
102
{ACAD_REACTORS
330
C
102
}
330
C
100
AcDbProxyObject
 90
      499
 91
      582
 95
       23
 70
     0
 93
      114
310
00000043800000000000000000003F
 94
        0
1001
ACAD
1000
AcRTDxfName
1000
ACADGREFMODULE
1000
AcRTDxfName
1000
ACADGREFMODULE
1000
AcRTDxfName
1000
ACADGREFMODULE
1000
AcRTDxfName
1000
ACADGREFMODULE
1000
AcRTDxfName
1000
ACADGREFMODULE
1000
AcRTDxfName
1000
ACADGREFMODULE
1000
AcRTDxfName
1000
ACADGREFMODULE
  0
ACAD_PROXY_OBJECT
  5
3E06
102
{ACAD_REACTORS
330
C
102
}
330
C
100
AcDbProxyObject
 90
      499
 91
      594
 95
       23
 70
     0
 93
       34
310
05000044FF
 94
        0
1001
ACAD
1000
AcRTDxfName
1000
MAPIADMODULE
1000
AcRTDxfName
1000
MAPIADMODULE
1000
AcRTDxfName
1000
MAPIADMODULE
1000
AcRTDxfName
1000
MAPIADMODULE
1000
AcRTDxfName
1000
MAPIADMODULE
1000
AcRTDxfName
1000
MAPIADMODULE
1000
AcRTDxfName
1000
MAPIADMODULE
  0
DICTIONARY
  5
2B
102
{ACAD_REACTORS
330
C
102
}
330
C
100
AcDbDictionary
281
     1
  0
DICTIONARY
  5
7D
102
{ACAD_REACTORS
330
C
102
}
330
C
100
AcDbDictionary
281
     1
  0
DICTIONARY
  5
12397
102
{ACAD_REACTORS
330
C
102
}
330
C
100
AcDbDictionary
281
     1
  3
ASEBlockHierarchyIndexRecord
350
12398
1001
DCO15
1040
1516634736.952999
  0
XRECORD
  5
1D9DC
102
{ACAD_REACTORS
330
C
102
}
330
C
100
AcDbXrecord
280
     1
  1
DWGPROPS COOKIE
  2

  3

  4

  6

  7

  8
Administrator
  9

300
AmdtFileType=84
301
=
302
=
303
=
304
=
305
=
306
=
307
=
308
=
309
=
 40
17.87190306712963
 41
2452002.615067627
 42
2454886.436461586
  1

 90
        1
  0
ACAD_PROXY_OBJECT
  5
3DEB
102
{ACAD_REACTORS
330
C
102
}
330
C
100
AcDbProxyObject
 90
      499
 91
      583
 95
       23
 70
     0
 93
        8
310
047D
 94
        0
1001
ACAD
1000
AcRTDxfName
1000
AMDTMAPISURFMOUDULE
1000
AcRTDxfName
1000
AMDTMAPISURFMOUDULE
1000
AcRTDxfName
1000
AMDTMAPISURFMOUDULE
1000
AcRTDxfName
1000
AMDTMAPISURFMOUDULE
1000
AcRTDxfName
1000
AMDTMAPISURFMOUDULE
1000
AcRTDxfName
1000
AMDTMAPISURFMOUDULE
1000
AcRTDxfName
1000
AMDTMAPISURFMOUDULE
  0
DICTIONARY
  5
F639
102
{ACAD_REACTORS
330
C
102
}
330
C
100
AcDbDictionary
281
     1
  3
XREC1
350
F63A
  0
DICTIONARY
  5
3F98
102
{ACAD_REACTORS
330
3F95
102
}
330
3F95
100
AcDbDictionary
280
     1
281
     1
  0
DICTIONARY
  5
3F96
102
{ACAD_REACTORS
330
3F95
102
}
330
3F95
100
AcDbDictionary
281
     1
  3
20011210
350
3FB7
  0
SORTENTSTABLE
  5
169EE
102
{ACAD_REACTORS
330
8A
102
}
330
8A
100
AcDbSortentsTable
330
1F
331
1B1F8
  5
1B86C
331
1C0B5
  5
1C0B5
331
1B1F4
  5
1B1F9
331
1C0B1
  5
1C0B1
331
1B1F0
  5
1B1F5
331
1C0AD
  5
1C0AD
331
1C107
  5
1C107
331
1B1F9
  5
1B86D
331
1C0B6
  5
1C0B6
331
1B1F5
  5
1B861
331
1C0FB
  5
1C0FB
331
1C0B2
  5
1C0B2
331
1B1F1
  5
1B1F6
331
1C0AE
  5
1C0AE
331
1C0BB
  5
1C0BB
331
1C0AA
  5
1C0AA
331
1C104
  5
1C104
331
1C100
  5
1C100
331
1B1F6
  5
1B862
331
1C0FC
  5
1C0FC
331
1C0B3
  5
1C0B3
331
1B1F2
  5
1B1F7
331
1C0AF
  5
1C0AF
331
1C0BC
  5
1C0BC
331
1C0AB
  5
1C0AB
331
1C0B8
  5
1C0B8
331
1C101
  5
1C101
331
1B1F7
  5
1B86B
331
1C0FD
  5
1C0FD
331
1B1F3
  5
1B1F8
331
1C0B0
  5
1C0B0
331
1C0BD
  5
1C0BD
331
1C0AC
  5
1C0AC
331
1C106
  5
1C106
  0
SORTENTSTABLE
  5
1D9DB
102
{ACAD_REACTORS
330
1D95D
102
}
330
1D95D
100
AcDbSortentsTable
330
1D881
  0
DIMASSOC
  5
1D380
102
{ACAD_REACTORS
330
1D37F
102
}
330
1D37F
100
AcDbDimAssoc
330
1D37E
 90
        3
 70
     0
 71
     0
  1
AcDbOsnapPointRef
 72
     1
331
1D2C6
 73
     0
 91
        0
 40
0.0
 10
0.0
 20
0.0
 30
2.000000000000000E+50
 75
     0
  1
AcDbOsnapPointRef
 72
     1
331
1D2C5
 73
     0
 91
        0
 40
0.0
 10
0.0
 20
0.0
 30
2.000000000000000E+50
 75
     0
  0
XRECORD
  5
1D9DE
102
{ACAD_REACTORS
330
1D9DD
102
}
330
1D9DD
100
AcDbXrecord
280
     1
 70
     1
  0
LAYOUT
  5
22
102
{ACAD_XDICTIONARY
360
1D9E1
102
}
102
{ACAD_REACTORS
330
1A
102
}
330
1A
100
AcDbPlotSettings
  1
3200
  2
RICOH imagio Wide 7040e RP-GL/2
  4
A3
  6
AM_VIEW1
 40
5.069416522979736
 41
7.22842264175415
 42
5.238739013671875
 43
7.05908203125
 44
419.9889831542968
 45
296.9683227539062
 46
-5.159586191177368
 47
-7.15959095954895
 48
219.4956354736256
 49
-444.9842316285891
140
639.4956354736256
141
-147.9842316285891
142
1.0
143
1.0
 70
  3764
 72
     1
 73
     0
 74
     4
  7
monochrome.ctb
 75
    16
147
1.0
148
-219.4956354736256
149
444.9842316285891
100
AcDbLayout
  1
Model
 70
     1
 71
     0
 10
0.0
 20
0.0
 11
12.0
 21
9.0
 12
0.0
 22
0.0
 32
0.0
 14
0.0
 24
0.0
 34
0.0
 15
0.0
 25
0.0
 35
0.0
146
0.0
 13
0.0
 23
0.0
 33
0.0
 16
1.0
 26
0.0
 36
0.0
 17
0.0
 27
1.0
 37
0.0
 76
     0
330
1F
331
1D88D
1001
ACAD_PSEXT
1000
RICOH imagio Wide 7040e RP-GL/2
1000
RICOH imagio Wide 7040e RP-GL/2
1000
192.200.51.212@imagioW7040e@
1000
RP-GL/2 Driver (Windows 2000/XP/Server 2003)
1070
     0
  0
LAYOUT
  5
1E
102
{ACAD_XDICTIONARY
360
1D9DF
102
}
102
{ACAD_REACTORS
330
1A
102
}
330
1A
100
AcDbPlotSettings
  1

  2
\\ML370\XEROX
  4
A4
  6

 40
3.174999952316281
 41
3.174999952316281
 42
3.175003051757812
 43
3.17498779296875
 44
209.8674926757813
 45
296.6719970703125
 46
0.0
 47
0.0
 48
0.0
 49
0.0
140
0.0
141
0.0
142
1.0
143
1.0
 70
   688
 72
     1
 73
     1
 74
     5
  7
monochrome.ctb
 75
    16
147
1.0
148
0.0
149
0.0
100
AcDbLayout
  1
ﾚｲｱｳﾄ1
 70
     1
 71
     1
 10
-3.17498779296875
 20
-3.174999952316281
 11
293.4970092773438
 21
206.692492723465
 12
0.0
 22
0.0
 32
0.0
 14
1.000000000000000E+20
 24
1.000000000000000E+20
 34
1.000000000000000E+20
 15
-1.000000000000000E+20
 25
-1.000000000000000E+20
 35
-1.000000000000000E+20
146
0.0
 13
0.0
 23
0.0
 33
0.0
 16
1.0
 26
0.0
 36
0.0
 17
0.0
 27
1.0
 37
0.0
 76
     0
330
1B
  0
LAYOUT
  5
26
102
{ACAD_XDICTIONARY
360
1D9E3
102
}
102
{ACAD_REACTORS
330
1A
102
}
330
1A
100
AcDbPlotSettings
  1

  2
\\ML370\XEROX
  4

  6

 40
0.0
 41
0.0
 42
0.0
 43
0.0
 44
0.0
 45
0.0
 46
0.0
 47
0.0
 48
0.0
 49
0.0
140
0.0
141
0.0
142
1.0
143
1.0
 70
   688
 72
     0
 73
     0
 74
     5
  7
monochrome.ctb
 75
    16
147
1.0
148
0.0
149
0.0
100
AcDbLayout
  1
ﾚｲｱｳﾄ2
 70
     1
 71
     2
 10
0.0
 20
0.0
 11
12.0
 21
9.0
 12
0.0
 22
0.0
 32
0.0
 14
0.0
 24
0.0
 34
0.0
 15
0.0
 25
0.0
 35
0.0
146
0.0
 13
0.0
 23
0.0
 33
0.0
 16
1.0
 26
0.0
 36
0.0
 17
0.0
 27
1.0
 37
0.0
 76
     0
330
23
  0
MATERIAL
  5
1BDA2
102
{ACAD_XDICTIONARY
360
1BEE1
102
}
102
{ACAD_REACTORS
330
164C7
102
}
330
164C7
100
AcDbMaterial
  1
ByBlock
  0
MATERIAL
  5
1BDA1
102
{ACAD_XDICTIONARY
360
1BEDF
102
}
102
{ACAD_REACTORS
330
164C7
102
}
330
164C7
100
AcDbMaterial
  1
ByLayer
  0
MATERIAL
  5
1BBE5
102
{ACAD_XDICTIONARY
360
1BEDD
102
}
102
{ACAD_REACTORS
330
164C7
102
}
330
164C7
100
AcDbMaterial
  1
Global
  0
MLINESTYLE
  5
18
102
{ACAD_REACTORS
330
17
102
}
330
17
100
AcDbMlineStyle
  2
STANDARD
 70
     0
  3

 62
   256
 51
90.0
 52
90.0
 71
     2
 49
0.5
 62
   256
  6
BYLAYER
 49
-0.5
 62
   256
  6
BYLAYER
  0
PLOTSETTINGS
  5
1649A
102
{ACAD_XDICTIONARY
360
1D9E5
102
}
102
{ACAD_REACTORS
330
19
102
}
330
19
100
AcDbPlotSettings
  1
3100
  2
RICOH imagio Wide 7040e RP-GL/2
  4
A3
  6
AM_VIEW1
 40
5.069416522979736
 41
7.22842264175415
 42
5.238739013671875
 43
7.05908203125
 44
419.9889831542968
 45
296.9683227539062
 46
-5.16
 47
-7.16
 48
-227.2796935839621
 49
-444.984231628589
140
192.7203064160378
141
-147.984231628589
142
1.0
143
1.0
 70
  1716
 72
     1
 73
     0
 74
     4
  7
monochrome.ctb
 75
    16
147
1.0
148
227.2796935839621
149
444.984231628589
  0
PLOTSETTINGS
  5
1649B
102
{ACAD_XDICTIONARY
360
1D9E7
102
}
102
{ACAD_REACTORS
330
19
102
}
330
19
100
AcDbPlotSettings
  1
3101
  2
RICOH imagio Wide 7040e RP-GL/2
  4
A3
  6
AM_VIEW1
 40
5.069416522979736
 41
7.22842264175415
 42
5.238739013671875
 43
7.05908203125
 44
419.9889831542968
 45
296.9683227539062
 46
-5.16
 47
-7.16
 48
-227.2796935839623
 49
-759.8366747873004
140
192.7203064160377
141
-462.8366747873005
142
1.0
143
1.0
 70
  1716
 72
     1
 73
     0
 74
     4
  7
monochrome.ctb
 75
    16
147
1.0
148
227.2796935839623
149
759.8366747873004
  0
PLOTSETTINGS
  5
1649C
102
{ACAD_XDICTIONARY
360
1D9E9
102
}
102
{ACAD_REACTORS
330
19
102
}
330
19
100
AcDbPlotSettings
  1
3200
  2
RICOH imagio Wide 7040e RP-GL/2
  4
A3
  6
AM_VIEW1
 40
5.069416522979736
 41
7.22842264175415
 42
5.238739013671875
 43
7.05908203125
 44
419.9889831542968
 45
296.9683227539062
 46
-5.16
 47
-7.16
 48
219.4956354736256
 49
-444.9842316285891
140
639.4956354736256
141
-147.9842316285891
142
1.0
143
1.0
 70
  1716
 72
     1
 73
     0
 74
     4
  7
monochrome.ctb
 75
    16
147
1.0
148
-219.4956354736256
149
444.9842316285891
  0
PLOTSETTINGS
  5
1649D
102
{ACAD_XDICTIONARY
360
1D9EB
102
}
102
{ACAD_REACTORS
330
19
102
}
330
19
100
AcDbPlotSettings
  1
3201
  2
RICOH imagio Wide 7040e RP-GL/2
  4
A3
  6
AM_VIEW1
 40
5.069416522979736
 41
7.22842264175415
 42
5.238739013671875
 43
7.05908203125
 44
419.9889831542968
 45
296.9683227539062
 46
-5.16
 47
-7.16
 48
219.4956354736255
 49
-759.8366747873005
140
639.4956354736255
141
-462.8366747873005
142
1.0
143
1.0
 70
  1716
 72
     1
 73
     0
 74
     4
  7
monochrome.ctb
 75
    16
147
1.0
148
-219.4956354736255
149
759.8366747873005
  0
ACDBPLACEHOLDER
  5
F
102
{ACAD_REACTORS
330
E
102
}
330
E
  0
TABLESTYLE
  5
164CA
102
{ACAD_XDICTIONARY
360
1D9ED
102
}
102
{ACAD_REACTORS
330
164C9
102
}
330
164C9
100
AcDbTableStyle
  3
Standard
 70
     0
 71
     0
 40
1.5
 41
1.5
280
     0
281
     0
  7
STANDARD
140
4.5
170
     2
 62
     0
 63
     7
283
     0
274
    -2
284
     1
 64
     0
275
    -2
285
     1
 65
     0
276
    -2
286
     1
 66
     0
277
    -2
287
     1
 67
     0
278
    -2
288
     1
 68
     0
279
    -2
289
     1
 69
     0
  7
STANDARD
140
6.0
170
     5
 62
     0
 63
     7
283
     0
274
    -2
284
     1
 64
     0
275
    -2
285
     1
 65
     0
276
    -2
286
     1
 66
     0
277
    -2
287
     1
 67
     0
278
    -2
288
     1
 68
     0
279
    -2
289
     1
 69
     0
  7
STANDARD
140
4.5
170
     5
 62
     0
 63
     7
283
     0
274
    -2
284
     1
 64
     0
275
    -2
285
     1
 65
     0
276
    -2
286
     1
 66
     0
277
    -2
287
     1
 67
     0
278
    -2
288
     1
 68
     0
279
    -2
289
     1
 69
     0
  0
VISUALSTYLE
  5
1BDA9
102
{ACAD_REACTORS
330
1BDA3
102
}
330
1BDA3
100
AcDbVisualStyle
  2
2dWireframe
 70
     4
 71
     0
 72
     2
 73
     0
 90
        0
 40
-0.6
 41
-30.0
 62
     5
 63
     7
 74
     1
 91
        4
 64
     7
 65
   257
 75
     1
175
     1
 42
1.0
 92
        0
 66
   257
 43
1.0
 76
     1
 77
     6
 78
     2
 67
     7
 79
     5
170
     0
171
     0
290
     0
174
     0
 93
        1
 44
0.0
173
     0
291
     0
 45
0.0
1001
ACAD
1000
AcRTDxfName
1000
VISUALSTYLE
1000
AcDbSavedByObjectVersion
1070
     0
  0
VISUALSTYLE
  5
1BDAB
102
{ACAD_REACTORS
330
1BDA3
102
}
330
1BDA3
100
AcDbVisualStyle
  2
3D Hidden
 70
     6
 71
     1
 72
     2
 73
     2
 90
        0
 40
-0.6
 41
-30.0
 62
     5
 63
     7
 74
     2
 91
        2
 64
     7
 65
   257
 75
     2
175
     1
 42
40.0
 92
        0
 66
   257
 43
1.0
 76
     1
 77
     6
 78
     2
 67
     7
 79
     3
170
     0
171
     0
290
     0
174
     0
 93
        1
 44
0.0
173
     0
291
     0
 45
0.0
1001
ACAD
1000
AcRTDxfName
1000
VISUALSTYLE
1000
AcDbSavedByObjectVersion
1070
     0
  0
VISUALSTYLE
  5
1BDAA
102
{ACAD_REACTORS
330
1BDA3
102
}
330
1BDA3
100
AcDbVisualStyle
  2
3dWireframe
 70
     5
 71
     0
 72
     2
 73
     0
 90
        0
 40
-0.6
 41
-30.0
 62
     5
 63
     7
 74
     1
 91
        4
 64
     7
 65
   257
 75
     1
175
     1
 42
1.0
 92
        0
 66
   257
 43
1.0
 76
     1
 77
     6
 78
     2
 67
     7
 79
     5
170
     0
171
     0
290
     0
174
     0
 93
        1
 44
0.0
173
     0
291
     0
 45
0.0
1001
ACAD
1000
AcRTDxfName
1000
VISUALSTYLE
1000
AcDbSavedByObjectVersion
1070
     0
  0
VISUALSTYLE
  5
1BDA8
102
{ACAD_REACTORS
330
1BDA3
102
}
330
1BDA3
100
AcDbVisualStyle
  2
Basic
 70
     7
 71
     1
 72
     0
 73
     1
 90
        0
 40
-0.6
 41
-30.0
 62
     5
 63
     7
 74
     0
 91
        4
 64
     7
 65
   257
 75
     1
175
     1
 42
1.0
 92
        8
 66
     7
 43
1.0
 76
     1
 77
     6
 78
     2
 67
     7
 79
     5
170
     0
171
     0
290
     0
174
     0
 93
        1
 44
0.0
173
     0
291
     1
 45
0.0
1001
ACAD
1000
AcRTDxfName
1000
VISUALSTYLE
1000
AcDbSavedByObjectVersion
1070
     0
  0
VISUALSTYLE
  5
1BDAF
102
{ACAD_REACTORS
330
1BDA3
102
}
330
1BDA3
100
AcDbVisualStyle
  2
Brighten
 70
    12
 71
     2
 72
     2
 73
     0
 90
        0
 40
-0.6
 41
-30.0
 62
     5
 63
     7
 74
     1
 91
        4
 64
     7
 65
   257
 75
     1
175
     1
 42
1.0
 92
        8
 66
     7
 43
1.0
 76
     1
 77
     6
 78
     2
 67
     7
 79
     5
170
     0
171
     0
290
     0
174
     0
 93
        1
 44
50.0
173
     0
291
     1
 45
0.0
1001
ACAD
1000
AcRTDxfName
1000
VISUALSTYLE
1000
AcDbSavedByObjectVersion
1070
     0
  0
VISUALSTYLE
  5
1BDB3
102
{ACAD_REACTORS
330
1BDA3
102
}
330
1BDA3
100
AcDbVisualStyle
  2
ColorChange
 70
    16
 71
     2
 72
     2
 73
     3
 90
        0
 40
-0.6
 41
-30.0
 62
     5
 63
     8
 74
     1
 91
        4
 64
     7
 65
   257
 75
     1
175
     1
 42
1.0
 92
        8
 66
     8
 43
1.0
 76
     1
 77
     6
 78
     2
 67
     7
 79
     5
170
     0
171
     0
290
     0
174
     0
 93
        1
 44
0.0
173
     0
291
     1
 45
0.0
1001
ACAD
1000
AcRTDxfName
1000
VISUALSTYLE
1000
AcDbSavedByObjectVersion
1070
     0
  0
VISUALSTYLE
  5
1BDAC
102
{ACAD_REACTORS
330
1BDA3
102
}
330
1BDA3
100
AcDbVisualStyle
  2
Conceptual
 70
     9
 71
     3
 72
     2
 73
     0
 90
        0
 40
-0.6
 41
-30.0
 62
     5
 63
     7
 74
     2
 91
        2
 64
     7
 65
   257
 75
     1
175
     1
 42
40.0
 92
        8
 66
     7
 43
1.0
 76
     1
 77
     6
 78
     2
 67
     7
 79
     3
170
     0
171
     0
290
     0
174
     0
 93
        1
 44
0.0
173
     0
291
     0
 45
0.0
1001
ACAD
1000
AcRTDxfName
1000
VISUALSTYLE
1000
AcDbSavedByObjectVersion
1070
     0
  0
VISUALSTYLE
  5
1BDAE
102
{ACAD_REACTORS
330
1BDA3
102
}
330
1BDA3
100
AcDbVisualStyle
  2
Dim
 70
    11
 71
     2
 72
     2
 73
     0
 90
        0
 40
-0.6
 41
-30.0
 62
     5
 63
     7
 74
     1
 91
        4
 64
     7
 65
   257
 75
     1
175
     1
 42
1.0
 92
        8
 66
     7
 43
1.0
 76
     1
 77
     6
 78
     2
 67
     7
 79
     5
170
     0
171
     0
290
     0
174
     0
 93
        1
 44
-50.0
173
     0
291
     1
 45
0.0
1001
ACAD
1000
AcRTDxfName
1000
VISUALSTYLE
1000
AcDbSavedByObjectVersion
1070
     0
  0
VISUALSTYLE
  5
1BDB2
102
{ACAD_REACTORS
330
1BDA3
102
}
330
1BDA3
100
AcDbVisualStyle
  2
Facepattern
 70
    15
 71
     2
 72
     2
 73
     0
 90
        0
 40
-0.6
 41
-30.0
 62
     5
 63
     7
 74
     1
 91
        4
 64
     7
 65
   257
 75
     1
175
     1
 42
1.0
 92
        8
 66
     7
 43
1.0
 76
     1
 77
     6
 78
     2
 67
     7
 79
     5
170
     0
171
     0
290
     0
174
     0
 93
        1
 44
0.0
173
     0
291
     1
 45
0.0
1001
ACAD
1000
AcRTDxfName
1000
VISUALSTYLE
1000
AcDbSavedByObjectVersion
1070
     0
  0
VISUALSTYLE
  5
1BDA4
102
{ACAD_REACTORS
330
1BDA3
102
}
330
1BDA3
100
AcDbVisualStyle
  2
Flat
 70
     0
 71
     2
 72
     1
 73
     1
 90
        2
 40
-0.6
 41
30.0
 62
     5
 63
     7
 74
     0
 91
        4
 64
     7
 65
   257
 75
     1
175
     1
 42
1.0
 92
        8
 66
     7
 43
1.0
 76
     1
 77
     6
 78
     2
 67
     7
 79
     5
170
     0
171
     0
290
     0
174
     0
 93
       13
 44
0.0
173
     0
291
     1
 45
0.0
1001
ACAD
1000
AcRTDxfName
1000
VISUALSTYLE
1000
AcDbSavedByObjectVersion
1070
     0
  0
VISUALSTYLE
  5
1BDA5
102
{ACAD_REACTORS
330
1BDA3
102
}
330
1BDA3
100
AcDbVisualStyle
  2
FlatWithEdges
 70
     1
 71
     2
 72
     1
 73
     1
 90
        2
 40
-0.6
 41
30.0
 62
     5
 63
     7
 74
     1
 91
        4
 64
     7
 65
   257
 75
     1
175
     1
 42
1.0
 92
        0
 66
   257
 43
1.0
 76
     1
 77
     6
 78
     2
 67
     7
 79
     5
170
     0
171
     0
290
     0
174
     0
 93
       13
 44
0.0
173
     0
291
     1
 45
0.0
1001
ACAD
1000
AcRTDxfName
1000
VISUALSTYLE
1000
AcDbSavedByObjectVersion
1070
     0
  0
VISUALSTYLE
  5
1BDA6
102
{ACAD_REACTORS
330
1BDA3
102
}
330
1BDA3
100
AcDbVisualStyle
  2
Gouraud
 70
     2
 71
     2
 72
     2
 73
     1
 90
        2
 40
-0.6
 41
30.0
 62
     5
 63
     7
 74
     0
 91
        4
 64
     7
 65
   257
 75
     1
175
     1
 42
1.0
 92
        0
 66
     7
 43
1.0
 76
     1
 77
     6
 78
     2
 67
     7
 79
     5
170
     0
171
     0
290
     0
174
     0
 93
       13
 44
0.0
173
     0
291
     1
 45
0.0
1001
ACAD
1000
AcRTDxfName
1000
VISUALSTYLE
1000
AcDbSavedByObjectVersion
1070
     0
  0
VISUALSTYLE
  5
1BDA7
102
{ACAD_REACTORS
330
1BDA3
102
}
330
1BDA3
100
AcDbVisualStyle
  2
GouraudWithEdges
 70
     3
 71
     2
 72
     2
 73
     1
 90
        2
 40
-0.6
 41
30.0
 62
     5
 63
     7
 74
     1
 91
        4
 64
     7
 65
   257
 75
     1
175
     1
 42
1.0
 92
        0
 66
   257
 43
1.0
 76
     1
 77
     6
 78
     2
 67
     7
 79
     5
170
     0
171
     0
290
     0
174
     0
 93
       13
 44
0.0
173
     0
291
     1
 45
0.0
1001
ACAD
1000
AcRTDxfName
1000
VISUALSTYLE
1000
AcDbSavedByObjectVersion
1070
     0
  0
VISUALSTYLE
  5
1BDB1
102
{ACAD_REACTORS
330
1BDA3
102
}
330
1BDA3
100
AcDbVisualStyle
  2
Linepattern
 70
    14
 71
     2
 72
     2
 73
     0
 90
        0
 40
-0.6
 41
-30.0
 62
     5
 63
     7
 74
     1
 91
        4
 64
     7
 65
   257
 75
     7
175
     7
 42
1.0
 92
        8
 66
     7
 43
1.0
 76
     1
 77
     6
 78
     2
 67
     7
 79
     5
170
     0
171
     0
290
     0
174
     0
 93
        1
 44
0.0
173
     0
291
     1
 45
0.0
1001
ACAD
1000
AcRTDxfName
1000
VISUALSTYLE
1000
AcDbSavedByObjectVersion
1070
     0
  0
VISUALSTYLE
  5
1BDAD
102
{ACAD_REACTORS
330
1BDA3
102
}
330
1BDA3
100
AcDbVisualStyle
  2
Realistic
 70
     8
 71
     2
 72
     2
 73
     0
 90
        0
 40
-0.6
 41
-30.0
 62
     5
 63
     7
 74
     1
 91
        0
 64
     7
 65
   257
 75
     1
175
     1
 42
1.0
 92
        8
 66
     8
 43
1.0
 76
     1
 77
     6
 78
     2
 67
     7
 79
     5
170
     0
171
     0
290
     0
174
     0
 93
       13
 44
0.0
173
     0
291
     0
 45
0.0
1001
ACAD
1000
AcRTDxfName
1000
VISUALSTYLE
1000
AcDbSavedByObjectVersion
1070
     0
  0
VISUALSTYLE
  5
1BDB0
102
{ACAD_REACTORS
330
1BDA3
102
}
330
1BDA3
100
AcDbVisualStyle
  2
Thicken
 70
    13
 71
     2
 72
     2
 73
     0
 90
        0
 40
-0.6
 41
-30.0
 62
     5
 63
     7
 74
     1
 91
        4
 64
     7
 65
   257
 75
     1
175
     1
 42
1.0
 92
       12
 66
     7
 43
1.0
 76
     1
 77
     6
 78
     2
 67
     7
 79
     5
170
     0
171
     0
290
     0
174
     0
 93
        1
 44
0.0
173
     0
291
     1
 45
0.0
1001
ACAD
1000
AcRTDxfName
1000
VISUALSTYLE
1000
AcDbSavedByObjectVersion
1070
     0
  0
DICTIONARYVAR
  5
16525
102
{ACAD_REACTORS
330
34
102
}
330
34
100
DictionaryVariables
280
     0
  1
STANDARD
  0
DICTIONARYVAR
  5
D350
102
{ACAD_REACTORS
330
34
102
}
330
34
100
DictionaryVariables
280
     0
  1
1
  0
DICTIONARYVAR
  5
35
102
{ACAD_REACTORS
330
34
102
}
330
34
100
DictionaryVariables
280
     0
  1
0
  0
DICTIONARYVAR
  5
1D88C
102
{ACAD_REACTORS
330
34
102
}
330
34
100
DictionaryVariables
280
     0
  1

  0
DICTIONARYVAR
  5
194C
102
{ACAD_REACTORS
330
34
102
}
330
34
100
DictionaryVariables
280
     0
  1
96
  0
DICTIONARY
  5
7E8
102
{ACAD_REACTORS
330
47
102
}
330
47
100
AcDbDictionary
281
     1
  0
DICTIONARY
  5
4C
102
{ACAD_REACTORS
330
47
102
}
330
47
100
AcDbDictionary
281
     1
  0
XRECORD
  5
164E9
102
{ACAD_REACTORS
330
47
102
}
330
47
100
AcDbXrecord
280
     1
 90
-1023410169
  0
XRECORD
  5
12398
102
{ACAD_REACTORS
330
12397
102
}
330
12397
100
AcDbXrecord
280
     1
330
0
330
0
330
0
330
0
330
0
330
0
330
0
330
0
330
0
330
0
330
0
330
0
330
0
330
0
330
0
330
0
330
0
330
0
330
0
330
0
330
0
330
0
330
0
330
0
330
0
330
0
330
0
330
0
330
0
330
0
330
0
330
0
330
0
330
0
330
0
330
0
330
0
330
0
330
0
330
0
330
0
330
0
330
0
330
0
330
0
330
0
330
0
330
0
330
0
330
0
330
0
330
0
330
0
330
0
330
0
330
0
330
0
330
0
330
0
330
0
330
0
330
0
330
0
330
0
330
0
330
0
330
0
330
0
330
0
330
0
330
0
330
0
330
0
330
0
330
0
330
0
330
0
330
0
330
0
330
0
330
0
330
0
330
0
330
0
330
0
330
0
330
0
330
0
330
0
330
0
330
0
330
0
330
0
330
0
330
0
330
0
330
0
330
0
330
0
330
0
330
0
330
0
330
0
330
0
330
0
330
0
330
0
330
0
330
0
330
0
330
0
  0
XRECORD
  5
F63A
102
{ACAD_REACTORS
330
F639
102
}
330
F639
100
AcDbXrecord
280
     1
  1
PV
 40
1.0
 50
-12089.40947726037
 51
-5729.577951308232
 52
9740.282517223997
 53
9912.169855763243
  0
XRECORD
  5
3FB7
102
{ACAD_REACTORS
330
3F96
102
}
330
3F96
100
AcDbXrecord
280
     1
 91
        3
330
A47
 90
        8
 62
     7
370
    40
331
16
  1
Color_7
330
A46
 90
        0
 62
    14
370
    -3
331
16
  1
Color_14
330
3A31
 90
        8
 62
     7
370
    20
331
16
  1
Color_7
330
6D1
 90
        0
 62
     7
370
    -3
331
16
  1
Color_7
330
0
 90
        8
 62
     7
370
    50
331
16
  1
Color_7
330
A48
 90
        8
 62
     2
370
    35
331
16
  1
Color_2
330
0
 90
        8
 62
     7
370
    -3
331
16
  1
Color_7
330
10
 90
        8
 62
     7
370
    -3
331
16
  1
Color_7
  0
DICTIONARY
  5
1D9E1
330
22
100
AcDbDictionary
280
     1
281
     1
  3
ACAD_XREC_ROUNDTRIP
360
1D9E2
  0
DICTIONARY
  5
1D9DF
330
1E
100
AcDbDictionary
280
     1
281
     1
  3
ACAD_XREC_ROUNDTRIP
360
1D9E0
  0
DICTIONARY
  5
1D9E3
330
26
100
AcDbDictionary
280
     1
281
     1
  3
ACAD_XREC_ROUNDTRIP
360
1D9E4
  0
DICTIONARY
  5
1BEE1
330
1BDA2
100
AcDbDictionary
280
     1
281
     1
  3
ACAD_XREC_ROUNDTRIP
360
1BEE2
  0
DICTIONARY
  5
1BEDF
330
1BDA1
100
AcDbDictionary
280
     1
281
     1
  3
ACAD_XREC_ROUNDTRIP
360
1BEE0
  0
DICTIONARY
  5
1BEDD
330
1BBE5
100
AcDbDictionary
280
     1
281
     1
  3
ACAD_XREC_ROUNDTRIP
360
1BEDE
  0
DICTIONARY
  5
1D9E5
330
1649A
100
AcDbDictionary
280
     1
281
     1
  3
ACAD_XREC_ROUNDTRIP
360
1D9E6
  0
DICTIONARY
  5
1D9E7
330
1649B
100
AcDbDictionary
280
     1
281
     1
  3
ACAD_XREC_ROUNDTRIP
360
1D9E8
  0
DICTIONARY
  5
1D9E9
330
1649C
100
AcDbDictionary
280
     1
281
     1
  3
ACAD_XREC_ROUNDTRIP
360
1D9EA
  0
DICTIONARY
  5
1D9EB
330
1649D
100
AcDbDictionary
280
     1
281
     1
  3
ACAD_XREC_ROUNDTRIP
360
1D9EC
  0
DICTIONARY
  5
1D9ED
330
164CA
100
AcDbDictionary
280
     1
281
     1
  3
ACAD_XREC_ROUNDTRIP
360
1D9EE
  0
XRECORD
  5
1D9E2
102
{ACAD_REACTORS
330
1D9E1
102
}
330
1D9E1
100
AcDbXrecord
280
     1
102
SHADEPLOT
 70
     0
102
SHADEPLOTRESLEVEL
 70
     2
102
SHADEPLOTCUSTOMDPI
 70
   300
  0
XRECORD
  5
1D9E0
102
{ACAD_REACTORS
330
1D9DF
102
}
330
1D9DF
100
AcDbXrecord
280
     1
102
SHADEPLOT
 70
     0
102
SHADEPLOTRESLEVEL
 70
     2
102
SHADEPLOTCUSTOMDPI
 70
   300
  0
XRECORD
  5
1D9E4
102
{ACAD_REACTORS
330
1D9E3
102
}
330
1D9E3
100
AcDbXrecord
280
     1
102
SHADEPLOT
 70
     0
102
SHADEPLOTRESLEVEL
 70
     2
102
SHADEPLOTCUSTOMDPI
 70
   300
  0
XRECORD
  5
1BEE2
102
{ACAD_REACTORS
330
1BEE1
102
}
330
1BEE1
100
AcDbXrecord
280
     1
102
MATERIAL
148
0.0
149
0.0
149
0.0
 93
        0
 94
       63
282
     0
 72
     1
 77
     1
171
     1
175
     1
179
     1
273
     0
  0
XRECORD
  5
1BEE0
102
{ACAD_REACTORS
330
1BEDF
102
}
330
1BEDF
100
AcDbXrecord
280
     1
102
MATERIAL
148
0.0
149
0.0
149
0.0
 93
        0
 94
       63
282
     0
 72
     1
 77
     1
171
     1
175
     1
179
     1
273
     0
  0
XRECORD
  5
1BEDE
102
{ACAD_REACTORS
330
1BEDD
102
}
330
1BEDD
100
AcDbXrecord
280
     1
102
MATERIAL
148
0.0
149
0.0
149
0.0
 93
        0
 94
       63
282
     0
 72
     1
 77
     1
171
     1
175
     1
179
     1
273
     0
  0
XRECORD
  5
1D9E6
102
{ACAD_REACTORS
330
1D9E5
102
}
330
1D9E5
100
AcDbXrecord
280
     1
102
SHADEPLOT
 70
     0
102
SHADEPLOTRESLEVEL
 70
     2
102
SHADEPLOTCUSTOMDPI
 70
   300
  0
XRECORD
  5
1D9E8
102
{ACAD_REACTORS
330
1D9E7
102
}
330
1D9E7
100
AcDbXrecord
280
     1
102
SHADEPLOT
 70
     0
102
SHADEPLOTRESLEVEL
 70
     2
102
SHADEPLOTCUSTOMDPI
 70
   300
  0
XRECORD
  5
1D9EA
102
{ACAD_REACTORS
330
1D9E9
102
}
330
1D9E9
100
AcDbXrecord
280
     1
102
SHADEPLOT
 70
     0
102
SHADEPLOTRESLEVEL
 70
     2
102
SHADEPLOTCUSTOMDPI
 70
   300
  0
XRECORD
  5
1D9EC
102
{ACAD_REACTORS
330
1D9EB
102
}
330
1D9EB
100
AcDbXrecord
280
     1
102
SHADEPLOT
 70
     0
102
SHADEPLOTRESLEVEL
 70
     2
102
SHADEPLOTCUSTOMDPI
 70
   300
  0
XRECORD
  5
1D9EE
102
{ACAD_REACTORS
330
1D9ED
102
}
330
1D9ED
100
AcDbXrecord
280
     1
102
ACAD_ROUNDTRIP_PRE2007_TABLESTYLE
 90
        4
 91
        0
  1

 92
        4
 93
        0
  2

 94
        4
 95
        0
  3

  0
ENDSEC
  0
EOF
