  0
SECTION
  2
HEADER
  9
$EXTMAX
 10
170
 20
173
 30
0
  9
$EXTMIN
 10
-211
 20
-100
 30
0
  9
$LIMMAX
 10
170
 20
173
  9
$LIMMIN
 10
-211
 20
-100
  9
$PLIMMAX
 10
170
 20
173
  9
$PLIMMIN
 10
-211
 20
-100
  9
$TEXTSIZE
 40
3.2
  9
$DIMSHO
 70
     0
  9
$DIMASZ
 40
1.0
  9
$DIMTAD
 70
     1
  9
$DIMTIH
 70
     0
  9
$DIMTOH
 70
     0
  9
$DIMEXE
 40
2.54
  9
$DIMEXO
 40
2.54
  9
$DIMTVP
 40
1.0
  9
$DIMSAH
 70
     1
  9
$DIMDLE
 40
0.0
  9
$DIMTXT
 40
3.2
  9
$DIMGAP
 40
1.6
  0
ENDSEC
  0
SECTION
  2
TABLES
  0
TABLE
  2
LTYPE
 70
     6
  0
LTYPE
  2
CONTINUOUS
 70
    64
  3
Solid line
 72
    65
 73
     0
 40
0.0
  0
LTYPE
  2
DASHED
 70
    64
  3
__ __ __ __ __ __ __ __ __ __ __ __ __ __ __
 72
    65
 73
     2
 40
3.5
 49
2.0
 49
-1.5
  0
LTYPE
  2
CENTER
 70
    64
  3
____ _ ____ _ ____ _ ____ _ ____ _ ____ _ ____
 72
    65
 73
     4
 40
17.5
 49
13.0
 49
-1.5
 49
1.5
 49
-1.5
  0
LTYPE
  2
PHANTOM
 70
    64
  3
_____ _ _ _____ _ _ _____ _ _ _____ _ _ ____  
 72
    65
 73
     6
 40
15.5
 49
8.0
 49
-1.5
 49
1.5
 49
-1.5
 49
1.5
 49
-1.5
  0
LTYPE
  2
DOT
 70
    64
  3
. . . . . . . . . . . . . . . . . . . . . . . .
 72
    65
 73
     2
 40
0.25
 49
0.0
 49
-0.25
  0
LTYPE
  2
HIDDEN
 70
    64
  3
__ __ __ __ __ __ __ __ __ __ __ __ __ __ __
 72
    65
 73
     2
 40
3.5
 49
2.0
 49
-1.5
  0
ENDTAB
  0
TABLE
  2
LAYER
 70
     3
  0
LAYER
  2
0
 70
     0
 62
     7
  6
CONTINUOUS
  0
LAYER
  2
1
 70
     0
 62
     7
  6
CONTINUOUS
  0
LAYER
  2
DEFPOINTS
 70
     0
 62
     7
  6
CONTINUOUS
  0
ENDTAB
  0
TABLE
  2
STYLE
 70
     1
  0
STYLE
  2
STANDARD
 70
     0
 40
0.0
 41
1.0
 50
0.0
 71
     0
 42
0.2
  3
txt
  4
BIGFONT
  0
ENDTAB
  0
TABLE
  2
DIMSTYLE
 70
     1
  0
DIMSTYLE
  2
DIMSTYLE
 70
     0
  3

  4

  5
_DOT
  6
_DOT
  7
_DOT
 40
1
 41
1
 42
2.54
 43
0.38
 44
2.54
 45
0
 46
0
 47
0
 48
0
140
3.2
141
0.09
142
0
143
25.4
144
1
145
0
146
1
147
1.6
 71
     0
 72
     0
 73
     0
 74
     0
 75
     0
 76
     0
 78
     0
170
     0
171
     2
 77
     0
172
     0
173
     1
174
     0
175
     0
176
     0
177
     0
178
     0
  0
ENDTAB
  0
ENDSEC
  0
SECTION
  2
BLOCKS
  0
BLOCK
  8
0
  2
_DOT
 70
    64
 10
0
 20
0
  3
_DOT
  0
POLYLINE
  8
0
  6
BYBLOCK
 62
     0
 66
     1
 10
0
 20
0
 70
     1
 40
0.40000001
 41
0.40000001
  0
VERTEX
  8
0
  6
BYBLOCK
 62
     0
 10
-0.2
 20
0
 42
1
  0
VERTEX
  8
0
  6
BYBLOCK
 62
     0
 10
0.2
 20
0
 42
1
  0
SEQEND
  8
0
  6
BYBLOCK
 62
     0
  0
LINE
  8
0
  6
BYBLOCK
 62
     0
 10
-0.40000001
 20
0
 11
-3
 21
0
  0
ENDBLK
  8
0
  0
BLOCK
  8
0
  2
*D1
 70
    65
 10
0
 20
0
  0
LINE
  8
0
  6
CONTINUOUS
 62
     7
 10
-27.290016
 20
-15
 11
-38.119377
 21
-15
  0
LINE
  8
0
  6
CONTINUOUS
 62
     7
 10
-27.290016
 20
-15
 11
-26.790016
 21
-15
  0
INSERT
  8
0
  6
CONTINUOUS
 62
     7
  2
_DOT
 10
-27.290016
 20
-15
 50
180
  0
INSERT
  8
0
  6
CONTINUOUS
 62
     7
  2
_DOT
 10
-26.790016
 20
-15
  0
LINE
  8
0
  6
CONTINUOUS
 62
     7
 10
-27.290016
 20
-2.5399999
 11
-27.290016
 21
-15.000099
  0
LINE
  8
0
  6
CONTINUOUS
 62
     7
 10
-26.790016
 20
10.033998
 11
-26.790016
 21
-15.000099
  0
TEXT
  8
0
  6
CONTINUOUS
 62
     7
 10
-38.119375
 20
-14.25
 40
3
 41
1.4805455
  1
0.5
  0
POINT
  8
DEFPOINTS
  6
CONTINUOUS
 62
     7
 10
-27.290016
 20
0
  0
POINT
  8
DEFPOINTS
  6
CONTINUOUS
 62
     7
 10
-26.790016
 20
12.573997
  0
POINT
  8
DEFPOINTS
  6
CONTINUOUS
 62
     7
 10
-26.790016
 20
-15
  0
ENDBLK
  8
0
  0
BLOCK
  8
0
  2
*D2
 70
    65
 10
0
 20
0
  0
LINE
  8
0
  6
CONTINUOUS
 62
     7
 10
-27.290016
 20
-25
 11
-1.5500145
 21
-25
  0
INSERT
  8
0
  6
CONTINUOUS
 62
     7
  2
_DOT
 10
-27.290016
 20
-25
 50
180
  0
INSERT
  8
0
  6
CONTINUOUS
 62
     7
  2
_DOT
 10
-1.5500145
 20
-25
  0
LINE
  8
0
  6
CONTINUOUS
 62
     7
 10
-27.290016
 20
-2.5399999
 11
-27.290016
 21
-25.000099
  0
LINE
  8
0
  6
CONTINUOUS
 62
     7
 10
-1.5500145
 20
-2.5399999
 11
-1.5500145
 21
-25.000099
  0
TEXT
  8
0
  6
CONTINUOUS
 62
     7
 10
-18.491513
 20
-24.25
 40
3
 41
1.3204865
  1
100
  0
POINT
  8
DEFPOINTS
  6
CONTINUOUS
 62
     7
 10
-27.290016
 20
0
  0
POINT
  8
DEFPOINTS
  6
CONTINUOUS
 62
     7
 10
-1.5500145
 20
0
  0
POINT
  8
DEFPOINTS
  6
CONTINUOUS
 62
     7
 10
-1.5500145
 20
-25
  0
ENDBLK
  8
0
  0
BLOCK
  8
0
  2
*D3
 70
    65
 10
0
 20
0
  0
LINE
  8
0
  6
CONTINUOUS
 62
     7
 10
94.259995
 20
-25
 11
120
 21
-25
  0
INSERT
  8
0
  6
CONTINUOUS
 62
     7
  2
_DOT
 10
94.259995
 20
-25
 50
180
  0
INSERT
  8
0
  6
CONTINUOUS
 62
     7
  2
_DOT
 10
120
 20
-25
  0
LINE
  8
0
  6
CONTINUOUS
 62
     7
 10
94.259995
 20
-2.5399999
 11
94.259995
 21
-25.000099
  0
LINE
  8
0
  6
CONTINUOUS
 62
     7
 10
120
 20
-2.5399999
 11
120
 21
-25.000099
  0
TEXT
  8
0
  6
CONTINUOUS
 62
     7
 10
103.05849
 20
-24.25
 40
3
 41
1.3204865
  1
100
  0
POINT
  8
DEFPOINTS
  6
CONTINUOUS
 62
     7
 10
94.259995
 20
0
  0
POINT
  8
DEFPOINTS
  6
CONTINUOUS
 62
     7
 10
120
 20
0
  0
POINT
  8
DEFPOINTS
  6
CONTINUOUS
 62
     7
 10
120
 20
-25
  0
ENDBLK
  8
0
  0
BLOCK
  8
0
  2
*D4
 70
    65
 10
0
 20
0
  0
LINE
  8
0
  6
CONTINUOUS
 62
     7
 10
-1.5500145
 20
-25
 11
94.259995
 21
-25
  0
INSERT
  8
0
  6
CONTINUOUS
 62
     7
  2
_DOT
 10
-1.5500145
 20
-25
 50
180
  0
INSERT
  8
0
  6
CONTINUOUS
 62
     7
  2
_DOT
 10
94.259995
 20
-25
  0
LINE
  8
0
  6
CONTINUOUS
 62
     7
 10
-1.5500145
 20
-2.5399999
 11
-1.5500145
 21
-25.000099
  0
TEXT
  8
0
  6
CONTINUOUS
 62
     7
 10
28.783488
 20
-24.25
 40
3
 41
0.84376951
  1
アンカーピッチＰ≦４００
  0
POINT
  8
DEFPOINTS
  6
CONTINUOUS
 62
     7
 10
-1.5500145
 20
0
  0
POINT
  8
DEFPOINTS
  6
CONTINUOUS
 62
     7
 10
94.259995
 20
0
  0
POINT
  8
DEFPOINTS
  6
CONTINUOUS
 62
     7
 10
94.259995
 20
-25
  0
ENDBLK
  8
0
  0
BLOCK
  8
0
  2
*D5
 70
    65
 10
0
 20
0
  0
LINE
  8
0
  6
CONTINUOUS
 62
     7
 10
-115
 20
-15
 11
-105
 21
-15
  0
INSERT
  8
0
  6
CONTINUOUS
 62
     7
  2
_DOT
 10
-115
 20
-15
 50
180
  0
INSERT
  8
0
  6
CONTINUOUS
 62
     7
  2
_DOT
 10
-105
 20
-15
  0
LINE
  8
0
  6
CONTINUOUS
 62
     7
 10
-115
 20
-2.5399999
 11
-115
 21
-15.000099
  0
LINE
  8
0
  6
CONTINUOUS
 62
     7
 10
-105
 20
10.320001
 11
-105
 21
-15.000099
  0
TEXT
  8
0
  6
CONTINUOUS
 62
     7
 10
-112.5715
 20
-14.25
 40
3
 41
1.4026364
  1
10
  0
POINT
  8
DEFPOINTS
  6
CONTINUOUS
 62
     7
 10
-115
 20
0
  0
POINT
  8
DEFPOINTS
  6
CONTINUOUS
 62
     7
 10
-105
 20
12.860001
  0
POINT
  8
DEFPOINTS
  6
CONTINUOUS
 62
     7
 10
-105
 20
-15
  0
ENDBLK
  8
0
  0
BLOCK
  8
0
  2
*D6
 70
    65
 10
0
 20
0
  0
LINE
  8
0
  6
CONTINUOUS
 62
     7
 10
-90
 20
25
 11
-90
 21
10
  0
INSERT
  8
0
  6
CONTINUOUS
 62
     7
  2
_DOT
 10
-90
 20
25
 50
90
  0
INSERT
  8
0
  6
CONTINUOUS
 62
     7
  2
_DOT
 10
-90
 20
10
 50
270
  0
LINE
  8
0
  6
CONTINUOUS
 62
     7
 10
-105.32
 20
10
 11
-89.999901
 21
10
  0
TEXT
  8
0
  6
CONTINUOUS
 62
     7
 10
-90.75
 20
14.9285
 40
3
 41
1.28575
  1
15
 50
90.000003
  0
POINT
  8
DEFPOINTS
  6
CONTINUOUS
 62
     7
 10
-105
 20
25
  0
POINT
  8
DEFPOINTS
  6
CONTINUOUS
 62
     7
 10
-107.86
 20
10
  0
POINT
  8
DEFPOINTS
  6
CONTINUOUS
 62
     7
 10
-90
 20
10
  0
ENDBLK
  8
0
  0
BLOCK
  8
0
  2
*D7
 70
    65
 10
0
 20
0
  0
LINE
  8
0
  6
CONTINUOUS
 62
     7
 10
-175
 20
67
 11
-105
 21
67
  0
INSERT
  8
0
  6
CONTINUOUS
 62
     7
  2
_DOT
 10
-175
 20
67
 50
180
  0
INSERT
  8
0
  6
CONTINUOUS
 62
     7
  2
_DOT
 10
-105
 20
67
  0
LINE
  8
0
  6
CONTINUOUS
 62
     7
 10
-175
 20
46.679999
 11
-175
 21
67.000092
  0
LINE
  8
0
  6
CONTINUOUS
 62
     7
 10
-105
 20
24.93711
 11
-105
 21
67.000092
  0
TEXT
  8
0
  6
CONTINUOUS
 62
     7
 10
-142.5715
 20
67.75
 40
3
 41
1.1020715
  1
70
  0
POINT
  8
DEFPOINTS
  6
CONTINUOUS
 62
     7
 10
-175
 20
44.139999
  0
POINT
  8
DEFPOINTS
  6
CONTINUOUS
 62
     7
 10
-105
 20
22.39711
  0
POINT
  8
DEFPOINTS
  6
CONTINUOUS
 62
     7
 10
-105
 20
67
  0
ENDBLK
  8
0
  0
BLOCK
  8
0
  2
*D8
 70
    65
 10
0
 20
0
  0
LINE
  8
0
  6
CONTINUOUS
 62
     7
 10
-185
 20
47
 11
-185
 21
17
  0
INSERT
  8
0
  6
CONTINUOUS
 62
     7
  2
_DOT
 10
-185
 20
47
 50
90
  0
INSERT
  8
0
  6
CONTINUOUS
 62
     7
  2
_DOT
 10
-185
 20
17
 50
270
  0
LINE
  8
0
  6
CONTINUOUS
 62
     7
 10
-174.68
 20
47
 11
-185.00011
 21
47
  0
LINE
  8
0
  6
CONTINUOUS
 62
     7
 10
-177.54
 20
17
 11
-185.00011
 21
17
  0
TEXT
  8
0
  6
CONTINUOUS
 62
     7
 10
-185.75
 20
29.4285
 40
3
 41
1.1020715
  1
30
 50
90.000003
  0
POINT
  8
DEFPOINTS
  6
CONTINUOUS
 62
     7
 10
-172.14
 20
47
  0
POINT
  8
DEFPOINTS
  6
CONTINUOUS
 62
     7
 10
-175
 20
17
  0
POINT
  8
DEFPOINTS
  6
CONTINUOUS
 62
     7
 10
-185
 20
17
  0
ENDBLK
  8
0
  0
BLOCK
  8
0
  2
*D9
 70
    65
 10
0
 20
0
  0
LINE
  8
0
  6
CONTINUOUS
 62
     7
 10
-90
 20
30
 11
-90
 21
47
  0
INSERT
  8
0
  6
CONTINUOUS
 62
     7
  2
_DOT
 10
-90
 20
30
 50
270
  0
INSERT
  8
0
  6
CONTINUOUS
 62
     7
  2
_DOT
 10
-90
 20
47
 50
90
  0
LINE
  8
0
  6
CONTINUOUS
 62
     7
 10
-155.46
 20
30
 11
-89.999901
 21
30
  0
LINE
  8
0
  6
CONTINUOUS
 62
     7
 10
-146.46
 20
47
 11
-89.999901
 21
47
  0
TEXT
  8
0
  6
CONTINUOUS
 62
     7
 10
-90.75
 20
35.9285
 40
3
 41
1.28575
  1
17
 50
90.000003
  0
POINT
  8
DEFPOINTS
  6
CONTINUOUS
 62
     7
 10
-158
 20
30
  0
POINT
  8
DEFPOINTS
  6
CONTINUOUS
 62
     7
 10
-149
 20
47
  0
POINT
  8
DEFPOINTS
  6
CONTINUOUS
 62
     7
 10
-90
 20
47
  0
ENDBLK
  8
0
  0
BLOCK
  8
0
  2
*D10
 70
    65
 10
0
 20
0
  0
LINE
  8
0
  6
CONTINUOUS
 62
     7
 10
-80
 20
47
 11
-80
 21
10
  0
INSERT
  8
0
  6
CONTINUOUS
 62
     7
  2
_DOT
 10
-80
 20
47
 50
90
  0
INSERT
  8
0
  6
CONTINUOUS
 62
     7
  2
_DOT
 10
-80
 20
10
 50
270
  0
LINE
  8
0
  6
CONTINUOUS
 62
     7
 10
-146.46
 20
47
 11
-79.999901
 21
47
  0
LINE
  8
0
  6
CONTINUOUS
 62
     7
 10
-105.32
 20
10
 11
-79.999901
 21
10
  0
TEXT
  8
0
  6
CONTINUOUS
 62
     7
 10
-80.75
 20
25.9285
 40
3
 41
1.0286
  1
37
 50
90.000003
  0
POINT
  8
DEFPOINTS
  6
CONTINUOUS
 62
     7
 10
-149
 20
47
  0
POINT
  8
DEFPOINTS
  6
CONTINUOUS
 62
     7
 10
-107.86
 20
10
  0
POINT
  8
DEFPOINTS
  6
CONTINUOUS
 62
     7
 10
-80
 20
10
  0
ENDBLK
  8
0
  0
BLOCK
  8
0
  2
*D11
 70
    65
 10
0
 20
0
  0
LINE
  8
0
  6
CONTINUOUS
 62
     7
 10
-80
 20
0
 11
-80
 21
10
  0
INSERT
  8
0
  6
CONTINUOUS
 62
     7
  2
_DOT
 10
-80
 20
0
 50
270
  0
INSERT
  8
0
  6
CONTINUOUS
 62
     7
  2
_DOT
 10
-80
 20
10
 50
90
  0
LINE
  8
0
  6
CONTINUOUS
 62
     7
 10
-112.46
 20
0
 11
-79.999901
 21
0
  0
TEXT
  8
0
  6
CONTINUOUS
 62
     7
 10
-80.75
 20
2.4284999
 40
3
 41
1.4026364
  1
10
 50
90.000003
  0
POINT
  8
DEFPOINTS
  6
CONTINUOUS
 62
     7
 10
-115
 20
0
  0
POINT
  8
DEFPOINTS
  6
CONTINUOUS
 62
     7
 10
-107.86
 20
10
  0
POINT
  8
DEFPOINTS
  6
CONTINUOUS
 62
     7
 10
-80
 20
10
  0
ENDBLK
  8
0
  0
BLOCK
  8
0
  2
*D12
 70
    65
 10
0
 20
0
  0
LINE
  8
0
  6
CONTINUOUS
 62
     7
 10
-147
 20
57
 11
-105
 21
57
  0
INSERT
  8
0
  6
CONTINUOUS
 62
     7
  2
_DOT
 10
-147
 20
57
 50
180
  0
INSERT
  8
0
  6
CONTINUOUS
 62
     7
  2
_DOT
 10
-105
 20
57
  0
LINE
  8
0
  6
CONTINUOUS
 62
     7
 10
-147
 20
47.54
 11
-147
 21
57.000099
  0
LINE
  8
0
  6
CONTINUOUS
 62
     7
 10
-105
 20
24.93711
 11
-105
 21
57.000099
  0
TEXT
  8
0
  6
CONTINUOUS
 62
     7
 10
-128.5715
 20
57.75
 40
3
 41
1.0286
  1
42
  0
POINT
  8
DEFPOINTS
  6
CONTINUOUS
 62
     7
 10
-147
 20
45
  0
POINT
  8
DEFPOINTS
  6
CONTINUOUS
 62
     7
 10
-105
 20
22.39711
  0
POINT
  8
DEFPOINTS
  6
CONTINUOUS
 62
     7
 10
-105
 20
57
  0
ENDBLK
  8
0
  0
BLOCK
  8
0
  2
*D13
 70
    65
 10
0
 20
0
  0
LINE
  8
0
  6
CONTINUOUS
 62
     7
 10
-158
 20
57
 11
-147
 21
57
  0
INSERT
  8
0
  6
CONTINUOUS
 62
     7
  2
_DOT
 10
-158
 20
57
 50
180
  0
INSERT
  8
0
  6
CONTINUOUS
 62
     7
  2
_DOT
 10
-147
 20
57
  0
LINE
  8
0
  6
CONTINUOUS
 62
     7
 10
-158
 20
45.54
 11
-158
 21
57.000099
  0
TEXT
  8
0
  6
CONTINUOUS
 62
     7
 10
-155.0715
 20
57.75
 40
3
 41
1.5429
  1
11
  0
POINT
  8
DEFPOINTS
  6
CONTINUOUS
 62
     7
 10
-158
 20
43
  0
POINT
  8
DEFPOINTS
  6
CONTINUOUS
 62
     7
 10
-147
 20
45
  0
POINT
  8
DEFPOINTS
  6
CONTINUOUS
 62
     7
 10
-147
 20
57
  0
ENDBLK
  8
0
  0
BLOCK
  8
0
  2
*D14
 70
    65
 10
0
 20
0
  0
LINE
  8
0
  6
CONTINUOUS
 62
     7
 10
-158
 20
57
 11
-175
 21
57
  0
INSERT
  8
0
  6
CONTINUOUS
 62
     7
  2
_DOT
 10
-158
 20
57
  0
INSERT
  8
0
  6
CONTINUOUS
 62
     7
  2
_DOT
 10
-175
 20
57
 50
180
  0
LINE
  8
0
  6
CONTINUOUS
 62
     7
 10
-175
 20
46.679999
 11
-175
 21
57.000099
  0
TEXT
  8
0
  6
CONTINUOUS
 62
     7
 10
-169.0715
 20
57.75
 40
3
 41
1.28575
  1
17
  0
POINT
  8
DEFPOINTS
  6
CONTINUOUS
 62
     7
 10
-158
 20
43
  0
POINT
  8
DEFPOINTS
  6
CONTINUOUS
 62
     7
 10
-175
 20
44.139999
  0
POINT
  8
DEFPOINTS
  6
CONTINUOUS
 62
     7
 10
-175
 20
57
  0
ENDBLK
  8
0
  0
BLOCK
  8
0
  2
*D15
 70
    65
 10
0
 20
0
  0
LINE
  8
0
  6
CONTINUOUS
 62
     7
 10
-25.190016
 20
-15
 11
-7.0139732
 21
-15
  0
LINE
  8
0
  6
CONTINUOUS
 62
     7
 10
-26.790016
 20
-15
 11
-25.190016
 21
-15
  0
INSERT
  8
0
  6
CONTINUOUS
 62
     7
  2
_DOT
 10
-26.790016
 20
-15
 50
180
  0
INSERT
  8
0
  6
CONTINUOUS
 62
     7
  2
_DOT
 10
-25.190016
 20
-15
  0
LINE
  8
0
  6
CONTINUOUS
 62
     7
 10
-26.790016
 20
9.4600001
 11
-26.790016
 21
-16.200001
  0
LINE
  8
0
  6
CONTINUOUS
 62
     7
 10
-25.190016
 20
9.4600001
 11
-25.190016
 21
-16.200001
  0
TEXT
  8
0
  6
CONTINUOUS
 62
     7
 10
-21.779974
 20
-14.2
 40
3.2
 41
1.2857386
  1
t=1.6
  0
POINT
  8
DEFPOINTS
  6
CONTINUOUS
 62
     7
 10
-26.790016
 20
12
  0
POINT
  8
DEFPOINTS
  6
CONTINUOUS
 62
     7
 10
-25.190016
 20
12
  0
POINT
  8
DEFPOINTS
  6
CONTINUOUS
 62
     7
 10
-25.190016
 20
-15
  0
ENDBLK
  8
0
  0
BLOCK
  8
0
  2
*D16
 70
    65
 10
0
 20
0
  0
LINE
  8
0
  6
CONTINUOUS
 62
     7
 10
-173
 20
-85
 11
-110
 21
-85
  0
INSERT
  8
0
  6
CONTINUOUS
 62
     7
  2
_DOT
 10
-173
 20
-85
 50
180
  0
INSERT
  8
0
  6
CONTINUOUS
 62
     7
  2
_DOT
 10
-110
 20
-85
  0
LINE
  8
0
  6
CONTINUOUS
 62
     7
 10
-173
 20
-60.54
 11
-173
 21
-86.199997
  0
LINE
  8
0
  6
CONTINUOUS
 62
     7
 10
-110
 20
-60.54
 11
-110
 21
-86.199997
  0
TEXT
  8
0
  6
CONTINUOUS
 62
     7
 10
-144.243
 20
-84.2
 40
3.2
 41
1.028625
  1
63
  0
POINT
  8
DEFPOINTS
  6
CONTINUOUS
 62
     7
 10
-173
 20
-58
  0
POINT
  8
DEFPOINTS
  6
CONTINUOUS
 62
     7
 10
-110
 20
-58
  0
POINT
  8
DEFPOINTS
  6
CONTINUOUS
 62
     7
 10
-110
 20
-85
  0
ENDBLK
  8
0
  0
BLOCK
  8
0
  2
*D17
 70
    65
 10
0
 20
0
  0
LINE
  8
0
  6
CONTINUOUS
 62
     7
 10
-185
 20
-28
 11
-185
 21
-58
  0
INSERT
  8
0
  6
CONTINUOUS
 62
     7
  2
_DOT
 10
-185
 20
-28
 50
90
  0
INSERT
  8
0
  6
CONTINUOUS
 62
     7
  2
_DOT
 10
-185
 20
-58
 50
270
  0
LINE
  8
0
  6
CONTINUOUS
 62
     7
 10
-175.54
 20
-28
 11
-186.2
 21
-28
  0
LINE
  8
0
  6
CONTINUOUS
 62
     7
 10
-175.54
 20
-58
 11
-186.2
 21
-58
  0
TEXT
  8
0
  6
CONTINUOUS
 62
     7
 10
-185.8
 20
-45.743
 40
3.2
 41
1.1020982
  1
30
 50
90.000003
  0
POINT
  8
DEFPOINTS
  6
CONTINUOUS
 62
     7
 10
-173
 20
-28
  0
POINT
  8
DEFPOINTS
  6
CONTINUOUS
 62
     7
 10
-173
 20
-58
  0
POINT
  8
DEFPOINTS
  6
CONTINUOUS
 62
     7
 10
-185
 20
-58
  0
ENDBLK
  8
0
  0
BLOCK
  8
0
  2
*D18
 70
    65
 10
0
 20
0
  0
LINE
  8
0
  6
CONTINUOUS
 62
     7
 10
-90
 20
25.000017
 11
-90
 21
30.000017
  0
INSERT
  8
0
  6
CONTINUOUS
 62
     7
  2
_DOT
 10
-90
 20
25.000017
 50
270
  0
INSERT
  8
0
  6
CONTINUOUS
 62
     7
  2
_DOT
 10
-90
 20
30.000017
 50
90
  0
LINE
  8
0
  6
CONTINUOUS
 62
     7
 10
-102.46
 20
25.000017
 11
-88.800003
 21
25.000017
  0
LINE
  8
0
  6
CONTINUOUS
 62
     7
 10
-155.46
 20
30.000017
 11
-88.800003
 21
30.000017
  0
TEXT
  8
0
  6
CONTINUOUS
 62
     7
 10
-90.8
 20
26.357017
 40
3.2
 41
1
  1
5
 50
90.000003
  0
POINT
  8
DEFPOINTS
  6
CONTINUOUS
 62
     7
 10
-105
 20
25.000017
  0
POINT
  8
DEFPOINTS
  6
CONTINUOUS
 62
     7
 10
-158
 20
30.000017
  0
POINT
  8
DEFPOINTS
  6
CONTINUOUS
 62
     7
 10
-90
 20
30.000017
  0
ENDBLK
  8
0
  0
BLOCK
  8
0
  2
KOZU0001
 70
    64
 10
0
 20
0
  0
LINE
  8
0
  6
CONTINUOUS
 62
     7
 10
0
 20
0
 11
5
 21
-35.000001
  0
LINE
  8
0
  6
CONTINUOUS
 62
     7
 10
5
 20
-35.000001
 11
42.452469
 21
-35.000001
  0
LINE
  8
0
  6
CONTINUOUS
 62
     7
 10
0
 20
0
 11
0.99871759
 21
-3.0170832
  0
LINE
  8
0
  6
CONTINUOUS
 62
     7
 10
0
 20
0
 11
-0.11398562
 21
-3.1760408
  0
TEXT
  8
0
  6
CONTINUOUS
 62
     7
 10
7.2524705
 20
-29.399998
 40
3.2
 41
0.84409467
  1
両端、サイドジョイント
  0
TEXT
  8
0
  6
CONTINUOUS
 62
     7
 10
7.2524705
 20
-34.199998
 40
3.2
 41
0.85127005
  1
溶接止め
  0
ENDBLK
  8
0
  0
BLOCK
  8
0
  2
KOZU0002
 70
    64
 10
0
 20
0
  0
LINE
  8
0
  6
CONTINUOUS
 62
     7
 10
0
 20
0
 11
-6.6794586
 21
-30.534649
  0
LINE
  8
0
  6
CONTINUOUS
 62
     7
 10
-6.6794586
 20
-30.534649
 11
-21.846786
 21
-30.534649
  0
LINE
  8
0
  6
CONTINUOUS
 62
     7
 10
0
 20
0
 11
-0.11942644
 21
-3.1758408
  0
LINE
  8
0
  6
CONTINUOUS
 62
     7
 10
0
 20
0
 11
-1.217462
 21
-2.9356454
  0
TEXT
  8
0
  6
CONTINUOUS
 62
     7
 10
-20.932782
 20
-29.734649
 40
3.2
 41
0.85127005
  1
溶接止め
  0
ENDBLK
  8
0
  0
BLOCK
  8
0
  2
KOZU0003
 70
    64
 10
0
 20
0
  0
LINE
  8
0
  6
CONTINUOUS
 62
     7
 10
0
 20
0
 11
-61.049255
 21
-26.404541
  0
LINE
  8
0
  6
CONTINUOUS
 62
     7
 10
0
 20
0
 11
-2.6478748
 21
-1.7575514
  0
LINE
  8
0
  6
CONTINUOUS
 62
     7
 10
0
 20
0
 11
-3.0940721
 21
-0.72591005
  0
ENDBLK
  8
0
  0
ENDSEC
  0
SECTION
  2
ENTITIES
  0
LINE
  8
0
  6
CONTINUOUS
 62
     7
 10
170
 20
173
 11
170
 21
-100
  0
LINE
  8
0
  6
CONTINUOUS
 62
     7
 10
-211
 20
-100
 11
170
 21
-100
  0
LINE
  8
0
  6
CONTINUOUS
 62
     7
 10
-211
 20
173
 11
170
 21
173
  0
LINE
  8
0
  6
CONTINUOUS
 62
     7
 10
-211
 20
173
 11
-211
 21
-100
  0
LINE
  8
0
  6
CONTINUOUS
 62
     7
 10
-191
 20
173
 11
-191
 21
77
  0
LINE
  8
0
  6
CONTINUOUS
 62
     7
 10
-211
 20
165
 11
-101
 21
165
  0
LINE
  8
0
  6
CONTINUOUS
 62
     7
 10
-211
 20
157
 11
-101
 21
157
  0
LINE
  8
0
  6
CONTINUOUS
 62
     7
 10
-211
 20
149
 11
-101
 21
149
  0
LINE
  8
0
  6
CONTINUOUS
 62
     7
 10
-211
 20
141
 11
-101
 21
141
  0
LINE
  8
0
  6
CONTINUOUS
 62
     7
 10
-191
 20
117
 11
-101
 21
117
  0
LINE
  8
0
  6
CONTINUOUS
 62
     7
 10
-191
 20
109
 11
-101
 21
109
  0
LINE
  8
0
  6
CONTINUOUS
 62
     7
 10
-211
 20
101
 11
-101
 21
101
  0
LINE
  8
0
  6
CONTINUOUS
 62
     7
 10
-191
 20
93
 11
-101
 21
93
  0
LINE
  8
0
  6
CONTINUOUS
 62
     7
 10
-191
 20
85
 11
-101
 21
85
  0
LINE
  8
0
  6
CONTINUOUS
 62
     7
 10
-211
 20
77
 11
-101
 21
77
  0
LINE
  8
0
  6
CONTINUOUS
 62
     7
 10
-211
 20
173
 11
-211
 21
77
  0
LINE
  8
0
  6
CONTINUOUS
 62
     7
 10
-211
 20
173
 11
-101
 21
173
  0
LINE
  8
0
  6
CONTINUOUS
 62
     7
 10
-101
 20
173
 11
-101
 21
77
  0
LINE
  8
0
  6
CONTINUOUS
 62
     7
 10
-211
 20
133
 11
-101
 21
133
  0
LINE
  8
0
  6
CONTINUOUS
 62
     7
 10
-211
 20
125
 11
-101
 21
125
  0
LINE
  8
0
  6
CONTINUOUS
 62
     7
 10
-191
 20
117
 11
-101
 21
117
  0
LINE
  8
0
  6
CONTINUOUS
 62
     3
 10
-105
 20
-47.60289
 11
-105
 21
-57.139999
  0
LINE
  8
0
  6
CONTINUOUS
 62
     3
 10
-172.14
 20
-23
 11
-149
 21
-23
  0
LINE
  8
0
  6
CONTINUOUS
 62
     3
 10
-173
 20
-25.860001
 11
-173
 21
-58
  0
LINE
  8
0
  6
CONTINUOUS
 62
     3
 10
-157.22078
 20
-40.07349
 11
-107.59138
 21
-44.755508
  0
LINE
  8
0
  6
CONTINUOUS
 62
     3
 10
-172.14
 20
-25
 11
-149
 21
-25
  0
LINE
  8
0
  6
CONTINUOUS
 62
     3
 10
-105
 20
22.39711
 11
-105
 21
12.860001
  0
LINE
  8
0
  6
CONTINUOUS
 62
     3
 10
-173
 20
-58
 11
-107.86
 21
-58
  0
LINE
  8
0
  6
CONTINUOUS
 62
     3
 10
-27.290016
 20
25
 11
44.209988
 21
25
  0
LINE
  8
0
  6
CONTINUOUS
 62
     3
 10
-158
 20
-27
 11
-149
 21
-27
  0
LINE
  8
0
  6
CONTINUOUS
 62
     3
 10
48.499989
 20
47
 11
120
 21
47
  0
LINE
  8
0
  6
CONTINUOUS
 62
     3
 10
-175
 20
44.139999
 11
-175
 21
17
  0
LINE
  8
0
  6
CONTINUOUS
 62
     3
 10
-115
 20
-60
 11
-107.86
 21
-60
  0
LINE
  8
0
  6
CONTINUOUS
 62
     3
 10
-157.40863
 20
-42.064651
 11
-107.77923
 21
-46.74667
  0
LINE
  8
0
  6
CONTINUOUS
 62
     3
 10
-117.574
 20
-58
 11
-117.574
 21
-70
  0
LINE
  8
0
  6
CONTINUOUS
 62
     3
 10
-115
 20
-60
 11
-115
 21
-70
  0
LINE
  8
0
  6
CONTINUOUS
 62
     3
 10
48.499989
 20
0
 11
120
 21
0
  0
LINE
  8
0
  6
CONTINUOUS
 62
     3
 10
120
 20
25
 11
48.499989
 21
25
  0
LINE
  8
0
  6
CONTINUOUS
 62
     3
 10
-107
 20
-47.60289
 11
-107
 21
-57.139999
  0
LINE
  8
0
  6
CONTINUOUS
 62
     3
 10
120
 20
47
 11
120
 21
0
  0
LINE
  8
0
  6
CONTINUOUS
 62
     3
 10
120
 20
10
 11
48.499989
 21
10
  0
LINE
  8
0
  6
CONTINUOUS
 62
     3
 10
-175
 20
-25.860001
 11
-175
 21
-53
  0
LINE
  8
0
  6
CONTINUOUS
 62
     3
 10
-27.290016
 20
10
 11
44.209988
 21
10
  0
LINE
  8
0
  6
CONTINUOUS
 62
     3
 10
-27.290016
 20
12
 11
-19.442352
 21
12
  0
LINE
  8
0
  6
CONTINUOUS
 62
     3
 10
-27.290016
 20
43
 11
44.209988
 21
43
  0
LINE
  8
0
  6
CONTINUOUS
 62
     3
 10
-26.790016
 20
23.052963
 11
-26.790016
 21
12
  0
LINE
  8
0
  6
CONTINUOUS
 62
     3
 10
-175
 20
17
 11
-173
 21
17
  0
LINE
  8
0
  6
CONTINUOUS
 62
     3
 10
-27.290016
 20
47
 11
-27.290016
 21
0
  0
LINE
  8
0
  6
CONTINUOUS
 62
     3
 10
-158
 20
43
 11
-149
 21
43
  0
LINE
  8
0
  6
CONTINUOUS
 62
     3
 10
-158
 20
43
 11
-158
 21
30.782684
  0
LINE
  8
0
  6
CONTINUOUS
 62
     3
 10
-173
 20
44.139999
 11
-173
 21
12
  0
LINE
  8
0
  6
CONTINUOUS
 62
     3
 10
-172.14
 20
45
 11
-149
 21
45
  0
LINE
  8
0
  6
CONTINUOUS
 62
     3
 10
-117.574
 20
12
 11
-117.574
 21
0
  0
LINE
  8
0
  6
CONTINUOUS
 62
     3
 10
-115
 20
10
 11
-115
 21
0
  0
LINE
  8
0
  6
CONTINUOUS
 62
     3
 10
-158
 20
-27
 11
-158
 21
-39.217316
  0
LINE
  8
0
  6
CONTINUOUS
 62
     3
 10
-160
 20
-25.860001
 11
-160
 21
-39.217316
  0
LINE
  8
0
  6
CONTINUOUS
 62
     3
 10
-115
 20
10
 11
-107.86
 21
10
  0
LINE
  8
0
  6
CONTINUOUS
 62
     3
 10
-172.14
 20
47
 11
-149
 21
47
  0
LINE
  8
0
  6
CONTINUOUS
 62
     3
 10
-27.290016
 20
0
 11
44.209988
 21
0
  0
LINE
  8
0
  6
CONTINUOUS
 62
     3
 10
-117.574
 20
-70
 11
-115
 21
-70
  0
LINE
  8
0
  6
CONTINUOUS
 62
     3
 10
-27.290016
 20
47
 11
44.209988
 21
47
  0
POLYLINE
  8
0
  6
CONTINUOUS
 62
     7
 66
     1
 10
0
 20
0
  0
VERTEX
  8
0
  6
CONTINUOUS
 62
     7
 10
48.499989
 20
49.144997
  0
VERTEX
  8
0
  6
CONTINUOUS
 62
     7
 10
48.499989
 20
41.796664
  0
VERTEX
  8
0
  6
CONTINUOUS
 62
     7
 10
45.999989
 20
41.196664
  0
VERTEX
  8
0
  6
CONTINUOUS
 62
     7
 10
50.999989
 20
39.996664
  0
VERTEX
  8
0
  6
CONTINUOUS
 62
     7
 10
48.499989
 20
39.396664
  0
VERTEX
  8
0
  6
CONTINUOUS
 62
     7
 10
48.499989
 20
24.699998
  0
VERTEX
  8
0
  6
CONTINUOUS
 62
     7
 10
45.999989
 20
24.099998
  0
VERTEX
  8
0
  6
CONTINUOUS
 62
     7
 10
50.999989
 20
22.899998
  0
VERTEX
  8
0
  6
CONTINUOUS
 62
     7
 10
48.499989
 20
22.299998
  0
VERTEX
  8
0
  6
CONTINUOUS
 62
     7
 10
48.499989
 20
7.6033324
  0
VERTEX
  8
0
  6
CONTINUOUS
 62
     7
 10
45.999989
 20
7.0033324
  0
VERTEX
  8
0
  6
CONTINUOUS
 62
     7
 10
50.999989
 20
5.8033324
  0
VERTEX
  8
0
  6
CONTINUOUS
 62
     7
 10
48.499989
 20
5.2033324
  0
VERTEX
  8
0
  6
CONTINUOUS
 62
     7
 10
48.499989
 20
-2.1450005
  0
SEQEND
  8
0
  6
CONTINUOUS
 62
     7
  0
POLYLINE
  8
0
  6
CONTINUOUS
 62
     7
 66
     1
 10
0
 20
0
  0
VERTEX
  8
0
  6
CONTINUOUS
 62
     7
 10
44.209988
 20
49.144997
  0
VERTEX
  8
0
  6
CONTINUOUS
 62
     7
 10
44.209988
 20
41.796664
  0
VERTEX
  8
0
  6
CONTINUOUS
 62
     7
 10
41.709988
 20
41.196664
  0
VERTEX
  8
0
  6
CONTINUOUS
 62
     7
 10
46.709988
 20
39.996664
  0
VERTEX
  8
0
  6
CONTINUOUS
 62
     7
 10
44.209988
 20
39.396664
  0
VERTEX
  8
0
  6
CONTINUOUS
 62
     7
 10
44.209988
 20
24.699998
  0
VERTEX
  8
0
  6
CONTINUOUS
 62
     7
 10
41.709988
 20
24.099998
  0
VERTEX
  8
0
  6
CONTINUOUS
 62
     7
 10
46.709988
 20
22.899998
  0
VERTEX
  8
0
  6
CONTINUOUS
 62
     7
 10
44.209988
 20
22.299998
  0
VERTEX
  8
0
  6
CONTINUOUS
 62
     7
 10
44.209988
 20
7.6033324
  0
VERTEX
  8
0
  6
CONTINUOUS
 62
     7
 10
41.709988
 20
7.0033324
  0
VERTEX
  8
0
  6
CONTINUOUS
 62
     7
 10
46.709988
 20
5.8033324
  0
VERTEX
  8
0
  6
CONTINUOUS
 62
     7
 10
44.209988
 20
5.2033324
  0
VERTEX
  8
0
  6
CONTINUOUS
 62
     7
 10
44.209988
 20
-2.1450005
  0
SEQEND
  8
0
  6
CONTINUOUS
 62
     7
  0
LINE
  8
0
  6
CONTINUOUS
 62
     3
 10
-171
 20
-56
 11
-110
 21
-56
  0
LINE
  8
0
  6
CONTINUOUS
 62
     3
 10
-160
 20
44.139999
 11
-160
 21
30.782684
  0
LINE
  8
0
  6
CONTINUOUS
 62
     3
 10
-157.22079
 20
29.92651
 11
-107.59138
 21
25.24449
  0
LINE
  8
0
  6
CONTINUOUS
 62
     3
 10
-157.40865
 20
27.93535
 11
-107.77924
 21
23.25333
  0
LINE
  8
0
  6
CONTINUOUS
 62
     3
 10
-107
 20
22.39711
 11
-107
 21
12.860001
  0
LINE
  8
0
  6
CONTINUOUS
 62
     3
 10
-117.574
 20
0
 11
-115
 21
0
  0
LINE
  8
0
  6
CONTINUOUS
 62
     3
 10
-173
 20
12
 11
-107.86
 21
12
  0
LINE
  8
0
  6
CONTINUOUS
 62
     3
 10
-171
 20
-28
 11
-171
 21
-56
  0
LINE
  8
0
  6
CONTINUOUS
 62
     3
 10
120
 20
43
 11
48.499989
 21
43
  0
LINE
  8
0
  6
CONTINUOUS
 62
     3
 10
-175
 20
-53
 11
-173
 21
-53
  0
LINE
  8
0
  6
CONTINUOUS
 62
     3
 10
-25.190016
 20
22.634995
 11
-25.190016
 21
12
  0
LINE
  8
0
  6
CONTINUOUS
 62
     3
 10
-173
 20
-28
 11
-171
 21
-28
  0
LINE
  8
0
  6
CONTINUOUS
 62
     3
 10
-110
 20
-56
 11
-110
 21
-58
  0
ARC
  8
0
  6
CONTINUOUS
 62
     3
 10
-157.14
 20
-39.217316
 40
0.86000001
 50
180
 51
264.61024
  0
ARC
  8
0
  6
CONTINUOUS
 62
     3
 10
-149
 20
-25
 40
2
 50
270
 51
90
  0
ARC
  8
0
  6
CONTINUOUS
 62
     3
 10
-107.86
 20
-57.139999
 40
0.86000001
 50
270
 51
360
  0
ARC
  8
0
  6
CONTINUOUS
 62
     3
 10
-159.14
 20
-25.860001
 40
0.86000001
 50
90
 51
180
  0
ARC
  8
0
  6
CONTINUOUS
 62
     3
 10
-107.86
 20
-47.60289
 40
0.86000001
 50
0
 51
84.61075
  0
ARC
  8
0
  6
CONTINUOUS
 62
     3
 10
-157.14
 20
-39.217316
 40
2.8600006
 50
180
 51
264.61013
  0
ARC
  8
0
  6
CONTINUOUS
 62
     3
 10
-107.86
 20
-47.60289
 40
2.8600001
 50
0
 51
84.610749
  0
ARC
  8
0
  6
CONTINUOUS
 62
     3
 10
-107.86
 20
-57.139999
 40
2.8600006
 50
270
 51
360
  0
ARC
  8
0
  6
CONTINUOUS
 62
     3
 10
-172.14
 20
-25.860001
 40
0.86000061
 50
90
 51
180
  0
ARC
  8
0
  6
CONTINUOUS
 62
     3
 10
-172.14
 20
-25.860001
 40
2.8600001
 50
90
 51
179.99996
  0
ARC
  8
0
  6
CONTINUOUS
 62
     3
 10
-107.86
 20
12.860001
 40
0.86000001
 50
270
 51
360
  0
ARC
  8
0
  6
CONTINUOUS
 62
     3
 10
-157.14
 20
30.782684
 40
0.86000001
 50
180
 51
264.61024
  0
ARC
  8
0
  6
CONTINUOUS
 62
     3
 10
-149
 20
45
 40
2
 50
270
 51
90
  0
ARC
  8
0
  6
CONTINUOUS
 62
     3
 10
-157.14
 20
30.782684
 40
2.8600006
 50
179.99996
 51
264.61014
  0
ARC
  8
0
  6
CONTINUOUS
 62
     3
 10
-172.14
 20
44.139999
 40
0.86000061
 50
90
 51
180
  0
ARC
  8
0
  6
CONTINUOUS
 62
     3
 10
-107.86
 20
12.860001
 40
2.8600006
 50
270
 51
360
  0
ARC
  8
0
  6
CONTINUOUS
 62
     3
 10
-159.14
 20
44.139999
 40
0.86000001
 50
90
 51
180
  0
ARC
  8
0
  6
CONTINUOUS
 62
     3
 10
-172.14
 20
44.139999
 40
2.8600001
 50
90
 51
180
  0
ARC
  8
0
  6
CONTINUOUS
 62
     3
 10
-107.86
 20
22.39711
 40
0.86000001
 50
0
 51
84.610762
  0
ARC
  8
0
  6
CONTINUOUS
 62
     3
 10
-107.86
 20
22.39711
 40
2.8600001
 50
0
 51
84.610749
  0
ARC
  8
0
  6
CONTINUOUS
 62
     7
 10
-173
 20
-53
 40
1.5
 50
180
 51
270
  0
ARC
  8
0
  6
CONTINUOUS
 62
     7
 10
-117.574
 20
-58
 40
1.5
 50
180
 51
270
  0
POLYLINE
  8
0
  6
CONTINUOUS
 62
     7
 66
     1
 10
0
 20
0
  0
VERTEX
  8
0
  6
CONTINUOUS
 62
     7
 10
-27.289301
 20
23.184011
 42
0.017894672
  0
VERTEX
  8
0
  6
CONTINUOUS
 62
     7
 10
-24.992684
 20
22.67925
 42
-0.082384342
  0
VERTEX
  8
0
  6
CONTINUOUS
 62
     7
 10
-22.781005
 20
21.909755
 42
-0.11296304
  0
VERTEX
  8
0
  6
CONTINUOUS
 62
     7
 10
-21.175101
 20
20.220519
 42
-0.013735532
  0
VERTEX
  8
0
  6
CONTINUOUS
 62
     7
 10
-19.989997
 20
18.189366
 42
-0.042535179
  0
VERTEX
  8
0
  6
CONTINUOUS
 62
     7
 10
-18.996095
 20
16.059752
 42
-0.12663812
  0
VERTEX
  8
0
  6
CONTINUOUS
 62
     7
 10
-18.733029
 20
13.747469
 42
-0.10714895
  0
VERTEX
  8
0
  6
CONTINUOUS
 62
     7
 10
-19.69103
 20
11.619636
 42
-0.038278777
  0
VERTEX
  8
0
  6
CONTINUOUS
 62
     7
 10
-21.199839
 20
9.8182464
 42
-0.049206481
  0
VERTEX
  8
0
  6
CONTINUOUS
 62
     7
 10
-22.966688
 20
8.2714195
 42
-0.05736581
  0
VERTEX
  8
0
  6
CONTINUOUS
 62
     7
 10
-25.036025
 20
7.1646281
 42
-0.047713465
  0
VERTEX
  8
0
  6
CONTINUOUS
 62
     7
 10
-27.291027
 20
6.5085793
 42
0
  0
SEQEND
  8
0
  6
CONTINUOUS
 62
     7
  0
TEXT
  8
0
  6
CONTINUOUS
 62
     7
 10
-188.37855
 20
127.36617
 40
3.2
 41
0.86439075
  1
無し
  0
TEXT
  8
0
  6
CONTINUOUS
 62
     7
 10
-188.143
 20
95.4
 40
3.2
 41
0.84196145
  1
定尺外寸法、フランス落し受け切り欠きについては別途
  0
TEXT
  8
0
  6
CONTINUOUS
 62
     7
 10
-205.343
 20
167.4
 40
3.2
 41
0.85537027
  1
品　名
  0
TEXT
  8
0
  6
CONTINUOUS
 62
     7
 10
-205.343
 20
159.4
 40
3.2
 41
0.85537027
  1
品　番
  0
TEXT
  8
0
  6
CONTINUOUS
 62
     7
 10
-188.143
 20
87.4
 40
3.2
 41
0.84634979
  1
ご相談下さい。
  0
TEXT
  8
0
  6
CONTINUOUS
 62
     7
 10
-188.143
 20
79.4
 40
3.2
 41
0.85127005
  1
受注生産
  0
TEXT
  8
0
  6
CONTINUOUS
 62
     7
 10
-205.343
 20
151.4
 40
3.2
 41
0.85537027
  1
材　質
  0
TEXT
  8
0
  6
CONTINUOUS
 62
     7
 10
-205.343
 20
143.4
 40
3.2
 41
0.85537027
  1
仕上げ
  0
TEXT
  8
0
  6
CONTINUOUS
 62
     7
 10
-188.143
 20
103.4
 40
3.2
 41
0.90047268
  1
＊
  0
TEXT
  8
0
  6
CONTINUOUS
 62
     7
 10
-188.143
 20
111.4
 40
3.2
 41
0.90047268
  1
＊
  0
TEXT
  8
0
  6
CONTINUOUS
 62
     7
 10
-208.543
 20
119.4
 40
3.2
 41
0.84892707
  1
セットビス
  0
TEXT
  8
0
  6
CONTINUOUS
 62
     7
 10
-188.143
 20
119.4
 40
3.2
 41
0.90047268
  1
＊
  0
TEXT
  8
0
  6
CONTINUOUS
 62
     7
 10
-188.143
 20
151.4
 40
3.2
 41
0.84892707
  1
ステンレス
  0
TEXT
  8
0
  6
CONTINUOUS
 62
     7
 10
-203.743
 20
95.4
 40
3.2
 41
0.86439075
  1
備考
  0
TEXT
  8
0
  6
CONTINUOUS
 62
     7
 10
-188.143
 20
159.4
 40
3.2
 41
0.85127005
  1
ＤＲ－１
  0
TEXT
  8
0
  6
CONTINUOUS
 62
     7
 10
-188.143
 20
167.4
 40
3.2
 41
0.84306961
  1
ステンレス下枠（ＡＴ枠７０巾）
  0
TEXT
  8
0
  6
CONTINUOUS
 62
     7
 10
-205.343
 20
135.4
 40
3.2
 41
0.85537027
  1
定　尺
  0
TEXT
  8
0
  6
CONTINUOUS
 62
     7
 10
-206.943
 20
127.4
 40
3.2
 41
0.85127005
  1
左右勝手
  0
TEXT
  8
0
  6
CONTINUOUS
 62
     7
 10
-187.7881
 20
134.96998
 40
3.2
 41
0.40661426
  1
６９９ｍｍ、７９９ｍｍ、８９９ｍｍ、１１９９ｍｍ、１５９９ｍｍ、１６９９ｍｍ、１７９９ｍｍ、１９９９ｍｍ
  0
TEXT
  8
0
  6
CONTINUOUS
 62
     7
 10
-188.143
 20
143.4
 40
3.2
 41
0.84741102
  1
ヘアーライン
  0
TEXT
  8
0
  6
CONTINUOUS
 62
     7
 10
-164.32521
 20
-94.393181
 40
3
 41
0.84326707
  1
アンカー取付状態を示します。
  0
DIMENSION
  8
0
  6
CONTINUOUS
 62
     7
  2
*D1
 70
     0
 10
-26.790016
 20
-15
 11
-34.047874
 21
-15
  3
DIMSTYLE
 13
-27.290016
 23
0
 14
-26.790016
 24
12.573997
 50
0
1001
ACAD
1000
DSTYLE
1002
{
1070
    77
1070
     1
1070
   172
1070
     1
1002
}
  0
DIMENSION
  8
0
  6
CONTINUOUS
 62
     7
  2
*D2
 70
     0
 10
-1.5500145
 20
-25
 11
-14.420013
 21
-25
  3
DIMSTYLE
 13
-27.290016
 23
0
 14
-1.5500145
 24
0
 50
0
1001
ACAD
1000
DSTYLE
1002
{
1070
    77
1070
     1
1070
   172
1070
     1
1002
}
  0
DIMENSION
  8
0
  6
CONTINUOUS
 62
     7
  2
*D3
 70
     0
 10
120
 20
-25
 11
107.12999
 21
-25
  3
DIMSTYLE
 13
94.259995
 23
0
 14
120
 24
0
 50
0
1001
ACAD
1000
DSTYLE
1002
{
1070
    77
1070
     1
1070
   172
1070
     1
1002
}
  0
DIMENSION
  8
0
  6
CONTINUOUS
 62
     7
  2
*D4
 70
     0
 10
94.259995
 20
-25
 11
46.354988
 21
-25
  3
DIMSTYLE
 13
-1.5500145
 23
0
 14
94.259995
 24
0
 50
0
1001
ACAD
1000
DSTYLE
1002
{
1070
    77
1070
     1
1070
   172
1070
     1
1070
    76
1070
     1
1002
}
  0
DIMENSION
  8
0
  6
CONTINUOUS
 62
     7
  2
*D5
 70
     0
 10
-105
 20
-15
 11
-110
 21
-15
  3
DIMSTYLE
 13
-115
 23
0
 14
-105
 24
12.860001
 50
0
1001
ACAD
1000
DSTYLE
1002
{
1070
    77
1070
     1
1070
   172
1070
     1
1002
}
  0
DIMENSION
  8
0
  6
CONTINUOUS
 62
     7
  2
*D6
 70
     0
 10
-90
 20
10
 11
-90
 21
17.5
  3
DIMSTYLE
 13
-105
 23
25
 14
-107.86
 24
10
 50
90
1001
ACAD
1000
DSTYLE
1002
{
1070
    77
1070
     1
1070
   172
1070
     1
1070
    75
1070
     1
1002
}
  0
DIMENSION
  8
0
  6
CONTINUOUS
 62
     7
  2
*D7
 70
     0
 10
-105
 20
67
 11
-140
 21
67
  3
DIMSTYLE
 13
-175
 23
44.139999
 14
-105
 24
22.39711
 50
0
1001
ACAD
1000
DSTYLE
1002
{
1070
    77
1070
     1
1070
   172
1070
     1
1002
}
  0
DIMENSION
  8
0
  6
CONTINUOUS
 62
     7
  2
*D8
 70
     0
 10
-185
 20
17
 11
-185
 21
32
  3
DIMSTYLE
 13
-172.14
 23
47
 14
-175
 24
17
 50
90
1001
ACAD
1000
DSTYLE
1002
{
1070
    77
1070
     1
1070
   172
1070
     1
1002
}
  0
DIMENSION
  8
0
  6
CONTINUOUS
 62
     7
  2
*D9
 70
     0
 10
-90
 20
47
 11
-90
 21
38.5
  3
DIMSTYLE
 13
-158
 23
30
 14
-149
 24
47
 50
90
1001
ACAD
1000
DSTYLE
1002
{
1070
    77
1070
     1
1070
   172
1070
     1
1002
}
  0
DIMENSION
  8
0
  6
CONTINUOUS
 62
     7
  2
*D10
 70
     0
 10
-80
 20
10
 11
-80
 21
28.5
  3
DIMSTYLE
 13
-149
 23
47
 14
-107.86
 24
10
 50
90
1001
ACAD
1000
DSTYLE
1002
{
1070
    77
1070
     1
1070
   172
1070
     1
1002
}
  0
DIMENSION
  8
0
  6
CONTINUOUS
 62
     7
  2
*D11
 70
     0
 10
-80
 20
10
 11
-80
 21
5
  3
DIMSTYLE
 13
-115
 23
0
 14
-107.86
 24
10
 50
90
1001
ACAD
1000
DSTYLE
1002
{
1070
    77
1070
     1
1070
   172
1070
     1
1070
    76
1070
     1
1002
}
  0
DIMENSION
  8
0
  6
CONTINUOUS
 62
     7
  2
*D12
 70
     0
 10
-105
 20
57
 11
-126
 21
57
  3
DIMSTYLE
 13
-147
 23
45
 14
-105
 24
22.39711
 50
0
1001
ACAD
1000
DSTYLE
1002
{
1070
    77
1070
     1
1070
   172
1070
     1
1002
}
  0
DIMENSION
  8
0
  6
CONTINUOUS
 62
     7
  2
*D13
 70
     0
 10
-147
 20
57
 11
-152.5
 21
57
  3
DIMSTYLE
 13
-158
 23
43
 14
-147
 24
45
 50
0
1001
ACAD
1000
DSTYLE
1002
{
1070
    77
1070
     1
1070
   172
1070
     1
1070
    76
1070
     1
1002
}
  0
DIMENSION
  8
0
  6
CONTINUOUS
 62
     7
  2
*D14
 70
     0
 10
-175
 20
57
 11
-166.5
 21
57
  3
DIMSTYLE
 13
-158
 23
43
 14
-175
 24
44.139999
 50
0
1001
ACAD
1000
DSTYLE
1002
{
1070
    77
1070
     1
1070
   172
1070
     1
1070
    75
1070
     1
1002
}
  0
DIMENSION
  8
0
  6
CONTINUOUS
 62
     7
  2
*D15
 70
     0
 10
-25.190016
 20
-15
 11
-14.236974
 21
-15
  3
DIMSTYLE
 13
-26.790016
 23
12
 14
-25.190016
 24
12
 50
0
1001
ACAD
1000
DSTYLE
1002
{
1070
    77
1070
     1
1070
   172
1070
     1
1002
}
  0
INSERT
  8
0
  6
CONTINUOUS
 62
     7
  2
KOZU0001
 10
-165
 20
19.999998
  0
DIMENSION
  8
0
  6
CONTINUOUS
 62
     7
  2
*D16
 70
     0
 10
-110
 20
-85
 11
-141.5
 21
-85
  3
DIMSTYLE
 13
-173
 23
-58
 14
-110
 24
-58
 50
0
1001
ACAD
1000
DSTYLE
1002
{
1070
    77
1070
     1
1070
   172
1070
     1
1002
}
  0
DIMENSION
  8
0
  6
CONTINUOUS
 62
     7
  2
*D17
 70
     0
 10
-185
 20
-58
 11
-185
 21
-43
  3
DIMSTYLE
 13
-173
 23
-28
 14
-173
 24
-58
 50
90
1001
ACAD
1000
DSTYLE
1002
{
1070
    77
1070
     1
1070
   172
1070
     1
1002
}
  0
INSERT
  8
0
  6
CONTINUOUS
 62
     7
  2
KOZU0002
 10
-173.32054
 20
-54.465351
  0
INSERT
  8
0
  6
CONTINUOUS
 62
     7
  2
KOZU0003
 10
-118.95074
 20
-58.595459
  0
DIMENSION
  8
0
  6
CONTINUOUS
 62
     7
  2
*D18
 70
     0
 10
-90
 20
30.000017
 11
-90
 21
27.500017
  3
DIMSTYLE
 13
-105
 23
25.000017
 14
-158
 24
30.000017
 50
90
1001
ACAD
1000
DSTYLE
1002
{
1070
    77
1070
     1
1070
   172
1070
     1
1002
}
  0
ENDSEC
  0
EOF
