  0
SECTION
  2
HEADER
  9
$ACADVER
  1
AC1015
  9
$ACADMAINTVER
 70
    20
  9
$DWGCODEPAGE
  3
ANSI_932
  9
$INSBASE
 10
0.0
 20
0.0
 30
0.0
  9
$EXTMIN
 10
-0.010890453414504
 20
-0.0566969759033782
 30
-0.0015258207003583
  9
$EXTMAX
 10
594.1399690934031
 20
420.0992228799432
 30
0.0000000349246037
  9
$LIMMIN
 10
1700.85588156276
 20
1647.985052086429
  9
$LIMMAX
 10
1997.85588156276
 20
1857.985052086429
  9
$ORTHOMODE
 70
     0
  9
$REGENMODE
 70
     1
  9
$FILLMODE
 70
     1
  9
$QTEXTMODE
 70
     0
  9
$MIRRTEXT
 70
     0
  9
$LTSCALE
 40
1.0
  9
$ATTMODE
 70
     1
  9
$TEXTSIZE
 40
3.2
  9
$TRACEWID
 40
1.0
  9
$TEXTSTYLE
  7
STANDARD
  9
$CLAYER
  8
AM_0
  9
$CELTYPE
  6
ByLayer
  9
$CECOLOR
 62
   256
  9
$CELTSCALE
 40
1.0
  9
$DISPSILH
 70
     0
  9
$DIMSCALE
 40
1.0
  9
$DIMASZ
 40
1.0
  9
$DIMEXO
 40
1.0
  9
$DIMDLI
 40
10.0
  9
$DIMRND
 40
0.0
  9
$DIMDLE
 40
0.0
  9
$DIMEXE
 40
1.0
  9
$DIMTP
 40
0.1
  9
$DIMTM
 40
0.1
  9
$DIMTXT
 40
3.5
  9
$DIMCEN
 40
0.0
  9
$DIMTSZ
 40
0.0
  9
$DIMTOL
 70
     0
  9
$DIMLIM
 70
     0
  9
$DIMTIH
 70
     0
  9
$DIMTOH
 70
     0
  9
$DIMSE1
 70
     0
  9
$DIMSE2
 70
     0
  9
$DIMTAD
 70
     1
  9
$DIMZIN
 70
     8
  9
$DIMBLK
  1

  9
$DIMASO
 70
     1
  9
$DIMSHO
 70
     1
  9
$DIMPOST
  1

  9
$DIMAPOST
  1
"
  9
$DIMALT
 70
     0
  9
$DIMALTD
 70
     2
  9
$DIMALTF
 40
0.0393701
  9
$DIMLFAC
 40
1.0
  9
$DIMTOFL
 70
     1
  9
$DIMTVP
 40
0.0
  9
$DIMTIX
 70
     0
  9
$DIMSOXD
 70
     0
  9
$DIMSAH
 70
     0
  9
$DIMBLK1
  1

  9
$DIMBLK2
  1

  9
$DIMSTYLE
  2
SYS
  9
$DIMCLRD
 70
   256
  9
$DIMCLRE
 70
   256
  9
$DIMCLRT
 70
     7
  9
$DIMTFAC
 40
0.71
  9
$DIMGAP
 40
1.5
  9
$DIMJUST
 70
     0
  9
$DIMSD1
 70
     0
  9
$DIMSD2
 70
     0
  9
$DIMTOLJ
 70
     0
  9
$DIMTZIN
 70
     8
  9
$DIMALTZ
 70
     0
  9
$DIMALTTZ
 70
     0
  9
$DIMUPT
 70
     0
  9
$DIMDEC
 70
     2
  9
$DIMTDEC
 70
     2
  9
$DIMALTU
 70
     2
  9
$DIMALTTD
 70
     2
  9
$DIMTXSTY
  7
STANDARD
  9
$DIMAUNIT
 70
     0
  9
$DIMADEC
 70
     0
  9
$DIMALTRND
 40
0.0
  9
$DIMAZIN
 70
     2
  9
$DIMDSEP
 70
    46
  9
$DIMATFIT
 70
     3
  9
$DIMFRAC
 70
     0
  9
$DIMLDRBLK
  1

  9
$DIMLUNIT
 70
     2
  9
$DIMLWD
 70
    -1
  9
$DIMLWE
 70
    -1
  9
$DIMTMOVE
 70
     0
  9
$LUNITS
 70
     2
  9
$LUPREC
 70
     2
  9
$SKETCHINC
 40
1.0
  9
$FILLETRAD
 40
10.0
  9
$AUNITS
 70
     0
  9
$AUPREC
 70
     0
  9
$MENU
  1
.
  9
$ELEVATION
 40
0.0
  9
$PELEVATION
 40
0.0
  9
$THICKNESS
 40
0.0
  9
$LIMCHECK
 70
     0
  9
$CHAMFERA
 40
0.0
  9
$CHAMFERB
 40
0.0
  9
$CHAMFERC
 40
20.0
  9
$CHAMFERD
 40
0.0
  9
$SKPOLY
 70
     0
  9
$TDCREATE
 40
2455306.693284676
  9
$TDUCREATE
 40
2455306.318284676
  9
$TDUPDATE
 40
2456272.803759213
  9
$TDUUPDATE
 40
2456272.428759213
  9
$TDINDWG
 40
0.2018375810
  9
$TDUSRTIMER
 40
0.2018374074
  9
$USRTIMER
 70
     1
  9
$ANGBASE
 50
0.0
  9
$ANGDIR
 70
     0
  9
$PDMODE
 70
     0
  9
$PDSIZE
 40
-3.0
  9
$PLINEWID
 40
0.0
  9
$SPLFRAME
 70
     0
  9
$SPLINETYPE
 70
     6
  9
$SPLINESEGS
 70
     8
  9
$HANDSEED
  5
C164
  9
$SURFTAB1
 70
     6
  9
$SURFTAB2
 70
     6
  9
$SURFTYPE
 70
     6
  9
$SURFU
 70
     6
  9
$SURFV
 70
     6
  9
$UCSBASE
  2

  9
$UCSNAME
  2

  9
$UCSORG
 10
0.0
 20
0.0
 30
0.0
  9
$UCSXDIR
 10
1.0
 20
0.0
 30
0.0
  9
$UCSYDIR
 10
0.0
 20
1.0
 30
0.0
  9
$UCSORTHOREF
  2

  9
$UCSORTHOVIEW
 70
     0
  9
$UCSORGTOP
 10
0.0
 20
0.0
 30
0.0
  9
$UCSORGBOTTOM
 10
0.0
 20
0.0
 30
0.0
  9
$UCSORGLEFT
 10
0.0
 20
0.0
 30
0.0
  9
$UCSORGRIGHT
 10
0.0
 20
0.0
 30
0.0
  9
$UCSORGFRONT
 10
0.0
 20
0.0
 30
0.0
  9
$UCSORGBACK
 10
0.0
 20
0.0
 30
0.0
  9
$PUCSBASE
  2

  9
$PUCSNAME
  2

  9
$PUCSORG
 10
0.0
 20
0.0
 30
0.0
  9
$PUCSXDIR
 10
1.0
 20
0.0
 30
0.0
  9
$PUCSYDIR
 10
0.0
 20
1.0
 30
0.0
  9
$PUCSORTHOREF
  2

  9
$PUCSORTHOVIEW
 70
     0
  9
$PUCSORGTOP
 10
0.0
 20
0.0
 30
0.0
  9
$PUCSORGBOTTOM
 10
0.0
 20
0.0
 30
0.0
  9
$PUCSORGLEFT
 10
0.0
 20
0.0
 30
0.0
  9
$PUCSORGRIGHT
 10
0.0
 20
0.0
 30
0.0
  9
$PUCSORGFRONT
 10
0.0
 20
0.0
 30
0.0
  9
$PUCSORGBACK
 10
0.0
 20
0.0
 30
0.0
  9
$USERI1
 70
     0
  9
$USERI2
 70
     0
  9
$USERI3
 70
     0
  9
$USERI4
 70
     0
  9
$USERI5
 70
     0
  9
$USERR1
 40
0.0
  9
$USERR2
 40
0.0
  9
$USERR3
 40
0.0
  9
$USERR4
 40
0.0
  9
$USERR5
 40
0.0
  9
$WORLDVIEW
 70
     1
  9
$SHADEDGE
 70
     3
  9
$SHADEDIF
 70
    70
  9
$TILEMODE
 70
     1
  9
$MAXACTVP
 70
    64
  9
$PINSBASE
 10
0.0
 20
0.0
 30
0.0
  9
$PLIMCHECK
 70
     0
  9
$PEXTMIN
 10
1.000000000000000E+20
 20
1.000000000000000E+20
 30
1.000000000000000E+20
  9
$PEXTMAX
 10
-1.000000000000000E+20
 20
-1.000000000000000E+20
 30
-1.000000000000000E+20
  9
$PLIMMIN
 10
-3.17498779296875
 20
-3.174999952316284
  9
$PLIMMAX
 10
293.4970092773438
 20
206.692492723465
  9
$UNITMODE
 70
     0
  9
$VISRETAIN
 70
     1
  9
$PLINEGEN
 70
     0
  9
$PSLTSCALE
 70
     1
  9
$TREEDEPTH
 70
  3020
  9
$CMLSTYLE
  2
Standard
  9
$CMLJUST
 70
     0
  9
$CMLSCALE
 40
20.0
  9
$PROXYGRAPHICS
 70
     1
  9
$MEASUREMENT
 70
     1
  9
$CELWEIGHT
370
    -1
  9
$ENDCAPS
280
     0
  9
$JOINSTYLE
280
     0
  9
$LWDISPLAY
290
     0
  9
$INSUNITS
 70
     4
  9
$HYPERLINKBASE
  1

  9
$STYLESHEET
  1
monochrome.ctb
  9
$XEDIT
290
     1
  9
$CEPSNTYPE
380
     0
  9
$PSTYLEMODE
290
     1
  9
$FINGERPRINTGUID
  2
{4D85DA3C-E377-4DDE-A41E-E86F4FE9F5DB}
  9
$VERSIONGUID
  2
{DC7D4934-D63E-4EA1-927B-A4D0D69DAA58}
  9
$EXTNAMES
290
     1
  9
$PSVPSCALE
 40
0.0
  9
$OLESTARTUP
290
     0
  0
ENDSEC
  0
SECTION
  2
CLASSES
  0
CLASS
  1
ACDBDICTIONARYWDFLT
  2
AcDbDictionaryWithDefault
  3
ObjectDBX Classes
 90
        0
280
     0
281
     0
  0
CLASS
  1
ACDBPLACEHOLDER
  2
AcDbPlaceHolder
  3
ObjectDBX Classes
 90
        0
280
     0
281
     0
  0
CLASS
  1
LAYOUT
  2
AcDbLayout
  3
ObjectDBX Classes
 90
        0
280
     0
281
     0
  0
CLASS
  1
AMGSETTINGSOBJ
  2
AmgSettingsObj
  3
"AcadM|Product Description: AutoCAD Mechanical|Company: Autodesk"
 90
        0
280
     0
281
     0
  0
CLASS
  1
ACME_DOCUMENT
  2
AcMeDbDoc
  3
AcMeServices
 90
        0
280
     0
281
     0
  0
CLASS
  1
ACMESCOPE
  2
AcMeScope
  3
AcMeServices
 90
        0
280
     0
281
     0
  0
CLASS
  1
ACMECOMMANDHISTORY
  2
AcMeCommandHistory
  3
AcMeServices
 90
        0
280
     0
281
     0
  0
CLASS
  1
DICTIONARYVAR
  2
AcDbDictionaryVar
  3
ObjectDBX Classes
 90
        0
280
     0
281
     0
  0
CLASS
  1
ACIMSYSVARMAN
  2
AcImSysVarManager
  3
AcMeServices
 90
        0
280
     0
281
     0
  0
CLASS
  1
ACIMREALSYSVAR
  2
AcImRealSysVar
  3
AcMeServices
 90
        0
280
     0
281
     0
  0
CLASS
  1
ACIMINTSYSVAR
  2
AcImIntSysVar
  3
AcMeServices
 90
        0
280
     0
281
     0
  0
CLASS
  1
ACMEDRAWINGMAN
  2
AcMeDrawingMan
  3
AcMeServices
 90
        0
280
     0
281
     0
  0
CLASS
  1
ACMEVIEW
  2
AcMeView
  3
AcMeServices
 90
        0
280
     0
281
     0
  0
CLASS
  1
ACDBENTITYCACHE
  2
AcMeEntityCache
  3
AcMeServices
 90
        0
280
     0
281
     0
  0
CLASS
  1
GSMANAGER
  2
AcMeGSManager
  3
AcMeServices
 90
        0
280
     0
281
     0
  0
CLASS
  1
AMDTINTERNALREACTOR
  2
AmdtInternalReactor
  3
AcMeServices
 90
        0
280
     0
281
     0
  0
CLASS
  1
ACMESTATEMGR
  2
AcMeStateMgr
  3
AcMeServices
 90
        0
280
     0
281
     0
  0
CLASS
  1
ACGREFMASTER
  2
AcGrefMaster
  3
AcAttribServices
 90
        0
280
     0
281
     0
  0
CLASS
  1
ACME_DATABASE
  2
AcMeDbDatabase
  3
AcMeServices
 90
        0
280
     0
281
     0
  0
CLASS
  1
ACRFINSADJUSTERMGR
  2
AcRfInsAdjusterMgr
  3
AcMeServices
 90
        0
280
     0
281
     0
  0
CLASS
  1
ACGREFACADMASTER
  2
AcGrefacadMaster
  3
AcGrefServices
 90
        0
280
     0
281
     0
  0
CLASS
  1
AMIMASTER
  2
AmiMaster
  3
AmiServices
 90
        0
280
     0
281
     0
  0
CLASS
  1
ACMDATADICTIONARY
  2
AcmDataDictionary
  3
"AcmSymBB|Product Description: AutoCAD Mechanical|Company: Autodesk"
 90
        0
280
     0
281
     0
  0
CLASS
  1
ACMDATAENTRYBLOCK
  2
AcmDataEntryBlock
  3
"AcmSymBB|Product Description: AutoCAD Mechanical|Company: Autodesk"
 90
        0
280
     0
281
     0
  0
CLASS
  1
ACIMSTRSYSVAR
  2
AcImStrSysVar
  3
AcMeServices
 90
        0
280
     0
281
     0
  0
CLASS
  1
ACMSTANDARDISO
  2
AcmStandardISO
  3
"Amdt_StdImp|Product Description: AutoCAD Mechanical|Company: Autodesk"
 90
        0
280
     0
281
     0
  0
CLASS
  1
AMGOBJPROPCFG
  2
AmgObjPropCfg
  3
"AmgLay|Product Description: AutoCAD Mechanical|Company: Autodesk"
 90
        1
280
     0
281
     0
  0
CLASS
  1
AMDTEDGESTANDARDISO
  2
AmdtEdgeStdISO
  3
"Amdt_StdImp|Product Description: AutoCAD Mechanical|Company: Autodesk"
 90
        0
280
     0
281
     0
  0
CLASS
  1
ACMSURFSTANDARDISO
  2
AcmSurfTextStdISO
  3
"Amdt_StdImp|Product Description: AutoCAD Mechanical|Company: Autodesk"
 90
        0
280
     0
281
     0
  0
CLASS
  1
ACMFCFSTANDARDISO
  2
AcmFCFStdISO
  3
"Amdt_StdImp|Product Description: AutoCAD Mechanical|Company: Autodesk"
 90
        0
280
     0
281
     0
  0
CLASS
  1
ACMWELDSTANDARDISO
  2
AcmWeldingStdISO
  3
"Amdt_StdImp|Product Description: AutoCAD Mechanical|Company: Autodesk"
 90
        0
280
     0
281
     0
  0
CLASS
  1
ACMIDSTANDARDISO
  2
AcmIdStdISO
  3
"Amdt_StdImp|Product Description: AutoCAD Mechanical|Company: Autodesk"
 90
        0
280
     0
281
     0
  0
CLASS
  1
ACMDATUMSTANDARDISO
  2
AcmDatumStdISO
  3
"Amdt_StdImp|Product Description: AutoCAD Mechanical|Company: Autodesk"
 90
        0
280
     0
281
     0
  0
CLASS
  1
ACMBOMSTANDARDISO
  2
AcmBOMStdISO
  3
"Amdt_StdImp|Product Description: AutoCAD Mechanical|Company: Autodesk"
 90
        0
280
     0
281
     0
  0
CLASS
  1
ACMDETAILSTANDARDISO
  2
AmdtDetailSymStdISO
  3
"Amdt_StdImp|Product Description: AutoCAD Mechanical|Company: Autodesk"
 90
        0
280
     0
281
     0
  0
CLASS
  1
ACMSECTIONSTANDARDISO
  2
AmdtSectionSymStdISO
  3
"Amdt_StdImp|Product Description: AutoCAD Mechanical|Company: Autodesk"
 90
        0
280
     0
281
     0
  0
CLASS
  1
ACMCENTERLINESTANDARDISO
  2
AmdtCenterLineStdISO
  3
"Amdt_StdImp|Product Description: AutoCAD Mechanical|Company: Autodesk"
 90
        0
280
     0
281
     0
  0
CLASS
  1
ACAMGLAYSTD
  2
AcAmgLayStd
  3
"AmgLay|Product Description: AutoCAD Mechanical|Company: Autodesk"
 90
        0
280
     0
281
     0
  0
CLASS
  1
ACAMGDIMSTD
  2
AcAmgDimStd
  3
"AmgDim|Product Description: AutoCAD Mechanical|Company: Autodesk"
 90
        0
280
     0
281
     0
  0
CLASS
  1
ACAMGTITLESTD
  2
AcAmgTitleStd
  3
"AmgTitle|Product Description: AutoCAD Mechanical|Company: Autodesk"
 90
        0
280
     0
281
     0
  0
CLASS
  1
ACAMGFILTERDAT
  2
AcAmgFilterDat
  3
"AcadM|Product Description: AutoCAD Mechanical|Company: Autodesk"
 90
        0
280
     0
281
     0
  0
CLASS
  1
LAYER_INDEX
  2
AcDbLayerIndex
  3
ObjectDBX Classes
 90
    32768
280
     0
281
     0
  0
CLASS
  1
IDBUFFER
  2
AcDbIdBuffer
  3
ObjectDBX Classes
 90
    32768
280
     0
281
     0
  0
CLASS
  1
PLOTSETTINGS
  2
AcDbPlotSettings
  3
ObjectDBX Classes
 90
    32768
280
     0
281
     0
  0
CLASS
  1
AMDTFORMULAUPDATEDISPATCHER
  2
AmdtFormulaUpdateDispatcher
  3
AcMeServices
 90
        0
280
     0
281
     0
  0
CLASS
  1
ACMSTANDARDANSI
  2
AcmStandardANSI
  3
"Amdt_StdImp|Product Description: AutoCAD Mechanical|Company: Autodesk"
 90
        0
280
     0
281
     0
  0
CLASS
  1
ACMSURFSTANDARDANSI
  2
AcmSurfTextStdANSI
  3
"Amdt_StdImp|Product Description: AutoCAD Mechanical|Company: Autodesk"
 90
        0
280
     0
281
     0
  0
CLASS
  1
ACMFCFSTANDARDANSI
  2
AcmFCFStdANSI
  3
"Amdt_StdImp|Product Description: AutoCAD Mechanical|Company: Autodesk"
 90
        0
280
     0
281
     0
  0
CLASS
  1
ACMWELDSTANDARDANSI
  2
AcmWeldingStdANSI
  3
"Amdt_StdImp|Product Description: AutoCAD Mechanical|Company: Autodesk"
 90
        0
280
     0
281
     0
  0
CLASS
  1
ACMIDSTANDARDANSI
  2
AcmIdStdANSI
  3
"Amdt_StdImp|Product Description: AutoCAD Mechanical|Company: Autodesk"
 90
        0
280
     0
281
     0
  0
CLASS
  1
ACMDATUMSTANDARDANSI
  2
AcmDatumStdANSI
  3
"Amdt_StdImp|Product Description: AutoCAD Mechanical|Company: Autodesk"
 90
        0
280
     0
281
     0
  0
CLASS
  1
ACMBOMSTANDARDANSI
  2
AcmBOMStdANSI
  3
"Amdt_StdImp|Product Description: AutoCAD Mechanical|Company: Autodesk"
 90
        0
280
     0
281
     0
  0
CLASS
  1
ACMDETAILSTANDARDANSI
  2
AmdtDetailSymStdANSI
  3
"Amdt_StdImp|Product Description: AutoCAD Mechanical|Company: Autodesk"
 90
        0
280
     0
281
     0
  0
CLASS
  1
ACMSECTIONSTANDARDANSI
  2
AmdtSectionSymStdANSI
  3
"Amdt_StdImp|Product Description: AutoCAD Mechanical|Company: Autodesk"
 90
        0
280
     0
281
     0
  0
CLASS
  1
ACMCENTERLINESTANDARDANSI
  2
AmdtCenterLineStdANSI
  3
"Amdt_StdImp|Product Description: AutoCAD Mechanical|Company: Autodesk"
 90
        0
280
     0
281
     0
  0
CLASS
  1
ACMBOM
  2
AcmBom
  3
"AcmSymBB|Product Description: AutoCAD Mechanical|Company: Autodesk"
 90
        0
280
     0
281
     0
  0
CLASS
  1
ACMDATAENTRYPART
  2
AcmDataEntryPart
  3
"AcmSymBB|Product Description: AutoCAD Mechanical|Company: Autodesk"
 90
    32768
280
     0
281
     0
  0
CLASS
  1
ACMPARTREF
  2
AcmPartRef
  3
"AcmSymBB|Product Description: AutoCAD Mechanical|Company: Autodesk"
 90
    35839
280
     0
281
     1
  0
CLASS
  1
ACDBCIRCARCRES
  2
AcDbCircArcRes
  3
AcGrefServices
 90
    32768
280
     0
281
     0
  0
CLASS
  1
ACMBOMROW
  2
AcmBomRow
  3
"AcmSymBB|Product Description: AutoCAD Mechanical|Company: Autodesk"
 90
    32768
280
     0
281
     0
  0
CLASS
  1
ACMBALLOON
  2
AcmBalloon
  3
"AcmSymBB|Product Description: AutoCAD Mechanical|Company: Autodesk"
 90
    35839
280
     0
281
     1
  0
CLASS
  1
AMDTNOTE
  2
AmdtNote
  3
"AcmSymBB|Product Description: AutoCAD Mechanical|Company: Autodesk"
 90
     3071
280
     0
281
     1
  0
CLASS
  1
STDPART2D
  2
AmgStdPart
  3
"g3vace|Class: AmgStdPart|Product Description: AutoCAD Mechanical|Company: Autodesk"
 90
    35839
280
     0
281
     1
  0
CLASS
  1
ACDBSTDPARTRES_LINE
  2
AcDbStdPartRes_Line
  3
"g3vace|Class: AcDbStdPartRes_Line|Product Description: AutoCAD Mechanical|Company: Autodesk"
 90
    32768
280
     0
281
     0
  0
CLASS
  1
ACMDATAENTRY
  2
AcmDataEntry
  3
"AcmSymBB|Product Description: AutoCAD Mechanical|Company: Autodesk"
 90
        0
280
     0
281
     0
  0
CLASS
  1
ACDBOPPOLYLINERES
  2
AcDbOpPolylineRes
  3
AcGrefServices
 90
    32768
280
     0
281
     0
  0
CLASS
  1
ACMPARTLIST
  2
AcmPartList
  3
"AcmSymBB|Product Description: AutoCAD Mechanical|Company: Autodesk"
 90
    35839
280
     0
281
     1
  0
CLASS
  1
ACDBLINERES
  2
AcDbLineRes
  3
AcGrefServices
 90
    32768
280
     0
281
     0
  0
CLASS
  1
ACRFINSADJ
  2
AcRfInsAdjuster
  3
AcMeServices
 90
    32768
280
     0
281
     0
  0
CLASS
  1
AM_DRAWING_MGR
  2
AcDmDwgMgr
  3
AcMechDwgViewMgmt
 90
        0
280
     0
281
     0
  0
CLASS
  1
AM_DWG_DOCUMENT
  2
AcDmDwgDocument
  3
AcMechDwgViewMgmt
 90
        0
280
     0
281
     0
  0
CLASS
  1
AM_DWG_SHEET
  2
AcDmSheet
  3
AcMechDwgViewMgmt
 90
        0
280
     0
281
     0
  0
CLASS
  1
AM_VIEWDIMPARMAP
  2
AcDmViewDimParMap
  3
AcMechDwgViewMgmt
 90
        0
280
     0
281
     0
  0
CLASS
  1
AM_DWGMGR_NAME
  2
AcDmDwgMgrName
  3
AcMechDwgViewMgmt
 90
        0
280
     0
281
     0
  0
CLASS
  1
AMDTMENUSTATEMGR
  2
AmdtMenuStateMgr
  3
McadcomServices
 90
        0
280
     0
281
     0
  0
CLASS
  1
AMDTMCOMMENUSTATE
  2
AmdtMcomMenuState
  3
McadcomServices
 90
        0
280
     0
281
     0
  0
CLASS
  1
ASAPP
  2
AcAsAppObject
  3
AutoSurfServices
 90
        0
280
     0
281
     0
  0
CLASS
  1
IM_STATIC_MAN
  2
AcImStaticVarManager
  3
AcMeServices
 90
        0
280
     0
281
     0
  0
CLASS
  1
ACIMDBLSTATICVAR
  2
AcImDblStaticVar
  3
AcMeServices
 90
        0
280
     0
281
     0
  0
CLASS
  1
ACIMSTRSTATICVAR
  2
AcImStrStaticVar
  3
AcMeServices
 90
        0
280
     0
281
     0
  0
CLASS
  1
ACIMINTSTATICVAR
  2
AcImIntStaticVar
  3
AcMeServices
 90
        0
280
     0
281
     0
  0
CLASS
  1
ACASGREFMASTER
  2
AcAsGrefMaster
  3
AutoSurfResolverServices
 90
        0
280
     0
281
     0
  0
CLASS
  1
ACADGREFMODULE
  2
AcAdGrefModule
  3
AdGrefServices
 90
        0
280
     0
281
     0
  0
CLASS
  1
AMDTMAPISURFMOUDULE
  2
AmdtMApiSurfModule
  3
MApiSurfServices
 90
        0
280
     0
281
     0
  0
CLASS
  1
MAPIAMMOUDLE
  2
MApiAmModule
  3
MApiAmServices
 90
        0
280
     0
281
     0
  0
CLASS
  1
AMDTADMENUSTATE
  2
AmdtAdMenuState
  3
DesignerServices
 90
        0
280
     0
281
     0
  0
CLASS
  1
ADAPPL
  2
AcAdAppl
  3
DesignerServices
 90
        0
280
     0
281
     0
  0
CLASS
  1
DEPMGR
  2
AcAdDepMgr
  3
DesignerServices
 90
        0
280
     0
281
     0
  0
CLASS
  1
PARAMMGR
  2
AcAdParamMgr
  3
DesignerServices
 90
        0
280
     0
281
     0
  0
CLASS
  1
PARAMSCOPE
  2
AcAdParamScope
  3
DesignerServices
 90
        0
280
     0
281
     0
  0
CLASS
  1
NAMEDAPPL
  2
AcAdNamedAppl
  3
DesignerServices
 90
        0
280
     0
281
     0
  0
CLASS
  1
ADHNTMPLT
  2
AdHoleNoteTemplateMgr
  3
DesignerServices
 90
    32768
280
     0
281
     0
  0
CLASS
  1
AM_HNTEMPLATE_MGR_NAME
  2
AdHoleNoteTemplateMgrName
  3
DesignerServices
 90
    32768
280
     0
281
     0
  0
CLASS
  1
AMDTDMMENUSTATE
  2
AmdtDmMenuState
  3
AcMechDwgViewMgmt
 90
        0
280
     0
281
     0
  0
CLASS
  1
MAPIADMODULE
  2
MApiAdModule
  3
MApiAdServices
 90
        0
280
     0
281
     0
  0
CLASS
  1
AMDTAMMENUSTATE
  2
AmdtAmMenuState
  3
DesignerAssemblies
 90
        0
280
     0
281
     0
  0
CLASS
  1
ACAMPROJECT
  2
AcAmProject
  3
DesignerAssemblies
 90
        0
280
     0
281
     0
  0
CLASS
  1
ACAMGRCOMPDEF
  2
AcAmGrCompDef
  3
DesignerAssemblies
 90
        0
280
     0
281
     0
  0
CLASS
  1
ACCMCONTEXT
  2
AcCmContext
  3
DesignerAssemblies
 90
        0
280
     0
281
     0
  0
CLASS
  1
ACAMCOMPDEF
  2
AcAmCompDef
  3
DesignerAssemblies
 90
        0
280
     0
281
     0
  0
CLASS
  1
ACAMCOMPDEFMGR
  2
AcAmCompDefMgr
  3
DesignerAssemblies
 90
        0
280
     0
281
     0
  0
CLASS
  1
AMCONTEXTMGR
  2
AcAmContextMgr
  3
DesignerAssemblies
 90
        0
280
     0
281
     0
  0
CLASS
  1
ACAMCONTEXTMODELER
  2
AcAmContextModeler
  3
DesignerAssemblies
 90
        0
280
     0
281
     0
  0
CLASS
  1
CATALOGSTATE
  2
AcAmCatalogState
  3
DesignerAssemblies
 90
        0
280
     0
281
     0
  0
CLASS
  1
ACAMGRCOMPDEFSET
  2
AcAmGrCompDefSet
  3
DesignerAssemblies
 90
        0
280
     0
281
     0
  0
CLASS
  1
AMDTBROWSERDBTAB
  2
AmdtBrowserDbTab
  3
McadcomServices
 90
        0
280
     0
281
     0
  0
CLASS
  1
CBROWSERAPPOBJECT
  2
CBrowserAppObject
  3
McadcomServices
 90
        0
280
     0
281
     0
  0
CLASS
  1
DM_PLACEHOLDER
  2
AcDmSelsetPlaceholder
  3
AcMechDwgViewMgmt
 90
        0
280
     0
281
     0
  0
CLASS
  1
ACMPICKOBJ
  2
AcmPickEnt
  3
"AcmSymBB|Product Description: AutoCAD Mechanical|Company: Autodesk"
 90
    32768
280
     0
281
     1
  0
CLASS
  1
ACMNOTESTANDARDISO
  2
AmdtNoteStdISO
  3
"Amdt_StdImp|Product Description: AutoCAD Mechanical|Company: Autodesk"
 90
        0
280
     0
281
     0
  0
CLASS
  1
ACMNOTESTANDARDANSI
  2
AmdtNoteStdANSI
  3
"Amdt_StdImp|Product Description: AutoCAD Mechanical|Company: Autodesk"
 90
        0
280
     0
281
     0
  0
CLASS
  1
ACMTHREADLINESTANDARDISO
  2
AmdtThreadLineStdISO
  3
"Amdt_StdImp|Product Description: AutoCAD Mechanical|Company: Autodesk"
 90
        0
280
     0
281
     0
  0
CLASS
  1
ACMTHREADLINESTANDARDANSI
  2
AmdtThreadLineStdANSI
  3
"Amdt_StdImp|Product Description: AutoCAD Mechanical|Company: Autodesk"
 90
        0
280
     0
281
     0
  0
CLASS
  1
TABLESTYLE
  2
AcDbTableStyle
  3
ObjectDBX Classes
 90
     4095
280
     0
281
     0
  0
CLASS
  1
SORTENTSTABLE
  2
AcDbSortentsTable
  3
ObjectDBX Classes
 90
        0
280
     0
281
     0
  0
CLASS
  1
MATERIAL
  2
AcDbMaterial
  3
ObjectDBX Classes
 90
     1024
280
     0
281
     0
  0
CLASS
  1
VISUALSTYLE
  2
AcDbVisualStyle
  3
ObjectDBX Classes
 90
     4095
280
     0
281
     0
  0
CLASS
  1
ACRFATTGENMGR
  2
AcRfAttGeneralMgr
  3
AcAttribServices
 90
        0
280
     0
281
     0
  0
CLASS
  1
ACRFOBJATTMGR
  2
AcRfObjAttGroupMgr
  3
AcAttribServices
 90
        0
280
     0
281
     0
  0
CLASS
  1
ACRFMCADAPIATTHOLDER
  2
AcRfMCADAPIAttHolder
  3
AcAttribServices
 90
        0
280
     0
281
     0
  0
CLASS
  1
AMDTSYSATTR
  2
AmdtSystemAttribute
  3
AcAttribServices
 90
        0
280
     0
281
     0
  0
CLASS
  1
ACMTAPERSTANDARDISO
  2
AcmTaperStdISO
  3
"Amdt_StdImp|Product Description: AutoCAD Mechanical|Company: Autodesk"
 90
        0
280
     0
281
     0
  0
CLASS
  1
CAMSSTRUCTBTNSTATE
  2
StructBtnState
  3
L"DesignerAssemblies"
 90
        0
280
     0
281
     0
  0
CLASS
  1
DIMASSOC
  2
AcDbDimAssoc
  3
"AcDbDimAssoc|Product Desc:     AcDim ARX App For Dimension|Company:          Autodesk, Inc.|WEB Address:      www.autodesk.com"
 90
    32768
280
     0
281
     0
  0
CLASS
  1
SCALE
  2
AcDbScale
  3
ObjectDBX Classes
 90
     1153
280
     0
281
     0
  0
CLASS
  1
MLEADERSTYLE
  2
AcDbMLeaderStyle
  3
ACDB_MLEADERSTYLE_CLASS
 90
     4095
280
     0
281
     0
  0
CLASS
  1
ACMANOOTATIONVIEWSTANDARDISO
  2
AmdtAnViewStdISO
  3
"Amdt_StdImp|Product Description: AutoCAD Mechanical|Company: Autodesk, Inc."
 90
    33792
280
     0
281
     0
  0
CLASS
  1
CELLSTYLEMAP
  2
AcDbCellStyleMap
  3
ObjectDBX Classes
 90
     1152
280
     0
281
     0
  0
CLASS
  1
AMDTNOTETEMPLATEDB
  2
AmdtNoteTemplateDB
  3
AMDT_STDIMP_MODULE_NAME
 90
        0
280
     0
281
     0
  0
CLASS
  1
ACMTAPERSTANDARDANSI
  2
AcmTaperStdANSI
  3
"Amdt_StdImp|Product Description: AutoCAD Mechanical|Company: Autodesk"
 90
        0
280
     0
281
     0
  0
CLASS
  1
ACAMGHOLECHARTSTDANSI
  2
AcAmgHoleChartStdANSI
  3
ACMSYMBB_MODULE_NAME
 90
        0
280
     0
281
     0
  0
CLASS
  1
ACMANOOTATIONVIEWSTANDARDANSI
  2
AmdtAnViewStdANSI
  3
"Amdt_StdImp|Product Description: AutoCAD Mechanical|Company: Autodesk, Inc."
 90
    33792
280
     0
281
     0
  0
ENDSEC
  0
SECTION
  2
TABLES
  0
TABLE
  2
VPORT
  5
8
330
0
100
AcDbSymbolTable
 70
     1
  0
VPORT
  5
B0EC
330
8
100
AcDbSymbolTableRecord
100
AcDbViewportTableRecord
  2
*Active
 70
     0
 10
0.0
 20
0.0
 11
1.0
 21
1.0
 12
335.45757194609
 22
302.9157306024681
 13
0.0
 23
0.0
 14
2.5
 24
2.5
 15
10.0
 25
10.0
 16
0.0
 26
0.0
 36
1.0
 17
0.0
 27
0.0
 37
0.0
 40
966.3485924122923
 41
1.407124681933842
 42
50.0
 43
-1370.695619172058
 44
-1370.695619172058
 50
0.0
 51
0.0
 71
    16
 72
   100
 73
     1
 74
     3
 75
     0
 76
     0
 77
     0
 78
     0
281
     0
 65
     0
110
0.0
120
0.0
130
0.0
111
1.0
121
0.0
131
0.0
112
0.0
122
1.0
132
0.0
 79
     0
146
0.0
  0
ENDTAB
  0
TABLE
  2
LTYPE
  5
5
330
0
100
AcDbSymbolTable
 70
    33
  0
LTYPE
  5
14
330
5
100
AcDbSymbolTableRecord
100
AcDbLinetypeTableRecord
  2
ByBlock
 70
     0
  3

 72
    65
 73
     0
 40
0.0
  0
LTYPE
  5
15
330
5
100
AcDbSymbolTableRecord
100
AcDbLinetypeTableRecord
  2
ByLayer
 70
     0
  3

 72
    65
 73
     0
 40
0.0
  0
LTYPE
  5
16
330
5
100
AcDbSymbolTableRecord
100
AcDbLinetypeTableRecord
  2
Continuous
 70
     0
  3
Solid line
 72
    65
 73
     0
 40
0.0
  0
LTYPE
  5
4F
330
5
100
AcDbSymbolTableRecord
100
AcDbLinetypeTableRecord
  2
AM_ISO02W050
 70
     0
  3
__ __ __ __ __ __ __ __ __ __ __ __ __ __ __
 72
    65
 73
     2
 40
7.5
 49
6.0
 74
     0
 49
-1.5
 74
     0
  0
LTYPE
  5
52
330
5
100
AcDbSymbolTableRecord
100
AcDbLinetypeTableRecord
  2
Amconstr
 70
     0
  3
_______________________
 72
    65
 73
     2
 40
9999.0
 49
9999.0
 74
     0
 49
0.0
 74
     0
  0
LTYPE
  5
64
330
5
100
AcDbSymbolTableRecord
100
AcDbLinetypeTableRecord
  2
ACISOWELD
 70
     0
  3
_ _ _ _ _
 72
    65
 73
     2
 40
2.0
 49
2.0
 74
     0
 49
-1.0
 74
     0
  0
LTYPE
  5
65
330
5
100
AcDbSymbolTableRecord
100
AcDbLinetypeTableRecord
  2
ACISOTGB
 70
     0
  3
__ . . __ . .
 72
    65
 73
     6
 40
9.0
 49
4.0
 74
     0
 49
-1.0
 74
     0
 49
1.0
 74
     0
 49
-1.0
 74
     0
 49
1.0
 74
     0
 49
-1.0
 74
     0
  0
LTYPE
  5
66
330
5
100
AcDbSymbolTableRecord
100
AcDbLinetypeTableRecord
  2
ACISOTGL
 70
     0
  3
_ _ _ _ _
 72
    65
 73
     2
 40
3.0
 49
2.0
 74
     0
 49
-1.0
 74
     0
  0
LTYPE
  5
69
330
5
100
AcDbSymbolTableRecord
100
AcDbLinetypeTableRecord
  2
CENTER
 70
     0
  3
__ . __
 72
    65
 73
     4
 40
7.0
 49
4.0
 74
     0
 49
-1.0
 74
     0
 49
1.0
 74
     0
 49
-1.0
 74
     0
  0
LTYPE
  5
A6E
330
5
100
AcDbSymbolTableRecord
100
AcDbLinetypeTableRecord
  2
PHANTOM2
 70
     0
  3
Phantom (.5x) ___ _ _ ___ _ _ ___ _ _ ___ _ _
 72
    65
 73
     6
 40
31.75
 49
15.875
 74
     0
 49
-3.174999999999999
 74
     0
 49
3.174999999999999
 74
     0
 49
-3.174999999999999
 74
     0
 49
3.174999999999999
 74
     0
 49
-3.174999999999999
 74
     0
  0
LTYPE
  5
4DED
330
5
100
AcDbSymbolTableRecord
100
AcDbLinetypeTableRecord
  2
中線
 70
     0
  3
___________________
 72
    65
 73
     2
 40
2.0
 49
1.0
 74
     0
 49
1.0
 74
     0
  0
LTYPE
  5
4DF6
330
5
100
AcDbSymbolTableRecord
100
AcDbLinetypeTableRecord
  2
細線
 70
     0
  3
___________________
 72
    65
 73
     2
 40
2.0
 49
1.0
 74
     0
 49
1.0
 74
     0
  0
LTYPE
  5
4DF7
330
5
100
AcDbSymbolTableRecord
100
AcDbLinetypeTableRecord
  2
太線
 70
     0
  3
___________________
 72
    65
 73
     2
 40
2.0
 49
1.0
 74
     0
 49
1.0
 74
     0
  0
LTYPE
  5
4EA7
330
5
100
AcDbSymbolTableRecord
100
AcDbLinetypeTableRecord
  2
文字
 70
     0
  3
_________________
 72
    65
 73
     2
 40
2.0
 49
1.0
 74
     0
 49
1.0
 74
     0
  0
LTYPE
  5
4EA9
330
5
100
AcDbSymbolTableRecord
100
AcDbLinetypeTableRecord
  2
寸法線
 70
     0
  3
________________
 72
    65
 73
     2
 40
2.0
 49
1.0
 74
     0
 49
1.0
 74
     0
  0
LTYPE
  5
4F12
330
5
100
AcDbSymbolTableRecord
100
AcDbLinetypeTableRecord
  2
ハッチング
 70
     0
  3
_________________
 72
    65
 73
     2
 40
2.0
 49
1.0
 74
     0
 49
1.0
 74
     0
  0
LTYPE
  5
5180
330
5
100
AcDbSymbolTableRecord
100
AcDbLinetypeTableRecord
  2
陰線1
 70
     0
  3
__ __ __ __
 72
    65
 73
     2
 40
4.0
 49
2.2
 74
     0
 49
-1.8
 74
     0
  0
LTYPE
  5
5182
330
5
100
AcDbSymbolTableRecord
100
AcDbLinetypeTableRecord
  2
切断線
 70
     0
  3
/\/-/\/-/\/-/\/-/\/-/\/
 72
    65
 73
     2
 40
11.0001
 49
0.0001
 74
     4
 75
   135
340
56
 46
0.04
 50
0.0
 44
0.0
 45
0.0
 49
-11.0
 74
     0
  0
LTYPE
  5
5183
330
5
100
AcDbSymbolTableRecord
100
AcDbLinetypeTableRecord
  2
想像線1
 70
     0
  3
__ __ __ _____ __ __ ____
 72
    65
 73
     6
 40
14.5
 49
6.0
 74
     0
 49
-1.5
 74
     0
 49
2.0
 74
     0
 49
-1.5
 74
     0
 49
2.0
 74
     0
 49
-1.5
 74
     0
  0
LTYPE
  5
5185
330
5
100
AcDbSymbolTableRecord
100
AcDbLinetypeTableRecord
  2
中心線1
 70
     0
  3
___ _ ___ _ ___
 72
    65
 73
     4
 40
18.0
 49
12.0
 74
     0
 49
-2.0
 74
     0
 49
2.0
 74
     0
 49
-2.0
 74
     0
  0
LTYPE
  5
5188
330
5
100
AcDbSymbolTableRecord
100
AcDbLinetypeTableRecord
  2
補助線
 70
     0
  3
______________
 72
    65
 73
     2
 40
2.0
 49
1.0
 74
     0
 49
1.0
 74
     0
  0
LTYPE
  5
6427
330
5
100
AcDbSymbolTableRecord
100
AcDbLinetypeTableRecord
  2
HIDDEN
 70
     0
  3
Hidden __ __ __ __ __ __ __ __ __ __ __ __ __ _
 72
    65
 73
     2
 40
0.375
 49
0.25
 74
     0
 49
-0.125
 74
     0
  0
LTYPE
  5
AC81
330
5
100
AcDbSymbolTableRecord
100
AcDbLinetypeTableRecord
  2
破断線
 70
     0
  3
/\/-/\/-/\/-/\/-/\/-/\/
 72
    65
 73
     2
 40
0.4401
 49
0.0001
 74
     4
 75
   136
340
AC80
 46
0.0016
 50
0.0
 44
0.0
 45
0.0
 49
-0.4400000000000001
 74
     0
  0
LTYPE
  5
AC9E
330
5
100
AcDbSymbolTableRecord
100
AcDbLinetypeTableRecord
  2
Amzigzag
 70
     0
  3
/\/-/\/-/\/-/\/-/\/-/\/
 72
    65
 73
     2
 40
11.0001
 49
0.0001
 74
     4
 75
   135
340
56
 46
0.04
 50
0.0
 44
0.0
 45
0.0
 49
-11.0
 74
     0
  0
LTYPE
  5
AF0F
330
5
100
AcDbSymbolTableRecord
100
AcDbLinetypeTableRecord
  2
genzigzag
 70
     0
  3
/\/-/\/-/\/-/\/-/\/-/\/
 72
    65
 73
     2
 40
12.0001
 49
0.0001
 74
     4
 75
   135
340
AC80
 46
2.0
 50
0.0
 44
0.0
 45
0.0
 49
-12.0
 74
     0
  0
LTYPE
  5
AF95
330
5
100
AcDbSymbolTableRecord
100
AcDbLinetypeTableRecord
  2
AM_ISO08W050
 70
     0
  3
____ . ____ . ____ . ____ . ____ . ____ . ____
 72
    65
 73
     4
 40
18.0
 49
12.0
 74
     0
 49
-1.5
 74
     0
 49
3.0
 74
     0
 49
-1.5
 74
     0
  0
LTYPE
  5
AF96
330
5
100
AcDbSymbolTableRecord
100
AcDbLinetypeTableRecord
  2
AM_ISO09W050
 70
     0
  3
_____ . . _____ . . _____ . . ____ .. ____
 72
    65
 73
     6
 40
22.5
 49
12.0
 74
     0
 49
-1.5
 74
     0
 49
3.0
 74
     0
 49
-1.5
 74
     0
 49
3.0
 74
     0
 49
-1.5
 74
     0
  0
LTYPE
  5
AF97
330
5
100
AcDbSymbolTableRecord
100
AcDbLinetypeTableRecord
  2
AM_ISO08W050x2
 70
     0
  3
__ . __ . __ . __ . __ . __
 72
    65
 73
     4
 40
9.0
 49
6.0
 74
     0
 49
-0.75
 74
     0
 49
1.5
 74
     0
 49
-0.75
 74
     0
  0
LTYPE
  5
AF98
330
5
100
AcDbSymbolTableRecord
100
AcDbLinetypeTableRecord
  2
AM_ISO02W050x2
 70
     0
  3
 _ _ _ _ _ _ _ _ _ _ _ _
 72
    65
 73
     2
 40
3.75
 49
3.0
 74
     0
 49
-0.75
 74
     0
  0
LTYPE
  5
B465
330
5
100
AcDbSymbolTableRecord
100
AcDbLinetypeTableRecord
  2
DASHED
 70
     0
  3
__ __ __ __ __ __ __ __ __ __ __ __ __ __ __
 72
    65
 73
     2
 40
3.5
 49
2.0
 74
     0
 49
-1.5
 74
     0
  0
LTYPE
  5
B466
330
5
100
AcDbSymbolTableRecord
100
AcDbLinetypeTableRecord
  2
CENTER2
 70
     0
  3
Center (.5x) ___ _ ___ _ ___ _ ___ _ ___ _ ___
 72
    65
 73
     4
 40
1.125
 49
0.75
 74
     0
 49
-0.125
 74
     0
 49
0.125
 74
     0
 49
-0.125
 74
     0
  0
LTYPE
  5
B467
330
5
100
AcDbSymbolTableRecord
100
AcDbLinetypeTableRecord
  2
HIDDEN2
 70
     0
  3
Hidden (.5x) _ _ _ _ _ _ _ _ _ _ _ _ _ _ _ _ _
 72
    65
 73
     2
 40
0.1875
 49
0.125
 74
     0
 49
-0.0625
 74
     0
  0
LTYPE
  5
B468
330
5
100
AcDbSymbolTableRecord
100
AcDbLinetypeTableRecord
  2
Amzigzag2
 70
     0
  3
/\/-/\/-/\/-/\/-/\/-/\/
 72
    65
 73
     2
 40
0.4401
 49
0.0001
 74
     4
 75
   136
340
AC80
 46
0.0016
 50
0.0
 44
0.0
 45
0.0
 49
-0.4400000000000001
 74
     0
  0
LTYPE
  5
B469
330
5
100
AcDbSymbolTableRecord
100
AcDbLinetypeTableRecord
  2
ACANSTGB
 70
     0
  3
__ . . __ . .
 72
    65
 73
     6
 40
0.35433070866
 49
0.15748031496
 74
     0
 49
-0.03937007874
 74
     0
 49
0.03937007874
 74
     0
 49
-0.03937007874
 74
     0
 49
0.03937007874
 74
     0
 49
-0.03937007874
 74
     0
  0
LTYPE
  5
B46A
330
5
100
AcDbSymbolTableRecord
100
AcDbLinetypeTableRecord
  2
ACANSTGL
 70
     0
  3
_ _ _ _ _
 72
    65
 73
     2
 40
0.11811023622
 49
0.07874015748
 74
     0
 49
-0.03937007874
 74
     0
  0
ENDTAB
  0
TABLE
  2
LAYER
  5
2
102
{ACAD_XDICTIONARY
360
3F95
102
}
330
0
100
AcDbSymbolTable
 70
    22
  0
LAYER
  5
10
102
{ACAD_XDICTIONARY
360
BBED
102
}
330
2
100
AcDbSymbolTableRecord
100
AcDbLayerTableRecord
  2
0
 70
     0
 62
     7
  6
Continuous
370
    -3
390
F
  0
LAYER
  5
6D1
330
2
100
AcDbSymbolTableRecord
100
AcDbLayerTableRecord
  2
Defpoints
 70
     0
 62
     7
  6
Continuous
290
     0
370
    -3
390
F
  0
LAYER
  5
5F85
102
{ACAD_XDICTIONARY
360
BBEF
102
}
330
2
100
AcDbSymbolTableRecord
100
AcDbLayerTableRecord
  2
AM_0
 70
     0
 62
     7
  6
中線
370
    25
390
F
1001
AcAecLayerStandard
1000

1000

  0
LAYER
  5
AC9F
102
{ACAD_XDICTIONARY
360
BBF1
102
}
330
2
100
AcDbSymbolTableRecord
100
AcDbLayerTableRecord
  2
size
 70
     0
 62
     5
  6
Continuous
290
     0
370
    25
390
F
  0
LAYER
  5
ACA0
102
{ACAD_XDICTIONARY
360
BBF3
102
}
330
2
100
AcDbSymbolTableRecord
100
AcDbLayerTableRecord
  2
waku
 70
     0
 62
     7
  6
Continuous
370
    35
390
F
  0
LAYER
  5
ACA1
102
{ACAD_XDICTIONARY
360
BBF5
102
}
330
2
100
AcDbSymbolTableRecord
100
AcDbLayerTableRecord
  2
AM_6
 70
     0
 62
     2
  6
文字
370
    15
390
F
1001
AcAecLayerStandard
1000

1000

  0
LAYER
  5
ACC8
102
{ACAD_XDICTIONARY
360
BBF7
102
}
330
2
100
AcDbSymbolTableRecord
100
AcDbLayerTableRecord
  2
hyomoji
 70
     0
 62
     2
  6
Continuous
370
    15
390
F
  0
LAYER
  5
ACC9
102
{ACAD_XDICTIONARY
360
BBF9
102
}
330
2
100
AcDbSymbolTableRecord
100
AcDbLayerTableRecord
  2
hyosen1
 70
     0
 62
     1
  6
Continuous
370
    25
390
F
  0
LAYER
  5
ACCA
102
{ACAD_XDICTIONARY
360
BBFB
102
}
330
2
100
AcDbSymbolTableRecord
100
AcDbLayerTableRecord
  2
hyosen2
 70
     0
 62
     1
  6
Continuous
370
    15
390
F
  0
LAYER
  5
AD60
102
{ACAD_XDICTIONARY
360
BBFD
102
}
330
2
100
AcDbSymbolTableRecord
100
AcDbLayerTableRecord
  2
AM_1
 70
     0
 62
    30
  6
太線
370
    25
390
F
1001
AcAecLayerStandard
1000

1000

  0
LAYER
  5
AD64
102
{ACAD_XDICTIONARY
360
BBFF
102
}
330
2
100
AcDbSymbolTableRecord
100
AcDbLayerTableRecord
  2
AM_2
 70
     0
 62
     1
  6
細線
370
    15
390
F
1001
AcAecLayerStandard
1000

1000

  0
LAYER
  5
AD67
102
{ACAD_XDICTIONARY
360
BC01
102
}
330
2
100
AcDbSymbolTableRecord
100
AcDbLayerTableRecord
  2
AM_3
 70
     0
 62
     6
  6
陰線1
370
    15
390
F
1001
AcAecLayerStandard
1000

1000

  0
LAYER
  5
AD68
102
{ACAD_XDICTIONARY
360
BC03
102
}
330
2
100
AcDbSymbolTableRecord
100
AcDbLayerTableRecord
  2
AM_5
 70
     0
 62
     3
  6
寸法線
370
    15
390
F
1001
AcAecLayerStandard
1000

1000

  0
LAYER
  5
AD69
102
{ACAD_XDICTIONARY
360
BC05
102
}
330
2
100
AcDbSymbolTableRecord
100
AcDbLayerTableRecord
  2
AM_7
 70
     0
 62
     4
  6
中心線1
370
    15
390
F
1001
AcAecLayerStandard
1000

1000

  0
LAYER
  5
AD6A
102
{ACAD_XDICTIONARY
360
BC07
102
}
330
2
100
AcDbSymbolTableRecord
100
AcDbLayerTableRecord
  2
AM_8
 70
     0
 62
     1
  6
ハッチング
370
    15
390
F
1001
AcAecLayerStandard
1000

1000

  0
LAYER
  5
AD6E
102
{ACAD_XDICTIONARY
360
BC09
102
}
330
2
100
AcDbSymbolTableRecord
100
AcDbLayerTableRecord
  2
AM_10
 70
     0
 62
     7
  6
切断線
370
    25
390
F
1001
AcAecLayerStandard
1000

1000

  0
LAYER
  5
AD6F
102
{ACAD_XDICTIONARY
360
BC0B
102
}
330
2
100
AcDbSymbolTableRecord
100
AcDbLayerTableRecord
  2
AM_11
 70
     0
 62
     2
  6
想像線1
370
    15
390
F
1001
AcAecLayerStandard
1000

1000

  0
LAYER
  5
B1B6
102
{ACAD_XDICTIONARY
360
BC0D
102
}
330
2
100
AcDbSymbolTableRecord
100
AcDbLayerTableRecord
  2
AM_CL
 70
     0
 62
     1
  6
Amconstr
370
    15
390
F
1001
AcAecLayerStandard
1000

1000

  0
LAYER
  5
B2EB
102
{ACAD_XDICTIONARY
360
BC0F
102
}
330
2
100
AcDbSymbolTableRecord
100
AcDbLayerTableRecord
  2
AM_14
 70
     0
 62
     5
  6
細線
370
     9
390
F
1001
AcAecLayerStandard
1000

1000

  0
LAYER
  5
B2EC
102
{ACAD_XDICTIONARY
360
BC11
102
}
330
2
100
AcDbSymbolTableRecord
100
AcDbLayerTableRecord
  2
AM_15
 70
     0
 62
     6
  6
陰線1
370
     9
390
F
1001
AcAecLayerStandard
1000

1000

  0
LAYER
  5
B707
102
{ACAD_XDICTIONARY
360
BC13
102
}
330
2
100
AcDbSymbolTableRecord
100
AcDbLayerTableRecord
  2
AM_4
 70
     0
 62
     3
  6
補助線
370
    15
390
F
1001
AcAecLayerStandard
1000

1000

  0
LAYER
  5
C04C
330
2
100
AcDbSymbolTableRecord
100
AcDbLayerTableRecord
  2
000済
 70
     0
 62
    50
  6
中線
370
    30
390
F
1001
AcAecLayerStandard
1000

1000

  0
ENDTAB
  0
TABLE
  2
STYLE
  5
3
330
0
100
AcDbSymbolTable
 70
    10
  0
STYLE
  5
11
330
3
100
AcDbSymbolTableRecord
100
AcDbTextStyleTableRecord
  2
STANDARD
 70
     0
 40
0.0
 41
0.7
 50
0.0
 71
     0
 42
3.2
  3
romans.shx
  4
extfont.shx
  0
STYLE
  5
56
330
3
100
AcDbSymbolTableRecord
100
AcDbTextStyleTableRecord
  2

 70
     1
 40
0.0
 41
1.0
 50
0.0
 71
     0
 42
2.5
  3
ltypeshp.shx
  4

  0
STYLE
  5
58
330
3
100
AcDbSymbolTableRecord
100
AcDbTextStyleTableRecord
  2
ACISOTS
 70
     0
 40
1.0
 41
1.0
 50
0.0
 71
     0
 42
2.5
  3
isocp.shx
  4
extfont.shx
  0
STYLE
  5
63
330
3
100
AcDbSymbolTableRecord
100
AcDbTextStyleTableRecord
  2
ACISOGDT
 70
     0
 40
0.0
 41
1.0
 50
0.0
 71
     0
 42
2.5
  3
amgdt.shx
  4

  0
STYLE
  5
A74
330
3
100
AcDbSymbolTableRecord
100
AcDbTextStyleTableRecord
  2
DIM
 70
     0
 40
0.0
 41
1.0
 50
0.0
 71
     0
 42
2.5
  3
monotxt.shx
  4
extfont.shx
  0
STYLE
  5
AC80
330
3
100
AcDbSymbolTableRecord
100
AcDbTextStyleTableRecord
  2

 70
     1
 40
0.0
 41
1.0
 50
0.0
 71
     0
 42
3.2
  3
genltshp.shx
  4

  0
STYLE
  5
B46B
330
3
100
AcDbSymbolTableRecord
100
AcDbTextStyleTableRecord
  2
ACANSTS
 70
     0
 40
1.0
 41
1.0
 50
0.0
 71
     0
 42
3.2
  3
romans.shx
  4
extfont.shx
  0
STYLE
  5
B46C
330
3
100
AcDbSymbolTableRecord
100
AcDbTextStyleTableRecord
  2
ACANSGDT
 70
     0
 40
0.0
 41
1.0
 50
0.0
 71
     0
 42
3.2
  3
amgdt.shx
  4

  0
ENDTAB
  0
TABLE
  2
VIEW
  5
6
330
0
100
AcDbSymbolTable
 70
     6
  0
VIEW
  5
AE1
330
6
100
AcDbSymbolTableRecord
100
AcDbViewTableRecord
  2
AM_VIEW1
 70
     0
 40
129.7276464542651
 10
1775.10588156276
 20
1793.121228859297
 41
148.5
 11
0.0
 21
0.0
 31
1.0
 12
0.0
 22
0.0
 32
0.0
 42
50.0
 43
-1370.695619172058
 44
-1370.695619172058
 50
0.0
 71
    16
281
     0
 72
     0
  0
VIEW
  5
AE2
330
6
100
AcDbSymbolTableRecord
100
AcDbViewTableRecord
  2
AM_VIEW2
 70
     0
 40
129.7276464542651
 10
1923.60588156276
 20
1793.121228859297
 41
148.5
 11
0.0
 21
0.0
 31
1.0
 12
0.0
 22
0.0
 32
0.0
 42
50.0
 43
-1370.695619172058
 44
-1370.695619172058
 50
0.0
 71
    16
281
     0
 72
     0
  0
VIEW
  5
AE3
330
6
100
AcDbSymbolTableRecord
100
AcDbViewTableRecord
  2
AM_VIEW3
 70
     0
 40
129.7276464542651
 10
1775.10588156276
 20
1712.848875313562
 41
148.5
 11
0.0
 21
0.0
 31
1.0
 12
0.0
 22
0.0
 32
0.0
 42
50.0
 43
-1370.695619172058
 44
-1370.695619172058
 50
0.0
 71
    16
281
     0
 72
     0
  0
VIEW
  5
AE4
330
6
100
AcDbSymbolTableRecord
100
AcDbViewTableRecord
  2
AM_VIEW4
 70
     0
 40
129.7276464542651
 10
1923.60588156276
 20
1712.848875313562
 41
148.5
 11
0.0
 21
0.0
 31
1.0
 12
0.0
 22
0.0
 32
0.0
 42
50.0
 43
-1370.695619172058
 44
-1370.695619172058
 50
0.0
 71
    16
281
     0
 72
     0
  0
VIEW
  5
AE5
330
6
100
AcDbSymbolTableRecord
100
AcDbViewTableRecord
  2
AM_VIEW5
 70
     0
 40
129.7276464542651
 10
1849.35588156276
 20
1752.985052086429
 41
148.5
 11
0.0
 21
0.0
 31
1.0
 12
0.0
 22
0.0
 32
0.0
 42
50.0
 43
-1370.695619172058
 44
-1370.695619172058
 50
0.0
 71
    16
281
     0
 72
     0
  0
VIEW
  5
AE6
330
6
100
AcDbSymbolTableRecord
100
AcDbViewTableRecord
  2
AM_VIEW6
 70
     0
 40
259.4526983556011
 10
1849.35588156276
 20
1752.985052086429
 41
296.99703
 11
0.0
 21
0.0
 31
1.0
 12
0.0
 22
0.0
 32
0.0
 42
50.0
 43
-1370.695619172058
 44
-1370.695619172058
 50
0.0
 71
    16
281
     0
 72
     0
  0
ENDTAB
  0
TABLE
  2
UCS
  5
7
330
0
100
AcDbSymbolTable
 70
     0
  0
ENDTAB
  0
TABLE
  2
APPID
  5
9
330
0
100
AcDbSymbolTable
 70
    58
  0
APPID
  5
12
330
9
100
AcDbSymbolTableRecord
100
AcDbRegAppTableRecord
  2
ACAD
 70
     0
  0
APPID
  5
30
330
9
100
AcDbSymbolTableRecord
100
AcDbRegAppTableRecord
  2
MCAD_NO_VIS
 70
     0
  0
APPID
  5
31
330
9
100
AcDbSymbolTableRecord
100
AcDbRegAppTableRecord
  2
ACAD_TEMP_GRAPHIC
 70
     0
  0
APPID
  5
44
330
9
100
AcDbSymbolTableRecord
100
AcDbRegAppTableRecord
  2
ACATTRIBSERVICES
 70
     0
  0
APPID
  5
7A1
330
9
100
AcDbSymbolTableRecord
100
AcDbRegAppTableRecord
  2
GENIUS_GENDIMSH_14
 70
     0
  0
APPID
  5
A49
330
9
100
AcDbSymbolTableRecord
100
AcDbRegAppTableRecord
  2
GENIUS_GENREC_14
 70
     0
  0
APPID
  5
A4A
330
9
100
AcDbSymbolTableRecord
100
AcDbRegAppTableRecord
  2
GENIUS_GENOBJ-N-REC_13
 70
     0
  0
APPID
  5
A4B
330
9
100
AcDbSymbolTableRecord
100
AcDbRegAppTableRecord
  2
GENIUS_GENODEF_13
 70
     0
  0
APPID
  5
A4C
330
9
100
AcDbSymbolTableRecord
100
AcDbRegAppTableRecord
  2
DCO15
 70
     0
  0
APPID
  5
ADC
330
9
100
AcDbSymbolTableRecord
100
AcDbRegAppTableRecord
  2
GENIUS_GENOLIS_13
 70
     0
  0
APPID
  5
ADD
330
9
100
AcDbSymbolTableRecord
100
AcDbRegAppTableRecord
  2
GENIUS_GENOENT_13
 70
     0
  0
APPID
  5
ADE
330
9
100
AcDbSymbolTableRecord
100
AcDbRegAppTableRecord
  2
GENIUS_GENOBJ-N-TIT_13
 70
     0
  0
APPID
  5
ADF
330
9
100
AcDbSymbolTableRecord
100
AcDbRegAppTableRecord
  2
GENIUS_GENTITLE_13
 70
     0
  0
APPID
  5
AE0
330
9
100
AcDbSymbolTableRecord
100
AcDbRegAppTableRecord
  2
GENIUS_GENOREF_13
 70
     0
  0
APPID
  5
AE7
330
9
100
AcDbSymbolTableRecord
100
AcDbRegAppTableRecord
  2
GENIUS_GENSCREG_15
 70
     0
  0
APPID
  5
AE8
330
9
100
AcDbSymbolTableRecord
100
AcDbRegAppTableRecord
  2
GENIUS_GENOBJ-N-SDF_13
 70
     0
  0
APPID
  5
FAF
330
9
100
AcDbSymbolTableRecord
100
AcDbRegAppTableRecord
  2
GENIUS_GENBLLY_14
 70
     0
  0
APPID
  5
FB0
330
9
100
AcDbSymbolTableRecord
100
AcDbRegAppTableRecord
  2
GENIUS_GENTRA_14
 70
     0
  0
APPID
  5
1285
330
9
100
AcDbSymbolTableRecord
100
AcDbRegAppTableRecord
  2
GENIUS_GENDTOL_13
 70
     0
  0
APPID
  5
142D
330
9
100
AcDbSymbolTableRecord
100
AcDbRegAppTableRecord
  2
GENIUS_GENOBJ-N-CEN_13
 70
     0
  0
APPID
  5
1AB5
330
9
100
AcDbSymbolTableRecord
100
AcDbRegAppTableRecord
  2
GENIUS_GENOBJ-N-CRS_13
 70
     0
  0
APPID
  5
1B36
330
9
100
AcDbSymbolTableRecord
100
AcDbRegAppTableRecord
  2
GENIUS_GENOBJ-N-HTC_13
 70
     0
  0
APPID
  5
1B37
330
9
100
AcDbSymbolTableRecord
100
AcDbRegAppTableRecord
  2
GENIUS_GENHATCH_13
 70
     0
  0
APPID
  5
216D
330
9
100
AcDbSymbolTableRecord
100
AcDbRegAppTableRecord
  2
GENIUS_GENOBJ-N-FIL_13
 70
     0
  0
APPID
  5
2356
330
9
100
AcDbSymbolTableRecord
100
AcDbRegAppTableRecord
  2
GEVID990412420
 70
     0
  0
APPID
  5
2357
330
9
100
AcDbSymbolTableRecord
100
AcDbRegAppTableRecord
  2
GEVDC
 70
     0
  0
APPID
  5
2358
330
9
100
AcDbSymbolTableRecord
100
AcDbRegAppTableRecord
  2
GEVCON
 70
     0
  0
APPID
  5
235B
330
9
100
AcDbSymbolTableRecord
100
AcDbRegAppTableRecord
  2
GEVRADREF
 70
     0
  0
APPID
  5
2360
330
9
100
AcDbSymbolTableRecord
100
AcDbRegAppTableRecord
  2
GENIUS_GENBH_13
 70
     0
  0
APPID
  5
2362
330
9
100
AcDbSymbolTableRecord
100
AcDbRegAppTableRecord
  2
GENIUS_GENOBJ-NBEHI-BHF_13
 70
     0
  0
APPID
  5
2364
330
9
100
AcDbSymbolTableRecord
100
AcDbRegAppTableRecord
  2
GENIUS_GENOBJ-NBEHI-BHB_13
 70
     0
  0
APPID
  5
2379
330
9
100
AcDbSymbolTableRecord
100
AcDbRegAppTableRecord
  2
GENIUS_GENOBJ-F-SCPASSM_13
 70
     0
  0
APPID
  5
3D74
330
9
100
AcDbSymbolTableRecord
100
AcDbRegAppTableRecord
  2
GENIUS_GENDIM_13
 70
     0
  0
APPID
  5
3D76
330
9
100
AcDbSymbolTableRecord
100
AcDbRegAppTableRecord
  2
GENIUS_GE3DTOL_13
 70
     0
  0
APPID
  5
3D9C
330
9
100
AcDbSymbolTableRecord
100
AcDbRegAppTableRecord
  2
AD_DRAW
 70
     0
  0
APPID
  5
3DE8
330
9
100
AcDbSymbolTableRecord
100
AcDbRegAppTableRecord
  2
ASURF_PCURVE_APPNAME
 70
     0
  0
APPID
  5
3DED
330
9
100
AcDbSymbolTableRecord
100
AcDbRegAppTableRecord
  2
AMG_3D2D_5.0
 70
     0
  0
APPID
  5
3E1B
330
9
100
AcDbSymbolTableRecord
100
AcDbRegAppTableRecord
  2
DESIGNERASSEMBLIES
 70
     0
  0
APPID
  5
3E20
330
9
100
AcDbSymbolTableRecord
100
AcDbRegAppTableRecord
  2
ACADM_DIM_EDIT
 70
     0
  0
APPID
  5
3E21
330
9
100
AcDbSymbolTableRecord
100
AcDbRegAppTableRecord
  2
AMDT_DM_ADJ
 70
     0
  0
APPID
  5
4143
330
9
100
AcDbSymbolTableRecord
100
AcDbRegAppTableRecord
  2
GENIUS_GENFIL_13
 70
     0
  0
APPID
  5
4144
330
9
100
AcDbSymbolTableRecord
100
AcDbRegAppTableRecord
  2
GENIUS_GENOBJ-N-CHA_13
 70
     0
  0
APPID
  5
4E17
330
9
100
AcDbSymbolTableRecord
100
AcDbRegAppTableRecord
  2
GEVID1008153417
 70
     0
  0
APPID
  5
4E58
330
9
100
AcDbSymbolTableRecord
100
AcDbRegAppTableRecord
  2
GEVID1008153418
 70
     0
  0
APPID
  5
4E5E
330
9
100
AcDbSymbolTableRecord
100
AcDbRegAppTableRecord
  2
GEVID1008153419
 70
     0
  0
APPID
  5
4E64
330
9
100
AcDbSymbolTableRecord
100
AcDbRegAppTableRecord
  2
GEVID1008153420
 70
     0
  0
APPID
  5
4E75
330
9
100
AcDbSymbolTableRecord
100
AcDbRegAppTableRecord
  2
GEVID1008153421
 70
     0
  0
APPID
  5
4EB7
330
9
100
AcDbSymbolTableRecord
100
AcDbRegAppTableRecord
  2
GENIUS_AMGTXT_16
 70
     0
  0
APPID
  5
7645
330
9
100
AcDbSymbolTableRecord
100
AcDbRegAppTableRecord
  2
GENIUS_GENOBJ-N-DIM_13
 70
     0
  0
APPID
  5
AAD0
330
9
100
AcDbSymbolTableRecord
100
AcDbRegAppTableRecord
  2
ACAD_DSTYLE_DIMARC_LENGTH_SYMBOL
 70
     0
  0
APPID
  5
AAD1
330
9
100
AcDbSymbolTableRecord
100
AcDbRegAppTableRecord
  2
ACAD_DSTYLE_DIMJOGGED_JOGANGLE_SYMBOL
 70
     0
  0
APPID
  5
AAFD
330
9
100
AcDbSymbolTableRecord
100
AcDbRegAppTableRecord
  2
ACAD_PSEXT
 70
     0
  0
APPID
  5
AD61
330
9
100
AcDbSymbolTableRecord
100
AcDbRegAppTableRecord
  2
AcAecLayerStandard
 70
     0
  0
APPID
  5
AEE3
330
9
100
AcDbSymbolTableRecord
100
AcDbRegAppTableRecord
  2
ACAD_EXEMPT_FROM_CAD_STANDARDS
 70
     0
  0
APPID
  5
B1BE
330
9
100
AcDbSymbolTableRecord
100
AcDbRegAppTableRecord
  2
GENIUS_GENCEN_19
 70
     0
  0
APPID
  5
B3AF
330
9
100
AcDbSymbolTableRecord
100
AcDbRegAppTableRecord
  2
ACAD_MLEADERVER
 70
     0
  0
APPID
  5
B71F
330
9
100
AcDbSymbolTableRecord
100
AcDbRegAppTableRecord
  2
ACAD_DSTYLE_DIMINSPECT
 70
     0
  0
APPID
  5
B776
330
9
100
AcDbSymbolTableRecord
100
AcDbRegAppTableRecord
  2
ACAD_DSTYLE_DIMRADIAL_EXTENSION
 70
     0
  0
ENDTAB
  0
TABLE
  2
DIMSTYLE
  5
A
330
0
100
AcDbSymbolTable
 70
    26
100
AcDbDimStyleTable
 71
     1
340
2515
  0
DIMSTYLE
105
A76
330
A
100
AcDbSymbolTableRecord
100
AcDbDimStyleTableRecord
  2
STANDARD
 70
     0
 41
3.0
 42
1.0
 43
7.0
 44
2.0
 73
     0
 74
     0
 77
     1
140
2.799999999999999
141
0.0
143
0.0394
147
0.7
171
     4
172
     1
173
     1
176
     3
177
     3
178
     2
271
     3
272
     3
273
     8
274
     4
289
     0
340
A74
341
A66
343
A66
344
A66
  0
DIMSTYLE
105
2515
330
A
100
AcDbSymbolTableRecord
100
AcDbDimStyleTableRecord
  2
SYS
 70
     0
  4
"
 41
1.0
 42
1.0
 43
10.0
 44
1.0
 47
0.1
 48
0.1
 73
     0
 74
     0
 77
     1
 78
     8
 79
     2
140
3.5
141
0.0
143
0.0393701
146
0.71
147
1.5
172
     1
176
   256
177
   256
178
     7
271
     2
272
     2
283
     0
284
     8
340
11
371
    -1
372
    -1
1001
ACAD_DSTYLE_DIMJOGGED_JOGANGLE_SYMBOL
1070
   384
1040
0.7853981633974483
1001
ACAD_DSTYLE_DIMARC_LENGTH_SYMBOL
1070
   379
1070
     1
  0
DIMSTYLE
105
2516
102
{ACAD_REACTORS
330
C091
102
}
330
A
100
AcDbSymbolTableRecord
100
AcDbDimStyleTableRecord
  2
SYS$3
 70
     0
  4
"
 41
2.0
 42
1.0
 43
10.0
 44
1.0
 47
0.1
 48
0.1
 73
     0
 77
     1
 78
     8
 79
     2
140
3.5
141
0.0
143
0.0393701
146
0.71
147
1.5
176
   256
177
   256
178
     2
271
     2
272
     2
283
     0
284
     8
288
     1
340
11
342
A66
371
    -1
372
    -1
1001
ACAD_DSTYLE_DIMJOGGED_JOGANGLE_SYMBOL
1070
   384
1040
0.7853981633974483
1001
ACAD_DSTYLE_DIMARC_LENGTH_SYMBOL
1070
   379
1070
     1
  0
DIMSTYLE
105
2517
102
{ACAD_REACTORS
330
B763
102
}
330
A
100
AcDbSymbolTableRecord
100
AcDbDimStyleTableRecord
  2
SYS$4
 70
     0
  4
"
 41
2.0
 42
1.0
 43
10.0
 44
1.0
 47
0.1
 48
0.1
 73
     0
 77
     1
 78
     8
 79
     2
140
3.5
141
0.0
143
0.0393701
146
0.71
147
1.5
173
     1
176
   256
177
   256
178
     2
271
     2
272
     2
283
     0
284
     8
288
     1
340
11
344
A66
371
    -1
372
    -1
1001
ACAD_DSTYLE_DIMJOGGED_JOGANGLE_SYMBOL
1070
   384
1040
0.7853981633974483
1001
ACAD_DSTYLE_DIMARC_LENGTH_SYMBOL
1070
   379
1070
     1
  0
DIMSTYLE
105
2518
330
A
100
AcDbSymbolTableRecord
100
AcDbDimStyleTableRecord
  2
SYS$6
 70
     0
  4
"
 41
2.0
 42
1.0
 43
10.0
 44
1.0
 47
0.1
 48
0.1
 73
     0
 74
     0
 78
     8
 79
     2
140
3.5
141
0.0
143
0.0393701
146
0.71
147
1.5
172
     1
176
   256
177
   256
178
     2
271
     2
272
     2
283
     0
284
     8
340
11
341
A66
371
    -1
372
    -1
1001
ACAD_DSTYLE_DIMJOGGED_JOGANGLE_SYMBOL
1070
   384
1040
0.7853981633974483
1001
ACAD_DSTYLE_DIMARC_LENGTH_SYMBOL
1070
   379
1070
     1
  0
DIMSTYLE
105
2519
330
A
100
AcDbSymbolTableRecord
100
AcDbDimStyleTableRecord
  2
SYS$7
 70
     0
  4
"
 41
2.0
 42
1.0
 43
10.0
 44
1.0
 47
0.1
 48
0.1
 73
     0
 74
     0
 77
     1
 78
     8
 79
     2
140
5.0
141
0.0
143
0.0393701
146
0.71
147
1.5
172
     1
176
   256
177
   256
178
     2
271
     2
272
     2
283
     0
284
     8
340
11
341
A66
342
A66
371
    -1
372
    -1
1001
ACAD_DSTYLE_DIMJOGGED_JOGANGLE_SYMBOL
1070
   384
1040
0.7853981633974483
1001
ACAD_DSTYLE_DIMARC_LENGTH_SYMBOL
1070
   379
1070
     1
  0
DIMSTYLE
105
251A
330
A
100
AcDbSymbolTableRecord
100
AcDbDimStyleTableRecord
  2
SYS$SF
 70
     0
  4
"
 41
2.5
 42
1.0
 43
10.0
 44
1.0
 47
0.1
 48
0.1
 73
     0
 74
     0
 75
     1
 76
     1
 77
     1
 78
     8
 79
     2
140
3.5
141
0.0
143
0.0393701
146
0.71
147
1.5
172
     1
176
   256
177
   256
178
     2
271
     2
272
     3
283
     0
284
     8
340
11
341
6C4
342
6C4
371
    -1
372
    -1
1001
ACAD_DSTYLE_DIMJOGGED_JOGANGLE_SYMBOL
1070
   384
1040
0.7853981633974483
1001
ACAD_DSTYLE_DIMARC_LENGTH_SYMBOL
1070
   379
1070
     1
  0
DIMSTYLE
105
251B
330
A
100
AcDbSymbolTableRecord
100
AcDbDimStyleTableRecord
  2
SYS$SH
 70
     0
  4
"
 41
2.5
 42
1.0
 43
10.0
 44
1.0
 47
0.1
 48
0.1
 73
     0
 74
     0
 75
     1
 76
     1
 77
     1
 78
     8
 79
     2
140
3.5
141
0.0
143
0.0393701
144
2.0
146
0.71
147
1.5
172
     1
173
     1
176
   256
177
   256
178
     2
271
     2
272
     3
283
     0
284
     8
340
11
341
6C4
343
72
344
6C4
371
    -1
372
    -1
1001
ACAD_DSTYLE_DIMJOGGED_JOGANGLE_SYMBOL
1070
   384
1040
0.7853981633974483
1001
ACAD_DSTYLE_DIMARC_LENGTH_SYMBOL
1070
   379
1070
     1
  0
DIMSTYLE
105
2A59
330
A
100
AcDbSymbolTableRecord
100
AcDbDimStyleTableRecord
  2
SYS$2
 70
     0
  4
"
 41
1.0
 42
1.0
 43
10.0
 44
1.0
 47
0.1
 48
0.1
 73
     0
 74
     0
 77
     1
 78
     8
 79
     2
140
3.5
141
0.0
143
0.0393701
146
0.71
147
1.5
172
     1
176
   256
177
   256
178
     2
271
     2
272
     2
283
     0
284
     8
340
11
342
6C4
371
    -1
372
    -1
1001
ACAD_DSTYLE_DIMJOGGED_JOGANGLE_SYMBOL
1070
   384
1040
0.7853981633974483
1001
ACAD_DSTYLE_DIMARC_LENGTH_SYMBOL
1070
   379
1070
     1
  0
DIMSTYLE
105
2AAB
102
{ACAD_REACTORS
330
B709
330
B732
330
B7B0
330
B7D8
330
B874
330
B95B
330
BA1F
330
BA50
330
BA80
102
}
330
A
100
AcDbSymbolTableRecord
100
AcDbDimStyleTableRecord
  2
SYS$0
 70
     0
  4
"
 41
1.0
 42
1.0
 43
10.0
 44
1.0
 47
0.1
 48
0.1
 73
     0
 74
     0
 77
     1
 78
     8
 79
     2
140
3.200000000000001
141
0.0
143
0.0393701
146
0.71
147
1.5
172
     1
176
   256
177
   256
178
     2
271
     2
272
     2
283
     0
284
     8
340
11
341
A66
342
6C4
371
    -1
372
    -1
1001
ACAD_DSTYLE_DIMJOGGED_JOGANGLE_SYMBOL
1070
   384
1040
0.7853981633974483
1001
ACAD_DSTYLE_DIMARC_LENGTH_SYMBOL
1070
   379
1070
     1
  0
DIMSTYLE
105
AF99
330
A
100
AcDbSymbolTableRecord
100
AcDbDimStyleTableRecord
  2
AM_ISO
 70
     0
  4
"
 41
2.5
 42
1.0
 43
10.0
 44
1.0
 47
0.1
 48
0.1
 73
     0
 74
     0
 77
     1
 78
     8
 79
     2
140
3.5
141
0.0
143
0.0393701
146
0.71
147
1.5
172
     1
176
   256
177
   256
178
     2
271
     2
272
     3
274
     4
283
     0
284
     8
340
11
371
    -1
372
    -1
  0
DIMSTYLE
105
AF9A
330
A
100
AcDbSymbolTableRecord
100
AcDbDimStyleTableRecord
  2
AM_ISO$3
 70
     0
  4
"
 41
2.5
 42
1.0
 43
10.0
 44
1.0
 47
0.1
 48
0.1
 73
     0
 77
     1
 78
     8
 79
     2
140
3.5
141
0.0
143
0.0393701
146
0.71
147
1.5
176
   256
177
   256
178
     2
271
     2
272
     3
274
     4
283
     0
284
     8
288
     1
289
     0
340
11
371
    -1
372
    -1
  0
DIMSTYLE
105
AF9B
330
A
100
AcDbSymbolTableRecord
100
AcDbDimStyleTableRecord
  2
AM_ISO$4
 70
     0
  4
"
 41
2.5
 42
1.0
 43
10.0
 44
1.0
 47
0.1
 48
0.1
 73
     0
 77
     1
 78
     8
 79
     2
140
3.5
141
0.0
143
0.0393701
146
0.71
147
1.5
176
   256
177
   256
178
     2
271
     2
272
     3
274
     4
283
     0
284
     8
288
     1
289
     0
340
11
371
    -1
372
    -1
  0
DIMSTYLE
105
AF9C
330
A
100
AcDbSymbolTableRecord
100
AcDbDimStyleTableRecord
  2
AM_ISO$6
 70
     0
  4
"
 41
2.5
 42
1.0
 43
10.0
 44
1.0
 47
0.1
 48
0.1
 73
     0
 74
     0
 78
     8
 79
     2
140
3.5
141
0.0
143
0.0393701
146
0.71
147
1.5
172
     1
176
   256
177
   256
178
     2
271
     2
272
     3
274
     4
283
     0
284
     8
340
11
371
    -1
372
    -1
  0
DIMSTYLE
105
AF9D
330
A
100
AcDbSymbolTableRecord
100
AcDbDimStyleTableRecord
  2
AM_ISO$7
 70
     0
  4
"
 41
2.5
 42
1.0
 43
10.0
 44
1.0
 47
0.1
 48
0.1
 73
     0
 74
     0
 77
     1
 78
     8
 79
     2
140
5.0
141
0.0
143
0.0393701
146
0.71
147
1.5
172
     1
176
   256
177
   256
178
     2
271
     2
272
     3
274
     4
283
     0
284
     8
340
11
371
    -1
372
    -1
  0
DIMSTYLE
105
AF9E
330
A
100
AcDbSymbolTableRecord
100
AcDbDimStyleTableRecord
  2
AM_ISO$SF
 70
     0
  4
"
 41
2.5
 42
1.0
 43
10.0
 44
1.0
 47
0.1
 48
0.1
 73
     0
 74
     0
 75
     1
 76
     1
 77
     1
 78
     8
 79
     2
140
3.5
141
0.0
143
0.0393701
146
0.71
147
1.5
172
     1
176
   256
177
   256
178
     2
271
     2
272
     3
274
     4
283
     0
284
     8
340
11
371
    -1
372
    -1
  0
DIMSTYLE
105
AF9F
330
A
100
AcDbSymbolTableRecord
100
AcDbDimStyleTableRecord
  2
AM_ISO$SH
 70
     0
  4
"
 41
2.5
 42
1.0
 43
10.0
 44
1.0
 47
0.1
 48
0.1
 73
     0
 74
     0
 75
     1
 76
     1
 77
     1
 78
     8
 79
     2
140
3.5
141
0.0
143
0.0393701
144
2.0
146
0.71
147
1.5
172
     1
173
     1
176
   256
177
   256
178
     2
271
     2
272
     3
274
     4
283
     0
284
     8
340
11
343
72
371
    -1
372
    -1
  0
DIMSTYLE
105
B46D
330
A
100
AcDbSymbolTableRecord
100
AcDbDimStyleTableRecord
  2
DIMSTYLE
 70
     0
 41
1.0
 42
2.54
 44
2.54
 73
     0
 74
     0
140
3.2
147
1.6
173
     1
279
     2
340
11
  0
DIMSTYLE
105
B46E
330
A
100
AcDbSymbolTableRecord
100
AcDbDimStyleTableRecord
  2
AM_ANSI
 70
     0
  4
mm
 41
0.1
 42
0.05
 43
0.5
 44
0.1
 47
0.1
 48
0.1
 78
     7
 79
     2
140
0.12
141
0.0
146
0.71
147
0.06
176
   256
177
   256
178
     2
274
     4
284
     7
340
11
371
    -1
372
    -1
1001
ACAD_DSTYLE_DIMARC_LENGTH_SYMBOL
1070
   379
1070
     1
  0
DIMSTYLE
105
B46F
330
A
100
AcDbSymbolTableRecord
100
AcDbDimStyleTableRecord
  2
AM_ANSI$3
 70
     0
  4
mm
 41
0.1
 42
0.05
 43
0.5
 44
0.1
 47
0.1
 48
0.1
 78
     7
 79
     2
140
0.12
141
0.0
146
0.71
147
0.06
176
   256
177
   256
178
     2
274
     4
284
     7
288
     1
289
     0
340
11
371
    -1
372
    -1
1001
ACAD_DSTYLE_DIMARC_LENGTH_SYMBOL
1070
   379
1070
     1
  0
DIMSTYLE
105
B470
330
A
100
AcDbSymbolTableRecord
100
AcDbDimStyleTableRecord
  2
AM_ANSI$4
 70
     0
  4
mm
 41
0.1
 42
0.05
 43
0.5
 44
0.1
 47
0.1
 48
0.1
 78
     7
 79
     2
140
0.12
141
0.0
146
0.71
147
0.06
176
   256
177
   256
178
     2
274
     4
284
     7
288
     1
289
     0
340
11
371
    -1
372
    -1
1001
ACAD_DSTYLE_DIMARC_LENGTH_SYMBOL
1070
   379
1070
     1
  0
DIMSTYLE
105
B471
330
A
100
AcDbSymbolTableRecord
100
AcDbDimStyleTableRecord
  2
AM_ANSI$7
 70
     0
  4
mm
 41
0.1
 42
0.05
 43
0.5
 44
0.1
 47
0.1
 48
0.1
 78
     7
 79
     2
140
0.24
141
0.0
146
0.71
147
0.06
176
   256
177
   256
178
     2
274
     4
284
     7
340
11
371
    -1
372
    -1
1001
ACAD_DSTYLE_DIMARC_LENGTH_SYMBOL
1070
   379
1070
     1
  0
DIMSTYLE
105
B472
330
A
100
AcDbSymbolTableRecord
100
AcDbDimStyleTableRecord
  2
AM_ANSI$SF
 70
     0
  4
mm
 41
0.1
 42
0.05
 43
0.5
 44
0.1
 47
0.1
 48
0.1
 75
     1
 76
     1
 78
     7
 79
     2
140
0.12
141
0.0
146
0.71
147
0.06
176
   256
177
   256
178
     2
274
     4
284
     7
340
11
371
    -1
372
    -1
1001
ACAD_DSTYLE_DIMARC_LENGTH_SYMBOL
1070
   379
1070
     1
  0
DIMSTYLE
105
B473
330
A
100
AcDbSymbolTableRecord
100
AcDbDimStyleTableRecord
  2
AM_ANSI$SH
 70
     0
  4
mm
 41
0.1
 42
0.05
 43
0.5
 44
0.1
 47
0.1
 48
0.1
 75
     1
 76
     1
 78
     7
 79
     2
140
0.12
141
0.0
146
0.71
147
0.06
173
     1
176
   256
177
   256
178
     2
274
     4
284
     7
340
11
343
72
371
    -1
372
    -1
1001
ACAD_DSTYLE_DIMARC_LENGTH_SYMBOL
1070
   379
1070
     1
  0
ENDTAB
  0
TABLE
  2
BLOCK_RECORD
  5
1
330
0
100
AcDbSymbolTable
 70
    28
  0
BLOCK_RECORD
  5
1F
102
{ACAD_XDICTIONARY
360
8A
102
}
330
1
100
AcDbSymbolTableRecord
100
AcDbBlockTableRecord
  2
*Model_Space
340
22
  0
BLOCK_RECORD
  5
1B
330
1
100
AcDbSymbolTableRecord
100
AcDbBlockTableRecord
  2
*Paper_Space
340
1E
  0
BLOCK_RECORD
  5
23
330
1
100
AcDbSymbolTableRecord
100
AcDbBlockTableRecord
  2
*Paper_Space0
340
26
  0
BLOCK_RECORD
  5
72
330
1
100
AcDbSymbolTableRecord
100
AcDbBlockTableRecord
  2
GENAXEH
340
0
  0
BLOCK_RECORD
  5
6C4
330
1
100
AcDbSymbolTableRecord
100
AcDbBlockTableRecord
  2
_Dot
340
0
102
{BLKREFS
331
BFA6
331
BFA7
331
BFAF
331
BFB0
331
BFBE
331
BFBF
331
BFD0
331
BFD1
331
BFE2
331
BFE3
331
BFED
331
BFEE
331
BFF6
331
BFF7
331
C003
331
C004
331
C0B6
331
C0B7
102
}
  0
BLOCK_RECORD
  5
A66
330
1
100
AcDbSymbolTableRecord
100
AcDbBlockTableRecord
  2
_OPEN30
340
0
102
{BLKREFS
331
BFB8
102
}
  0
BLOCK_RECORD
  5
B43E
330
1
100
AcDbSymbolTableRecord
100
AcDbBlockTableRecord
  2
KOZU0001
340
0
  0
BLOCK_RECORD
  5
B446
330
1
100
AcDbSymbolTableRecord
100
AcDbBlockTableRecord
  2
KOZU0002
340
0
  0
BLOCK_RECORD
  5
B70A
330
1
100
AcDbSymbolTableRecord
100
AcDbBlockTableRecord
  2
*D7
340
0
  0
BLOCK_RECORD
  5
B733
330
1
100
AcDbSymbolTableRecord
100
AcDbBlockTableRecord
  2
*D8
340
0
  0
BLOCK_RECORD
  5
B764
330
1
100
AcDbSymbolTableRecord
100
AcDbBlockTableRecord
  2
*D9
340
0
  0
BLOCK_RECORD
  5
B7B1
330
1
100
AcDbSymbolTableRecord
100
AcDbBlockTableRecord
  2
*D10
340
0
  0
BLOCK_RECORD
  5
B7D9
330
1
100
AcDbSymbolTableRecord
100
AcDbBlockTableRecord
  2
*D11
340
0
  0
BLOCK_RECORD
  5
B875
330
1
100
AcDbSymbolTableRecord
100
AcDbBlockTableRecord
  2
*D12
340
0
  0
BLOCK_RECORD
  5
B95C
330
1
100
AcDbSymbolTableRecord
100
AcDbBlockTableRecord
  2
*D13
340
0
  0
BLOCK_RECORD
  5
BA20
330
1
100
AcDbSymbolTableRecord
100
AcDbBlockTableRecord
  2
*D14
340
0
  0
BLOCK_RECORD
  5
BA51
330
1
100
AcDbSymbolTableRecord
100
AcDbBlockTableRecord
  2
*D15
340
0
  0
BLOCK_RECORD
  5
BA81
330
1
100
AcDbSymbolTableRecord
100
AcDbBlockTableRecord
  2
*D16
340
0
  0
BLOCK_RECORD
  5
BC5B
330
1
100
AcDbSymbolTableRecord
100
AcDbBlockTableRecord
  2
GENDOT
340
0
102
{BLKREFS
331
C07B
331
C07C
331
C0A6
331
C0A7
102
}
  0
BLOCK_RECORD
  5
C05B
102
{ACAD_XDICTIONARY
360
C061
102
}
330
1
100
AcDbSymbolTableRecord
100
AcDbBlockTableRecord
  2
A$C67450750
340
0
1001
ACAD
1000
DesignCenter Data
1002
{
1070
     1
1070
     4
1002
}
  0
BLOCK_RECORD
  5
C074
330
1
100
AcDbSymbolTableRecord
100
AcDbBlockTableRecord
  2
*D19
340
0
  0
BLOCK_RECORD
  5
C080
102
{ACAD_XDICTIONARY
360
C088
102
}
330
1
100
AcDbSymbolTableRecord
100
AcDbBlockTableRecord
  2
A$C1CAC1229
340
0
1001
ACAD
1000
DesignCenter Data
1002
{
1070
     1
1070
     4
1002
}
  0
BLOCK_RECORD
  5
C095
330
1
100
AcDbSymbolTableRecord
100
AcDbBlockTableRecord
  2
*D21
340
0
  0
BLOCK_RECORD
  5
C12C
330
1
100
AcDbSymbolTableRecord
100
AcDbBlockTableRecord
  2
*S24
340
0
  0
BLOCK_RECORD
  5
C136
330
1
100
AcDbSymbolTableRecord
100
AcDbBlockTableRecord
  2
*S25
340
0
  0
BLOCK_RECORD
  5
C140
330
1
100
AcDbSymbolTableRecord
100
AcDbBlockTableRecord
  2
*S26
340
0
  0
BLOCK_RECORD
  5
C14A
330
1
100
AcDbSymbolTableRecord
100
AcDbBlockTableRecord
  2
*S27
340
0
  0
ENDTAB
  0
ENDSEC
  0
SECTION
  2
BLOCKS
  0
BLOCK
  5
20
330
1F
100
AcDbEntity
  8
0
100
AcDbBlockBegin
  2
*Model_Space
 70
     0
 10
0.0
 20
0.0
 30
0.0
  3
*Model_Space
  1

  0
ENDBLK
  5
21
330
1F
100
AcDbEntity
  8
0
100
AcDbBlockEnd
  0
BLOCK
  5
1C
330
1B
100
AcDbEntity
 67
     1
  8
0
100
AcDbBlockBegin
  2
*Paper_Space
 70
     0
 10
0.0
 20
0.0
 30
0.0
  3
*Paper_Space
  1

  0
ENDBLK
  5
1D
330
1B
100
AcDbEntity
 67
     1
  8
0
100
AcDbBlockEnd
  0
BLOCK
  5
24
330
23
100
AcDbEntity
 67
     1
  8
0
100
AcDbBlockBegin
  2
*Paper_Space0
 70
     0
 10
0.0
 20
0.0
 30
0.0
  3
*Paper_Space0
  1

  0
ENDBLK
  5
25
330
23
100
AcDbEntity
 67
     1
  8
0
100
AcDbBlockEnd
  0
BLOCK
  5
74
330
72
100
AcDbEntity
  8
0
100
AcDbBlockBegin
  2
GENAXEH
 70
     0
 10
0.0
 20
0.0
 30
0.0
  3
GENAXEH
  1

  0
LINE
  5
73
330
72
100
AcDbEntity
  8
0
100
AcDbLine
 10
-1.0
 20
0.0
 30
0.0
 11
1.0
 21
0.0
 31
0.0
  0
ENDBLK
  5
75
330
72
100
AcDbEntity
  8
0
100
AcDbBlockEnd
  0
BLOCK
  5
6C7
330
6C4
100
AcDbEntity
  8
0
100
AcDbBlockBegin
  2
_Dot
 70
     0
 10
0.0
 20
0.0
 30
0.0
  3
_Dot
  1

  0
LWPOLYLINE
  5
6C5
330
6C4
100
AcDbEntity
  8
0
  6
ByBlock
 62
     0
100
AcDbPolyline
 90
        2
 70
     1
 43
0.5
 10
-0.25
 20
0.0
 42
1.0
 10
0.25
 20
0.0
 42
1.0
  0
LINE
  5
6C6
330
6C4
100
AcDbEntity
  8
0
  6
ByBlock
 62
     0
370
    -2
100
AcDbLine
 10
-0.5
 20
0.0
 30
0.0
 11
-1.0
 21
0.0
 31
0.0
  0
ENDBLK
  5
6C8
330
6C4
100
AcDbEntity
  8
0
100
AcDbBlockEnd
  0
BLOCK
  5
A6A
330
A66
100
AcDbEntity
  8
0
100
AcDbBlockBegin
  2
_OPEN30
 70
     0
 10
0.0
 20
0.0
 30
0.0
  3
_OPEN30
  1

  0
LINE
  5
A67
330
A66
100
AcDbEntity
  8
0
  6
ByBlock
 62
     0
100
AcDbLine
 10
-1.0
 20
0.26794919
 30
0.0
 11
0.0
 21
0.0
 31
0.0
  0
LINE
  5
A68
330
A66
100
AcDbEntity
  8
0
  6
ByBlock
 62
     0
100
AcDbLine
 10
0.0
 20
0.0
 30
0.0
 11
-1.0
 21
-0.26794919
 31
0.0
  0
LINE
  5
A69
330
A66
100
AcDbEntity
  8
0
  6
ByBlock
 62
     0
100
AcDbLine
 10
0.0
 20
0.0
 30
0.0
 11
-1.0
 21
0.0
 31
0.0
  0
ENDBLK
  5
A6B
330
A66
100
AcDbEntity
  8
0
100
AcDbBlockEnd
  0
BLOCK
  5
B43F
330
B43E
100
AcDbEntity
  8
0
100
AcDbBlockBegin
  2
KOZU0001
 70
     0
 10
0.0
 20
0.0
 30
0.0
  3
KOZU0001
  1

  0
LINE
  5
B440
330
B43E
100
AcDbEntity
  8
0
  6
Continuous
 62
     7
100
AcDbLine
 10
0.0
 20
0.0
 30
0.0
 11
12.911499
 21
22.289307
 31
0.0
  0
LINE
  5
B441
330
B43E
100
AcDbEntity
  8
0
  6
Continuous
 62
     7
100
AcDbLine
 10
12.911499
 20
22.289307
 30
0.0
 11
34.013916
 21
22.289307
 31
0.0
  0
LINE
  5
B442
330
B43E
100
AcDbEntity
  8
0
  6
Continuous
 62
     7
100
AcDbLine
 10
0.0
 20
0.0
 30
0.0
 11
1.0815911
 21
2.9883755
 31
0.0
  0
LINE
  5
B443
330
B43E
100
AcDbEntity
  8
0
  6
Continuous
 62
     7
100
AcDbLine
 10
0.0
 20
0.0
 30
0.0
 11
2.0541947
 21
2.4249767
 31
0.0
  0
TEXT
  5
B444
330
B43E
100
AcDbEntity
  8
0
  6
Continuous
 62
     7
100
AcDbText
 10
18.013976
 20
23.089063
 30
0.0
 40
3.2
  1
4-R10
 41
1.116562499999999
100
AcDbText
  0
ENDBLK
  5
B445
330
B43E
100
AcDbEntity
  8
0
100
AcDbBlockEnd
  0
BLOCK
  5
B447
330
B446
100
AcDbEntity
  8
0
100
AcDbBlockBegin
  2
KOZU0002
 70
     0
 10
0.0
 20
0.0
 30
0.0
  3
KOZU0002
  1

  0
LINE
  5
B448
330
B446
100
AcDbEntity
  8
0
  6
Continuous
 62
     7
100
AcDbLine
 10
0.0
 20
0.0
 30
0.0
 11
-34.517212
 21
42.331909
 31
0.0
  0
LINE
  5
B449
330
B446
100
AcDbEntity
  8
0
  6
Continuous
 62
     7
100
AcDbLine
 10
-34.517212
 20
42.331909
 30
0.0
 11
-51.02123999999999
 21
42.331909
 31
0.0
  0
CIRCLE
  5
B44A
330
B446
100
AcDbEntity
  8
0
  6
Continuous
 62
     7
100
AcDbCircle
 10
0.0
 20
0.0
 30
0.0
 40
0.4000000100000001
  0
TEXT
  5
B44B
330
B446
100
AcDbEntity
  8
0
  6
Continuous
 62
     7
100
AcDbText
 10
-50.107251
 20
43.131909
 30
0.0
 40
3.2
  1
２－Ｍ４
 41
0.8512700499999999
100
AcDbText
  0
ENDBLK
  5
B44C
330
B446
100
AcDbEntity
  8
0
100
AcDbBlockEnd
  0
BLOCK
  5
B70B
330
B70A
100
AcDbEntity
  8
0
100
AcDbBlockBegin
  2
*D7
 70
     1
 10
0.0
 20
0.0
 30
0.0
  3
*D7
  1

  0
LINE
  5
BFA3
330
B70A
100
AcDbEntity
  8
AM_5
100
AcDbLine
 10
162.9324128100411
 20
273.1829725303329
 30
0.0
 11
162.9324128100411
 21
251.1829725303329
 31
0.0
  0
LINE
  5
BFA4
330
B70A
100
AcDbEntity
  8
AM_5
100
AcDbLine
 10
417.932492810041
 20
273.1829725303323
 30
0.0
 11
417.932492810041
 21
251.1829725303329
 31
0.0
  0
LINE
  5
BFA5
330
B70A
100
AcDbEntity
  8
AM_5
100
AcDbLine
 10
163.9324128100411
 20
252.1829725303329
 30
0.0
 11
416.9324928100409
 21
252.1829725303329
 31
0.0
  0
INSERT
  5
BFA6
330
B70A
100
AcDbEntity
  8
AM_5
100
AcDbBlockReference
  2
_Dot
 10
162.9324128100411
 20
252.1829725303329
 30
0.0
 50
180.0
  0
INSERT
  5
BFA7
330
B70A
100
AcDbEntity
  8
AM_5
100
AcDbBlockReference
  2
_Dot
 10
417.932492810041
 20
252.1829725303329
 30
0.0
  0
MTEXT
  5
BFA8
330
B70A
100
AcDbEntity
  8
AM_5
 62
     2
100
AcDbMText
 10
290.432452810041
 20
255.2829725303329
 30
0.0
 40
3.200000000000001
 41
0.0
 71
     5
 72
     1
  1
255
 73
     1
 44
1.0
1001
ACAD
1000
MTEXTBEGIN
1070
    73
1070
     1
1070
    44
1040
1.0
1070
    74
1070
     0
1000
MTEXTEND
  0
POINT
  5
BFA9
330
B70A
100
AcDbEntity
  8
Defpoints
 62
     0
100
AcDbPoint
 10
162.9324128100411
 20
274.1829725303329
 30
0.0
  0
POINT
  5
BFAA
330
B70A
100
AcDbEntity
  8
Defpoints
 62
     0
100
AcDbPoint
 10
417.932492810041
 20
274.1829725303323
 30
0.0
  0
POINT
  5
BFAB
330
B70A
100
AcDbEntity
  8
Defpoints
 62
     0
100
AcDbPoint
 10
417.932492810041
 20
252.1829725303329
 30
0.0
  0
ENDBLK
  5
B70C
330
B70A
100
AcDbEntity
  8
0
100
AcDbBlockEnd
  0
BLOCK
  5
B734
330
B733
100
AcDbEntity
  8
0
100
AcDbBlockBegin
  2
*D8
 70
     1
 10
0.0
 20
0.0
 30
0.0
  3
*D8
  1

  0
LINE
  5
BFAC
330
B733
100
AcDbEntity
  8
AM_5
100
AcDbLine
 10
408.9324928100411
 20
334.1829725303329
 30
0.0
 11
430.932492810041
 21
334.1829725303329
 31
0.0
  0
LINE
  5
BFAD
330
B733
100
AcDbEntity
  8
AM_5
100
AcDbLine
 10
408.9324928100409
 20
264.1829725303329
 30
0.0
 11
430.932492810041
 21
264.1829725303329
 31
0.0
  0
LINE
  5
BFAE
330
B733
100
AcDbEntity
  8
AM_5
100
AcDbLine
 10
429.932492810041
 20
333.1829725303329
 30
0.0
 11
429.932492810041
 21
265.1829725303329
 31
0.0
  0
INSERT
  5
BFAF
330
B733
100
AcDbEntity
  8
AM_5
100
AcDbBlockReference
  2
_Dot
 10
429.932492810041
 20
334.1829725303329
 30
0.0
 50
90.0
  0
INSERT
  5
BFB0
330
B733
100
AcDbEntity
  8
AM_5
100
AcDbBlockReference
  2
_Dot
 10
429.932492810041
 20
264.1829725303329
 30
0.0
 50
270.0
  0
MTEXT
  5
BFB1
330
B733
100
AcDbEntity
  8
AM_5
 62
     2
100
AcDbMText
 10
426.8324928100408
 20
299.182972530333
 30
0.0
 40
3.200000000000001
 41
0.0
 71
     5
 72
     1
  1
70
 11
0.0000000000000001
 21
1.0
 31
0.0
 73
     1
 44
1.0
1001
ACAD
1000
MTEXTBEGIN
1070
    73
1070
     1
1070
    44
1040
1.0
1070
    74
1070
     0
1000
MTEXTEND
  0
POINT
  5
BFB2
330
B733
100
AcDbEntity
  8
Defpoints
 62
     0
100
AcDbPoint
 10
407.932492810041
 20
334.1829725303329
 30
0.0
  0
POINT
  5
BFB3
330
B733
100
AcDbEntity
  8
Defpoints
 62
     0
100
AcDbPoint
 10
407.9324928100409
 20
264.1829725303329
 30
0.0
  0
POINT
  5
BFB4
330
B733
100
AcDbEntity
  8
Defpoints
 62
     0
100
AcDbPoint
 10
429.932492810041
 20
264.1829725303329
 30
0.0
  0
ENDBLK
  5
B735
330
B733
100
AcDbEntity
  8
0
100
AcDbBlockEnd
  0
BLOCK
  5
B765
330
B764
100
AcDbEntity
  8
0
100
AcDbBlockBegin
  2
*D9
 70
     1
 10
0.0
 20
0.0
 30
0.0
  3
*D9
  1

  0
LINE
  5
BFB5
330
B764
100
AcDbEntity
  8
AM_5
100
AcDbLine
 10
434.5196673502392
 20
341.4869545012196
 30
0.0
 11
421.2363340169055
 21
341.4869545012195
 31
0.0
  0
LINE
  5
BFB6
330
B764
100
AcDbEntity
  8
AM_5
100
AcDbLine
 10
421.2363340169055
 20
341.4869545012195
 30
0.0
 11
415.2466335694149
 21
333.6962971307067
 31
0.0
  0
MTEXT
  5
BFB7
330
B764
100
AcDbEntity
  8
AM_5
 62
     2
100
AcDbMText
 10
428.6280006835725
 20
344.7369545012194
 30
0.0
 40
3.5
 41
0.0
 71
     5
 72
     1
  1
4-R10
 73
     1
 44
1.0
1001
ACAD
1000
MTEXTBEGIN
1070
    73
1070
     1
1070
    44
1040
1.0
1070
    74
1070
     0
1000
MTEXTEND
  0
INSERT
  5
BFB8
330
B764
100
AcDbEntity
  8
AM_5
100
AcDbBlockReference
  2
_OPEN30
 10
414.0276101095194
 20
332.1107430306445
 30
0.0
 41
2.0
 42
2.0
 43
2.0
 50
232.4457937705134
  0
POINT
  5
BFB9
330
B764
100
AcDbEntity
  8
Defpoints
 62
     0
100
AcDbPoint
 10
414.0276101095194
 20
332.1107430306445
 30
0.0
  0
POINT
  5
BFBA
330
B764
100
AcDbEntity
  8
Defpoints
 62
     0
100
AcDbPoint
 10
407.9324928100411
 20
324.1829725303328
 30
0.0
  0
ENDBLK
  5
B766
330
B764
100
AcDbEntity
  8
0
100
AcDbBlockEnd
  0
BLOCK
  5
B7B2
330
B7B1
100
AcDbEntity
  8
0
100
AcDbBlockBegin
  2
*D10
 70
     1
 10
0.0
 20
0.0
 30
0.0
  3
*D10
  1

  0
LINE
  5
BFBB
330
B7B1
100
AcDbEntity
  8
AM_5
100
AcDbLine
 10
181.9324128100411
 20
146.1029136489236
 30
0.0
 11
181.9324128100411
 21
182.6029136489236
 31
0.0
  0
LINE
  5
BFBC
330
B7B1
100
AcDbEntity
  8
AM_5
100
AcDbLine
 10
398.9323928100411
 20
146.1029136489236
 30
0.0
 11
398.9323928100411
 21
182.6029136489236
 31
0.0
  0
LINE
  5
BFBD
330
B7B1
100
AcDbEntity
  8
AM_5
100
AcDbLine
 10
182.9324128100411
 20
181.6029136489236
 30
0.0
 11
397.9323928100411
 21
181.6029136489236
 31
0.0
  0
INSERT
  5
BFBE
330
B7B1
100
AcDbEntity
  8
AM_5
100
AcDbBlockReference
  2
_Dot
 10
181.9324128100411
 20
181.6029136489236
 30
0.0
 50
180.0
  0
INSERT
  5
BFBF
330
B7B1
100
AcDbEntity
  8
AM_5
100
AcDbBlockReference
  2
_Dot
 10
398.9323928100411
 20
181.6029136489236
 30
0.0
  0
MTEXT
  5
BFC0
330
B7B1
100
AcDbEntity
  8
AM_5
 62
     2
100
AcDbMText
 10
290.4324028100411
 20
184.7029136489236
 30
0.0
 40
3.200000000000001
 41
0.0
 71
     5
 72
     1
  1
217
 73
     1
 44
1.0
1001
ACAD
1000
MTEXTBEGIN
1070
    73
1070
     1
1070
    44
1040
1.0
1070
    74
1070
     0
1000
MTEXTEND
  0
POINT
  5
BFC1
330
B7B1
100
AcDbEntity
  8
Defpoints
 62
     0
100
AcDbPoint
 10
181.9324128100411
 20
145.1029136489236
 30
0.0
  0
POINT
  5
BFC2
330
B7B1
100
AcDbEntity
  8
Defpoints
 62
     0
100
AcDbPoint
 10
398.9323928100411
 20
145.1029136489236
 30
0.0
  0
POINT
  5
BFC3
330
B7B1
100
AcDbEntity
  8
Defpoints
 62
     0
100
AcDbPoint
 10
398.9323928100411
 20
181.6029136489236
 30
0.0
  0
ENDBLK
  5
B7B3
330
B7B1
100
AcDbEntity
  8
0
100
AcDbBlockEnd
  0
BLOCK
  5
B7DA
330
B7D9
100
AcDbEntity
  8
0
100
AcDbBlockBegin
  2
*D11
 70
     1
 10
0.0
 20
0.0
 30
0.0
  3
*D11
  1

  0
LINE
  5
C0B3
330
B7D9
100
AcDbEntity
  8
AM_5
100
AcDbLine
 10
172.9324128100411
 20
135.6029136489236
 30
0.0
 11
172.9324128100411
 21
192.6029136489236
 31
0.0
  0
LINE
  5
C0B4
330
B7D9
100
AcDbEntity
  8
AM_5
100
AcDbLine
 10
407.932412810041
 20
135.6029136489236
 30
0.0
 11
407.932412810041
 21
192.6029136489236
 31
0.0
  0
LINE
  5
C0B5
330
B7D9
100
AcDbEntity
  8
AM_5
100
AcDbLine
 10
173.9324128100411
 20
191.6029136489236
 30
0.0
 11
406.9324128100411
 21
191.6029136489236
 31
0.0
  0
INSERT
  5
C0B6
330
B7D9
100
AcDbEntity
  8
AM_5
100
AcDbBlockReference
  2
_Dot
 10
172.9324128100411
 20
191.6029136489236
 30
0.0
 50
180.0
  0
INSERT
  5
C0B7
330
B7D9
100
AcDbEntity
  8
AM_5
100
AcDbBlockReference
  2
_Dot
 10
407.932412810041
 20
191.6029136489236
 30
0.0
  0
MTEXT
  5
C0B8
330
B7D9
100
AcDbEntity
  8
AM_5
 62
     2
100
AcDbMText
 10
290.4324128100411
 20
194.7029136489236
 30
0.0
 40
3.200000000000001
 41
0.0
 71
     5
 72
     1
  1
235
 73
     1
 44
1.0
1001
ACAD
1000
MTEXTBEGIN
1070
    73
1070
     1
1070
    44
1040
1.0
1070
    74
1070
     0
1000
MTEXTEND
  0
POINT
  5
C0B9
330
B7D9
100
AcDbEntity
  8
Defpoints
 62
     0
100
AcDbPoint
 10
172.9324128100411
 20
134.6029136489236
 30
0.0
  0
POINT
  5
C0BA
330
B7D9
100
AcDbEntity
  8
Defpoints
 62
     0
100
AcDbPoint
 10
407.932412810041
 20
134.6029136489236
 30
0.0
  0
POINT
  5
C0BB
330
B7D9
100
AcDbEntity
  8
Defpoints
 62
     0
100
AcDbPoint
 10
407.932412810041
 20
191.6029136489236
 30
0.0
  0
ENDBLK
  5
B7DB
330
B7D9
100
AcDbEntity
  8
0
100
AcDbBlockEnd
  0
BLOCK
  5
B876
330
B875
100
AcDbEntity
  8
0
100
AcDbBlockBegin
  2
*D12
 70
     1
 10
0.0
 20
0.0
 30
0.0
  3
*D12
  1

  0
LINE
  5
BFCD
330
B875
100
AcDbEntity
  8
AM_5
100
AcDbLine
 10
157.932412810041
 20
169.1029136489236
 30
0.0
 11
157.932412810041
 21
202.6029136489237
 31
0.0
  0
LINE
  5
BFCE
330
B875
100
AcDbEntity
  8
AM_5
100
AcDbLine
 10
422.932392810041
 20
169.1029136489236
 30
0.0
 11
422.932392810041
 21
202.6029136489237
 31
0.0
  0
LINE
  5
BFCF
330
B875
100
AcDbEntity
  8
AM_5
100
AcDbLine
 10
158.932412810041
 20
201.6029136489236
 30
0.0
 11
421.932392810041
 21
201.6029136489236
 31
0.0
  0
INSERT
  5
BFD0
330
B875
100
AcDbEntity
  8
AM_5
100
AcDbBlockReference
  2
_Dot
 10
157.932412810041
 20
201.6029136489236
 30
0.0
 50
180.0
  0
INSERT
  5
BFD1
330
B875
100
AcDbEntity
  8
AM_5
100
AcDbBlockReference
  2
_Dot
 10
422.932392810041
 20
201.6029136489236
 30
0.0
  0
MTEXT
  5
BFD2
330
B875
100
AcDbEntity
  8
AM_5
 62
     2
100
AcDbMText
 10
290.432402810041
 20
204.7029136489237
 30
0.0
 40
3.200000000000001
 41
0.0
 71
     5
 72
     1
  1
265
 73
     1
 44
1.0
1001
ACAD
1000
MTEXTBEGIN
1070
    73
1070
     1
1070
    44
1040
1.0
1070
    74
1070
     0
1000
MTEXTEND
  0
POINT
  5
BFD3
330
B875
100
AcDbEntity
  8
Defpoints
 62
     0
100
AcDbPoint
 10
157.932412810041
 20
168.1029136489236
 30
0.0
  0
POINT
  5
BFD4
330
B875
100
AcDbEntity
  8
Defpoints
 62
     0
100
AcDbPoint
 10
422.932392810041
 20
168.1029136489236
 30
0.0
  0
POINT
  5
BFD5
330
B875
100
AcDbEntity
  8
Defpoints
 62
     0
100
AcDbPoint
 10
422.932392810041
 20
201.6029136489236
 30
0.0
  0
ENDBLK
  5
B877
330
B875
100
AcDbEntity
  8
0
100
AcDbBlockEnd
  0
BLOCK
  5
B95D
330
B95C
100
AcDbEntity
  8
0
100
AcDbBlockBegin
  2
*D13
 70
     1
 10
0.0
 20
0.0
 30
0.0
  3
*D13
  1

  0
LINE
  5
C000
330
B95C
100
AcDbEntity
  8
AM_5
100
AcDbLine
 10
397.9323928100411
 20
147.1029136489236
 30
0.0
 11
435.9323928100411
 21
147.1029136489236
 31
0.0
  0
LINE
  5
C001
330
B95C
100
AcDbEntity
  8
AM_5
100
AcDbLine
 10
397.9323928100411
 20
112.1029136489236
 30
0.0
 11
435.932392810041
 21
112.1029136489236
 31
0.0
  0
LINE
  5
C002
330
B95C
100
AcDbEntity
  8
AM_5
100
AcDbLine
 10
434.932392810041
 20
146.1029136489236
 30
0.0
 11
434.932392810041
 21
113.1029136489236
 31
0.0
  0
INSERT
  5
C003
330
B95C
100
AcDbEntity
  8
AM_5
100
AcDbBlockReference
  2
_Dot
 10
434.932392810041
 20
147.1029136489236
 30
0.0
 50
90.0
  0
INSERT
  5
C004
330
B95C
100
AcDbEntity
  8
AM_5
100
AcDbBlockReference
  2
_Dot
 10
434.932392810041
 20
112.1029136489236
 30
0.0
 50
270.0
  0
MTEXT
  5
C005
330
B95C
100
AcDbEntity
  8
AM_5
 62
     2
100
AcDbMText
 10
431.832392810041
 20
129.7969498459244
 30
0.0
 40
3.200000000000001
 41
0.0
 71
     5
 72
     1
  1
35
 11
0.0000000000000001
 21
1.0
 31
0.0
 73
     1
 44
1.0
1001
ACAD
1000
MTEXTBEGIN
1070
    73
1070
     1
1070
    44
1040
1.0
1070
    74
1070
     0
1000
MTEXTEND
  0
POINT
  5
C006
330
B95C
100
AcDbEntity
  8
Defpoints
 62
     0
100
AcDbPoint
 10
396.932392810041
 20
147.1029136489236
 30
0.0
  0
POINT
  5
C007
330
B95C
100
AcDbEntity
  8
Defpoints
 62
     0
100
AcDbPoint
 10
396.932392810041
 20
112.1029136489236
 30
0.0
  0
POINT
  5
C008
330
B95C
100
AcDbEntity
  8
Defpoints
 62
     0
100
AcDbPoint
 10
434.932392810041
 20
112.1029136489236
 30
0.0
  0
ENDBLK
  5
B95E
330
B95C
100
AcDbEntity
  8
0
100
AcDbBlockEnd
  0
BLOCK
  5
BA21
330
BA20
100
AcDbEntity
  8
0
100
AcDbBlockBegin
  2
*D14
 70
     1
 10
0.0
 20
0.0
 30
0.0
  3
*D14
  1

  0
LINE
  5
BFDF
330
BA20
100
AcDbEntity
  8
AM_5
100
AcDbLine
 10
422.432392810041
 20
89.60291364892364
 30
0.0
 11
445.932392810041
 21
89.60291364892364
 31
0.0
  0
LINE
  5
BFE0
330
BA20
100
AcDbEntity
  8
AM_5
100
AcDbLine
 10
422.432392810041
 20
169.6029136489236
 30
0.0
 11
445.932392810041
 21
169.6029136489236
 31
0.0
  0
LINE
  5
BFE1
330
BA20
100
AcDbEntity
  8
AM_5
100
AcDbLine
 10
444.932392810041
 20
90.60291364892364
 30
0.0
 11
444.932392810041
 21
168.6029136489236
 31
0.0
  0
INSERT
  5
BFE2
330
BA20
100
AcDbEntity
  8
AM_5
100
AcDbBlockReference
  2
_Dot
 10
444.932392810041
 20
89.60291364892364
 30
0.0
 50
270.0
  0
INSERT
  5
BFE3
330
BA20
100
AcDbEntity
  8
AM_5
100
AcDbBlockReference
  2
_Dot
 10
444.932392810041
 20
169.6029136489236
 30
0.0
 50
90.0
  0
MTEXT
  5
BFE4
330
BA20
100
AcDbEntity
  8
AM_5
 62
     2
100
AcDbMText
 10
441.8323928100409
 20
129.6029136489237
 30
0.0
 40
3.200000000000001
 41
0.0
 71
     5
 72
     1
  1
80
 11
0.0000000000000001
 21
1.0
 31
0.0
 73
     1
 44
1.0
1001
ACAD
1000
MTEXTBEGIN
1070
    73
1070
     1
1070
    44
1040
1.0
1070
    74
1070
     0
1000
MTEXTEND
  0
POINT
  5
BFE5
330
BA20
100
AcDbEntity
  8
Defpoints
 62
     0
100
AcDbPoint
 10
421.4323928100411
 20
89.60291364892364
 30
0.0
  0
POINT
  5
BFE6
330
BA20
100
AcDbEntity
  8
Defpoints
 62
     0
100
AcDbPoint
 10
421.4323928100411
 20
169.6029136489236
 30
0.0
  0
POINT
  5
BFE7
330
BA20
100
AcDbEntity
  8
Defpoints
 62
     0
100
AcDbPoint
 10
444.932392810041
 20
169.6029136489236
 30
0.0
  0
ENDBLK
  5
BA22
330
BA20
100
AcDbEntity
  8
0
100
AcDbBlockEnd
  0
BLOCK
  5
BA52
330
BA51
100
AcDbEntity
  8
0
100
AcDbBlockBegin
  2
*D15
 70
     1
 10
0.0
 20
0.0
 30
0.0
  3
*D15
  1

  0
LINE
  5
BFE8
330
BA51
100
AcDbEntity
  8
AM_5
100
AcDbLine
 10
494.5318888241391
 20
170.6029136489236
 30
0.0
 11
494.5318888241391
 21
182.6029136489236
 31
0.0
  0
LINE
  5
BFE9
330
BA51
100
AcDbEntity
  8
AM_5
100
AcDbLine
 10
491.5318888241391
 20
170.6029136489236
 30
0.0
 11
491.5318888241391
 21
182.6029136489236
 31
0.0
  0
LINE
  5
BFEA
330
BA51
100
AcDbEntity
  8
AM_5
100
AcDbLine
 10
495.5318888241391
 20
181.6029136489236
 30
0.0
 11
496.5318888241391
 21
181.6029136489236
 31
0.0
  0
LINE
  5
BFEB
330
BA51
100
AcDbEntity
  8
AM_5
100
AcDbLine
 10
490.5318888241391
 20
181.6029136489236
 30
0.0
 11
485.0385554908058
 21
181.6029136489236
 31
0.0
  0
LINE
  5
BFEC
330
BA51
100
AcDbEntity
  8
AM_5
100
AcDbLine
 10
494.5318888241391
 20
181.6029136489236
 30
0.0
 11
491.5318888241391
 21
181.6029136489236
 31
0.0
  0
INSERT
  5
BFED
330
BA51
100
AcDbEntity
  8
AM_5
100
AcDbBlockReference
  2
_Dot
 10
494.5318888241391
 20
181.6029136489236
 30
0.0
 50
180.0
  0
INSERT
  5
BFEE
330
BA51
100
AcDbEntity
  8
AM_5
100
AcDbBlockReference
  2
_Dot
 10
491.5318888241391
 20
181.6029136489236
 30
0.0
  0
MTEXT
  5
BFEF
330
BA51
100
AcDbEntity
  8
AM_5
 62
     2
100
AcDbMText
 10
487.2852221574724
 20
184.7029136489236
 30
0.0
 40
3.200000000000001
 41
0.0
 71
     5
 72
     1
  1
3
 73
     1
 44
1.0
1001
ACAD
1000
MTEXTBEGIN
1070
    73
1070
     1
1070
    44
1040
1.0
1070
    74
1070
     0
1000
MTEXTEND
  0
POINT
  5
BFF0
330
BA51
100
AcDbEntity
  8
Defpoints
 62
     0
100
AcDbPoint
 10
494.5318888241391
 20
169.6029136489236
 30
0.0
  0
POINT
  5
BFF1
330
BA51
100
AcDbEntity
  8
Defpoints
 62
     0
100
AcDbPoint
 10
491.5318888241391
 20
169.6029136489236
 30
0.0
  0
POINT
  5
BFF2
330
BA51
100
AcDbEntity
  8
Defpoints
 62
     0
100
AcDbPoint
 10
491.5318888241391
 20
181.6029136489236
 30
0.0
  0
ENDBLK
  5
BA53
330
BA51
100
AcDbEntity
  8
0
100
AcDbBlockEnd
  0
BLOCK
  5
BA82
330
BA81
100
AcDbEntity
  8
0
100
AcDbBlockBegin
  2
*D16
 70
     1
 10
0.0
 20
0.0
 30
0.0
  3
*D16
  1

  0
LINE
  5
BFF3
330
BA81
100
AcDbEntity
  8
AM_5
100
AcDbLine
 10
494.5318888241391
 20
170.6029136489236
 30
0.0
 11
494.5318888241391
 21
182.6029136489236
 31
0.0
  0
LINE
  5
BFF4
330
BA81
100
AcDbEntity
  8
AM_5
100
AcDbLine
 10
504.5318888241391
 20
135.2029136489235
 30
0.0
 11
504.5318888241391
 21
182.6029136489236
 31
0.0
  0
LINE
  5
BFF5
330
BA81
100
AcDbEntity
  8
AM_5
100
AcDbLine
 10
495.5318888241391
 20
181.6029136489236
 30
0.0
 11
503.5318888241391
 21
181.6029136489236
 31
0.0
  0
INSERT
  5
BFF6
330
BA81
100
AcDbEntity
  8
AM_5
100
AcDbBlockReference
  2
_Dot
 10
494.5318888241391
 20
181.6029136489236
 30
0.0
 50
180.0
  0
INSERT
  5
BFF7
330
BA81
100
AcDbEntity
  8
AM_5
100
AcDbBlockReference
  2
_Dot
 10
504.5318888241391
 20
181.6029136489236
 30
0.0
  0
MTEXT
  5
BFF8
330
BA81
100
AcDbEntity
  8
AM_5
 62
     2
100
AcDbMText
 10
499.5318888241391
 20
184.7029136489236
 30
0.0
 40
3.200000000000001
 41
0.0
 71
     5
 72
     1
  1
10
 73
     1
 44
1.0
1001
ACAD
1000
MTEXTBEGIN
1070
    73
1070
     1
1070
    44
1040
1.0
1070
    74
1070
     0
1000
MTEXTEND
  0
POINT
  5
BFF9
330
BA81
100
AcDbEntity
  8
Defpoints
 62
     0
100
AcDbPoint
 10
494.5318888241391
 20
169.6029136489236
 30
0.0
  0
POINT
  5
BFFA
330
BA81
100
AcDbEntity
  8
Defpoints
 62
     0
100
AcDbPoint
 10
504.5318888241391
 20
134.2029136489235
 30
0.0
  0
POINT
  5
BFFB
330
BA81
100
AcDbEntity
  8
Defpoints
 62
     0
100
AcDbPoint
 10
504.5318888241391
 20
181.6029136489236
 30
0.0
  0
ENDBLK
  5
BA83
330
BA81
100
AcDbEntity
  8
0
100
AcDbBlockEnd
  0
BLOCK
  5
BC5E
330
BC5B
100
AcDbEntity
  8
0
100
AcDbBlockBegin
  2
GENDOT
 70
     0
 10
0.0
 20
0.0
 30
0.0
  3
GENDOT
  1

  0
LINE
  5
BC5C
330
BC5B
100
AcDbEntity
  8
0
100
AcDbLine
 10
0.0
 20
0.0
 30
0.0
 11
-1.0
 21
0.0
 31
0.0
  0
LWPOLYLINE
  5
BC5D
330
BC5B
100
AcDbEntity
  8
0
100
AcDbPolyline
 90
        2
 70
     1
 43
0.25
 10
-0.125
 20
0.0
 42
1.0
 10
0.125
 20
0.0
 42
1.0
  0
ENDBLK
  5
BC5F
330
BC5B
100
AcDbEntity
  8
0
100
AcDbBlockEnd
  0
BLOCK
  5
C063
330
C05B
100
AcDbEntity
  8
0
100
AcDbBlockBegin
  2
A$C67450750
 70
     0
 10
0.0
 20
0.0
 30
0.0
  3
A$C67450750
  1

  0
LINE
  5
C05C
330
C05B
100
AcDbEntity
  8
AM_7
 48
0.5
100
AcDbLine
 10
129.5
 20
151.370759411328
 30
0.0
 11
-129.5
 21
151.3707594113275
 31
0.0
1001
GENIUS_GENOBJ-N-CEN_13
1002
{
1000
OWNER
1000
GEN
1002
}
1001
GENIUS_GENODEF_13
1002
{
1000
HIER
1070
     0
1002
}
1002
{
1000
MANEDIT
1070
     0
1002
}
1002
{
1000
NOSEL
1070
     0
1002
}
1002
{
1000
BEHIND
1070
     0
1002
}
1002
{
1000
OTHER
1070
     0
1002
}
1002
{
1000
REACTOR
1002
}
1001
GENIUS_GENCEN_19
1002
{
1040
3.0
1002
}
  0
LINE
  5
C05D
330
C05B
100
AcDbEntity
  8
AM_7
  6
CENTER
100
AcDbLine
 10
0.0
 20
114.3707594113275
 30
0.0
 11
0.0
 21
188.3707594113275
 31
0.0
  0
INSERT
  5
C05E
330
C05B
100
AcDbEntity
  8
AM_5
100
AcDbBlockReference
  2
*S26
 10
0.0
 20
0.0
 30
0.0
  0
LINE
  5
C05F
330
C05B
100
AcDbEntity
  8
AM_7
  6
CENTER
100
AcDbLine
 10
0.0
 20
-42.00000000000045
 30
0.0
 11
-0.0000000000009095
 21
42.0
 31
0.0
  0
INSERT
  5
C060
330
C05B
100
AcDbEntity
  8
AM_5
100
AcDbBlockReference
  2
*S27
 10
0.0
 20
0.0
 30
0.0
  0
ENDBLK
  5
C064
330
C05B
100
AcDbEntity
  8
0
100
AcDbBlockEnd
  0
BLOCK
  5
C075
330
C074
100
AcDbEntity
  8
0
 48
0.5
100
AcDbBlockBegin
  2
*D19
 70
     1
 10
0.0
 20
0.0
 30
0.0
  3
*D19
  1

  0
LINE
  5
C076
330
C074
100
AcDbEntity
  8
AM_5
100
AcDbLine
 10
5892.762492099633
 20
-2591.278585584941
 30
0.0
 11
5910.477158766298
 21
-2591.278585584941
 31
0.0
  0
LINE
  5
C077
330
C074
100
AcDbEntity
  8
AM_5
100
AcDbLine
 10
5910.477158766298
 20
-2591.278585584941
 30
0.0
 11
5927.536831171209
 21
-2604.212433366294
 31
0.0
  0
LINE
  5
C078
330
C074
100
AcDbEntity
  8
AM_5
100
AcDbLine
 10
5933.911795606708
 20
-2609.045634008329
 30
0.0
 11
5935.505536715583
 21
-2610.253934168837
 31
0.0
  0
MTEXT
  5
C079
330
C074
100
AcDbEntity
  8
AM_5
 62
     2
100
AcDbMText
 10
5901.119825432966
 20
-2588.678585584941
 30
0.0
 40
3.2
 41
0.0
 71
     5
 72
     1
  1
2-M4タップ{  }  }
 73
     1
 44
1.0
1001
ACAD
1000
MTEXTBEGIN
1070
    73
1070
     1
1070
    44
1040
1.0
1070
    74
1070
     0
1000
MTEXTEND
  0
LINE
  5
C07A
330
C074
100
AcDbEntity
  8
AM_5
100
AcDbLine
 10
5932.318054497834
 20
-2607.83733384782
 30
0.0
 11
5929.130572280083
 21
-2605.420733526802
 31
0.0
  0
INSERT
  5
C07B
330
C074
100
AcDbEntity
  8
AM_5
100
AcDbBlockReference
  2
GENDOT
 10
5932.318054497834
 20
-2607.83733384782
 30
0.0
 41
2.0
 42
2.0
 43
2.0
 50
142.832292932852
  0
INSERT
  5
C07C
330
C074
100
AcDbEntity
  8
AM_5
100
AcDbBlockReference
  2
GENDOT
 10
5929.130572280083
 20
-2605.420733526802
 30
0.0
 41
2.0
 42
2.0
 43
2.0
 50
322.8322929328521
  0
POINT
  5
C07D
330
C074
100
AcDbEntity
  8
Defpoints
 62
     0
100
AcDbPoint
 10
5929.130572280083
 20
-2605.420733526802
 30
0.0
  0
POINT
  5
C07E
330
C074
100
AcDbEntity
  8
Defpoints
 62
     0
100
AcDbPoint
 10
5932.318054497834
 20
-2607.83733384782
 30
0.0
  0
ENDBLK
  5
C07F
330
C074
100
AcDbEntity
  8
0
 48
0.5
100
AcDbBlockEnd
  0
BLOCK
  5
C08A
330
C080
100
AcDbEntity
  8
0
100
AcDbBlockBegin
  2
A$C1CAC1229
 70
     0
 10
0.0
 20
0.0
 30
0.0
  3
A$C1CAC1229
  1

  0
LINE
  5
C081
330
C080
100
AcDbEntity
  8
AM_7
 48
0.5
100
AcDbLine
 10
0.0
 20
5.0
 30
0.0
 11
0.0
 21
-5.0
 31
0.0
  0
CIRCLE
  5
C082
330
C080
100
AcDbEntity
  8
AM_3
 48
0.5
100
AcDbCircle
 10
0.0
 20
0.0
 30
0.0
 40
1.649999999999999
  0
CIRCLE
  5
C083
330
C080
100
AcDbEntity
  8
AM_3
 48
0.5
100
AcDbCircle
 10
0.0
 20
0.0
 30
0.0
 40
2.0
  0
DIMENSION
  5
C084
330
C080
100
AcDbEntity
  8
AM_5
100
AcDbDimension
  2
*D19
 10
1.593741108875292
 20
-1.208300160510589
 30
0.0
 11
-29.60448795599223
 21
15.35044810236923
 31
0.0
 12
-5930.724313388958
 22
2606.62903368731
 32
0.0
 70
   131
  1
2-M4タップ{  }  }
 71
     5
 42
4.000000000002728
  3
SYS$3
100
AcDbDiametricDimension
 15
-1.593741108876201
 25
1.20830016050786
 35
0.0
 40
0.0
1001
ACAD
1000
DSTYLE
1002
{
1070
   172
1070
     1
1070
   342
1005
BC5B
1002
}
  0
LINE
  5
C085
330
C080
100
AcDbEntity
  8
AM_7
 48
0.5
100
AcDbLine
 10
235.0
 20
5.0
 30
0.0
 11
235.0
 21
-5.0
 31
0.0
  0
CIRCLE
  5
C086
330
C080
100
AcDbEntity
  8
AM_3
 48
0.5
100
AcDbCircle
 10
235.0
 20
0.0
 30
0.0
 40
1.649999999999999
  0
CIRCLE
  5
C087
330
C080
100
AcDbEntity
  8
AM_3
 48
0.5
100
AcDbCircle
 10
235.0
 20
0.0
 30
0.0
 40
2.0
  0
ENDBLK
  5
C08B
330
C080
100
AcDbEntity
  8
0
100
AcDbBlockEnd
  0
BLOCK
  5
C09F
330
C095
100
AcDbEntity
  8
0
100
AcDbBlockBegin
  2
*D21
 70
     1
 10
0.0
 20
0.0
 30
0.0
  3
*D21
  1

  0
LINE
  5
C0A1
330
C095
100
AcDbEntity
  8
AM_5
100
AcDbLine
 10
132.9035915207168
 20
144.9533617512928
 30
0.0
 11
152.6852581873835
 21
144.9533617512928
 31
0.0
  0
LINE
  5
C0A2
330
C095
100
AcDbEntity
  8
AM_5
100
AcDbLine
 10
152.6852581873835
 20
144.9533617512928
 30
0.0
 11
169.7449305922905
 21
132.0195139699396
 31
0.0
  0
LINE
  5
C0A3
330
C095
100
AcDbEntity
  8
AM_5
100
AcDbLine
 10
176.1198950277907
 20
127.1863133279049
 30
0.0
 11
177.713636136665
 21
125.9780131673967
 31
0.0
  0
MTEXT
  5
C0A4
330
C095
100
AcDbEntity
  8
AM_5
 62
     2
100
AcDbMText
 10
142.0444248540502
 20
148.2033617512928
 30
0.0
 40
3.5
 41
0.0
 71
     5
 72
     1
  1
2-M4タップ{  }  }
 73
     1
 44
1.0
1001
ACAD
1000
MTEXTBEGIN
1070
    73
1070
     1
1070
    44
1040
1.0
1070
    74
1070
     0
1000
MTEXTEND
  0
LINE
  5
C0A5
330
C095
100
AcDbEntity
  8
AM_5
100
AcDbLine
 10
174.5261539189164
 20
128.394613488413
 30
0.0
 11
171.3386717011649
 21
130.8112138094315
 31
0.0
  0
INSERT
  5
C0A6
330
C095
100
AcDbEntity
  8
AM_5
100
AcDbBlockReference
  2
GENDOT
 10
174.5261539189164
 20
128.394613488413
 30
0.0
 41
2.0
 42
2.0
 43
2.0
 50
142.8322929328495
  0
INSERT
  5
C0A7
330
C095
100
AcDbEntity
  8
AM_5
100
AcDbBlockReference
  2
GENDOT
 10
171.3386717011649
 20
130.8112138094315
 30
0.0
 41
2.0
 42
2.0
 43
2.0
 50
322.8322929328495
  0
POINT
  5
C0A8
330
C095
100
AcDbEntity
  8
Defpoints
 62
     0
100
AcDbPoint
 10
171.3386717011649
 20
130.8112138094315
 30
0.0
  0
POINT
  5
C0A9
330
C095
100
AcDbEntity
  8
Defpoints
 62
     0
100
AcDbPoint
 10
174.5261539189164
 20
128.394613488413
 30
0.0
  0
ENDBLK
  5
C0A0
330
C095
100
AcDbEntity
  8
0
100
AcDbBlockEnd
  0
BLOCK
  5
C133
330
C12C
100
AcDbEntity
  8
0
100
AcDbBlockBegin
  2
*S24
 70
     1
 10
0.0
 20
0.0
 30
0.0
  3
*S24
  1

  0
LINE
  5
C12D
330
C12C
100
AcDbEntity
  8
AM_5
 62
     3
 48
0.5
100
AcDbLine
 10
333.8552110772765
 20
345.2963222952937
 30
0.0
 11
310.3458777439433
 21
345.2963222952937
 31
0.0
  0
LINE
  5
C12E
330
C12C
100
AcDbEntity
  8
AM_5
 62
     3
 48
0.5
100
AcDbLine
 10
310.3458777439433
 20
345.2963222952937
 30
0.0
 11
291.2253531024561
 21
301.0190850340451
 31
0.0
  0
LINE
  5
C12F
330
C12C
100
AcDbEntity
  8
AM_5
  6
Continuous
 62
     3
 48
0.5
100
AcDbLine
 10
291.2253531024561
 20
301.0190850340451
 30
0.0
 11
290.4324528100411
 21
299.1829725303329
 31
0.0
  0
LINE
  5
C130
330
C12C
100
AcDbEntity
  8
AM_5
  6
Continuous
 62
     3
 48
0.5
100
AcDbLine
 10
290.7333682443375
 20
301.2315420251484
 30
0.0
 11
290.4324528100411
 21
299.1829725303329
 31
0.0
  0
LINE
  5
C131
330
C12C
100
AcDbEntity
  8
AM_5
  6
Continuous
 62
     3
 48
0.5
100
AcDbLine
 10
290.4324528100411
 20
299.1829725303329
 30
0.0
 11
291.7173379605746
 21
300.8066280429417
 31
0.0
  0
MTEXT
  5
C132
330
C12C
100
AcDbEntity
  8
AM_5
 62
     2
100
AcDbMText
 10
313.5458777439432
 20
346.8963222952936
 30
0.0
 40
3.2
 41
0.0
 71
     7
 72
     5
  1
ポスト口センター
 73
     1
 44
1.0
1001
ACAD
1000
MTEXTBEGIN
1070
    73
1070
     1
1070
    44
1040
1.0
1070
    74
1070
     0
1000
MTEXTEND
  0
ENDBLK
  5
C134
330
C12C
100
AcDbEntity
  8
0
100
AcDbBlockEnd
  0
BLOCK
  5
C13D
330
C136
100
AcDbEntity
  8
0
100
AcDbBlockBegin
  2
*S25
 70
     1
 10
0.0
 20
0.0
 30
0.0
  3
*S25
  1

  0
LINE
  5
C137
330
C136
100
AcDbEntity
  8
AM_5
 62
     3
 48
0.5
100
AcDbLine
 10
324.7785965941046
 20
78.78345660012283
 30
0.0
 11
301.2692632607715
 21
78.78345660012283
 31
0.0
  0
LINE
  5
C138
330
C136
100
AcDbEntity
  8
AM_5
 62
     3
 48
0.5
100
AcDbLine
 10
301.2692632607715
 20
78.78345660012283
 30
0.0
 11
290.8495095335826
 21
127.6468916702165
 31
0.0
  0
LINE
  5
C139
330
C136
100
AcDbEntity
  8
AM_5
  6
Continuous
 62
     3
 48
0.5
100
AcDbLine
 10
290.8495095335826
 20
127.6468916702165
 30
0.0
 11
290.432402810041
 21
129.6029136489214
 31
0.0
  0
LINE
  5
C13A
330
C136
100
AcDbEntity
  8
AM_5
  6
Continuous
 62
     3
 48
0.5
100
AcDbLine
 10
291.3736240383988
 20
127.758655078933
 30
0.0
 11
290.432402810041
 21
129.6029136489214
 31
0.0
  0
LINE
  5
C13B
330
C136
100
AcDbEntity
  8
AM_5
  6
Continuous
 62
     3
 48
0.5
100
AcDbLine
 10
290.432402810041
 20
129.6029136489214
 30
0.0
 11
290.3253950287664
 21
127.5351282615
 31
0.0
  0
MTEXT
  5
C13C
330
C136
100
AcDbEntity
  8
AM_5
 62
     2
100
AcDbMText
 10
304.4692632607713
 20
80.38345660012273
 30
0.0
 40
3.2
 41
0.0
 71
     7
 72
     5
  1
ポスト口センター
 73
     1
 44
1.0
1001
ACAD
1000
MTEXTBEGIN
1070
    73
1070
     1
1070
    44
1040
1.0
1070
    74
1070
     0
1000
MTEXTEND
  0
ENDBLK
  5
C13E
330
C136
100
AcDbEntity
  8
0
100
AcDbBlockEnd
  0
BLOCK
  5
C147
330
C140
100
AcDbEntity
  8
0
100
AcDbBlockBegin
  2
*S26
 70
     1
 10
0.0
 20
0.0
 30
0.0
  3
*S26
  1

  0
LINE
  5
C141
330
C140
100
AcDbEntity
  8
AM_5
 62
     3
 48
0.5
100
AcDbLine
 10
43.42275826723562
 20
197.4841091762882
 30
0.0
 11
19.9134249339022
 21
197.4841091762882
 31
0.0
  0
LINE
  5
C142
330
C140
100
AcDbEntity
  8
AM_5
 62
     3
 48
0.5
100
AcDbLine
 10
19.9134249339022
 20
197.4841091762882
 30
0.0
 11
0.7929002924149842
 21
153.2068719150397
 31
0.0
  0
LINE
  5
C143
330
C140
100
AcDbEntity
  8
AM_5
  6
Continuous
 62
     3
 48
0.5
100
AcDbLine
 10
0.7929002924149851
 20
153.2068719150397
 30
0.0
 11
0.0
 21
151.3707594113275
 31
0.0
  0
LINE
  5
C144
330
C140
100
AcDbEntity
  8
AM_5
  6
Continuous
 62
     3
 48
0.5
100
AcDbLine
 10
0.3009154342964329
 20
153.4193289061431
 30
0.0
 11
0.0
 21
151.3707594113275
 31
0.0
  0
LINE
  5
C145
330
C140
100
AcDbEntity
  8
AM_5
  6
Continuous
 62
     3
 48
0.5
100
AcDbLine
 10
0.0
 20
151.3707594113275
 30
0.0
 11
1.284885150533537
 21
152.9944149239363
 31
0.0
  0
MTEXT
  5
C146
330
C140
100
AcDbEntity
  8
AM_5
 62
     2
100
AcDbMText
 10
23.11342493390203
 20
199.0841091762881
 30
0.0
 40
3.2
 41
0.0
 71
     7
 72
     5
  1
ポスト口センター
 73
     1
 44
1.0
1001
ACAD
1000
MTEXTBEGIN
1070
    73
1070
     1
1070
    44
1040
1.0
1070
    74
1070
     0
1000
MTEXTEND
  0
ENDBLK
  5
C148
330
C140
100
AcDbEntity
  8
0
100
AcDbBlockEnd
  0
BLOCK
  5
C151
330
C14A
100
AcDbEntity
  8
0
100
AcDbBlockBegin
  2
*S27
 70
     1
 10
0.0
 20
0.0
 30
0.0
  3
*S27
  1

  0
LINE
  5
C14B
330
C14A
100
AcDbEntity
  8
AM_5
 62
     3
 48
0.5
100
AcDbLine
 10
34.34619378406387
 20
-50.81945704879854
 30
0.0
 11
10.83686045073045
 21
-50.81945704879854
 31
0.0
  0
LINE
  5
C14C
330
C14A
100
AcDbEntity
  8
AM_5
 62
     3
 48
0.5
100
AcDbLine
 10
10.83686045073045
 20
-50.81945704879854
 30
0.0
 11
0.417106723541572
 21
-1.956021978704839
 31
0.0
  0
LINE
  5
C14D
330
C14A
100
AcDbEntity
  8
AM_5
  6
Continuous
 62
     3
 48
0.5
100
AcDbLine
 10
0.4171067235415731
 20
-1.956021978704844
 30
0.0
 11
0.0
 21
0.0
 31
0.0
  0
LINE
  5
C14E
330
C14A
100
AcDbEntity
  8
AM_5
  6
Continuous
 62
     3
 48
0.5
100
AcDbLine
 10
0.9412212283577332
 20
-1.844258569988325
 30
0.0
 11
0.0
 21
0.0
 31
0.0
  0
LINE
  5
C14F
330
C14A
100
AcDbEntity
  8
AM_5
  6
Continuous
 62
     3
 48
0.5
100
AcDbLine
 10
0.0
 20
0.0
 30
0.0
 11
-0.1070077812745873
 21
-2.067785387421362
 31
0.0
  0
MTEXT
  5
C150
330
C14A
100
AcDbEntity
  8
AM_5
 62
     2
100
AcDbMText
 10
14.03686045073027
 20
-49.21945704879863
 30
0.0
 40
3.2
 41
0.0
 71
     7
 72
     5
  1
ポスト口センター
 73
     1
 44
1.0
1001
ACAD
1000
MTEXTBEGIN
1070
    73
1070
     1
1070
    44
1040
1.0
1070
    74
1070
     0
1000
MTEXTEND
  0
ENDBLK
  5
C152
330
C14A
100
AcDbEntity
  8
0
100
AcDbBlockEnd
  0
ENDSEC
  0
SECTION
  2
ENTITIES
  0
POINT
  5
B5B2
330
1F
100
AcDbEntity
  8
AM_0
100
AcDbPoint
 10
398.9323928100411
 20
145.1029136489236
 30
0.0
  0
POINT
  5
B5B4
330
1F
100
AcDbEntity
  8
AM_0
100
AcDbPoint
 10
157.9324128100411
 20
169.6029136489236
 30
0.0
  0
POINT
  5
B5B5
330
1F
100
AcDbEntity
  8
AM_0
100
AcDbPoint
 10
422.932392810041
 20
169.6029136489236
 30
0.0
  0
POINT
  5
B5BA
330
1F
100
AcDbEntity
  8
AM_0
100
AcDbPoint
 10
157.9324128100411
 20
169.6029136489236
 30
0.0
  0
POINT
  5
B5BD
330
1F
100
AcDbEntity
  8
AM_0
100
AcDbPoint
 10
157.9324128100411
 20
169.6029136489236
 30
0.0
  0
POINT
  5
B5C0
330
1F
100
AcDbEntity
  8
AM_0
100
AcDbPoint
 10
422.932392810041
 20
169.6029136489236
 30
0.0
  0
POINT
  5
B5C1
330
1F
100
AcDbEntity
  8
AM_0
100
AcDbPoint
 10
422.932392810041
 20
89.60291364892364
 30
0.0
  0
POINT
  5
B5C4
330
1F
100
AcDbEntity
  8
AM_0
100
AcDbPoint
 10
422.932392810041
 20
89.60291364892364
 30
0.0
  0
POINT
  5
B5C6
330
1F
100
AcDbEntity
  8
AM_0
100
AcDbPoint
 10
422.932392810041
 20
169.6029136489236
 30
0.0
  0
POINT
  5
B5C9
330
1F
100
AcDbEntity
  8
AM_0
100
AcDbPoint
 10
398.432392810041
 20
147.1029136489236
 30
0.0
  0
POINT
  5
B5CA
330
1F
100
AcDbEntity
  8
AM_0
100
AcDbPoint
 10
398.432392810041
 20
112.1029136489236
 30
0.0
  0
POINT
  5
B5CC
330
1F
100
AcDbEntity
  8
AM_0
100
AcDbPoint
 10
398.432392810041
 20
112.1029136489236
 30
0.0
  0
POINT
  5
B5CD
330
1F
100
AcDbEntity
  8
AM_0
100
AcDbPoint
 10
422.932392810041
 20
89.60291364892364
 30
0.0
  0
POINT
  5
B5CF
330
1F
100
AcDbEntity
  8
AM_0
100
AcDbPoint
 10
422.932392810041
 20
169.6029136489236
 30
0.0
  0
POINT
  5
B5D0
330
1F
100
AcDbEntity
  8
AM_0
100
AcDbPoint
 10
398.432392810041
 20
147.1029136489236
 30
0.0
  0
POINT
  5
B5D2
330
1F
100
AcDbEntity
  8
AM_0
100
AcDbPoint
 10
398.9323928100411
 20
145.1029136489236
 30
0.0
  0
POINT
  5
B5D3
330
1F
100
AcDbEntity
  8
AM_0
100
AcDbPoint
 10
422.932392810041
 20
169.6029136489236
 30
0.0
  0
POINT
  5
B5D6
330
1F
100
AcDbEntity
  8
AM_0
100
AcDbPoint
 10
422.932392810041
 20
169.6029136489236
 30
0.0
  0
POINT
  5
B5D8
330
1F
100
AcDbEntity
  8
AM_0
100
AcDbPoint
 10
494.5318888241391
 20
169.6029136489236
 30
0.0
  0
POINT
  5
B5D9
330
1F
100
AcDbEntity
  8
AM_0
100
AcDbPoint
 10
504.5318888241391
 20
134.2029136489235
 30
0.0
  0
POINT
  5
B5DB
330
1F
100
AcDbEntity
  8
AM_0
100
AcDbPoint
 10
491.5318888241391
 20
169.6029136489236
 30
0.0
  0
POINT
  5
B5DC
330
1F
100
AcDbEntity
  8
AM_0
100
AcDbPoint
 10
494.5318888241391
 20
169.6029136489236
 30
0.0
  0
POINT
  5
B5DF
330
1F
100
AcDbEntity
  8
0
  6
Continuous
 62
     7
100
AcDbPoint
 10
162.9324128100411
 20
264.1829725303329
 30
0.0
  0
POINT
  5
B5E0
330
1F
100
AcDbEntity
  8
0
  6
Continuous
 62
     7
100
AcDbPoint
 10
417.932492810041
 20
264.1829725303329
 30
0.0
  0
POINT
  5
B5E1
330
1F
100
AcDbEntity
  8
0
  6
Continuous
 62
     7
100
AcDbPoint
 10
417.932492810041
 20
334.1829725303329
 30
0.0
  0
POINT
  5
B5E2
330
1F
100
AcDbEntity
  8
AM_0
100
AcDbPoint
 10
290.432412810041
 20
129.6029136489236
 30
0.0
  0
LINE
  5
B5E6
330
1F
100
AcDbEntity
  8
size
100
AcDbLine
 10
0.0000002667346735
 20
-0.0000000978109256
 30
0.0
 11
593.9999602667345
 21
-0.0000000978109256
 31
0.0
  0
LINE
  5
B5E7
330
1F
100
AcDbEntity
  8
size
100
AcDbLine
 10
0.0000002667346735
 20
419.9999999021892
 30
0.0
 11
0.0000002667346735
 21
-0.0000000978109256
 31
0.0
  0
LINE
  5
B5E8
330
1F
100
AcDbEntity
  8
waku
100
AcDbLine
 10
574.4999602667345
 20
12.74999990218907
 30
0.0
 11
574.4999602667345
 21
407.2499999021893
 31
0.0
  0
LINE
  5
B5E9
330
1F
100
AcDbEntity
  8
waku
100
AcDbLine
 10
19.50000026673469
 20
407.2499999021892
 30
0.0
 11
19.50000026673467
 21
12.74999990218907
 31
0.0
  0
LINE
  5
B5EA
330
1F
100
AcDbEntity
  8
waku
100
AcDbLine
 10
574.4999602667345
 20
407.2499999021893
 30
0.0
 11
19.50000026673467
 21
407.2499999021893
 31
0.0
  0
LINE
  5
B5EB
330
1F
100
AcDbEntity
  8
waku
100
AcDbLine
 10
19.50000026673467
 20
12.74999990218907
 30
0.0
 11
574.4999602667345
 21
12.74999990218907
 31
0.0
  0
LINE
  5
B5EC
330
1F
100
AcDbEntity
  8
size
100
AcDbLine
 10
593.9999602667345
 20
419.9999999021892
 30
0.0
 11
593.9999602667345
 21
-0.0000000978109256
 31
0.0
  0
LINE
  5
B5ED
330
1F
100
AcDbEntity
  8
size
100
AcDbLine
 10
0.0000002667346735
 20
419.9999999021892
 30
0.0
 11
593.9999602667345
 21
419.9999999021892
 31
0.0
  0
LINE
  5
B601
330
1F
100
AcDbEntity
  8
AM_0
100
AcDbLine
 10
183.9324128100411
 20
112.1029136489236
 30
0.0
 11
396.932392810041
 21
112.1029136489236
 31
0.0
  0
LINE
  5
B602
330
1F
100
AcDbEntity
  8
AM_0
100
AcDbLine
 10
183.9324128100411
 20
147.1029136489236
 30
0.0
 11
396.932392810041
 21
147.1029136489236
 31
0.0
  0
LINE
  5
B603
330
1F
100
AcDbEntity
  8
AM_0
100
AcDbLine
 10
159.4324128100411
 20
89.60291364892364
 30
0.0
 11
421.4323928100411
 21
89.60291364892364
 31
0.0
  0
ARC
  5
B604
330
1F
100
AcDbEntity
  8
AM_0
100
AcDbCircle
 10
159.4324128100411
 20
91.10291364892365
 30
0.0
 40
1.5
100
AcDbArc
 50
180.0
 51
270.0
1001
GENIUS_GENODEF_13
1002
{
1000
HIER
1070
     0
1002
}
1002
{
1000
MANEDIT
1070
     0
1002
}
1002
{
1000
NOSEL
1070
     0
1002
}
1002
{
1000
BEHIND
1070
     0
1002
}
1002
{
1000
OTHER
1070
     0
1002
}
1002
{
1000
REACTOR
1002
}
1001
GENIUS_GENOBJ-N-FIL_13
1002
{
1000
OWNER
1000
GEN
1002
}
  0
LINE
  5
B605
330
1F
100
AcDbEntity
  8
AM_0
100
AcDbLine
 10
159.432412810041
 20
169.6029136489236
 30
0.0
 11
421.4323928100411
 21
169.6029136489236
 31
0.0
  0
ARC
  5
B606
330
1F
100
AcDbEntity
  8
AM_0
100
AcDbCircle
 10
421.4323928100411
 20
168.1029136489236
 30
0.0
 40
1.5
100
AcDbArc
 50
0.0
 51
90.0
1001
GENIUS_GENOBJ-N-FIL_13
1002
{
1000
OWNER
1000
GEN
1002
}
1001
GENIUS_GENODEF_13
1002
{
1000
HIER
1070
     0
1002
}
1002
{
1000
MANEDIT
1070
     0
1002
}
1002
{
1000
NOSEL
1070
     0
1002
}
1002
{
1000
BEHIND
1070
     0
1002
}
1002
{
1000
OTHER
1070
     0
1002
}
1002
{
1000
REACTOR
1002
}
  0
ARC
  5
B607
330
1F
100
AcDbEntity
  8
AM_0
100
AcDbCircle
 10
159.432412810041
 20
168.1029136489236
 30
0.0
 40
1.5
100
AcDbArc
 50
90.0
 51
180.0
1001
GENIUS_GENODEF_13
1002
{
1000
HIER
1070
     0
1002
}
1002
{
1000
MANEDIT
1070
     0
1002
}
1002
{
1000
NOSEL
1070
     0
1002
}
1002
{
1000
BEHIND
1070
     0
1002
}
1002
{
1000
OTHER
1070
     0
1002
}
1002
{
1000
REACTOR
1002
}
1001
GENIUS_GENOBJ-N-FIL_13
1002
{
1000
OWNER
1000
GEN
1002
}
  0
LINE
  5
B608
330
1F
100
AcDbEntity
  8
AM_7
  6
CENTER
100
AcDbLine
 10
154.932412810041
 20
129.6029136489236
 30
0.0
 11
425.932392810041
 21
129.6029136489236
 31
0.0
  0
LINE
  5
B618
330
1F
100
AcDbEntity
  8
AM_0
100
AcDbLine
 10
181.9324128100411
 20
145.1029136489236
 30
0.0
 11
181.9324128100411
 21
114.1029136489236
 31
0.0
  0
LINE
  5
B61A
330
1F
100
AcDbEntity
  8
AM_0
100
AcDbLine
 10
157.932412810041
 20
168.1029136489236
 30
0.0
 11
157.9324128100411
 21
91.10291364892365
 31
0.0
  0
LINE
  5
B61B
330
1F
100
AcDbEntity
  8
0
  6
Continuous
 62
     7
100
AcDbLine
 10
157.9324128100411
 20
170.6029136489236
 30
0.0
 11
157.9324128100411
 21
185.6029136489236
 31
0.0
  0
LINE
  5
B625
330
1F
100
AcDbEntity
  8
AM_0
100
AcDbLine
 10
497.4881888241392
 20
127.3105136489236
 30
0.0
 11
499.5953888241391
 21
134.2029136489235
 31
0.0
  0
LINE
  5
B626
330
1F
100
AcDbEntity
  8
AM_0
100
AcDbLine
 10
496.5318888241391
 20
127.6029136489236
 30
0.0
 11
498.5497888241392
 21
134.2029136489235
 31
0.0
  0
LINE
  5
B627
330
1F
100
AcDbEntity
  8
AM_0
100
AcDbLine
 10
501.9319888241392
 20
132.6029136489236
 30
0.0
 11
501.9319888241392
 21
126.6029136489236
 31
0.0
  0
LINE
  5
B628
330
1F
100
AcDbEntity
  8
AM_0
100
AcDbLine
 10
503.5318888241391
 20
133.7029136489235
 30
0.0
 11
503.5318888241391
 21
125.5029136489237
 31
0.0
  0
LINE
  5
B629
330
1F
100
AcDbEntity
  8
AM_0
100
AcDbLine
 10
496.5318888241391
 20
152.8030136489237
 30
0.0
 11
496.5318888241391
 21
113.6029136489236
 31
0.0
  0
LINE
  5
B62A
330
1F
100
AcDbEntity
  8
AM_0
100
AcDbLine
 10
495.3319888241393
 20
151.6029136489236
 30
0.0
 11
495.3319888241393
 21
111.6029136489236
 31
0.0
  0
LINE
  5
B62B
330
1F
100
AcDbEntity
  8
AM_0
100
AcDbLine
 10
504.5318888241391
 20
134.2029136489235
 30
0.0
 11
504.5318888241391
 21
125.0029136489237
 31
0.0
  0
LINE
  5
B62C
330
1F
100
AcDbEntity
  8
AM_0
100
AcDbLine
 10
398.9323928100411
 20
145.1029136489236
 30
0.0
 11
398.9323928100411
 21
114.1029136489236
 31
0.0
  0
LINE
  5
B62D
330
1F
100
AcDbEntity
  8
AM_0
100
AcDbLine
 10
494.5318888241391
 20
169.6029136489236
 30
0.0
 11
494.5318888241391
 21
89.60291364892364
 31
0.0
  0
LINE
  5
B62E
330
1F
100
AcDbEntity
  8
AM_0
100
AcDbLine
 10
491.5318888241391
 20
169.6029136489236
 30
0.0
 11
491.5318888241391
 21
89.60291364892364
 31
0.0
  0
LINE
  5
B630
330
1F
100
AcDbEntity
  8
AM_0
100
AcDbLine
 10
422.932392810041
 20
168.1029136489236
 30
0.0
 11
422.932392810041
 21
91.10291364892365
 31
0.0
  0
ARC
  5
B631
330
1F
100
AcDbEntity
  8
AM_0
100
AcDbCircle
 10
421.4323928100411
 20
91.10291364892365
 30
0.0
 40
1.5
100
AcDbArc
 50
270.0
 51
0.0
1001
GENIUS_GENODEF_13
1002
{
1000
HIER
1070
     0
1002
}
1002
{
1000
MANEDIT
1070
     0
1002
}
1002
{
1000
NOSEL
1070
     0
1002
}
1002
{
1000
BEHIND
1070
     0
1002
}
1002
{
1000
OTHER
1070
     0
1002
}
1002
{
1000
REACTOR
1002
}
1001
GENIUS_GENOBJ-N-FIL_13
1002
{
1000
OWNER
1000
GEN
1002
}
  0
LINE
  5
B644
330
1F
100
AcDbEntity
  8
0
  6
Continuous
 62
     7
100
AcDbLine
 10
423.932392810041
 20
89.60291364892364
 30
0.0
 11
438.932392810041
 21
89.60291364892364
 31
0.0
  0
LINE
  5
B648
330
1F
100
AcDbEntity
  8
AM_7
100
AcDbLine
 10
488.5318888241391
 20
129.6029136489236
 30
0.0
 11
507.5318888241391
 21
129.6029136489236
 31
0.0
  0
LINE
  5
B649
330
1F
100
AcDbEntity
  8
AM_0
100
AcDbLine
 10
491.5318888241391
 20
89.60291364892364
 30
0.0
 11
494.5318888241391
 21
89.60291364892364
 31
0.0
  0
LINE
  5
B64A
330
1F
100
AcDbEntity
  8
AM_0
100
AcDbLine
 10
494.5318888241391
 20
111.6029136489236
 30
0.0
 11
495.3319888241393
 21
111.6029136489236
 31
0.0
  0
LINE
  5
B64B
330
1F
100
AcDbEntity
  8
AM_0
100
AcDbLine
 10
495.3319888241393
 20
113.6029136489236
 30
0.0
 11
496.5318888241391
 21
113.6029136489236
 31
0.0
  0
LINE
  5
B64C
330
1F
100
AcDbEntity
  8
AM_0
100
AcDbLine
 10
496.5318888241391
 20
125.0029136489237
 30
0.0
 11
503.0318888241391
 21
125.0029136489237
 31
0.0
  0
LINE
  5
B64D
330
1F
100
AcDbEntity
  8
AM_0
100
AcDbLine
 10
496.5318888241391
 20
124.0029136489237
 30
0.0
 11
503.5318888241391
 21
124.0029136489237
 31
0.0
  0
LINE
  5
B64E
330
1F
100
AcDbEntity
  8
AM_0
100
AcDbLine
 10
497.4881888241392
 20
127.3105136489236
 30
0.0
 11
496.5318888241391
 21
127.6029136489236
 31
0.0
  0
LINE
  5
B64F
330
1F
100
AcDbEntity
  8
AM_0
100
AcDbLine
 10
501.9319888241392
 20
126.6029136489236
 30
0.0
 11
503.5318888241391
 21
126.6029136489236
 31
0.0
  0
LINE
  5
B668
330
1F
100
AcDbEntity
  8
AM_0
100
AcDbLine
 10
498.8553888241391
 20
135.2029136489235
 30
0.0
 11
502.6722888241391
 21
147.6874136489236
 31
0.0
  0
LINE
  5
B669
330
1F
100
AcDbEntity
  8
AM_0
100
AcDbLine
 10
499.9011888241392
 20
135.2030136489237
 30
0.0
 11
503.906188824139
 21
148.3026136489237
 31
0.0
  0
LINE
  5
B66A
330
1F
100
AcDbEntity
  8
AM_0
100
AcDbLine
 10
496.5318888241391
 20
134.2029136489235
 30
0.0
 11
503.0318888241391
 21
134.2029136489235
 31
0.0
  0
LINE
  5
B66B
330
1F
100
AcDbEntity
  8
AM_0
100
AcDbLine
 10
496.5318888241391
 20
135.2029136489235
 30
0.0
 11
503.5318888241391
 21
135.2029136489235
 31
0.0
  0
LINE
  5
B66C
330
1F
100
AcDbEntity
  8
AM_0
100
AcDbLine
 10
501.9319888241392
 20
132.6029136489236
 30
0.0
 11
503.5318888241391
 21
132.6029136489236
 31
0.0
  0
LINE
  5
B66D
330
1F
100
AcDbEntity
  8
AM_0
100
AcDbLine
 10
498.1109888241393
 20
149.3475136489236
 30
0.0
 11
502.6722888241391
 21
147.6874136489236
 31
0.0
  0
LINE
  5
B66E
330
1F
100
AcDbEntity
  8
AM_0
100
AcDbLine
 10
497.5318888241392
 20
149.6535136489236
 30
0.0
 11
497.5318888241392
 21
143.6029136489236
 31
0.0
  0
LINE
  5
B66F
330
1F
100
AcDbEntity
  8
AM_0
100
AcDbLine
 10
496.5318888241391
 20
143.6029136489236
 30
0.0
 11
497.5318888241392
 21
143.6029136489236
 31
0.0
  0
LINE
  5
B670
330
1F
100
AcDbEntity
  8
AM_0
100
AcDbLine
 10
495.3319888241393
 20
150.4029136489236
 30
0.0
 11
496.5318888241391
 21
150.4029136489236
 31
0.0
  0
LINE
  5
B671
330
1F
100
AcDbEntity
  8
AM_0
100
AcDbLine
 10
500.2848888241393
 20
149.6207136489237
 30
0.0
 11
503.906188824139
 21
148.3027136489237
 31
0.0
  0
LINE
  5
B672
330
1F
100
AcDbEntity
  8
AM_0
100
AcDbLine
 10
495.7318888241392
 20
162.4029136489236
 30
0.0
 11
495.7318888241392
 21
153.2029136489235
 31
0.0
  0
LINE
  5
B673
330
1F
100
AcDbEntity
  8
AM_0
100
AcDbLine
 10
495.7318888241392
 20
156.7828136489237
 30
0.0
 11
498.5433888241392
 21
153.9713136489237
 31
0.0
  0
LINE
  5
B674
330
1F
100
AcDbEntity
  8
AM_0
100
AcDbLine
 10
495.7318888241392
 20
158.1970136489236
 30
0.0
 11
500.6289888241391
 21
153.3000136489237
 31
0.0
  0
LINE
  5
B675
330
1F
100
AcDbEntity
  8
AM_0
100
AcDbLine
 10
494.5318888241391
 20
152.8030136489237
 30
0.0
 11
496.5318888241391
 21
152.8030136489237
 31
0.0
  0
LINE
  5
B676
330
1F
100
AcDbEntity
  8
AM_0
100
AcDbLine
 10
494.5318888241391
 20
151.6029136489236
 30
0.0
 11
495.3319888241393
 21
151.6029136489236
 31
0.0
  0
LINE
  5
B677
330
1F
100
AcDbEntity
  8
AM_0
100
AcDbLine
 10
495.7318888241392
 20
153.2029136489235
 30
0.0
 11
497.1429888241392
 21
153.2029136489235
 31
0.0
  0
LINE
  5
B678
330
1F
100
AcDbEntity
  8
AM_0
100
AcDbLine
 10
494.5318888241391
 20
162.4029136489236
 30
0.0
 11
495.7318888241392
 21
162.4029136489236
 31
0.0
  0
LINE
  5
B679
330
1F
100
AcDbEntity
  8
AM_0
100
AcDbLine
 10
491.5318888241391
 20
169.6029136489236
 30
0.0
 11
494.5318888241391
 21
169.6029136489236
 31
0.0
  0
LINE
  5
B67A
330
1F
100
AcDbEntity
  8
AM_0
100
AcDbLine
 10
162.9324128100411
 20
324.1829725303329
 30
0.0
 11
162.9324128100411
 21
274.1829725303329
 31
0.0
  0
LINE
  5
B67B
330
1F
100
AcDbEntity
  8
AM_0
100
AcDbLine
 10
417.9324928100411
 20
324.1829725303329
 30
0.0
 11
417.932492810041
 21
274.1829725303329
 31
0.0
  0
LINE
  5
B67C
330
1F
100
AcDbEntity
  8
AM_0
100
AcDbLine
 10
172.9324128100411
 20
264.1829725303329
 30
0.0
 11
407.9324928100409
 21
264.1829725303329
 31
0.0
  0
LINE
  5
B67D
330
1F
100
AcDbEntity
  8
AM_0
100
AcDbLine
 10
172.9324128100411
 20
334.1829725303329
 30
0.0
 11
407.932492810041
 21
334.1829725303329
 31
0.0
  0
ARC
  5
B685
330
1F
100
AcDbEntity
  8
AM_0
100
AcDbCircle
 10
183.9324128100411
 20
114.1029136489236
 30
0.0
 40
2.0
100
AcDbArc
 50
180.0
 51
270.0
  0
ARC
  5
B68A
330
1F
100
AcDbEntity
  8
AM_0
100
AcDbCircle
 10
183.9324128100411
 20
145.1029136489236
 30
0.0
 40
2.0
100
AcDbArc
 50
90.0
 51
180.0
  0
ARC
  5
B696
330
1F
100
AcDbEntity
  8
AM_0
100
AcDbCircle
 10
396.932392810041
 20
114.1029136489236
 30
0.0
 40
2.0
100
AcDbArc
 50
270.0
 51
0.0
  0
ARC
  5
B697
330
1F
100
AcDbEntity
  8
AM_0
100
AcDbCircle
 10
503.5318888241391
 20
125.0029136489237
 30
0.0
 40
1.0
100
AcDbArc
 50
270.0
 51
0.0
  0
ARC
  5
B698
330
1F
100
AcDbEntity
  8
AM_0
100
AcDbCircle
 10
503.0318888241391
 20
125.5029136489237
 30
0.0
 40
0.5
100
AcDbArc
 50
270.0
 51
0.0
  0
ARC
  5
B69F
330
1F
100
AcDbEntity
  8
AM_0
100
AcDbCircle
 10
396.932392810041
 20
145.1029136489236
 30
0.0
 40
2.0
100
AcDbArc
 50
0.0
 51
90.0
  0
CIRCLE
  5
B6A4
330
1F
100
AcDbEntity
  8
AM_0
100
AcDbCircle
 10
498.9319888241392
 20
151.6029136489236
 30
0.0
 40
1.400000099999999
  0
CIRCLE
  5
B6A5
330
1F
100
AcDbEntity
  8
AM_0
100
AcDbCircle
 10
498.9319888241392
 20
151.6029136489236
 30
0.0
 40
2.4000001
  0
ARC
  5
B6A6
330
1F
100
AcDbEntity
  8
AM_0
100
AcDbCircle
 10
503.5318888241391
 20
134.2029136489235
 30
0.0
 40
1.0
100
AcDbArc
 50
0.0
 51
90.0
  0
ARC
  5
B6A7
330
1F
100
AcDbEntity
  8
AM_0
100
AcDbCircle
 10
503.0318888241391
 20
133.7029136489235
 30
0.0
 40
0.5
100
AcDbArc
 50
0.0
 51
90.0
  0
TEXT
  5
B6CB
330
1F
100
AcDbEntity
  8
AM_6
100
AcDbText
 10
279.8865211968886
 20
242.7332473974599
 30
0.0
 40
3.2
  1
切欠推奨寸法
 41
0.99999996
100
AcDbText
  0
ARC
  5
B702
330
1F
100
AcDbEntity
  8
AM_0
100
AcDbCircle
 10
172.9324128100411
 20
324.1829725303329
 30
0.0
 40
10.0
100
AcDbArc
 50
90.0
 51
180.0
1001
GENIUS_GENODEF_13
1002
{
1000
HIER
1070
     0
1002
}
1002
{
1000
MANEDIT
1070
     0
1002
}
1002
{
1000
NOSEL
1070
     0
1002
}
1002
{
1000
BEHIND
1070
     0
1002
}
1002
{
1000
OTHER
1070
     0
1002
}
1002
{
1000
REACTOR
1002
}
1001
GENIUS_GENOBJ-N-FIL_13
1002
{
1000
OWNER
1000
GEN
1002
}
  0
ARC
  5
B703
330
1F
100
AcDbEntity
  8
AM_0
100
AcDbCircle
 10
407.932492810041
 20
324.1829725303329
 30
0.0
 40
10.0
100
AcDbArc
 50
0.0
 51
90.0
1001
GENIUS_GENODEF_13
1002
{
1000
HIER
1070
     0
1002
}
1002
{
1000
MANEDIT
1070
     0
1002
}
1002
{
1000
NOSEL
1070
     0
1002
}
1002
{
1000
BEHIND
1070
     0
1002
}
1002
{
1000
OTHER
1070
     0
1002
}
1002
{
1000
REACTOR
1002
}
1001
GENIUS_GENOBJ-N-FIL_13
1002
{
1000
OWNER
1000
GEN
1002
}
  0
ARC
  5
B704
330
1F
100
AcDbEntity
  8
AM_0
100
AcDbCircle
 10
407.9324928100409
 20
274.1829725303329
 30
0.0
 40
10.0
100
AcDbArc
 50
270.0
 51
0.0
1001
GENIUS_GENODEF_13
1002
{
1000
HIER
1070
     0
1002
}
1002
{
1000
MANEDIT
1070
     0
1002
}
1002
{
1000
NOSEL
1070
     0
1002
}
1002
{
1000
BEHIND
1070
     0
1002
}
1002
{
1000
OTHER
1070
     0
1002
}
1002
{
1000
REACTOR
1002
}
1001
GENIUS_GENOBJ-N-FIL_13
1002
{
1000
OWNER
1000
GEN
1002
}
  0
ARC
  5
B705
330
1F
100
AcDbEntity
  8
AM_0
100
AcDbCircle
 10
172.9324128100411
 20
274.1829725303329
 30
0.0
 40
10.0
100
AcDbArc
 50
180.0
 51
270.0
1001
GENIUS_GENODEF_13
1002
{
1000
HIER
1070
     0
1002
}
1002
{
1000
MANEDIT
1070
     0
1002
}
1002
{
1000
NOSEL
1070
     0
1002
}
1002
{
1000
BEHIND
1070
     0
1002
}
1002
{
1000
OTHER
1070
     0
1002
}
1002
{
1000
REACTOR
1002
}
1001
GENIUS_GENOBJ-N-FIL_13
1002
{
1000
OWNER
1000
GEN
1002
}
  0
HATCH
  5
B708
330
1F
100
AcDbEntity
  8
AM_8
100
AcDbHatch
 10
0.0
 20
0.0
 30
0.0
210
0.0
220
0.0
230
1.0
  2
_U
 70
     0
 71
     0
 91
        1
 92
        1
 93
       11
 72
     1
 10
162.9324128100411
 20
324.1829725303329
 11
162.9324128100411
 21
274.1829725303329
 72
     2
 10
172.9324128100411
 20
274.1829725303329
 40
10.0
 50
180.0
 51
270.0
 73
     1
 72
     1
 10
172.9324128100411
 20
264.1829725303329
 11
407.9324928100409
 21
264.1829725303329
 72
     2
 10
407.9324928100409
 20
274.1829725303329
 40
10.0
 50
270.0
 51
360.0
 73
     1
 72
     1
 10
417.932492810041
 20
274.1829725303329
 11
417.9324928100411
 21
324.1829725303329
 72
     2
 10
407.932492810041
 20
324.1829725303329
 40
10.0
 50
0.0000000000003257
 51
59.91843626475383
 73
     1
 72
     1
 10
412.9448160938618
 20
332.8361000168818
 11
412.9447928100411
 21
332.836072530333
 72
     1
 10
412.9447928100411
 20
332.8360725303329
 11
412.9448050695608
 21
332.8361064026978
 72
     2
 10
407.932492810041
 20
324.1829725303329
 40
10.00000000000002
 50
59.918509260984
 51
89.99999999999969
 73
     1
 72
     1
 10
407.932492810041
 20
334.1829725303329
 11
172.9324128100411
 21
334.1829725303329
 72
     2
 10
172.9324128100411
 20
324.1829725303329
 40
10.0
 50
90.0
 51
180.0
 73
     1
 97
        0
 75
     0
 76
     0
 52
45.0
 41
4.0
 77
     0
 78
     1
 53
45.0
 43
-7.299467456693491
 44
-45.44592737185607
 45
-2.828427124746189
 46
2.82842712474619
 79
     0
 98
        1
 10
-7.299467456693491
 20
-45.44592737185607
1001
GENIUS_GENODEF_13
1002
{
1000
HIER
1070
     0
1002
}
1002
{
1000
MANEDIT
1070
     0
1002
}
1002
{
1000
NOSEL
1070
     0
1002
}
1002
{
1000
BEHIND
1070
     0
1002
}
1002
{
1000
OTHER
1070
     0
1002
}
1002
{
1000
REACTOR
1002
}
1001
GENIUS_GENOBJ-N-HTC_13
1002
{
1000
OWNER
1000
GEN
1002
}
1001
GENIUS_GENHATCH_13
1002
{
1000
DATA
1040
45.0
1042
2.5
1000
_U
1070
     0
1011
303.4256493143366
1021
302.5520344797502
1031
0.0
1002
}
1002
{
1000
UCS
1010
0.0
1020
0.0
1030
0.0
1010
1.0
1020
0.0
1030
0.0
1010
0.0
1020
1.0
1030
0.0
1002
}
  0
DIMENSION
  5
B709
330
1F
100
AcDbEntity
  8
AM_5
100
AcDbDimension
  2
*D7
 10
417.932492810041
 20
252.1829725303329
 30
0.0
 11
290.432452810041
 21
255.2829725303329
 31
0.0
 70
    32
 71
     5
 42
255.0000799999999
  3
SYS$0
100
AcDbAlignedDimension
 13
162.9324128100411
 23
274.1829725303329
 33
0.0
 14
417.932492810041
 24
274.1829725303323
 34
0.0
100
AcDbRotatedDimension
1001
ACAD_DSTYLE_DIMINSPECT
1070
   396
1000
100%
1070
   395
1000

1070
   394
1070
    33
1070
   393
1070
     0
  0
DIMENSION
  5
B732
330
1F
100
AcDbEntity
  8
AM_5
100
AcDbDimension
  2
*D8
 10
429.932492810041
 20
264.1829725303329
 30
0.0
 11
426.8324928100408
 21
299.182972530333
 31
0.0
 70
    32
 71
     5
 42
70.0
  3
SYS$0
100
AcDbAlignedDimension
 13
407.932492810041
 23
334.1829725303329
 33
0.0
 14
407.9324928100409
 24
264.1829725303329
 34
0.0
 50
90.0
100
AcDbRotatedDimension
1001
ACAD_DSTYLE_DIMINSPECT
1070
   396
1000
100%
1070
   395
1000

1070
   394
1070
    33
1070
   393
1070
     0
  0
DIMENSION
  5
B763
330
1F
100
AcDbEntity
  8
AM_5
100
AcDbDimension
  2
*D9
 10
407.9324928100411
 20
324.1829725303328
 30
0.0
 11
428.6280006835725
 21
341.4869545012194
 31
0.0
 70
   164
  1
4-<>
 71
     5
 42
10.00000000000057
  3
SYS$4
100
AcDbRadialDimension
 15
414.0276101095194
 25
332.1107430306445
 35
0.0
 40
0.0
1001
ACAD_DSTYLE_DIMRADIAL_EXTENSION
1070
   387
1070
     1
1070
   388
1040
0.0
1070
   390
1040
1.570796326794896
1001
ACAD_DSTYLE_DIMINSPECT
1070
   396
1000
100%
1070
   395
1000

1070
   394
1070
    33
1070
   393
1070
     0
  0
DIMENSION
  5
B7B0
330
1F
100
AcDbEntity
  8
AM_5
100
AcDbDimension
  2
*D10
 10
398.9323928100411
 20
181.6029136489236
 30
0.0
 11
290.4324028100411
 21
184.7029136489236
 31
0.0
 70
    32
 71
     5
 42
216.9999799999999
  3
SYS$0
100
AcDbAlignedDimension
 13
181.9324128100411
 23
145.1029136489236
 33
0.0
 14
398.9323928100411
 24
145.1029136489236
 34
0.0
100
AcDbRotatedDimension
1001
ACAD_DSTYLE_DIMINSPECT
1070
   396
1000
100%
1070
   395
1000

1070
   394
1070
    33
1070
   393
1070
     0
  0
DIMENSION
  5
B7D8
330
1F
100
AcDbEntity
  8
AM_5
100
AcDbDimension
  2
*D11
 10
407.932412810041
 20
191.6029136489236
 30
0.0
 11
290.4324128100411
 21
194.7029136489236
 31
0.0
 70
    32
 71
     5
 42
235.0
  3
SYS$0
100
AcDbAlignedDimension
 13
172.9324128100411
 23
134.6029136489236
 33
0.0
 14
407.932412810041
 24
134.6029136489236
 34
0.0
100
AcDbRotatedDimension
1001
ACAD_DSTYLE_DIMINSPECT
1070
   396
1000
100%
1070
   395
1000

1070
   394
1070
    33
1070
   393
1070
     0
  0
DIMENSION
  5
B874
330
1F
100
AcDbEntity
  8
AM_5
100
AcDbDimension
  2
*D12
 10
422.932392810041
 20
201.6029136489236
 30
0.0
 11
290.432402810041
 21
204.7029136489237
 31
0.0
 70
    32
 71
     5
 42
264.9999800000001
  3
SYS$0
100
AcDbAlignedDimension
 13
157.932412810041
 23
168.1029136489236
 33
0.0
 14
422.932392810041
 24
168.1029136489236
 34
0.0
100
AcDbRotatedDimension
1001
ACAD_DSTYLE_DIMINSPECT
1070
   396
1000
100%
1070
   395
1000

1070
   394
1070
    33
1070
   393
1070
     0
  0
DIMENSION
  5
B95B
330
1F
100
AcDbEntity
  8
AM_5
100
AcDbDimension
  2
*D13
 10
434.932392810041
 20
112.1029136489236
 30
0.0
 11
434.932392810041
 21
129.7969498459244
 31
0.0
 70
   160
 71
     5
 42
35.0
  3
SYS$0
100
AcDbAlignedDimension
 13
396.932392810041
 23
147.1029136489236
 33
0.0
 14
396.932392810041
 24
112.1029136489236
 34
0.0
 50
90.0
100
AcDbRotatedDimension
1001
ACAD_DSTYLE_DIMINSPECT
1070
   396
1000
100%
1070
   395
1000

1070
   394
1070
    33
1070
   393
1070
     0
  0
DIMENSION
  5
BA1F
330
1F
100
AcDbEntity
  8
AM_5
100
AcDbDimension
  2
*D14
 10
444.932392810041
 20
169.6029136489236
 30
0.0
 11
441.8323928100409
 21
129.6029136489237
 31
0.0
 70
    32
 71
     5
 42
79.99999999999999
  3
SYS$0
100
AcDbAlignedDimension
 13
421.4323928100411
 23
89.60291364892364
 33
0.0
 14
421.4323928100411
 24
169.6029136489236
 34
0.0
 50
90.0
100
AcDbRotatedDimension
1001
ACAD_DSTYLE_DIMINSPECT
1070
   396
1000
100%
1070
   395
1000

1070
   394
1070
    33
1070
   393
1070
     0
  0
DIMENSION
  5
BA50
330
1F
100
AcDbEntity
  8
AM_5
100
AcDbDimension
  2
*D15
 10
491.5318888241391
 20
181.6029136489236
 30
0.0
 11
487.2852221574724
 21
184.7029136489236
 31
0.0
 70
    32
 71
     5
 42
3.0
  3
SYS$0
100
AcDbAlignedDimension
 13
494.5318888241391
 23
169.6029136489236
 33
0.0
 14
491.5318888241391
 24
169.6029136489236
 34
0.0
100
AcDbRotatedDimension
1001
ACAD_DSTYLE_DIMINSPECT
1070
   396
1000
100%
1070
   395
1000

1070
   394
1070
    33
1070
   393
1070
     0
  0
DIMENSION
  5
BA80
330
1F
100
AcDbEntity
  8
AM_5
100
AcDbDimension
  2
*D16
 10
504.5318888241391
 20
181.6029136489236
 30
0.0
 11
499.5318888241391
 21
184.7029136489236
 31
0.0
 70
    32
 71
     5
 42
10.0
  3
SYS$0
100
AcDbAlignedDimension
 13
494.5318888241391
 23
169.6029136489236
 33
0.0
 14
504.5318888241391
 24
134.2029136489235
 34
0.0
100
AcDbRotatedDimension
1001
ACAD_DSTYLE_DIMINSPECT
1070
   396
1000
100%
1070
   395
1000

1070
   394
1070
    33
1070
   393
1070
     0
  0
LINE
  5
C057
330
1F
100
AcDbEntity
  8
AM_7
 48
0.5
100
AcDbLine
 10
419.9324528100411
 20
299.1829725303333
 30
0.0
 11
160.9324528100411
 21
299.1829725303329
 31
0.0
1001
GENIUS_GENOBJ-N-CEN_13
1002
{
1000
OWNER
1000
GEN
1002
}
1001
GENIUS_GENODEF_13
1002
{
1000
HIER
1070
     0
1002
}
1002
{
1000
MANEDIT
1070
     0
1002
}
1002
{
1000
NOSEL
1070
     0
1002
}
1002
{
1000
BEHIND
1070
     0
1002
}
1002
{
1000
OTHER
1070
     0
1002
}
1002
{
1000
REACTOR
1002
}
1001
GENIUS_GENCEN_19
1002
{
1040
3.0
1002
}
  0
LINE
  5
C058
330
1F
100
AcDbEntity
  8
AM_7
  6
CENTER
100
AcDbLine
 10
290.4324528100411
 20
262.1829725303329
 30
0.0
 11
290.4324528100411
 21
336.1829725303329
 31
0.0
  0
INSERT
  5
C059
330
1F
100
AcDbEntity
  8
AM_5
100
AcDbBlockReference
  2
*S24
 10
0.0
 20
0.0
 30
0.0
  0
LINE
  5
C070
330
1F
100
AcDbEntity
  8
AM_7
  6
CENTER
100
AcDbLine
 10
290.432402810041
 20
87.60291364892092
 30
0.0
 11
290.4324028100401
 21
171.6029136489213
 31
0.0
  0
INSERT
  5
C071
330
1F
100
AcDbEntity
  8
AM_5
100
AcDbBlockReference
  2
*S25
 10
0.0
 20
0.0
 30
0.0
  0
LINE
  5
C08E
330
1F
100
AcDbEntity
  8
AM_7
 48
0.5
100
AcDbLine
 10
172.9324128100411
 20
134.6029136489236
 30
0.0
 11
172.9324128100411
 21
124.6029136489236
 31
0.0
  0
CIRCLE
  5
C08F
330
1F
100
AcDbEntity
  8
AM_3
 48
0.5
100
AcDbCircle
 10
172.9324128100411
 20
129.6029136489236
 30
0.0
 40
1.649999999999999
  0
CIRCLE
  5
C090
330
1F
100
AcDbEntity
  8
AM_3
 48
0.5
100
AcDbCircle
 10
172.9324128100411
 20
129.6029136489236
 30
0.0
 40
2.0
  0
DIMENSION
  5
C091
330
1F
100
AcDbEntity
  8
AM_5
100
AcDbDimension
  2
*D21
 10
174.5261539189164
 20
128.394613488413
 30
0.0
 11
142.0444248540502
 21
144.9533617512928
 31
0.0
 70
   163
  1
2-M4タップ{  }  }
 71
     5
 42
4.000000000003566
  3
SYS$3
100
AcDbDiametricDimension
 15
171.3386717011649
 25
130.8112138094315
 35
0.0
 40
0.0
1001
ACAD
1000
DSTYLE
1002
{
1070
   172
1070
     1
1070
   342
1005
BC5B
1002
}
  0
LINE
  5
C092
330
1F
100
AcDbEntity
  8
AM_7
 48
0.5
100
AcDbLine
 10
407.932412810041
 20
134.6029136489236
 30
0.0
 11
407.932412810041
 21
124.6029136489236
 31
0.0
  0
CIRCLE
  5
C093
330
1F
100
AcDbEntity
  8
AM_3
 48
0.5
100
AcDbCircle
 10
407.932412810041
 20
129.6029136489236
 30
0.0
 40
1.649999999999999
  0
CIRCLE
  5
C094
330
1F
100
AcDbEntity
  8
AM_3
 48
0.5
100
AcDbCircle
 10
407.932412810041
 20
129.6029136489236
 30
0.0
 40
2.0
  0
LINE
  5
C0E1
330
1F
100
AcDbEntity
  8
AM_0
100
AcDbLine
 10
19.50000026673467
 20
407.2499999021893
 30
0.0
 11
129.5000002667346
 21
407.2499999021893
 31
0.0
  0
LINE
  5
C0E2
330
1F
100
AcDbEntity
  8
AM_2
100
AcDbLine
 10
19.50000026673467
 20
383.2499999021893
 30
0.0
 11
129.5000002667346
 21
383.2499999021893
 31
0.0
  0
LINE
  5
C0E3
330
1F
100
AcDbEntity
  8
AM_2
100
AcDbLine
 10
19.50000026673467
 20
391.2499999021893
 30
0.0
 11
129.5000002667346
 21
391.2499999021893
 31
0.0
  0
LINE
  5
C0E4
330
1F
100
AcDbEntity
  8
AM_2
100
AcDbLine
 10
19.50000026673467
 20
399.2499999021893
 30
0.0
 11
129.5000002667346
 21
399.2499999021893
 31
0.0
  0
LINE
  5
C0E5
330
1F
100
AcDbEntity
  8
AM_2
100
AcDbLine
 10
39.50000026673468
 20
407.2499999021893
 30
0.0
 11
39.50000026673649
 21
343.2499999021893
 31
0.0
  0
MTEXT
  5
C0E6
330
1F
100
AcDbEntity
  8
AM_6
100
AcDbMText
 10
29.50000026673468
 20
379.2499999021893
 30
0.0
 40
3.2
 41
20.0
 71
     5
 72
     5
  1
仕上げ
 73
     1
 44
1.0
1001
ACAD
1000
MTEXTBEGIN
1070
    73
1070
     1
1070
    44
1040
1.0
1070
    74
1070
     0
1000
MTEXTEND
  0
MTEXT
  5
C0E7
330
1F
100
AcDbEntity
  8
AM_6
100
AcDbMText
 10
29.50000026673468
 20
387.2499999021893
 30
0.0
 40
3.2
 41
20.0
 71
     5
 72
     5
  1
材　質
 73
     1
 44
1.0
1001
ACAD
1000
MTEXTBEGIN
1070
    73
1070
     1
1070
    44
1040
1.0
1070
    74
1070
     0
1000
MTEXTEND
  0
MTEXT
  5
C0E8
330
1F
100
AcDbEntity
  8
AM_6
100
AcDbMText
 10
29.50000026673468
 20
403.2499999021893
 30
0.0
 40
3.2
 41
20.0
 71
     5
 72
     5
  1
品　名
 73
     1
 44
1.0
1001
ACAD
1000
MTEXTBEGIN
1070
    73
1070
     1
1070
    44
1040
1.0
1070
    74
1070
     0
1000
MTEXTEND
  0
MTEXT
  5
C0E9
330
1F
100
AcDbEntity
  8
AM_6
100
AcDbMText
 10
29.50000026673468
 20
395.2499999021893
 30
0.0
 40
3.2
 41
20.0
 71
     5
 72
     5
  1
品　番
 73
     1
 44
1.0
1001
ACAD
1000
MTEXTBEGIN
1070
    73
1070
     1
1070
    44
1040
1.0
1070
    74
1070
     0
1000
MTEXTEND
  0
MTEXT
  5
C0EA
330
1F
100
AcDbEntity
  8
AM_6
100
AcDbMText
 10
39.50000026673468
 20
379.2499999021893
 30
0.0
 40
3.2
 41
90.0
 71
     4
 72
     5
  1
　ヘアーライン
 73
     1
 44
1.0
1001
ACAD
1000
MTEXTBEGIN
1070
    73
1070
     1
1070
    44
1040
1.0
1070
    74
1070
     0
1000
MTEXTEND
  0
MTEXT
  5
C0EB
330
1F
100
AcDbEntity
  8
AM_6
100
AcDbMText
 10
39.50000026673468
 20
387.2499999021893
 30
0.0
 40
3.2
 41
90.0
 71
     4
 72
     5
  1
　ステンレス
 73
     1
 44
1.0
1001
ACAD
1000
MTEXTBEGIN
1070
    73
1070
     1
1070
    44
1040
1.0
1070
    74
1070
     0
1000
MTEXTEND
  0
MTEXT
  5
C0EC
330
1F
100
AcDbEntity
  8
AM_6
100
AcDbMText
 10
39.50000026673468
 20
395.2499999021893
 30
0.0
 40
3.2
 41
90.0
 71
     4
 72
     5
  1
　DP-85
 73
     1
 44
1.0
1001
ACAD
1000
MTEXTBEGIN
1070
    73
1070
     1
1070
    44
1040
1.0
1070
    74
1070
     0
1000
MTEXTEND
  0
MTEXT
  5
C0ED
330
1F
100
AcDbEntity
  8
AM_6
100
AcDbMText
 10
39.50000026673468
 20
403.2499999021893
 30
0.0
 40
3.2
 41
90.0
 71
     4
 72
     5
  1
　ポスト口
 73
     1
 44
1.0
1001
ACAD
1000
MTEXTBEGIN
1070
    73
1070
     1
1070
    44
1040
1.0
1070
    74
1070
     0
1000
MTEXTEND
  0
LINE
  5
C0EE
330
1F
100
AcDbEntity
  8
AM_0
100
AcDbLine
 10
129.5000002667346
 20
407.2499999021893
 30
0.0
 11
129.5000002667365
 21
343.2499999021893
 31
0.0
  0
LINE
  5
C0EF
330
1F
100
AcDbEntity
  8
AM_0
100
AcDbLine
 10
19.50000026673376
 20
343.2499999021893
 30
0.0
 11
129.5000002667337
 21
343.2499999021893
 31
0.0
  0
MTEXT
  5
C0F0
330
1F
100
AcDbEntity
  8
AM_6
100
AcDbMText
 10
29.50000026673468
 20
371.2499999021893
 30
0.0
 40
3.2
 41
20.0
 71
     5
 72
     5
  1
セットビス
 73
     1
 44
1.0
1001
ACAD
1000
MTEXTBEGIN
1070
    73
1070
     1
1070
    44
1040
1.0
1070
    74
1070
     0
1000
MTEXTEND
  0
LINE
  5
C0F1
330
1F
100
AcDbEntity
  8
AM_2
100
AcDbLine
 10
19.50000026673467
 20
375.2499999021893
 30
0.0
 11
129.5000002667346
 21
375.2499999021893
 31
0.0
  0
MTEXT
  5
C0F2
330
1F
100
AcDbEntity
  8
AM_6
100
AcDbMText
 10
39.50000026673468
 20
371.2499999021893
 30
0.0
 40
3.2
 41
90.0
 71
     4
 72
     5
  1
　M4×16 ナベ小ネジ + Fe：２本
 73
     1
 44
1.0
1001
ACAD
1000
MTEXTBEGIN
1070
    73
1070
     1
1070
    44
1040
1.0
1070
    74
1070
     0
1000
MTEXTEND
  0
CIRCLE
  5
C0F3
330
1F
100
AcDbEntity
  8
AM_6
 48
0.5
100
AcDbCircle
 10
71.29280711941999
 20
371.0088805726191
 30
0.0
 40
1.916990197049926
  0
MTEXT
  5
C0F4
330
1F
100
AcDbEntity
  8
AM_6
100
AcDbMText
 10
39.50000026673468
 20
363.2499999021893
 30
0.0
 40
3.2
 41
90.0
 71
     4
 72
     5
  1
　M4×25 ナベ小ネジ + Fe：２本
 73
     1
 44
1.0
1001
ACAD
1000
MTEXTBEGIN
1070
    73
1070
     1
1070
    44
1040
1.0
1070
    74
1070
     0
1000
MTEXTEND
  0
CIRCLE
  5
C0F5
330
1F
100
AcDbEntity
  8
AM_6
 48
0.5
100
AcDbCircle
 10
71.29280711941999
 20
363.0088805726191
 30
0.0
 40
1.916990197049926
  0
LINE
  5
C0F6
330
1F
100
AcDbEntity
  8
AM_2
100
AcDbLine
 10
39.50000026673468
 20
367.2499999021893
 30
0.0
 11
129.5000002667346
 21
367.2499999021893
 31
0.0
  0
MTEXT
  5
C0F7
330
1F
100
AcDbEntity
  8
AM_6
100
AcDbMText
 10
29.50000026673559
 20
355.2499999021893
 30
0.0
 40
3.2
 41
20.0
 71
     5
 72
     5
  1
備　考
 73
     1
 44
1.0
1001
ACAD
1000
MTEXTBEGIN
1070
    73
1070
     1
1070
    44
1040
1.0
1070
    74
1070
     0
1000
MTEXTEND
  0
LINE
  5
C0F8
330
1F
100
AcDbEntity
  8
AM_2
100
AcDbLine
 10
19.50000026673558
 20
359.2499999021893
 30
0.0
 11
129.5000002667356
 21
359.2499999021893
 31
0.0
  0
LINE
  5
C0F9
330
1F
100
AcDbEntity
  8
AM_2
100
AcDbLine
 10
39.50000026673559
 20
351.2499999021893
 30
0.0
 11
129.5000002667356
 21
351.2499999021893
 31
0.0
  0
MTEXT
  5
C0FA
330
1F
100
AcDbEntity
  8
AM_6
100
AcDbMText
 10
39.50000026673468
 20
355.2499999021893
 30
0.0
 40
3.2
 41
90.0
 71
     4
 72
     5
  1
　※ポストガイド DP-78 、ポストフード DP-79
 73
     1
 44
1.0
1001
ACAD
1000
MTEXTBEGIN
1070
    73
1070
     1
1070
    44
1040
1.0
1070
    74
1070
     0
1000
MTEXTEND
  0
MTEXT
  5
C0FB
330
1F
100
AcDbEntity
  8
AM_6
100
AcDbMText
 10
39.50000026673468
 20
347.2499999021893
 30
0.0
 40
3.2
 41
90.0
 71
     4
 72
     5
  1
　　郵便受箱 DP-67A ・68N　を御使用下さい。
 73
     1
 44
1.0
1001
ACAD
1000
MTEXTBEGIN
1070
    73
1070
     1
1070
    44
1040
1.0
1070
    74
1070
     0
1000
MTEXTEND
  0
LINE
  5
C0FD
330
1F
100
AcDbEntity
  8
AM_2
100
AcDbLine
 10
39.50000026673468
 20
343.2499999021893
 30
0.0
 11
129.5000002667346
 21
343.2499999021893
 31
0.0
  0
ENDSEC
  0
SECTION
  2
OBJECTS
  0
DICTIONARY
  5
C
330
0
100
AcDbDictionary
281
     1
  3
ACAD_2007HEADERVARS_RT
350
C155
  3
ACAD_BGPLOT_KEY
350
AB06
  3
ACAD_COLOR
350
A91D
  3
ACAD_GROUP
350
D
  3
ACAD_LAYOUT
350
1A
  3
ACAD_MATERIAL
350
A91C
  3
ACAD_MLEADERSTYLE
350
B3AD
  3
ACAD_MLINESTYLE
350
17
  3
ACAD_PLOTSETTINGS
350
19
  3
ACAD_PLOTSTYLENAME
350
E
  3
ACAD_SCALELIST
350
B38B
  3
ACAD_TABLESTYLE
350
AAB9
  3
ACAD_VISUALSTYLE
350
B0F1
  3
AcAsAppObject
350
3DA1
  3
ACASGREF_MASTER
350
3DE9
  3
ACDB_RECOMPOSE_DATA
350
B3DD
  3
AcDbVariableDictionary
350
34
  3
AcmDictionary
350
47
  3
AD_GREF_MODULE
350
3DEA
  3
AD_MAPI_MODULE
350
3E06
  3
AMG
350
2B
  3
AMGSNAPSETTINGS
350
7D
  3
ASE_INDEX_DICTIONARY
350
B331
  3
DWGPROPS
350
C154
  3
MAPISURF_MODULE
350
3DEB
  0
DICTIONARY
  5
3F95
330
2
100
AcDbDictionary
280
     1
281
     1
  3
ACAD_LAYERFILTERS
360
B313
  3
ACAD_LAYERSTATES
360
3F96
  3
ACLYDICTIONARY
360
B312
  3
AMLAYER_GROUPCOLORS
360
AAB4
  0
DICTIONARY
  5
BBED
330
10
100
AcDbDictionary
280
     1
281
     1
  3
ADSK_XREC_LAYER_RECONCILED
360
BBEE
  0
DICTIONARY
  5
BBEF
330
5F85
100
AcDbDictionary
280
     1
281
     1
  3
ADSK_XREC_LAYER_RECONCILED
360
BBF0
  0
DICTIONARY
  5
BBF1
330
AC9F
100
AcDbDictionary
280
     1
281
     1
  3
ADSK_XREC_LAYER_RECONCILED
360
BBF2
  0
DICTIONARY
  5
BBF3
330
ACA0
100
AcDbDictionary
280
     1
281
     1
  3
ADSK_XREC_LAYER_RECONCILED
360
BBF4
  0
DICTIONARY
  5
BBF5
330
ACA1
100
AcDbDictionary
280
     1
281
     1
  3
ADSK_XREC_LAYER_RECONCILED
360
BBF6
  0
DICTIONARY
  5
BBF7
330
ACC8
100
AcDbDictionary
280
     1
281
     1
  3
ADSK_XREC_LAYER_RECONCILED
360
BBF8
  0
DICTIONARY
  5
BBF9
330
ACC9
100
AcDbDictionary
280
     1
281
     1
  3
ADSK_XREC_LAYER_RECONCILED
360
BBFA
  0
DICTIONARY
  5
BBFB
330
ACCA
100
AcDbDictionary
280
     1
281
     1
  3
ADSK_XREC_LAYER_RECONCILED
360
BBFC
  0
DICTIONARY
  5
BBFD
330
AD60
100
AcDbDictionary
280
     1
281
     1
  3
ADSK_XREC_LAYER_RECONCILED
360
BBFE
  0
DICTIONARY
  5
BBFF
330
AD64
100
AcDbDictionary
280
     1
281
     1
  3
ADSK_XREC_LAYER_RECONCILED
360
BC00
  0
DICTIONARY
  5
BC01
330
AD67
100
AcDbDictionary
280
     1
281
     1
  3
ADSK_XREC_LAYER_RECONCILED
360
BC02
  0
DICTIONARY
  5
BC03
330
AD68
100
AcDbDictionary
280
     1
281
     1
  3
ADSK_XREC_LAYER_RECONCILED
360
BC04
  0
DICTIONARY
  5
BC05
330
AD69
100
AcDbDictionary
280
     1
281
     1
  3
ADSK_XREC_LAYER_RECONCILED
360
BC06
  0
DICTIONARY
  5
BC07
330
AD6A
100
AcDbDictionary
280
     1
281
     1
  3
ADSK_XREC_LAYER_RECONCILED
360
BC08
  0
DICTIONARY
  5
BC09
330
AD6E
100
AcDbDictionary
280
     1
281
     1
  3
ADSK_XREC_LAYER_RECONCILED
360
BC0A
  0
DICTIONARY
  5
BC0B
330
AD6F
100
AcDbDictionary
280
     1
281
     1
  3
ADSK_XREC_LAYER_RECONCILED
360
BC0C
  0
DICTIONARY
  5
BC0D
330
B1B6
100
AcDbDictionary
280
     1
281
     1
  3
ADSK_XREC_LAYER_RECONCILED
360
BC0E
  0
DICTIONARY
  5
BC0F
330
B2EB
100
AcDbDictionary
280
     1
281
     1
  3
ADSK_XREC_LAYER_RECONCILED
360
BC10
  0
DICTIONARY
  5
BC11
330
B2EC
100
AcDbDictionary
280
     1
281
     1
  3
ADSK_XREC_LAYER_RECONCILED
360
BC12
  0
DICTIONARY
  5
BC13
330
B707
100
AcDbDictionary
280
     1
281
     1
  3
ADSK_XREC_LAYER_RECONCILED
360
BC14
  0
DICTIONARY
  5
8A
330
1F
100
AcDbDictionary
280
     1
281
     1
  3
ACAD_SORTENTS
360
B1BA
  0
DICTIONARY
  5
C061
330
C05B
100
AcDbDictionary
280
     1
281
     1
  3
ACAD_SORTENTS
360
C062
  0
DICTIONARY
  5
C088
330
C080
100
AcDbDictionary
280
     1
281
     1
  3
ACAD_SORTENTS
360
C089
  0
DICTIONARY
  5
C155
102
{ACAD_REACTORS
330
C
102
}
330
C
100
AcDbDictionary
281
     1
  3
DIMARCSYM
350
C156
  0
DICTIONARY
  5
AB06
102
{ACAD_REACTORS
330
C
102
}
330
C
100
AcDbDictionary
280
     1
281
     1
  0
DICTIONARY
  5
A91D
102
{ACAD_REACTORS
330
C
102
}
330
C
100
AcDbDictionary
281
     1
  0
DICTIONARY
  5
D
102
{ACAD_REACTORS
330
C
102
}
330
C
100
AcDbDictionary
281
     1
  0
DICTIONARY
  5
1A
102
{ACAD_REACTORS
330
C
102
}
330
C
100
AcDbDictionary
281
     1
  3
Model
350
22
  3
ﾚｲｱｳﾄ1
350
1E
  3
ﾚｲｱｳﾄ2
350
26
  0
DICTIONARY
  5
A91C
102
{ACAD_REACTORS
330
C
102
}
330
C
100
AcDbDictionary
281
     1
  3
ByBlock
350
B0EF
  3
ByLayer
350
B0EE
  3
Global
350
B0F0
  0
DICTIONARY
  5
B3AD
102
{ACAD_REACTORS
330
C
102
}
330
C
100
AcDbDictionary
281
     1
  3
Standard
350
B3AE
  0
DICTIONARY
  5
17
102
{ACAD_REACTORS
330
C
102
}
330
C
100
AcDbDictionary
281
     1
  3
Standard
350
18
  0
DICTIONARY
  5
19
102
{ACAD_REACTORS
330
C
102
}
330
C
100
AcDbDictionary
281
     1
  0
ACDBDICTIONARYWDFLT
  5
E
102
{ACAD_REACTORS
330
C
102
}
330
C
100
AcDbDictionary
281
     1
  3
Normal
350
F
100
AcDbDictionaryWithDefault
340
F
  0
DICTIONARY
  5
B38B
102
{ACAD_REACTORS
330
C
102
}
330
C
100
AcDbDictionary
281
     1
  3
A0
350
B38C
  3
A1
350
B38D
  3
A2
350
B38E
  3
A3
350
B38F
  3
A4
350
B390
  3
A5
350
B391
  3
A6
350
B392
  3
A7
350
B393
  3
A8
350
B394
  3
A9
350
B395
  3
B0
350
B396
  3
B1
350
B397
  3
B2
350
B398
  3
B3
350
B399
  3
B4
350
B39A
  3
B5
350
B39B
  3
B6
350
B39C
  3
B7
350
B39D
  3
B8
350
B39E
  3
B9
350
B39F
  3
C0
350
B3A0
  3
C1
350
B3A1
  3
C2
350
B3A2
  3
C3
350
B3A3
  3
C4
350
B3A4
  3
C5
350
B3A5
  3
C6
350
B3A6
  3
C7
350
B3A7
  3
C8
350
B3A8
  3
C9
350
B3A9
  3
D0
350
B3AA
  3
D1
350
B3AB
  3
D2
350
B3AC
  0
DICTIONARY
  5
AAB9
102
{ACAD_REACTORS
330
C
102
}
330
C
100
AcDbDictionary
281
     1
  3
Standard
350
AABA
  0
DICTIONARY
  5
B0F1
102
{ACAD_REACTORS
330
C
102
}
330
C
100
AcDbDictionary
281
     1
  3
2dWireframe
350
B0F7
  3
3D Hidden
350
B0F9
  3
3dWireframe
350
B0F8
  3
Basic
350
B0F6
  3
Brighten
350
B0FD
  3
ColorChange
350
B101
  3
Conceptual
350
B0FA
  3
Dim
350
B0FC
  3
Facepattern
350
B100
  3
Flat
350
B0F2
  3
FlatWithEdges
350
B0F3
  3
Gouraud
350
B0F4
  3
GouraudWithEdges
350
B0F5
  3
Linepattern
350
B0FF
  3
Realistic
350
B0FB
  3
Thicken
350
B0FE
  0
ACAD_PROXY_OBJECT
  5
3DA1
102
{ACAD_REACTORS
330
C
102
}
330
C
100
AcDbProxyObject
 90
      499
 91
      576
 95
       23
 70
     0
 93
       10
310
407F
 94
        0
1001
ACAD
1000
AcRTDxfName
1000
ASAPP
  0
ACAD_PROXY_OBJECT
  5
3DE9
102
{ACAD_REACTORS
330
C
102
}
330
C
100
AcDbProxyObject
 90
      499
 91
      581
 95
       23
 70
     0
 93
       34
310
010000407F
 94
        0
1001
ACAD
1000
AcRTDxfName
1000
ACASGREFMASTER
  0
XRECORD
  5
B3DD
102
{ACAD_REACTORS
330
C
102
}
330
C
100
AcDbXrecord
280
     1
 90
        1
330
AABA
  0
DICTIONARY
  5
34
102
{ACAD_REACTORS
330
C
102
}
330
C
100
AcDbDictionary
281
     1
  3
CANNOSCALE
350
B3E0
  3
CMLEADERSTYLE
350
B3DE
  3
CTABLESTYLE
350
AAF3
  3
DIMASSOC
350
A10C
  3
FIELDEVAL
350
AB07
  3
INDEXCTL
350
35
  3
LIGHTINGUNITS
350
B3E1
  3
MSLTSCALE
350
B3DF
  3
SORTENTS
350
194C
  0
DICTIONARY
  5
47
102
{ACAD_REACTORS
330
C
102
}
330
C
100
AcDbDictionary
281
     1
  3
AcmBOM
350
7E8
  3
AcmStdDictionary
350
4C
  3
AMDTSECTSYM_ARROWCOLOR
350
A929
  0
ACAD_PROXY_OBJECT
  5
3DEA
102
{ACAD_REACTORS
330
C
102
}
330
C
100
AcDbProxyObject
 90
      499
 91
      582
 95
       23
 70
     0
 93
      114
310
00000043800000000000000000003F
 94
        0
1001
ACAD
1000
AcRTDxfName
1000
ACADGREFMODULE
  0
ACAD_PROXY_OBJECT
  5
3E06
102
{ACAD_REACTORS
330
C
102
}
330
C
100
AcDbProxyObject
 90
      499
 91
      594
 95
       23
 70
     0
 93
       34
310
05000044FF
 94
        0
1001
ACAD
1000
AcRTDxfName
1000
MAPIADMODULE
  0
DICTIONARY
  5
2B
102
{ACAD_REACTORS
330
C
102
}
330
C
100
AcDbDictionary
281
     1
  0
DICTIONARY
  5
7D
102
{ACAD_REACTORS
330
C
102
}
330
C
100
AcDbDictionary
281
     1
  0
DICTIONARY
  5
B331
102
{ACAD_REACTORS
330
C
102
}
330
C
100
AcDbDictionary
281
     1
  3
ASEBlockHierarchyIndexRecord
350
B332
1001
DCO15
1040
1594111214.218
  0
XRECORD
  5
C154
102
{ACAD_REACTORS
330
C
102
}
330
C
100
AcDbXrecord
280
     1
  1
DWGPROPS COOKIE
  2

  3

  4

  6

  7

  8
Administrator
  9

300
AmdtFileType=84
301
=
302
=
303
=
304
=
305
=
306
=
307
=
308
=
309
=
 40
0.2018375810185185
 41
2455306.693284676
 42
2456272.803759213
  1

 90
        1
  0
ACAD_PROXY_OBJECT
  5
3DEB
102
{ACAD_REACTORS
330
C
102
}
330
C
100
AcDbProxyObject
 90
      499
 91
      583
 95
       23
 70
     0
 93
        8
310
047E
 94
        0
1001
ACAD
1000
AcRTDxfName
1000
AMDTMAPISURFMOUDULE
  0
DICTIONARY
  5
B313
102
{ACAD_REACTORS
330
3F95
102
}
330
3F95
100
AcDbDictionary
281
     1
  0
DICTIONARY
  5
3F96
102
{ACAD_REACTORS
330
3F95
102
}
330
3F95
100
AcDbDictionary
281
     1
  3
20011210
350
3FB7
  0
DICTIONARY
  5
B312
102
{ACAD_REACTORS
330
3F95
102
}
330
3F95
100
AcDbDictionary
281
     1
1001
ACAD
1000
<All
  0
DICTIONARY
  5
AAB4
102
{ACAD_REACTORS
330
3F95
102
}
330
3F95
100
AcDbDictionary
280
     1
281
     1
  0
XRECORD
  5
BBEE
102
{ACAD_REACTORS
330
BBED
102
}
330
BBED
100
AcDbXrecord
280
     1
290
     1
  0
XRECORD
  5
BBF0
102
{ACAD_REACTORS
330
BBEF
102
}
330
BBEF
100
AcDbXrecord
280
     1
290
     1
  0
XRECORD
  5
BBF2
102
{ACAD_REACTORS
330
BBF1
102
}
330
BBF1
100
AcDbXrecord
280
     1
290
     1
  0
XRECORD
  5
BBF4
102
{ACAD_REACTORS
330
BBF3
102
}
330
BBF3
100
AcDbXrecord
280
     1
290
     1
  0
XRECORD
  5
BBF6
102
{ACAD_REACTORS
330
BBF5
102
}
330
BBF5
100
AcDbXrecord
280
     1
290
     1
  0
XRECORD
  5
BBF8
102
{ACAD_REACTORS
330
BBF7
102
}
330
BBF7
100
AcDbXrecord
280
     1
290
     1
  0
XRECORD
  5
BBFA
102
{ACAD_REACTORS
330
BBF9
102
}
330
BBF9
100
AcDbXrecord
280
     1
290
     1
  0
XRECORD
  5
BBFC
102
{ACAD_REACTORS
330
BBFB
102
}
330
BBFB
100
AcDbXrecord
280
     1
290
     1
  0
XRECORD
  5
BBFE
102
{ACAD_REACTORS
330
BBFD
102
}
330
BBFD
100
AcDbXrecord
280
     1
290
     1
  0
XRECORD
  5
BC00
102
{ACAD_REACTORS
330
BBFF
102
}
330
BBFF
100
AcDbXrecord
280
     1
290
     1
  0
XRECORD
  5
BC02
102
{ACAD_REACTORS
330
BC01
102
}
330
BC01
100
AcDbXrecord
280
     1
290
     1
  0
XRECORD
  5
BC04
102
{ACAD_REACTORS
330
BC03
102
}
330
BC03
100
AcDbXrecord
280
     1
290
     1
  0
XRECORD
  5
BC06
102
{ACAD_REACTORS
330
BC05
102
}
330
BC05
100
AcDbXrecord
280
     1
290
     1
  0
XRECORD
  5
BC08
102
{ACAD_REACTORS
330
BC07
102
}
330
BC07
100
AcDbXrecord
280
     1
290
     1
  0
XRECORD
  5
BC0A
102
{ACAD_REACTORS
330
BC09
102
}
330
BC09
100
AcDbXrecord
280
     1
290
     1
  0
XRECORD
  5
BC0C
102
{ACAD_REACTORS
330
BC0B
102
}
330
BC0B
100
AcDbXrecord
280
     1
290
     1
  0
XRECORD
  5
BC0E
102
{ACAD_REACTORS
330
BC0D
102
}
330
BC0D
100
AcDbXrecord
280
     1
290
     1
  0
XRECORD
  5
BC10
102
{ACAD_REACTORS
330
BC0F
102
}
330
BC0F
100
AcDbXrecord
280
     1
290
     1
  0
XRECORD
  5
BC12
102
{ACAD_REACTORS
330
BC11
102
}
330
BC11
100
AcDbXrecord
280
     1
290
     1
  0
XRECORD
  5
BC14
102
{ACAD_REACTORS
330
BC13
102
}
330
BC13
100
AcDbXrecord
280
     1
290
     1
  0
SORTENTSTABLE
  5
B1BA
102
{ACAD_REACTORS
330
8A
102
}
330
8A
100
AcDbSortentsTable
330
1F
331
B5E0
  5
B5E0
331
B696
  5
B6B2
331
B5E8
  5
B5E8
331
B6A6
  5
B6BA
331
B64F
  5
B66F
331
B608
  5
B61A
331
B66F
  5
B677
331
B618
  5
B61B
331
B5C1
  5
B5C1
331
B677
  5
B67F
331
B5C9
  5
B5C9
331
B628
  5
B62C
331
B5D9
  5
B5D9
331
B630
  5
B64C
331
B5E1
  5
B5E1
331
B697
  5
B6B3
331
B5E9
  5
B5E9
331
B648
  5
B668
331
B601
  5
B601
331
B69F
  5
B6B5
331
B5B2
  5
B5B2
331
B6A7
  5
B6BB
331
B668
  5
B670
331
B5BA
  5
B5BA
331
B670
  5
B678
331
B678
  5
B680
331
B5CA
  5
B5CA
331
B5D2
  5
B5D2
331
B629
  5
B62D
331
B631
  5
B64E
331
B5E2
  5
B5E2
331
B698
  5
B6B4
331
B5EA
  5
B5EA
331
B649
  5
B669
331
B602
  5
B602
331
B669
  5
B671
331
B671
  5
B679
331
B61A
  5
B626
331
B708
  5
BB89
331
B679
  5
B688
331
B62A
  5
B62E
331
B5D3
  5
B5D3
331
B5DB
  5
B5DB
331
BA1F
  5
BE57
331
B5EB
  5
B5EB
331
B64A
  5
B66A
331
B603
  5
B603
331
B5B4
  5
B5B4
331
B7B0
  5
BC79
331
B66A
  5
B672
331
B7D8
  5
BC7C
331
B672
  5
B67A
331
B61B
  5
B628
331
B5C4
  5
B5C4
331
B709
  5
BC75
331
B67A
  5
B689
331
B5CC
  5
B5CC
331
B62B
  5
B62F
331
B68A
  5
B6B0
331
B5DC
  5
B5DC
331
BA50
  5
BE58
331
B5EC
  5
B5EC
331
BA80
  5
BE59
331
B64B
  5
B66B
331
B604
  5
B604
331
B5B5
  5
B5B5
331
B66B
  5
B673
331
B5BD
  5
B5BD
331
B702
  5
B6AC
331
B673
  5
B67B
331
B67B
  5
B69A
331
B5CD
  5
B5CD
331
B62C
  5
B631
331
B732
  5
BC76
331
B644
  5
B64F
331
B5ED
  5
B5ED
331
B64C
  5
B66C
331
B605
  5
B605
331
B6CB
  5
BB88
331
B66C
  5
B674
331
B703
  5
B69B
331
B674
  5
B67C
331
B5C6
  5
B5C6
331
B625
  5
B629
331
B67C
  5
B69C
331
B62D
  5
B644
331
B5D6
  5
B5D6
331
B5E6
  5
B5E6
331
B763
  5
BC78
331
B6A4
  5
B6B8
331
B64D
  5
B66D
331
B606
  5
B618
331
B66D
  5
B675
331
B704
  5
B6A3
331
B675
  5
B67D
331
B626
  5
B62A
331
B67D
  5
B6A8
331
B5CF
  5
B5CF
331
B62E
  5
B648
331
B685
  5
B6AE
331
B95B
  5
BE10
331
B5DF
  5
B5DF
331
B5E7
  5
B5E7
331
B6A5
  5
B6B9
331
B64E
  5
B66E
331
B607
  5
B619
331
B66E
  5
B676
331
B5C0
  5
B5C0
331
B705
  5
B68F
331
B676
  5
B67E
331
B874
  5
BC7D
331
B627
  5
B62B
331
B5D0
  5
B5D0
331
B5D8
  5
B5D8
  0
SORTENTSTABLE
  5
C062
102
{ACAD_REACTORS
330
C061
102
}
330
C061
100
AcDbSortentsTable
330
C05B
  0
SORTENTSTABLE
  5
C089
102
{ACAD_REACTORS
330
C088
102
}
330
C088
100
AcDbSortentsTable
330
C080
  0
XRECORD
  5
C156
102
{ACAD_REACTORS
330
C155
102
}
330
C155
100
AcDbXrecord
280
     1
 70
     1
  0
LAYOUT
  5
22
102
{ACAD_XDICTIONARY
360
C159
102
}
102
{ACAD_REACTORS
330
1A
102
}
330
1A
100
AcDbPlotSettings
  1

  2
DocuCentre-II C5400
  4
A3
  6
AM_VIEW1
 40
4.857749938964843
 41
4.942420959472656
 42
4.9423828125
 43
4.857757568359375
 44
297.0106506347656
 45
420.0313415527343
 46
-4.282065002011677
 47
-4.03933398050654
 48
0.0000002667346735
 49
-0.0000000978109256
140
593.9999602667345
141
419.9999999021892
142
1.0
143
1.419999999999999
 70
  3748
 72
     1
 73
     1
 74
     4
  7
monochrome.ctb
 75
     0
147
0.6838345663888111
148
-0.0000002667346735
149
0.0000000978109256
100
AcDbLayout
  1
Model
 70
     1
 71
     0
 10
0.0
 20
0.0
 11
12.0
 21
9.0
 12
0.0
 22
0.0
 32
0.0
 14
0.0
 24
0.0
 34
0.0
 15
0.0
 25
0.0
 35
0.0
146
0.0
 13
0.0
 23
0.0
 33
0.0
 16
1.0
 26
0.0
 36
0.0
 17
0.0
 27
1.0
 37
0.0
 76
     0
330
1F
331
B0EC
1001
ACAD_PSEXT
1000
DocuCentre-II C5400
1000
FX DocuCentre-II C5400
1000
192.168.2.200
1000

1070
     0
  0
LAYOUT
  5
1E
102
{ACAD_XDICTIONARY
360
C157
102
}
102
{ACAD_REACTORS
330
1A
102
}
330
1A
100
AcDbPlotSettings
  1

  2
\\ML370\XEROX
  4
A4
  6

 40
3.174999952316284
 41
3.174999952316284
 42
3.175003051757812
 43
3.17498779296875
 44
209.8674926757813
 45
296.6719970703125
 46
0.0
 47
0.0
 48
0.0
 49
0.0
140
0.0
141
0.0
142
1.0
143
1.0
 70
   688
 72
     1
 73
     1
 74
     5
  7
monochrome.ctb
 75
    16
147
1.0
148
0.0
149
0.0
100
AcDbLayout
  1
ﾚｲｱｳﾄ1
 70
     1
 71
     1
 10
-3.17498779296875
 20
-3.174999952316284
 11
293.4970092773438
 21
206.692492723465
 12
0.0
 22
0.0
 32
0.0
 14
1.000000000000000E+20
 24
1.000000000000000E+20
 34
1.000000000000000E+20
 15
-1.000000000000000E+20
 25
-1.000000000000000E+20
 35
-1.000000000000000E+20
146
0.0
 13
0.0
 23
0.0
 33
0.0
 16
1.0
 26
0.0
 36
0.0
 17
0.0
 27
1.0
 37
0.0
 76
     0
330
1B
  0
LAYOUT
  5
26
102
{ACAD_XDICTIONARY
360
C15B
102
}
102
{ACAD_REACTORS
330
1A
102
}
330
1A
100
AcDbPlotSettings
  1

  2
\\ML370\XEROX
  4

  6

 40
0.0
 41
0.0
 42
0.0
 43
0.0
 44
0.0
 45
0.0
 46
0.0
 47
0.0
 48
0.0
 49
0.0
140
0.0
141
0.0
142
1.0
143
1.0
 70
   688
 72
     0
 73
     0
 74
     5
  7
monochrome.ctb
 75
    16
147
1.0
148
0.0
149
0.0
100
AcDbLayout
  1
ﾚｲｱｳﾄ2
 70
     1
 71
     2
 10
0.0
 20
0.0
 11
12.0
 21
9.0
 12
0.0
 22
0.0
 32
0.0
 14
0.0
 24
0.0
 34
0.0
 15
0.0
 25
0.0
 35
0.0
146
0.0
 13
0.0
 23
0.0
 33
0.0
 16
1.0
 26
0.0
 36
0.0
 17
0.0
 27
1.0
 37
0.0
 76
     0
330
23
  0
MATERIAL
  5
B0EF
102
{ACAD_XDICTIONARY
360
C160
102
}
102
{ACAD_REACTORS
330
A91C
102
}
330
A91C
100
AcDbMaterial
  1
ByBlock
  0
MATERIAL
  5
B0EE
102
{ACAD_XDICTIONARY
360
C15E
102
}
102
{ACAD_REACTORS
330
A91C
102
}
330
A91C
100
AcDbMaterial
  1
ByLayer
  0
MATERIAL
  5
B0F0
102
{ACAD_XDICTIONARY
360
C162
102
}
102
{ACAD_REACTORS
330
A91C
102
}
330
A91C
100
AcDbMaterial
  1
Global
  0
ACAD_PROXY_OBJECT
  5
B3AE
102
{ACAD_REACTORS
330
B3AD
102
}
330
B3AD
100
AcDbProxyObject
 90
      499
 91
      625
 95
    65563
 70
     0
 93
      817
310
40901902A40600000030400FEFFFFFF8000000000000008102B5E8DC0F42B5CFC0000000000001040405064068000000C1000000000000000410000000000000004102000000304015D90000000000000C03F4214C01D0018401B80190018401C80190028C00CC
340
14
340
0
340
11
340
0
 94
        0
1001
ACAD_MLEADERVER
1070
     2
1001
ACAD
1000
AcRTDxfName
1000
MLEADERSTYLE
  0
MLINESTYLE
  5
18
102
{ACAD_REACTORS
330
17
102
}
330
17
100
AcDbMlineStyle
  2
STANDARD
 70
     0
  3

 62
   256
 51
90.0
 52
90.0
 71
     2
 49
0.5
 62
   256
  6
BYLAYER
 49
-0.5
 62
   256
  6
BYLAYER
  0
ACDBPLACEHOLDER
  5
F
102
{ACAD_REACTORS
330
E
102
}
330
E
  0
ACAD_PROXY_OBJECT
  5
B38C
102
{ACAD_REACTORS
330
B38B
102
}
330
B38B
100
AcDbProxyObject
 90
      499
 91
      624
 95
    65563
 70
     0
 93
       82
310
968198801D0018801D004C
 94
        0
1001
ACAD
1000
AcRTDxfName
1000
SCALE
  0
ACAD_PROXY_OBJECT
  5
B38D
102
{ACAD_REACTORS
330
B38B
102
}
330
B38B
100
AcDbProxyObject
 90
      499
 91
      624
 95
    65563
 70
     0
 93
      146
310
9000000000000001008198801D0019001D004C
 94
        0
1001
ACAD
1000
AcRTDxfName
1000
SCALE
  0
ACAD_PROXY_OBJECT
  5
B38E
102
{ACAD_REACTORS
330
B38B
102
}
330
B38B
100
AcDbProxyObject
 90
      499
 91
      624
 95
    65563
 70
     0
 93
      146
310
9000000000000041008198801D001A001D004C
 94
        0
1001
ACAD
1000
AcRTDxfName
1000
SCALE
  0
ACAD_PROXY_OBJECT
  5
B38F
102
{ACAD_REACTORS
330
B38B
102
}
330
B38B
100
AcDbProxyObject
 90
      499
 91
      624
 95
    65563
 70
     0
 93
      146
310
9000000000000051008198801D001A801D004C
 94
        0
1001
ACAD
1000
AcRTDxfName
1000
SCALE
  0
ACAD_PROXY_OBJECT
  5
B390
102
{ACAD_REACTORS
330
B38B
102
}
330
B38B
100
AcDbProxyObject
 90
      499
 91
      624
 95
    65563
 70
     0
 93
      146
310
9000000000000081008198801D001C001D004C
 94
        0
1001
ACAD
1000
AcRTDxfName
1000
SCALE
  0
ACAD_PROXY_OBJECT
  5
B391
102
{ACAD_REACTORS
330
B38B
102
}
330
B38B
100
AcDbProxyObject
 90
      499
 91
      624
 95
    65563
 70
     0
 93
      162
310
9000000000000091008218801D001880180025004C
 94
        0
1001
ACAD
1000
AcRTDxfName
1000
SCALE
  0
ACAD_PROXY_OBJECT
  5
B392
102
{ACAD_REACTORS
330
B38B
102
}
330
B38B
100
AcDbProxyObject
 90
      499
 91
      624
 95
    65563
 70
     0
 93
      162
310
90000000000000C1008218801D0018801B0025004C
 94
        0
1001
ACAD
1000
AcRTDxfName
1000
SCALE
  0
ACAD_PROXY_OBJECT
  5
B393
102
{ACAD_REACTORS
330
B38B
102
}
330
B38B
100
AcDbProxyObject
 90
      499
 91
      624
 95
    65563
 70
     0
 93
      162
310
90000000000000D1008218801D001900180025004C
 94
        0
1001
ACAD
1000
AcRTDxfName
1000
SCALE
  0
ACAD_PROXY_OBJECT
  5
B394
102
{ACAD_REACTORS
330
B38B
102
}
330
B38B
100
AcDbProxyObject
 90
      499
 91
      624
 95
    65563
 70
     0
 93
      162
310
90000000000000F9008218801D001980180025004C
 94
        0
1001
ACAD
1000
AcRTDxfName
1000
SCALE
  0
ACAD_PROXY_OBJECT
  5
B395
102
{ACAD_REACTORS
330
B38B
102
}
330
B38B
100
AcDbProxyObject
 90
      499
 91
      624
 95
    65563
 70
     0
 93
      162
310
9000000000000111008218801D001A00180025004C
 94
        0
1001
ACAD
1000
AcRTDxfName
1000
SCALE
  0
ACAD_PROXY_OBJECT
  5
B396
102
{ACAD_REACTORS
330
B38B
102
}
330
B38B
100
AcDbProxyObject
 90
      499
 91
      624
 95
    65563
 70
     0
 93
      162
310
9000000000000125008218801D001A80180025004C
 94
        0
1001
ACAD
1000
AcRTDxfName
1000
SCALE
  0
ACAD_PROXY_OBJECT
  5
B397
102
{ACAD_REACTORS
330
B38B
102
}
330
B38B
100
AcDbProxyObject
 90
      499
 91
      624
 95
    65563
 70
     0
 93
      178
310
9000000000000165008298801D001880180018002D004C
 94
        0
1001
ACAD
1000
AcRTDxfName
1000
SCALE
  0
ACAD_PROXY_OBJECT
  5
B398
102
{ACAD_REACTORS
330
B38B
102
}
330
B38B
100
AcDbProxyObject
 90
      499
 91
      624
 95
    65563
 70
     0
 93
      146
310
8000000000000004048199001D0018801D004C
 94
        0
1001
ACAD
1000
AcRTDxfName
1000
SCALE
  0
ACAD_PROXY_OBJECT
  5
B399
102
{ACAD_REACTORS
330
B38B
102
}
330
B38B
100
AcDbProxyObject
 90
      499
 91
      624
 95
    65563
 70
     0
 93
      146
310
800000000000010404819A001D0018801D004C
 94
        0
1001
ACAD
1000
AcRTDxfName
1000
SCALE
  0
ACAD_PROXY_OBJECT
  5
B39A
102
{ACAD_REACTORS
330
B38B
102
}
330
B38B
100
AcDbProxyObject
 90
      499
 91
      624
 95
    65563
 70
     0
 93
      146
310
800000000000020404819C001D0018801D004C
 94
        0
1001
ACAD
1000
AcRTDxfName
1000
SCALE
  0
ACAD_PROXY_OBJECT
  5
B39B
102
{ACAD_REACTORS
330
B38B
102
}
330
B38B
100
AcDbProxyObject
 90
      499
 91
      624
 95
    65563
 70
     0
 93
      162
310
80000000000002440482188018001D00188025004C
 94
        0
1001
ACAD
1000
AcRTDxfName
1000
SCALE
  0
ACAD_PROXY_OBJECT
  5
B39C
102
{ACAD_REACTORS
330
B38B
102
}
330
B38B
100
AcDbProxyObject
 90
      499
 91
      624
 95
    65563
 70
     0
 93
      178
310
800000000000059404829880180018001D0018802D004C
 94
        0
1001
ACAD
1000
AcRTDxfName
1000
SCALE
  0
ACAD_PROXY_OBJECT
  5
B39D
102
{ACAD_REACTORS
330
B38B
102
}
330
B38B
100
AcDbProxyObject
 90
      499
 91
      624
 95
    65563
 70
     0
 93
      386
310
8000000000000803F0000000000000A1008718801780188019001C00110010001E8010001880138016801800110075004C
 94
        0
1001
ACAD
1000
AcRTDxfName
1000
SCALE
  0
ACAD_PROXY_OBJECT
  5
B39E
102
{ACAD_REACTORS
330
B38B
102
}
330
B38B
100
AcDbProxyObject
 90
      499
 91
      624
 95
    65563
 70
     0
 93
      370
310
8000000000000903F0000000000000A10086988017801B001A00110010001E801000188013801680180011006D004C
 94
        0
1001
ACAD
1000
AcRTDxfName
1000
SCALE
  0
ACAD_PROXY_OBJECT
  5
B39F
102
{ACAD_REACTORS
330
B38B
102
}
330
B38B
100
AcDbProxyObject
 90
      499
 91
      624
 95
    65563
 70
     0
 93
      370
310
8000000000000A03F0000000000000A100869880178019801900110010001E801000188013801680180011006D004C
 94
        0
1001
ACAD
1000
AcRTDxfName
1000
SCALE
  0
ACAD_PROXY_OBJECT
  5
B3A0
102
{ACAD_REACTORS
330
B38B
102
}
330
B38B
100
AcDbProxyObject
 90
      499
 91
      624
 95
    65563
 70
     0
 93
      370
310
8000000000000B03F0000000000000A100869880178018801B00110010001E801000188013801680180011006D004C
 94
        0
1001
ACAD
1000
AcRTDxfName
1000
SCALE
  0
ACAD_PROXY_OBJECT
  5
B3A1
102
{ACAD_REACTORS
330
B38B
102
}
330
B38B
100
AcDbProxyObject
 90
      499
 91
      624
 95
    65563
 70
     0
 93
      370
310
8000000000000B83F0000000000000A100869980178019801900110010001E801000188013801680180011006D004C
 94
        0
1001
ACAD
1000
AcRTDxfName
1000
SCALE
  0
ACAD_PROXY_OBJECT
  5
B3A2
102
{ACAD_REACTORS
330
B38B
102
}
330
B38B
100
AcDbProxyObject
 90
      499
 91
      624
 95
    65563
 70
     0
 93
      354
310
8000000000000C03F0000000000000A10086188017801C00110010001E8010001880138016801800110065004C
 94
        0
1001
ACAD
1000
AcRTDxfName
1000
SCALE
  0
ACAD_PROXY_OBJECT
  5
B3A3
102
{ACAD_REACTORS
330
B38B
102
}
330
B38B
100
AcDbProxyObject
 90
      499
 91
      624
 95
    65563
 70
     0
 93
      370
310
8000000000000C83F0000000000000A100869980178018801B00110010001E801000188013801680180011006D004C
 94
        0
1001
ACAD
1000
AcRTDxfName
1000
SCALE
  0
ACAD_PROXY_OBJECT
  5
B3A4
102
{ACAD_REACTORS
330
B38B
102
}
330
B38B
100
AcDbProxyObject
 90
      499
 91
      624
 95
    65563
 70
     0
 93
      354
310
8000000000000D03F0000000000000A10086188017801A00110010001E8010001880138016801800110065004C
 94
        0
1001
ACAD
1000
AcRTDxfName
1000
SCALE
  0
ACAD_PROXY_OBJECT
  5
B3A5
102
{ACAD_REACTORS
330
B38B
102
}
330
B38B
100
AcDbProxyObject
 90
      499
 91
      624
 95
    65563
 70
     0
 93
      354
310
8000000000000D83F0000000000000A10086198017801C00110010001E8010001880138016801800110065004C
 94
        0
1001
ACAD
1000
AcRTDxfName
1000
SCALE
  0
ACAD_PROXY_OBJECT
  5
B3A6
102
{ACAD_REACTORS
330
B38B
102
}
330
B38B
100
AcDbProxyObject
 90
      499
 91
      624
 95
    65563
 70
     0
 93
      354
310
8000000000000E03F0000000000000A10086188017801900110010001E8010001880138016801800110065004C
 94
        0
1001
ACAD
1000
AcRTDxfName
1000
SCALE
  0
ACAD_PROXY_OBJECT
  5
B3A7
102
{ACAD_REACTORS
330
B38B
102
}
330
B38B
100
AcDbProxyObject
 90
      499
 91
      624
 95
    65563
 70
     0
 93
      354
310
8000000000000E83F0000000000000A10086198017801A00110010001E8010001880138016801800110065004C
 94
        0
1001
ACAD
1000
AcRTDxfName
1000
SCALE
  0
ACAD_PROXY_OBJECT
  5
B3A8
102
{ACAD_REACTORS
330
B38B
102
}
330
B38B
100
AcDbProxyObject
 90
      499
 91
      624
 95
    65563
 70
     0
 93
      258
310
90000000000000A100851880110010001E8010001880138016801800110055004C
 94
        0
1001
ACAD
1000
AcRTDxfName
1000
SCALE
  0
ACAD_PROXY_OBJECT
  5
B3A9
102
{ACAD_REACTORS
330
B38B
102
}
330
B38B
100
AcDbProxyObject
 90
      499
 91
      624
 95
    65563
 70
     0
 93
      386
310
8000000000000F83F0000000000000A1008718801680188017801900110010001E8010001880138016801800110075004C
 94
        0
1001
ACAD
1000
AcRTDxfName
1000
SCALE
  0
ACAD_PROXY_OBJECT
  5
B3AA
102
{ACAD_REACTORS
330
B38B
102
}
330
B38B
100
AcDbProxyObject
 90
      499
 91
      624
 95
    65563
 70
     0
 93
      322
310
800000000000008400000000000000A100851980110010001E8010001880138016801800110055004C
 94
        0
1001
ACAD
1000
AcRTDxfName
1000
SCALE
  0
ACAD_PROXY_OBJECT
  5
B3AB
102
{ACAD_REACTORS
330
B38B
102
}
330
B38B
100
AcDbProxyObject
 90
      499
 91
      624
 95
    65563
 70
     0
 93
      322
310
800000000000018400000000000000A100851B00110010001E8010001880138016801800110055004C
 94
        0
1001
ACAD
1000
AcRTDxfName
1000
SCALE
  0
ACAD_PROXY_OBJECT
  5
B3AC
102
{ACAD_REACTORS
330
B38B
102
}
330
B38B
100
AcDbProxyObject
 90
      499
 91
      624
 95
    65563
 70
     0
 93
      370
310
800000000000028400000000000000A100869880138016801800110010001E801000188013801680180011006D004C
 94
        0
1001
ACAD
1000
AcRTDxfName
1000
SCALE
  0
TABLESTYLE
  5
AABA
102
{ACAD_XDICTIONARY
360
B3DB
102
}
102
{ACAD_REACTORS
330
AAB9
102
}
330
AAB9
100
AcDbTableStyle
  3
Standard
 70
     0
 71
     0
 40
1.5
 41
1.5
280
     0
281
     0
  7
STANDARD
140
4.5
170
     2
 62
     0
 63
     7
283
     0
274
    -2
284
     1
 64
     0
275
    -2
285
     1
 65
     0
276
    -2
286
     1
 66
     0
277
    -2
287
     1
 67
     0
278
    -2
288
     1
 68
     0
279
    -2
289
     1
 69
     0
  7
STANDARD
140
6.0
170
     5
 62
     0
 63
     7
283
     0
274
    -2
284
     1
 64
     0
275
    -2
285
     1
 65
     0
276
    -2
286
     1
 66
     0
277
    -2
287
     1
 67
     0
278
    -2
288
     1
 68
     0
279
    -2
289
     1
 69
     0
  7
STANDARD
140
4.5
170
     5
 62
     0
 63
     7
283
     0
274
    -2
284
     1
 64
     0
275
    -2
285
     1
 65
     0
276
    -2
286
     1
 66
     0
277
    -2
287
     1
 67
     0
278
    -2
288
     1
 68
     0
279
    -2
289
     1
 69
     0
  0
VISUALSTYLE
  5
B0F7
102
{ACAD_REACTORS
330
B0F1
102
}
330
B0F1
100
AcDbVisualStyle
  2
2dWireframe
 70
     4
 71
     0
 72
     2
 73
     0
 90
        0
 40
-0.6
 41
-30.0
 62
     5
 63
     7
 74
     1
 91
        4
 64
     7
 65
   257
 75
     1
175
     1
 42
1.0
 92
        0
 66
   257
 43
1.0
 76
     1
 77
     6
 78
     2
 67
     7
 79
     5
170
     0
171
     0
290
     0
174
     0
 93
        1
 44
0.0
173
     0
291
     0
 45
0.0
1001
ACAD
1000
AcDbSavedByObjectVersion
1070
     0
  0
VISUALSTYLE
  5
B0F9
102
{ACAD_REACTORS
330
B0F1
102
}
330
B0F1
100
AcDbVisualStyle
  2
3D Hidden
 70
     6
 71
     1
 72
     2
 73
     2
 90
        0
 40
-0.6
 41
-30.0
 62
     5
 63
     7
 74
     2
 91
        2
 64
     7
 65
   257
 75
     2
175
     1
 42
40.0
 92
        0
 66
   257
 43
1.0
 76
     1
 77
     6
 78
     2
 67
     7
 79
     3
170
     0
171
     0
290
     0
174
     0
 93
        1
 44
0.0
173
     0
291
     0
 45
0.0
1001
ACAD
1000
AcDbSavedByObjectVersion
1070
     0
  0
VISUALSTYLE
  5
B0F8
102
{ACAD_REACTORS
330
B0F1
102
}
330
B0F1
100
AcDbVisualStyle
  2
3dWireframe
 70
     5
 71
     0
 72
     2
 73
     0
 90
        0
 40
-0.6
 41
-30.0
 62
     5
 63
     7
 74
     1
 91
        4
 64
     7
 65
   257
 75
     1
175
     1
 42
1.0
 92
        0
 66
   257
 43
1.0
 76
     1
 77
     6
 78
     2
 67
     7
 79
     5
170
     0
171
     0
290
     0
174
     0
 93
        1
 44
0.0
173
     0
291
     0
 45
0.0
1001
ACAD
1000
AcDbSavedByObjectVersion
1070
     0
  0
VISUALSTYLE
  5
B0F6
102
{ACAD_REACTORS
330
B0F1
102
}
330
B0F1
100
AcDbVisualStyle
  2
Basic
 70
     7
 71
     1
 72
     0
 73
     1
 90
        0
 40
-0.6
 41
-30.0
 62
     5
 63
     7
 74
     0
 91
        4
 64
     7
 65
   257
 75
     1
175
     1
 42
1.0
 92
        8
 66
     7
 43
1.0
 76
     1
 77
     6
 78
     2
 67
     7
 79
     5
170
     0
171
     0
290
     0
174
     0
 93
        1
 44
0.0
173
     0
291
     1
 45
0.0
1001
ACAD
1000
AcDbSavedByObjectVersion
1070
     0
  0
VISUALSTYLE
  5
B0FD
102
{ACAD_REACTORS
330
B0F1
102
}
330
B0F1
100
AcDbVisualStyle
  2
Brighten
 70
    12
 71
     2
 72
     2
 73
     0
 90
        0
 40
-0.6
 41
-30.0
 62
     5
 63
     7
 74
     1
 91
        4
 64
     7
 65
   257
 75
     1
175
     1
 42
1.0
 92
        8
 66
     7
 43
1.0
 76
     1
 77
     6
 78
     2
 67
     7
 79
     5
170
     0
171
     0
290
     0
174
     0
 93
        1
 44
50.0
173
     0
291
     1
 45
0.0
1001
ACAD
1000
AcDbSavedByObjectVersion
1070
     0
  0
VISUALSTYLE
  5
B101
102
{ACAD_REACTORS
330
B0F1
102
}
330
B0F1
100
AcDbVisualStyle
  2
ColorChange
 70
    16
 71
     2
 72
     2
 73
     3
 90
        0
 40
-0.6
 41
-30.0
 62
     5
 63
     8
 74
     1
 91
        4
 64
     7
 65
   257
 75
     1
175
     1
 42
1.0
 92
        8
 66
     8
 43
1.0
 76
     1
 77
     6
 78
     2
 67
     7
 79
     5
170
     0
171
     0
290
     0
174
     0
 93
        1
 44
0.0
173
     0
291
     1
 45
0.0
1001
ACAD
1000
AcDbSavedByObjectVersion
1070
     0
  0
VISUALSTYLE
  5
B0FA
102
{ACAD_REACTORS
330
B0F1
102
}
330
B0F1
100
AcDbVisualStyle
  2
Conceptual
 70
     9
 71
     3
 72
     2
 73
     0
 90
        0
 40
-0.6
 41
-30.0
 62
     5
 63
     7
 74
     2
 91
        2
 64
     7
 65
   257
 75
     1
175
     1
 42
40.0
 92
        8
 66
     7
 43
1.0
 76
     1
 77
     6
 78
     2
 67
     7
 79
     3
170
     0
171
     0
290
     0
174
     0
 93
        1
 44
0.0
173
     0
291
     0
 45
0.0
1001
ACAD
1000
AcDbSavedByObjectVersion
1070
     0
  0
VISUALSTYLE
  5
B0FC
102
{ACAD_REACTORS
330
B0F1
102
}
330
B0F1
100
AcDbVisualStyle
  2
Dim
 70
    11
 71
     2
 72
     2
 73
     0
 90
        0
 40
-0.6
 41
-30.0
 62
     5
 63
     7
 74
     1
 91
        4
 64
     7
 65
   257
 75
     1
175
     1
 42
1.0
 92
        8
 66
     7
 43
1.0
 76
     1
 77
     6
 78
     2
 67
     7
 79
     5
170
     0
171
     0
290
     0
174
     0
 93
        1
 44
-50.0
173
     0
291
     1
 45
0.0
1001
ACAD
1000
AcDbSavedByObjectVersion
1070
     0
  0
VISUALSTYLE
  5
B100
102
{ACAD_REACTORS
330
B0F1
102
}
330
B0F1
100
AcDbVisualStyle
  2
Facepattern
 70
    15
 71
     2
 72
     2
 73
     0
 90
        0
 40
-0.6
 41
-30.0
 62
     5
 63
     7
 74
     1
 91
        4
 64
     7
 65
   257
 75
     1
175
     1
 42
1.0
 92
        8
 66
     7
 43
1.0
 76
     1
 77
     6
 78
     2
 67
     7
 79
     5
170
     0
171
     0
290
     0
174
     0
 93
        1
 44
0.0
173
     0
291
     1
 45
0.0
1001
ACAD
1000
AcDbSavedByObjectVersion
1070
     0
  0
VISUALSTYLE
  5
B0F2
102
{ACAD_REACTORS
330
B0F1
102
}
330
B0F1
100
AcDbVisualStyle
  2
Flat
 70
     0
 71
     2
 72
     1
 73
     1
 90
        2
 40
-0.6
 41
30.0
 62
     5
 63
     7
 74
     0
 91
        4
 64
     7
 65
   257
 75
     1
175
     1
 42
1.0
 92
        8
 66
     7
 43
1.0
 76
     1
 77
     6
 78
     2
 67
     7
 79
     5
170
     0
171
     0
290
     0
174
     0
 93
       13
 44
0.0
173
     0
291
     1
 45
0.0
1001
ACAD
1000
AcDbSavedByObjectVersion
1070
     0
  0
VISUALSTYLE
  5
B0F3
102
{ACAD_REACTORS
330
B0F1
102
}
330
B0F1
100
AcDbVisualStyle
  2
FlatWithEdges
 70
     1
 71
     2
 72
     1
 73
     1
 90
        2
 40
-0.6
 41
30.0
 62
     5
 63
     7
 74
     1
 91
        4
 64
     7
 65
   257
 75
     1
175
     1
 42
1.0
 92
        0
 66
   257
 43
1.0
 76
     1
 77
     6
 78
     2
 67
     7
 79
     5
170
     0
171
     0
290
     0
174
     0
 93
       13
 44
0.0
173
     0
291
     1
 45
0.0
1001
ACAD
1000
AcDbSavedByObjectVersion
1070
     0
  0
VISUALSTYLE
  5
B0F4
102
{ACAD_REACTORS
330
B0F1
102
}
330
B0F1
100
AcDbVisualStyle
  2
Gouraud
 70
     2
 71
     2
 72
     2
 73
     1
 90
        2
 40
-0.6
 41
30.0
 62
     5
 63
     7
 74
     0
 91
        4
 64
     7
 65
   257
 75
     1
175
     1
 42
1.0
 92
        0
 66
     7
 43
1.0
 76
     1
 77
     6
 78
     2
 67
     7
 79
     5
170
     0
171
     0
290
     0
174
     0
 93
       13
 44
0.0
173
     0
291
     1
 45
0.0
1001
ACAD
1000
AcDbSavedByObjectVersion
1070
     0
  0
VISUALSTYLE
  5
B0F5
102
{ACAD_REACTORS
330
B0F1
102
}
330
B0F1
100
AcDbVisualStyle
  2
GouraudWithEdges
 70
     3
 71
     2
 72
     2
 73
     1
 90
        2
 40
-0.6
 41
30.0
 62
     5
 63
     7
 74
     1
 91
        4
 64
     7
 65
   257
 75
     1
175
     1
 42
1.0
 92
        0
 66
   257
 43
1.0
 76
     1
 77
     6
 78
     2
 67
     7
 79
     5
170
     0
171
     0
290
     0
174
     0
 93
       13
 44
0.0
173
     0
291
     1
 45
0.0
1001
ACAD
1000
AcDbSavedByObjectVersion
1070
     0
  0
VISUALSTYLE
  5
B0FF
102
{ACAD_REACTORS
330
B0F1
102
}
330
B0F1
100
AcDbVisualStyle
  2
Linepattern
 70
    14
 71
     2
 72
     2
 73
     0
 90
        0
 40
-0.6
 41
-30.0
 62
     5
 63
     7
 74
     1
 91
        4
 64
     7
 65
   257
 75
     7
175
     7
 42
1.0
 92
        8
 66
     7
 43
1.0
 76
     1
 77
     6
 78
     2
 67
     7
 79
     5
170
     0
171
     0
290
     0
174
     0
 93
        1
 44
0.0
173
     0
291
     1
 45
0.0
1001
ACAD
1000
AcDbSavedByObjectVersion
1070
     0
  0
VISUALSTYLE
  5
B0FB
102
{ACAD_REACTORS
330
B0F1
102
}
330
B0F1
100
AcDbVisualStyle
  2
Realistic
 70
     8
 71
     2
 72
     2
 73
     0
 90
        0
 40
-0.6
 41
-30.0
 62
     5
 63
     7
 74
     1
 91
        0
 64
     7
 65
   257
 75
     1
175
     1
 42
1.0
 92
        8
 66
     8
 43
1.0
 76
     1
 77
     6
 78
     2
 67
     7
 79
     5
170
     0
171
     0
290
     0
174
     0
 93
       13
 44
0.0
173
     0
291
     0
 45
0.0
1001
ACAD
1000
AcDbSavedByObjectVersion
1070
     0
  0
VISUALSTYLE
  5
B0FE
102
{ACAD_REACTORS
330
B0F1
102
}
330
B0F1
100
AcDbVisualStyle
  2
Thicken
 70
    13
 71
     2
 72
     2
 73
     0
 90
        0
 40
-0.6
 41
-30.0
 62
     5
 63
     7
 74
     1
 91
        4
 64
     7
 65
   257
 75
     1
175
     1
 42
1.0
 92
       12
 66
     7
 43
1.0
 76
     1
 77
     6
 78
     2
 67
     7
 79
     5
170
     0
171
     0
290
     0
174
     0
 93
        1
 44
0.0
173
     0
291
     1
 45
0.0
1001
ACAD
1000
AcDbSavedByObjectVersion
1070
     0
  0
DICTIONARYVAR
  5
B3E0
102
{ACAD_REACTORS
330
34
102
}
330
34
100
DictionaryVariables
280
     0
  1
1:1
  0
DICTIONARYVAR
  5
B3DE
102
{ACAD_REACTORS
330
34
102
}
330
34
100
DictionaryVariables
280
     0
  1
STANDARD
  0
DICTIONARYVAR
  5
AAF3
102
{ACAD_REACTORS
330
34
102
}
330
34
100
DictionaryVariables
280
     0
  1
STANDARD
  0
DICTIONARYVAR
  5
A10C
102
{ACAD_REACTORS
330
34
102
}
330
34
100
DictionaryVariables
280
     0
  1
1
  0
DICTIONARYVAR
  5
AB07
102
{ACAD_REACTORS
330
34
102
}
330
34
100
DictionaryVariables
280
     0
  1
4
  0
DICTIONARYVAR
  5
35
102
{ACAD_REACTORS
330
34
102
}
330
34
100
DictionaryVariables
280
     0
  1
0
  0
DICTIONARYVAR
  5
B3E1
102
{ACAD_REACTORS
330
34
102
}
330
34
100
DictionaryVariables
280
     0
  1
0
  0
DICTIONARYVAR
  5
B3DF
102
{ACAD_REACTORS
330
34
102
}
330
34
100
DictionaryVariables
280
     0
  1
0
  0
DICTIONARYVAR
  5
194C
102
{ACAD_REACTORS
330
34
102
}
330
34
100
DictionaryVariables
280
     0
  1
96
  0
DICTIONARY
  5
7E8
102
{ACAD_REACTORS
330
47
102
}
330
47
100
AcDbDictionary
281
     1
  0
DICTIONARY
  5
4C
102
{ACAD_REACTORS
330
47
102
}
330
47
100
AcDbDictionary
281
     1
  0
XRECORD
  5
A929
102
{ACAD_REACTORS
330
47
102
}
330
47
100
AcDbXrecord
280
     1
 90
-1023410169
  0
XRECORD
  5
B332
102
{ACAD_REACTORS
330
B331
102
}
330
B331
100
AcDbXrecord
280
     1
  0
XRECORD
  5
3FB7
102
{ACAD_REACTORS
330
3F96
102
}
330
3F96
100
AcDbXrecord
280
     1
 91
        3
330
0
 90
        8
 62
     7
370
    40
331
16
  1
Color_7
330
0
 90
        0
 62
    14
370
    -3
331
16
  1
Color_14
330
0
 90
        8
 62
     7
370
    20
331
16
  1
Color_7
330
6D1
 90
        0
 62
     7
370
    -3
331
16
  1
Color_7
330
0
 90
        8
 62
     7
370
    50
331
16
  1
Color_7
330
0
 90
        8
 62
     2
370
    35
331
16
  1
Color_2
330
0
 90
        8
 62
     7
370
    -3
331
16
  1
Color_7
330
10
 90
        8
 62
     7
370
    -3
331
16
  1
Color_7
  0
DICTIONARY
  5
C159
330
22
100
AcDbDictionary
280
     1
281
     1
  3
ACAD_XREC_ROUNDTRIP
360
C15A
  0
DICTIONARY
  5
C157
330
1E
100
AcDbDictionary
280
     1
281
     1
  3
ACAD_XREC_ROUNDTRIP
360
C158
  0
DICTIONARY
  5
C15B
330
26
100
AcDbDictionary
280
     1
281
     1
  3
ACAD_XREC_ROUNDTRIP
360
C15C
  0
DICTIONARY
  5
C160
330
B0EF
100
AcDbDictionary
280
     1
281
     1
  3
ACAD_XREC_ROUNDTRIP
360
C161
  0
DICTIONARY
  5
C15E
330
B0EE
100
AcDbDictionary
280
     1
281
     1
  3
ACAD_XREC_ROUNDTRIP
360
C15F
  0
DICTIONARY
  5
C162
330
B0F0
100
AcDbDictionary
280
     1
281
     1
  3
ACAD_XREC_ROUNDTRIP
360
C163
  0
DICTIONARY
  5
B3DB
330
AABA
100
AcDbDictionary
280
     1
281
     1
  3
ACAD_ROUNDTRIP_2008_TABLESTYLE_CELLSTYLEMAP
360
C009
  3
ACAD_XREC_ROUNDTRIP
360
C15D
  0
XRECORD
  5
C15A
102
{ACAD_REACTORS
330
C159
102
}
330
C159
100
AcDbXrecord
280
     1
102
SHADEPLOT
 70
     0
102
SHADEPLOTRESLEVEL
 70
     2
102
SHADEPLOTCUSTOMDPI
 70
   200
  0
XRECORD
  5
C158
102
{ACAD_REACTORS
330
C157
102
}
330
C157
100
AcDbXrecord
280
     1
102
SHADEPLOT
 70
     0
102
SHADEPLOTRESLEVEL
 70
     2
102
SHADEPLOTCUSTOMDPI
 70
   300
  0
XRECORD
  5
C15C
102
{ACAD_REACTORS
330
C15B
102
}
330
C15B
100
AcDbXrecord
280
     1
102
SHADEPLOT
 70
     0
102
SHADEPLOTRESLEVEL
 70
     2
102
SHADEPLOTCUSTOMDPI
 70
   300
  0
XRECORD
  5
C161
102
{ACAD_REACTORS
330
C160
102
}
330
C160
100
AcDbXrecord
280
     1
102
MATERIAL
148
0.0
149
0.0
149
0.0
 93
        0
 94
       63
282
     0
 72
     1
 77
     1
171
     1
175
     1
179
     1
273
     0
  0
XRECORD
  5
C15F
102
{ACAD_REACTORS
330
C15E
102
}
330
C15E
100
AcDbXrecord
280
     1
102
MATERIAL
148
0.0
149
0.0
149
0.0
 93
        0
 94
       63
282
     0
 72
     1
 77
     1
171
     1
175
     1
179
     1
273
     0
  0
XRECORD
  5
C163
102
{ACAD_REACTORS
330
C162
102
}
330
C162
100
AcDbXrecord
280
     1
102
MATERIAL
148
0.0
149
0.0
149
0.0
 93
        0
 94
       63
282
     0
 72
     1
 77
     1
171
     1
175
     1
179
     1
273
     0
  0
ACAD_PROXY_OBJECT
  5
C009
102
{ACAD_REACTORS
330
B3DB
102
}
330
B3DB
100
AcDbProxyObject
 90
      499
 91
      627
 95
    65563
 70
     0
 93
     5369
310
40D054060020000020000003200101A4129416000000304000000000000001840404000000000000F83F0000000000003E0FC000000000000F83F0000000000003E0FC0AD7A3703D0AC73F02B5E8DC0F42B1CFD0640640600000030400FEFFFFFF80AD7A3703D0AA73F40A40600000030400FEFFFFFF80AD7A3703D0AA73F4
310
1240600000030400FEFFFFFF80AD7A3703D0AA73F42240600000030400FEFFFFFF80AD7A3703D0AA73F44240600000030400FEFFFFFF80AD7A3703D0AA73F48240600000030400FEFFFFFF80AD7A3703D0AA73F4050141501A8000000C800406904A5058000000C10000000000000004901010000000000003E0FC00000000
310
0000F83F0000000000003E0FC000000000000F83F02B5E8DC0F42B1CFC0AD7A3703D0AC73F419019018000000C1003FBFFFFFE02B5E8DC0F42A9CFD029018000000C1003FBFFFFFE02B5E8DC0F42A9CFD049018000000C1003FBFFFFFE02B5E8DC0F42A9CFD089018000000C1003FBFFFFFE02B5E8DC0F42A9CFD109018000
310
000C1003FBFFFFFE02B5E8DC0F42A9CFD209018000000C1003FBFFFFFE02B5E8DC0F42A9CFD0240505406A0000003200101A412940A000000304000000000000001240404000000000000F83F0000000000003E0FC000000000000F83F0000000000003E0FC0AD7A3703D0AC73F02B5E8DC0F42B1CFD064064060000003040
310
0FEFFFFFF80AD7A3703D0AA73F40A40600000030400FEFFFFFF80AD7A3703D0AA73F41240600000030400FEFFFFFF80AD7A3703D0AA73F42240600000030400FEFFFFFF80AD7A3703D0AA73F44240600000030400FEFFFFFF80AD7A3703D0AA73F48240600000030400FEFFFFFF80AD7A3703D0AA73F40D029065F00540049
310
0054004C0045009075F004800450041004400450052009055F0044004100540041004401CC
340
11
340
0
340
0
340
0
340
0
340
0
340
0
340
11
340
0
340
0
340
0
340
0
340
0
340
0
340
11
340
0
340
0
340
0
340
0
340
0
340
0
 94
        0
1001
ACAD
1000
AcRTDxfName
1000
CELLSTYLEMAP
  0
XRECORD
  5
C15D
102
{ACAD_REACTORS
330
B3DB
102
}
330
B3DB
100
AcDbXrecord
280
     1
102
ACAD_ROUNDTRIP_PRE2007_TABLESTYLE
 90
        4
 91
        0
  1

 92
        4
 93
        0
  2

 94
        4
 95
        0
  3

  0
ENDSEC
  0
EOF
