  0
SECTION
  2
HEADER
  9
$ACADVER
  1
AC1015
  9
$ACADMAINTVER
 70
    20
  9
$DWGCODEPAGE
  3
ANSI_932
  9
$INSBASE
 10
0.0
 20
0.0
 30
0.0
  9
$EXTMIN
 10
5772.35619419379
 20
-2724.642210318429
 30
-0.0015258207003583
  9
$EXTMAX
 10
6366.689176897884
 20
-2304.366802322527
 30
0.0000000349246037
  9
$LIMMIN
 10
1735.132052145826
 20
-6087.884660833434
  9
$LIMMAX
 10
2155.132052145826
 20
-5790.884660833434
  9
$ORTHOMODE
 70
     0
  9
$REGENMODE
 70
     1
  9
$FILLMODE
 70
     1
  9
$QTEXTMODE
 70
     0
  9
$MIRRTEXT
 70
     0
  9
$LTSCALE
 40
1.0
  9
$ATTMODE
 70
     1
  9
$TEXTSIZE
 40
3.5
  9
$TRACEWID
 40
1.0
  9
$TEXTSTYLE
  7
STANDARD
  9
$CLAYER
  8
000済
  9
$CELTYPE
  6
ByLayer
  9
$CECOLOR
 62
   256
  9
$CELTSCALE
 40
0.5
  9
$DISPSILH
 70
     0
  9
$DIMSCALE
 40
1.0
  9
$DIMASZ
 40
1.0
  9
$DIMEXO
 40
1.0
  9
$DIMDLI
 40
10.0
  9
$DIMRND
 40
0.0
  9
$DIMDLE
 40
0.0
  9
$DIMEXE
 40
1.0
  9
$DIMTP
 40
0.1
  9
$DIMTM
 40
0.1
  9
$DIMTXT
 40
3.5
  9
$DIMCEN
 40
0.0
  9
$DIMTSZ
 40
0.0
  9
$DIMTOL
 70
     0
  9
$DIMLIM
 70
     0
  9
$DIMTIH
 70
     0
  9
$DIMTOH
 70
     0
  9
$DIMSE1
 70
     0
  9
$DIMSE2
 70
     0
  9
$DIMTAD
 70
     1
  9
$DIMZIN
 70
     8
  9
$DIMBLK
  1

  9
$DIMASO
 70
     1
  9
$DIMSHO
 70
     1
  9
$DIMPOST
  1

  9
$DIMAPOST
  1
"
  9
$DIMALT
 70
     0
  9
$DIMALTD
 70
     2
  9
$DIMALTF
 40
0.0393701
  9
$DIMLFAC
 40
1.0
  9
$DIMTOFL
 70
     1
  9
$DIMTVP
 40
0.0
  9
$DIMTIX
 70
     0
  9
$DIMSOXD
 70
     0
  9
$DIMSAH
 70
     0
  9
$DIMBLK1
  1

  9
$DIMBLK2
  1

  9
$DIMSTYLE
  2
SYS
  9
$DIMCLRD
 70
   256
  9
$DIMCLRE
 70
   256
  9
$DIMCLRT
 70
     7
  9
$DIMTFAC
 40
0.71
  9
$DIMGAP
 40
1.5
  9
$DIMJUST
 70
     0
  9
$DIMSD1
 70
     0
  9
$DIMSD2
 70
     0
  9
$DIMTOLJ
 70
     0
  9
$DIMTZIN
 70
     8
  9
$DIMALTZ
 70
     0
  9
$DIMALTTZ
 70
     0
  9
$DIMUPT
 70
     0
  9
$DIMDEC
 70
     1
  9
$DIMTDEC
 70
     2
  9
$DIMALTU
 70
     2
  9
$DIMALTTD
 70
     2
  9
$DIMTXSTY
  7
STANDARD
  9
$DIMAUNIT
 70
     0
  9
$DIMADEC
 70
     0
  9
$DIMALTRND
 40
0.0
  9
$DIMAZIN
 70
     2
  9
$DIMDSEP
 70
    46
  9
$DIMATFIT
 70
     3
  9
$DIMFRAC
 70
     0
  9
$DIMLDRBLK
  1

  9
$DIMLUNIT
 70
     2
  9
$DIMLWD
 70
    -1
  9
$DIMLWE
 70
    -1
  9
$DIMTMOVE
 70
     0
  9
$LUNITS
 70
     2
  9
$LUPREC
 70
     2
  9
$SKETCHINC
 40
1.0
  9
$FILLETRAD
 40
2.0
  9
$AUNITS
 70
     0
  9
$AUPREC
 70
     0
  9
$MENU
  1
.
  9
$ELEVATION
 40
0.0
  9
$PELEVATION
 40
0.0
  9
$THICKNESS
 40
0.0
  9
$LIMCHECK
 70
     0
  9
$CHAMFERA
 40
0.0
  9
$CHAMFERB
 40
0.0
  9
$CHAMFERC
 40
20.0
  9
$CHAMFERD
 40
0.0
  9
$SKPOLY
 70
     0
  9
$TDCREATE
 40
2455567.561054317
  9
$TDUCREATE
 40
2455567.186054318
  9
$TDUPDATE
 40
2456272.804308079
  9
$TDUUPDATE
 40
2456272.429308079
  9
$TDINDWG
 40
8.4640369676
  9
$TDUSRTIMER
 40
8.4640349769
  9
$USRTIMER
 70
     1
  9
$ANGBASE
 50
0.0
  9
$ANGDIR
 70
     0
  9
$PDMODE
 70
     0
  9
$PDSIZE
 40
-3.0
  9
$PLINEWID
 40
0.0
  9
$SPLFRAME
 70
     0
  9
$SPLINETYPE
 70
     6
  9
$SPLINESEGS
 70
     8
  9
$HANDSEED
  5
5365A
  9
$SURFTAB1
 70
     6
  9
$SURFTAB2
 70
     6
  9
$SURFTYPE
 70
     6
  9
$SURFU
 70
     6
  9
$SURFV
 70
     6
  9
$UCSBASE
  2

  9
$UCSNAME
  2

  9
$UCSORG
 10
0.0
 20
0.0
 30
0.0
  9
$UCSXDIR
 10
1.0
 20
0.0
 30
0.0
  9
$UCSYDIR
 10
0.0
 20
1.0
 30
0.0
  9
$UCSORTHOREF
  2

  9
$UCSORTHOVIEW
 70
     0
  9
$UCSORGTOP
 10
0.0
 20
0.0
 30
0.0
  9
$UCSORGBOTTOM
 10
0.0
 20
0.0
 30
0.0
  9
$UCSORGLEFT
 10
0.0
 20
0.0
 30
0.0
  9
$UCSORGRIGHT
 10
0.0
 20
0.0
 30
0.0
  9
$UCSORGFRONT
 10
0.0
 20
0.0
 30
0.0
  9
$UCSORGBACK
 10
0.0
 20
0.0
 30
0.0
  9
$PUCSBASE
  2

  9
$PUCSNAME
  2

  9
$PUCSORG
 10
0.0
 20
0.0
 30
0.0
  9
$PUCSXDIR
 10
1.0
 20
0.0
 30
0.0
  9
$PUCSYDIR
 10
0.0
 20
1.0
 30
0.0
  9
$PUCSORTHOREF
  2

  9
$PUCSORTHOVIEW
 70
     0
  9
$PUCSORGTOP
 10
0.0
 20
0.0
 30
0.0
  9
$PUCSORGBOTTOM
 10
0.0
 20
0.0
 30
0.0
  9
$PUCSORGLEFT
 10
0.0
 20
0.0
 30
0.0
  9
$PUCSORGRIGHT
 10
0.0
 20
0.0
 30
0.0
  9
$PUCSORGFRONT
 10
0.0
 20
0.0
 30
0.0
  9
$PUCSORGBACK
 10
0.0
 20
0.0
 30
0.0
  9
$USERI1
 70
     0
  9
$USERI2
 70
     0
  9
$USERI3
 70
     0
  9
$USERI4
 70
     0
  9
$USERI5
 70
     0
  9
$USERR1
 40
0.0
  9
$USERR2
 40
0.0
  9
$USERR3
 40
0.0
  9
$USERR4
 40
0.0
  9
$USERR5
 40
0.0
  9
$WORLDVIEW
 70
     1
  9
$SHADEDGE
 70
     3
  9
$SHADEDIF
 70
    70
  9
$TILEMODE
 70
     1
  9
$MAXACTVP
 70
    64
  9
$PINSBASE
 10
0.0
 20
0.0
 30
0.0
  9
$PLIMCHECK
 70
     0
  9
$PEXTMIN
 10
1.000000000000000E+20
 20
1.000000000000000E+20
 30
1.000000000000000E+20
  9
$PEXTMAX
 10
-1.000000000000000E+20
 20
-1.000000000000000E+20
 30
-1.000000000000000E+20
  9
$PLIMMIN
 10
-3.17498779296875
 20
-3.174999952316284
  9
$PLIMMAX
 10
293.4970092773438
 20
206.692492723465
  9
$UNITMODE
 70
     0
  9
$VISRETAIN
 70
     1
  9
$PLINEGEN
 70
     0
  9
$PSLTSCALE
 70
     1
  9
$TREEDEPTH
 70
  3020
  9
$CMLSTYLE
  2
Standard
  9
$CMLJUST
 70
     0
  9
$CMLSCALE
 40
20.0
  9
$PROXYGRAPHICS
 70
     1
  9
$MEASUREMENT
 70
     1
  9
$CELWEIGHT
370
    -1
  9
$ENDCAPS
280
     0
  9
$JOINSTYLE
280
     0
  9
$LWDISPLAY
290
     1
  9
$INSUNITS
 70
     4
  9
$HYPERLINKBASE
  1

  9
$STYLESHEET
  1
monochrome.ctb
  9
$XEDIT
290
     1
  9
$CEPSNTYPE
380
     0
  9
$PSTYLEMODE
290
     1
  9
$FINGERPRINTGUID
  2
{E0FB5660-30B4-4D8A-8C1D-9D7E99D72F0A}
  9
$VERSIONGUID
  2
{93F42A1F-841B-41F0-BD2E-025AF010359F}
  9
$EXTNAMES
290
     1
  9
$PSVPSCALE
 40
0.0
  9
$OLESTARTUP
290
     0
  0
ENDSEC
  0
SECTION
  2
CLASSES
  0
CLASS
  1
ACDBDICTIONARYWDFLT
  2
AcDbDictionaryWithDefault
  3
ObjectDBX Classes
 90
        0
280
     0
281
     0
  0
CLASS
  1
ACDBPLACEHOLDER
  2
AcDbPlaceHolder
  3
ObjectDBX Classes
 90
        0
280
     0
281
     0
  0
CLASS
  1
LAYOUT
  2
AcDbLayout
  3
ObjectDBX Classes
 90
        0
280
     0
281
     0
  0
CLASS
  1
AMGSETTINGSOBJ
  2
AmgSettingsObj
  3
"AcadM|Product Description: AutoCAD Mechanical|Company: Autodesk"
 90
        0
280
     0
281
     0
  0
CLASS
  1
ACME_DOCUMENT
  2
AcMeDbDoc
  3
AcMeServices
 90
        0
280
     0
281
     0
  0
CLASS
  1
ACMESCOPE
  2
AcMeScope
  3
AcMeServices
 90
        0
280
     0
281
     0
  0
CLASS
  1
ACMECOMMANDHISTORY
  2
AcMeCommandHistory
  3
AcMeServices
 90
        0
280
     0
281
     0
  0
CLASS
  1
DICTIONARYVAR
  2
AcDbDictionaryVar
  3
ObjectDBX Classes
 90
        0
280
     0
281
     0
  0
CLASS
  1
ACIMSYSVARMAN
  2
AcImSysVarManager
  3
AcMeServices
 90
        0
280
     0
281
     0
  0
CLASS
  1
ACIMREALSYSVAR
  2
AcImRealSysVar
  3
AcMeServices
 90
        0
280
     0
281
     0
  0
CLASS
  1
ACIMINTSYSVAR
  2
AcImIntSysVar
  3
AcMeServices
 90
        0
280
     0
281
     0
  0
CLASS
  1
ACMEDRAWINGMAN
  2
AcMeDrawingMan
  3
AcMeServices
 90
        0
280
     0
281
     0
  0
CLASS
  1
ACMEVIEW
  2
AcMeView
  3
AcMeServices
 90
        0
280
     0
281
     0
  0
CLASS
  1
ACDBENTITYCACHE
  2
AcMeEntityCache
  3
AcMeServices
 90
        0
280
     0
281
     0
  0
CLASS
  1
GSMANAGER
  2
AcMeGSManager
  3
AcMeServices
 90
        0
280
     0
281
     0
  0
CLASS
  1
AMDTINTERNALREACTOR
  2
AmdtInternalReactor
  3
AcMeServices
 90
        0
280
     0
281
     0
  0
CLASS
  1
ACMESTATEMGR
  2
AcMeStateMgr
  3
AcMeServices
 90
        0
280
     0
281
     0
  0
CLASS
  1
ACGREFMASTER
  2
AcGrefMaster
  3
AcAttribServices
 90
        0
280
     0
281
     0
  0
CLASS
  1
ACME_DATABASE
  2
AcMeDbDatabase
  3
AcMeServices
 90
        0
280
     0
281
     0
  0
CLASS
  1
ACRFINSADJUSTERMGR
  2
AcRfInsAdjusterMgr
  3
AcMeServices
 90
        0
280
     0
281
     0
  0
CLASS
  1
ACGREFACADMASTER
  2
AcGrefacadMaster
  3
AcGrefServices
 90
        0
280
     0
281
     0
  0
CLASS
  1
AMIMASTER
  2
AmiMaster
  3
AmiServices
 90
        0
280
     0
281
     0
  0
CLASS
  1
ACMDATADICTIONARY
  2
AcmDataDictionary
  3
"AcmSymBB|Product Description: AutoCAD Mechanical|Company: Autodesk"
 90
        0
280
     0
281
     0
  0
CLASS
  1
ACMDATAENTRYBLOCK
  2
AcmDataEntryBlock
  3
"AcmSymBB|Product Description: AutoCAD Mechanical|Company: Autodesk"
 90
        0
280
     0
281
     0
  0
CLASS
  1
ACIMSTRSYSVAR
  2
AcImStrSysVar
  3
AcMeServices
 90
        0
280
     0
281
     0
  0
CLASS
  1
ACMSTANDARDISO
  2
AcmStandardISO
  3
"Amdt_StdImp|Product Description: AutoCAD Mechanical|Company: Autodesk"
 90
        0
280
     0
281
     0
  0
CLASS
  1
AMGOBJPROPCFG
  2
AmgObjPropCfg
  3
"AmgLay|Product Description: AutoCAD Mechanical|Company: Autodesk"
 90
        1
280
     0
281
     0
  0
CLASS
  1
AMDTEDGESTANDARDISO
  2
AmdtEdgeStdISO
  3
"Amdt_StdImp|Product Description: AutoCAD Mechanical|Company: Autodesk"
 90
        0
280
     0
281
     0
  0
CLASS
  1
ACMSURFSTANDARDISO
  2
AcmSurfTextStdISO
  3
"Amdt_StdImp|Product Description: AutoCAD Mechanical|Company: Autodesk"
 90
        0
280
     0
281
     0
  0
CLASS
  1
ACMFCFSTANDARDISO
  2
AcmFCFStdISO
  3
"Amdt_StdImp|Product Description: AutoCAD Mechanical|Company: Autodesk"
 90
        0
280
     0
281
     0
  0
CLASS
  1
ACMWELDSTANDARDISO
  2
AcmWeldingStdISO
  3
"Amdt_StdImp|Product Description: AutoCAD Mechanical|Company: Autodesk"
 90
        0
280
     0
281
     0
  0
CLASS
  1
ACMIDSTANDARDISO
  2
AcmIdStdISO
  3
"Amdt_StdImp|Product Description: AutoCAD Mechanical|Company: Autodesk"
 90
        0
280
     0
281
     0
  0
CLASS
  1
ACMDATUMSTANDARDISO
  2
AcmDatumStdISO
  3
"Amdt_StdImp|Product Description: AutoCAD Mechanical|Company: Autodesk"
 90
        0
280
     0
281
     0
  0
CLASS
  1
ACMBOMSTANDARDISO
  2
AcmBOMStdISO
  3
"Amdt_StdImp|Product Description: AutoCAD Mechanical|Company: Autodesk"
 90
        0
280
     0
281
     0
  0
CLASS
  1
ACMDETAILSTANDARDISO
  2
AmdtDetailSymStdISO
  3
"Amdt_StdImp|Product Description: AutoCAD Mechanical|Company: Autodesk"
 90
        0
280
     0
281
     0
  0
CLASS
  1
ACMSECTIONSTANDARDISO
  2
AmdtSectionSymStdISO
  3
"Amdt_StdImp|Product Description: AutoCAD Mechanical|Company: Autodesk"
 90
        0
280
     0
281
     0
  0
CLASS
  1
ACMCENTERLINESTANDARDISO
  2
AmdtCenterLineStdISO
  3
"Amdt_StdImp|Product Description: AutoCAD Mechanical|Company: Autodesk"
 90
        0
280
     0
281
     0
  0
CLASS
  1
ACAMGLAYSTD
  2
AcAmgLayStd
  3
"AmgLay|Product Description: AutoCAD Mechanical|Company: Autodesk"
 90
        0
280
     0
281
     0
  0
CLASS
  1
ACAMGDIMSTD
  2
AcAmgDimStd
  3
"AmgDim|Product Description: AutoCAD Mechanical|Company: Autodesk"
 90
        0
280
     0
281
     0
  0
CLASS
  1
ACAMGTITLESTD
  2
AcAmgTitleStd
  3
"AmgTitle|Product Description: AutoCAD Mechanical|Company: Autodesk"
 90
        0
280
     0
281
     0
  0
CLASS
  1
ACAMGFILTERDAT
  2
AcAmgFilterDat
  3
"AcadM|Product Description: AutoCAD Mechanical|Company: Autodesk"
 90
        0
280
     0
281
     0
  0
CLASS
  1
LAYER_INDEX
  2
AcDbLayerIndex
  3
ObjectDBX Classes
 90
    32768
280
     0
281
     0
  0
CLASS
  1
IDBUFFER
  2
AcDbIdBuffer
  3
ObjectDBX Classes
 90
    32768
280
     0
281
     0
  0
CLASS
  1
PLOTSETTINGS
  2
AcDbPlotSettings
  3
ObjectDBX Classes
 90
    32768
280
     0
281
     0
  0
CLASS
  1
AMDTFORMULAUPDATEDISPATCHER
  2
AmdtFormulaUpdateDispatcher
  3
AcMeServices
 90
        0
280
     0
281
     0
  0
CLASS
  1
ACMSTANDARDANSI
  2
AcmStandardANSI
  3
"Amdt_StdImp|Product Description: AutoCAD Mechanical|Company: Autodesk"
 90
        0
280
     0
281
     0
  0
CLASS
  1
ACMSURFSTANDARDANSI
  2
AcmSurfTextStdANSI
  3
"Amdt_StdImp|Product Description: AutoCAD Mechanical|Company: Autodesk"
 90
        0
280
     0
281
     0
  0
CLASS
  1
ACMFCFSTANDARDANSI
  2
AcmFCFStdANSI
  3
"Amdt_StdImp|Product Description: AutoCAD Mechanical|Company: Autodesk"
 90
        0
280
     0
281
     0
  0
CLASS
  1
ACMWELDSTANDARDANSI
  2
AcmWeldingStdANSI
  3
"Amdt_StdImp|Product Description: AutoCAD Mechanical|Company: Autodesk"
 90
        0
280
     0
281
     0
  0
CLASS
  1
ACMIDSTANDARDANSI
  2
AcmIdStdANSI
  3
"Amdt_StdImp|Product Description: AutoCAD Mechanical|Company: Autodesk"
 90
        0
280
     0
281
     0
  0
CLASS
  1
ACMDATUMSTANDARDANSI
  2
AcmDatumStdANSI
  3
"Amdt_StdImp|Product Description: AutoCAD Mechanical|Company: Autodesk"
 90
        0
280
     0
281
     0
  0
CLASS
  1
ACMBOMSTANDARDANSI
  2
AcmBOMStdANSI
  3
"Amdt_StdImp|Product Description: AutoCAD Mechanical|Company: Autodesk"
 90
        0
280
     0
281
     0
  0
CLASS
  1
ACMDETAILSTANDARDANSI
  2
AmdtDetailSymStdANSI
  3
"Amdt_StdImp|Product Description: AutoCAD Mechanical|Company: Autodesk"
 90
        0
280
     0
281
     0
  0
CLASS
  1
ACMSECTIONSTANDARDANSI
  2
AmdtSectionSymStdANSI
  3
"Amdt_StdImp|Product Description: AutoCAD Mechanical|Company: Autodesk"
 90
        0
280
     0
281
     0
  0
CLASS
  1
ACMCENTERLINESTANDARDANSI
  2
AmdtCenterLineStdANSI
  3
"Amdt_StdImp|Product Description: AutoCAD Mechanical|Company: Autodesk"
 90
        0
280
     0
281
     0
  0
CLASS
  1
ACMBOM
  2
AcmBom
  3
"AcmSymBB|Product Description: AutoCAD Mechanical|Company: Autodesk"
 90
        0
280
     0
281
     0
  0
CLASS
  1
ACMDATAENTRYPART
  2
AcmDataEntryPart
  3
"AcmSymBB|Product Description: AutoCAD Mechanical|Company: Autodesk"
 90
        0
280
     0
281
     0
  0
CLASS
  1
ACMPARTREF
  2
AcmPartRef
  3
"AcmSymBB|Product Description: AutoCAD Mechanical|Company: Autodesk"
 90
    35839
280
     0
281
     1
  0
CLASS
  1
ACDBCIRCARCRES
  2
AcDbCircArcRes
  3
AcGrefServices
 90
        0
280
     0
281
     0
  0
CLASS
  1
ACMBOMROW
  2
AcmBomRow
  3
"AcmSymBB|Product Description: AutoCAD Mechanical|Company: Autodesk"
 90
    32768
280
     0
281
     0
  0
CLASS
  1
ACMBALLOON
  2
AcmBalloon
  3
"AcmSymBB|Product Description: AutoCAD Mechanical|Company: Autodesk"
 90
    35839
280
     0
281
     1
  0
CLASS
  1
AMDTNOTE
  2
AmdtNote
  3
"AcmSymBB|Product Description: AutoCAD Mechanical|Company: Autodesk"
 90
     3071
280
     0
281
     1
  0
CLASS
  1
STDPART2D
  2
AmgStdPart
  3
"g3vace|Class: AmgStdPart|Product Description: AutoCAD Mechanical|Company: Autodesk"
 90
    35839
280
     0
281
     1
  0
CLASS
  1
ACDBSTDPARTRES_LINE
  2
AcDbStdPartRes_Line
  3
"g3vace|Class: AcDbStdPartRes_Line|Product Description: AutoCAD Mechanical|Company: Autodesk"
 90
    32768
280
     0
281
     0
  0
CLASS
  1
ACMDATAENTRY
  2
AcmDataEntry
  3
"AcmSymBB|Product Description: AutoCAD Mechanical|Company: Autodesk"
 90
        0
280
     0
281
     0
  0
CLASS
  1
ACDBOPPOLYLINERES
  2
AcDbOpPolylineRes
  3
AcGrefServices
 90
    32768
280
     0
281
     0
  0
CLASS
  1
ACMPARTLIST
  2
AcmPartList
  3
"AcmSymBB|Product Description: AutoCAD Mechanical|Company: Autodesk"
 90
    35839
280
     0
281
     1
  0
CLASS
  1
ACDBLINERES
  2
AcDbLineRes
  3
AcGrefServices
 90
        0
280
     0
281
     0
  0
CLASS
  1
ACRFINSADJ
  2
AcRfInsAdjuster
  3
AcMeServices
 90
    32768
280
     0
281
     0
  0
CLASS
  1
AM_DRAWING_MGR
  2
AcDmDwgMgr
  3
AcMechDwgViewMgmt
 90
        0
280
     0
281
     0
  0
CLASS
  1
AM_DWG_DOCUMENT
  2
AcDmDwgDocument
  3
AcMechDwgViewMgmt
 90
        0
280
     0
281
     0
  0
CLASS
  1
AM_DWG_SHEET
  2
AcDmSheet
  3
AcMechDwgViewMgmt
 90
        0
280
     0
281
     0
  0
CLASS
  1
AM_VIEWDIMPARMAP
  2
AcDmViewDimParMap
  3
AcMechDwgViewMgmt
 90
        0
280
     0
281
     0
  0
CLASS
  1
AM_DWGMGR_NAME
  2
AcDmDwgMgrName
  3
AcMechDwgViewMgmt
 90
        0
280
     0
281
     0
  0
CLASS
  1
AMDTMENUSTATEMGR
  2
AmdtMenuStateMgr
  3
McadcomServices
 90
        0
280
     0
281
     0
  0
CLASS
  1
AMDTMCOMMENUSTATE
  2
AmdtMcomMenuState
  3
McadcomServices
 90
        0
280
     0
281
     0
  0
CLASS
  1
ASAPP
  2
AcAsAppObject
  3
AutoSurfServices
 90
        0
280
     0
281
     0
  0
CLASS
  1
IM_STATIC_MAN
  2
AcImStaticVarManager
  3
AcMeServices
 90
        0
280
     0
281
     0
  0
CLASS
  1
ACIMDBLSTATICVAR
  2
AcImDblStaticVar
  3
AcMeServices
 90
        0
280
     0
281
     0
  0
CLASS
  1
ACIMSTRSTATICVAR
  2
AcImStrStaticVar
  3
AcMeServices
 90
        0
280
     0
281
     0
  0
CLASS
  1
ACIMINTSTATICVAR
  2
AcImIntStaticVar
  3
AcMeServices
 90
        0
280
     0
281
     0
  0
CLASS
  1
ACASGREFMASTER
  2
AcAsGrefMaster
  3
AutoSurfResolverServices
 90
        0
280
     0
281
     0
  0
CLASS
  1
ACADGREFMODULE
  2
AcAdGrefModule
  3
AdGrefServices
 90
        0
280
     0
281
     0
  0
CLASS
  1
AMDTMAPISURFMOUDULE
  2
AmdtMApiSurfModule
  3
MApiSurfServices
 90
        0
280
     0
281
     0
  0
CLASS
  1
MAPIAMMOUDLE
  2
MApiAmModule
  3
MApiAmServices
 90
        0
280
     0
281
     0
  0
CLASS
  1
AMDTADMENUSTATE
  2
AmdtAdMenuState
  3
DesignerServices
 90
        0
280
     0
281
     0
  0
CLASS
  1
ADAPPL
  2
AcAdAppl
  3
DesignerServices
 90
        0
280
     0
281
     0
  0
CLASS
  1
DEPMGR
  2
AcAdDepMgr
  3
DesignerServices
 90
        0
280
     0
281
     0
  0
CLASS
  1
PARAMMGR
  2
AcAdParamMgr
  3
DesignerServices
 90
        0
280
     0
281
     0
  0
CLASS
  1
PARAMSCOPE
  2
AcAdParamScope
  3
DesignerServices
 90
        0
280
     0
281
     0
  0
CLASS
  1
NAMEDAPPL
  2
AcAdNamedAppl
  3
DesignerServices
 90
        0
280
     0
281
     0
  0
CLASS
  1
ADHNTMPLT
  2
AdHoleNoteTemplateMgr
  3
DesignerServices
 90
    32768
280
     0
281
     0
  0
CLASS
  1
AM_HNTEMPLATE_MGR_NAME
  2
AdHoleNoteTemplateMgrName
  3
DesignerServices
 90
    32768
280
     0
281
     0
  0
CLASS
  1
AMDTDMMENUSTATE
  2
AmdtDmMenuState
  3
AcMechDwgViewMgmt
 90
        0
280
     0
281
     0
  0
CLASS
  1
MAPIADMODULE
  2
MApiAdModule
  3
MApiAdServices
 90
        0
280
     0
281
     0
  0
CLASS
  1
AMDTAMMENUSTATE
  2
AmdtAmMenuState
  3
DesignerAssemblies
 90
        0
280
     0
281
     0
  0
CLASS
  1
ACAMPROJECT
  2
AcAmProject
  3
DesignerAssemblies
 90
        0
280
     0
281
     0
  0
CLASS
  1
ACAMGRCOMPDEF
  2
AcAmGrCompDef
  3
DesignerAssemblies
 90
        0
280
     0
281
     0
  0
CLASS
  1
ACCMCONTEXT
  2
AcCmContext
  3
DesignerAssemblies
 90
        0
280
     0
281
     0
  0
CLASS
  1
ACAMCOMPDEF
  2
AcAmCompDef
  3
DesignerAssemblies
 90
        0
280
     0
281
     0
  0
CLASS
  1
ACAMCOMPDEFMGR
  2
AcAmCompDefMgr
  3
DesignerAssemblies
 90
        0
280
     0
281
     0
  0
CLASS
  1
AMCONTEXTMGR
  2
AcAmContextMgr
  3
DesignerAssemblies
 90
        0
280
     0
281
     0
  0
CLASS
  1
ACAMCONTEXTMODELER
  2
AcAmContextModeler
  3
DesignerAssemblies
 90
        0
280
     0
281
     0
  0
CLASS
  1
CATALOGSTATE
  2
AcAmCatalogState
  3
DesignerAssemblies
 90
        0
280
     0
281
     0
  0
CLASS
  1
ACAMGRCOMPDEFSET
  2
AcAmGrCompDefSet
  3
DesignerAssemblies
 90
        0
280
     0
281
     0
  0
CLASS
  1
AMDTBROWSERDBTAB
  2
AmdtBrowserDbTab
  3
McadcomServices
 90
        0
280
     0
281
     0
  0
CLASS
  1
CBROWSERAPPOBJECT
  2
CBrowserAppObject
  3
McadcomServices
 90
        0
280
     0
281
     0
  0
CLASS
  1
DM_PLACEHOLDER
  2
AcDmSelsetPlaceholder
  3
AcMechDwgViewMgmt
 90
        0
280
     0
281
     0
  0
CLASS
  1
ACMPICKOBJ
  2
AcmPickEnt
  3
"AcmSymBB|Product Description: AutoCAD Mechanical|Company: Autodesk"
 90
    32768
280
     0
281
     1
  0
CLASS
  1
ACMNOTESTANDARDISO
  2
AmdtNoteStdISO
  3
"Amdt_StdImp|Product Description: AutoCAD Mechanical|Company: Autodesk"
 90
        0
280
     0
281
     0
  0
CLASS
  1
ACMNOTESTANDARDANSI
  2
AmdtNoteStdANSI
  3
"Amdt_StdImp|Product Description: AutoCAD Mechanical|Company: Autodesk"
 90
        0
280
     0
281
     0
  0
CLASS
  1
ACMTHREADLINESTANDARDISO
  2
AmdtThreadLineStdISO
  3
"Amdt_StdImp|Product Description: AutoCAD Mechanical|Company: Autodesk"
 90
        0
280
     0
281
     0
  0
CLASS
  1
ACMTHREADLINESTANDARDANSI
  2
AmdtThreadLineStdANSI
  3
"Amdt_StdImp|Product Description: AutoCAD Mechanical|Company: Autodesk"
 90
        0
280
     0
281
     0
  0
CLASS
  1
TABLESTYLE
  2
AcDbTableStyle
  3
ObjectDBX Classes
 90
     4095
280
     0
281
     0
  0
CLASS
  1
SORTENTSTABLE
  2
AcDbSortentsTable
  3
ObjectDBX Classes
 90
        0
280
     0
281
     0
  0
CLASS
  1
MATERIAL
  2
AcDbMaterial
  3
ObjectDBX Classes
 90
     1024
280
     0
281
     0
  0
CLASS
  1
VISUALSTYLE
  2
AcDbVisualStyle
  3
ObjectDBX Classes
 90
     4095
280
     0
281
     0
  0
CLASS
  1
ACRFATTGENMGR
  2
AcRfAttGeneralMgr
  3
AcAttribServices
 90
        0
280
     0
281
     0
  0
CLASS
  1
ACRFOBJATTMGR
  2
AcRfObjAttGroupMgr
  3
AcAttribServices
 90
        0
280
     0
281
     0
  0
CLASS
  1
ACRFMCADAPIATTHOLDER
  2
AcRfMCADAPIAttHolder
  3
AcAttribServices
 90
        0
280
     0
281
     0
  0
CLASS
  1
AMDTSYSATTR
  2
AmdtSystemAttribute
  3
AcAttribServices
 90
        0
280
     0
281
     0
  0
CLASS
  1
ACMTAPERSTANDARDISO
  2
AcmTaperStdISO
  3
"Amdt_StdImp|Product Description: AutoCAD Mechanical|Company: Autodesk"
 90
        0
280
     0
281
     0
  0
CLASS
  1
CAMSSTRUCTBTNSTATE
  2
StructBtnState
  3
L"DesignerAssemblies"
 90
        0
280
     0
281
     0
  0
CLASS
  1
DIMASSOC
  2
AcDbDimAssoc
  3
"AcDbDimAssoc|Product Desc:     AcDim ARX App For Dimension|Company:          Autodesk, Inc.|WEB Address:      www.autodesk.com"
 90
    32768
280
     0
281
     0
  0
CLASS
  1
AMDTNOTETEMPLATEDB
  2
AmdtNoteTemplateDB
  3
AMDT_STDIMP_MODULE_NAME
 90
        0
280
     0
281
     0
  0
CLASS
  1
ACMTAPERSTANDARDANSI
  2
AcmTaperStdANSI
  3
"Amdt_StdImp|Product Description: AutoCAD Mechanical|Company: Autodesk"
 90
        0
280
     0
281
     0
  0
CLASS
  1
ACAMGHOLECHARTSTDANSI
  2
AcAmgHoleChartStdANSI
  3
ACMSYMBB_MODULE_NAME
 90
        0
280
     0
281
     0
  0
CLASS
  1
AMDTACMWBLOCKBOMENTITY
  2
AmdtAcmWblockBomEntity
  3
"AcmSymBB|Product Description: AutoCAD Mechanical|Company: Autodesk"
 90
     3071
280
     0
281
     1
  0
CLASS
  1
EXACXREFPANELOBJECT
  2
ExAcXREFPanelObject
  3
EXAC_ESW
 90
    33793
280
     0
281
     0
  0
CLASS
  1
NPOCOLLECTION
  2
AcDbImpNonPersistentObjectsCollection
  3
ObjectDBX Classes
 90
    33921
280
     0
281
     0
  0
CLASS
  1
LARGE_RADIAL_DIMENSION
  2
AcDbRadialDimensionLarge
  3
ObjectDBX Classes
 90
    33793
280
     0
281
     1
  0
ENDSEC
  0
SECTION
  2
TABLES
  0
TABLE
  2
VPORT
  5
8
102
{ACAD_XDICTIONARY
360
53529
102
}
330
0
100
AcDbSymbolTable
 70
     1
  0
VPORT
  5
B0EC
330
8
100
AcDbSymbolTableRecord
100
AcDbViewportTableRecord
  2
*Active
 70
     0
 10
0.0
 20
0.0
 11
1.0
 21
1.0
 12
6076.178428038423
 22
-2503.474099149852
 13
0.0
 23
0.0
 14
2.5
 24
2.5
 15
10.0
 25
10.0
 16
0.0
 26
0.0
 36
1.0
 17
0.0
 27
0.0
 37
0.0
 40
533.4225408728129
 41
1.407124681933842
 42
50.0
 43
-1370.695619172058
 44
-1370.695619172058
 50
0.0
 51
0.0
 71
     0
 72
   100
 73
     1
 74
     3
 75
     0
 76
     0
 77
     0
 78
     0
281
     0
 65
     0
110
0.0
120
0.0
130
0.0
111
1.0
121
0.0
131
0.0
112
0.0
122
1.0
132
0.0
 79
     0
146
0.0
  0
ENDTAB
  0
TABLE
  2
LTYPE
  5
5
330
0
100
AcDbSymbolTable
 70
    34
  0
LTYPE
  5
14
330
5
100
AcDbSymbolTableRecord
100
AcDbLinetypeTableRecord
  2
ByBlock
 70
     0
  3

 72
    65
 73
     0
 40
0.0
  0
LTYPE
  5
15
330
5
100
AcDbSymbolTableRecord
100
AcDbLinetypeTableRecord
  2
ByLayer
 70
     0
  3

 72
    65
 73
     0
 40
0.0
  0
LTYPE
  5
16
330
5
100
AcDbSymbolTableRecord
100
AcDbLinetypeTableRecord
  2
Continuous
 70
     0
  3
Solid line
 72
    65
 73
     0
 40
0.0
  0
LTYPE
  5
4F
330
5
100
AcDbSymbolTableRecord
100
AcDbLinetypeTableRecord
  2
AM_ISO02W050
 70
     0
  3
__ __ __ __ __ __ __ __ __ __ __ __ __ __ __
 72
    65
 73
     2
 40
7.5
 49
6.0
 74
     0
 49
-1.5
 74
     0
  0
LTYPE
  5
52
330
5
100
AcDbSymbolTableRecord
100
AcDbLinetypeTableRecord
  2
Amconstr
 70
     0
  3
_______________________
 72
    65
 73
     2
 40
9999.0
 49
9999.0
 74
     0
 49
0.0
 74
     0
  0
LTYPE
  5
64
330
5
100
AcDbSymbolTableRecord
100
AcDbLinetypeTableRecord
  2
ACISOWELD
 70
     0
  3
_ _ _ _ _
 72
    65
 73
     2
 40
2.0
 49
2.0
 74
     0
 49
-1.0
 74
     0
  0
LTYPE
  5
65
330
5
100
AcDbSymbolTableRecord
100
AcDbLinetypeTableRecord
  2
ACISOTGB
 70
     0
  3
__ . . __ . .
 72
    65
 73
     6
 40
9.0
 49
4.0
 74
     0
 49
-1.0
 74
     0
 49
1.0
 74
     0
 49
-1.0
 74
     0
 49
1.0
 74
     0
 49
-1.0
 74
     0
  0
LTYPE
  5
66
330
5
100
AcDbSymbolTableRecord
100
AcDbLinetypeTableRecord
  2
ACISOTGL
 70
     0
  3
_ _ _ _ _
 72
    65
 73
     2
 40
3.0
 49
2.0
 74
     0
 49
-1.0
 74
     0
  0
LTYPE
  5
69
330
5
100
AcDbSymbolTableRecord
100
AcDbLinetypeTableRecord
  2
CENTER
 70
     0
  3
__ . __
 72
    65
 73
     4
 40
7.0
 49
4.0
 74
     0
 49
-1.0
 74
     0
 49
1.0
 74
     0
 49
-1.0
 74
     0
  0
LTYPE
  5
A6E
330
5
100
AcDbSymbolTableRecord
100
AcDbLinetypeTableRecord
  2
PHANTOM2
 70
     0
  3
Phantom (.5x) ___ _ _ ___ _ _ ___ _ _ ___ _ _
 72
    65
 73
     6
 40
31.75
 49
15.875
 74
     0
 49
-3.174999999999999
 74
     0
 49
3.174999999999999
 74
     0
 49
-3.174999999999999
 74
     0
 49
3.174999999999999
 74
     0
 49
-3.174999999999999
 74
     0
  0
LTYPE
  5
4DED
330
5
100
AcDbSymbolTableRecord
100
AcDbLinetypeTableRecord
  2
中線
 70
     0
  3
___________________
 72
    65
 73
     2
 40
2.0
 49
1.0
 74
     0
 49
1.0
 74
     0
  0
LTYPE
  5
4DF6
330
5
100
AcDbSymbolTableRecord
100
AcDbLinetypeTableRecord
  2
細線
 70
     0
  3
___________________
 72
    65
 73
     2
 40
2.0
 49
1.0
 74
     0
 49
1.0
 74
     0
  0
LTYPE
  5
4DF7
330
5
100
AcDbSymbolTableRecord
100
AcDbLinetypeTableRecord
  2
太線
 70
     0
  3
___________________
 72
    65
 73
     2
 40
2.0
 49
1.0
 74
     0
 49
1.0
 74
     0
  0
LTYPE
  5
4EA7
330
5
100
AcDbSymbolTableRecord
100
AcDbLinetypeTableRecord
  2
文字
 70
     0
  3
_________________
 72
    65
 73
     2
 40
2.0
 49
1.0
 74
     0
 49
1.0
 74
     0
  0
LTYPE
  5
4EA9
330
5
100
AcDbSymbolTableRecord
100
AcDbLinetypeTableRecord
  2
寸法線
 70
     0
  3
________________
 72
    65
 73
     2
 40
2.0
 49
1.0
 74
     0
 49
1.0
 74
     0
  0
LTYPE
  5
4F12
330
5
100
AcDbSymbolTableRecord
100
AcDbLinetypeTableRecord
  2
ハッチング
 70
     0
  3
_________________
 72
    65
 73
     2
 40
2.0
 49
1.0
 74
     0
 49
1.0
 74
     0
  0
LTYPE
  5
5180
330
5
100
AcDbSymbolTableRecord
100
AcDbLinetypeTableRecord
  2
陰線1
 70
     0
  3
__ __ __ __
 72
    65
 73
     2
 40
4.0
 49
2.2
 74
     0
 49
-1.8
 74
     0
  0
LTYPE
  5
5182
330
5
100
AcDbSymbolTableRecord
100
AcDbLinetypeTableRecord
  2
切断線
 70
     0
  3
/\/-/\/-/\/-/\/-/\/-/\/
 72
    65
 73
     2
 40
11.0001
 49
0.0001
 74
     4
 75
   135
340
56
 46
0.04
 50
0.0
 44
0.0
 45
0.0
 49
-11.0
 74
     0
  0
LTYPE
  5
5183
330
5
100
AcDbSymbolTableRecord
100
AcDbLinetypeTableRecord
  2
想像線1
 70
     0
  3
__ __ __ _____ __ __ ____
 72
    65
 73
     6
 40
14.5
 49
6.0
 74
     0
 49
-1.5
 74
     0
 49
2.0
 74
     0
 49
-1.5
 74
     0
 49
2.0
 74
     0
 49
-1.5
 74
     0
  0
LTYPE
  5
5185
330
5
100
AcDbSymbolTableRecord
100
AcDbLinetypeTableRecord
  2
中心線1
 70
     0
  3
___ _ ___ _ ___
 72
    65
 73
     4
 40
18.0
 49
12.0
 74
     0
 49
-2.0
 74
     0
 49
2.0
 74
     0
 49
-2.0
 74
     0
  0
LTYPE
  5
5188
330
5
100
AcDbSymbolTableRecord
100
AcDbLinetypeTableRecord
  2
補助線
 70
     0
  3
______________
 72
    65
 73
     2
 40
2.0
 49
1.0
 74
     0
 49
1.0
 74
     0
  0
LTYPE
  5
6427
330
5
100
AcDbSymbolTableRecord
100
AcDbLinetypeTableRecord
  2
HIDDEN
 70
     0
  3
Hidden __ __ __ __ __ __ __ __ __ __ __ __ __ _
 72
    65
 73
     2
 40
0.375
 49
0.25
 74
     0
 49
-0.125
 74
     0
  0
LTYPE
  5
AC81
330
5
100
AcDbSymbolTableRecord
100
AcDbLinetypeTableRecord
  2
破断線
 70
     0
  3
/\/-/\/-/\/-/\/-/\/-/\/
 72
    65
 73
     2
 40
0.4401
 49
0.0001
 74
     4
 75
   136
340
AC80
 46
0.0016
 50
0.0
 44
0.0
 45
0.0
 49
-0.4400000000000001
 74
     0
  0
LTYPE
  5
AC9E
330
5
100
AcDbSymbolTableRecord
100
AcDbLinetypeTableRecord
  2
Amzigzag
 70
     0
  3
/\/-/\/-/\/-/\/-/\/-/\/
 72
    65
 73
     2
 40
11.0001
 49
0.0001
 74
     4
 75
   135
340
56
 46
0.04
 50
0.0
 44
0.0
 45
0.0
 49
-11.0
 74
     0
  0
LTYPE
  5
AF0F
330
5
100
AcDbSymbolTableRecord
100
AcDbLinetypeTableRecord
  2
genzigzag
 70
     0
  3
/\/-/\/-/\/-/\/-/\/-/\/
 72
    65
 73
     2
 40
12.0001
 49
0.0001
 74
     4
 75
   135
340
AC80
 46
2.0
 50
0.0
 44
0.0
 45
0.0
 49
-12.0
 74
     0
  0
LTYPE
  5
AF95
330
5
100
AcDbSymbolTableRecord
100
AcDbLinetypeTableRecord
  2
AM_ISO08W050
 70
     0
  3
____ . ____ . ____ . ____ . ____ . ____ . ____
 72
    65
 73
     4
 40
18.0
 49
12.0
 74
     0
 49
-1.5
 74
     0
 49
3.0
 74
     0
 49
-1.5
 74
     0
  0
LTYPE
  5
AF96
330
5
100
AcDbSymbolTableRecord
100
AcDbLinetypeTableRecord
  2
AM_ISO09W050
 70
     0
  3
_____ . . _____ . . _____ . . ____ .. ____
 72
    65
 73
     6
 40
22.5
 49
12.0
 74
     0
 49
-1.5
 74
     0
 49
3.0
 74
     0
 49
-1.5
 74
     0
 49
3.0
 74
     0
 49
-1.5
 74
     0
  0
LTYPE
  5
AF97
330
5
100
AcDbSymbolTableRecord
100
AcDbLinetypeTableRecord
  2
AM_ISO08W050x2
 70
     0
  3
__ . __ . __ . __ . __ . __
 72
    65
 73
     4
 40
9.0
 49
6.0
 74
     0
 49
-0.75
 74
     0
 49
1.5
 74
     0
 49
-0.75
 74
     0
  0
LTYPE
  5
AF98
330
5
100
AcDbSymbolTableRecord
100
AcDbLinetypeTableRecord
  2
AM_ISO02W050x2
 70
     0
  3
 _ _ _ _ _ _ _ _ _ _ _ _
 72
    65
 73
     2
 40
3.75
 49
3.0
 74
     0
 49
-0.75
 74
     0
  0
LTYPE
  5
1D53A
330
5
100
AcDbSymbolTableRecord
100
AcDbLinetypeTableRecord
  2
DASHED
 70
     0
  3
__ __ __ __ __ __ __ __ __ __ __ __ __ __ __
 72
    65
 73
     2
 40
3.5
 49
2.0
 74
     0
 49
-1.5
 74
     0
  0
LTYPE
  5
1D53B
330
5
100
AcDbSymbolTableRecord
100
AcDbLinetypeTableRecord
  2
CENTER2
 70
     0
  3
Center (.5x) ___ _ ___ _ ___ _ ___ _ ___ _ ___
 72
    65
 73
     4
 40
1.125
 49
0.75
 74
     0
 49
-0.125
 74
     0
 49
0.125
 74
     0
 49
-0.125
 74
     0
  0
LTYPE
  5
1D53C
330
5
100
AcDbSymbolTableRecord
100
AcDbLinetypeTableRecord
  2
HIDDEN2
 70
     0
  3
Hidden (.5x) _ _ _ _ _ _ _ _ _ _ _ _ _ _ _ _ _
 72
    65
 73
     2
 40
0.1875
 49
0.125
 74
     0
 49
-0.0625
 74
     0
  0
LTYPE
  5
1D53D
330
5
100
AcDbSymbolTableRecord
100
AcDbLinetypeTableRecord
  2
Amzigzag2
 70
     0
  3
/\/-/\/-/\/-/\/-/\/-/\/
 72
    65
 73
     2
 40
0.4401
 49
0.0001
 74
     4
 75
   136
340
AC80
 46
0.0016
 50
0.0
 44
0.0
 45
0.0
 49
-0.4400000000000001
 74
     0
  0
LTYPE
  5
1D53E
330
5
100
AcDbSymbolTableRecord
100
AcDbLinetypeTableRecord
  2
ACANSTGB
 70
     0
  3
__ . . __ . .
 72
    65
 73
     6
 40
0.35433070866
 49
0.15748031496
 74
     0
 49
-0.03937007874
 74
     0
 49
0.03937007874
 74
     0
 49
-0.03937007874
 74
     0
 49
0.03937007874
 74
     0
 49
-0.03937007874
 74
     0
  0
LTYPE
  5
1D53F
330
5
100
AcDbSymbolTableRecord
100
AcDbLinetypeTableRecord
  2
ACANSTGL
 70
     0
  3
_ _ _ _ _
 72
    65
 73
     2
 40
0.11811023622
 49
0.07874015748
 74
     0
 49
-0.03937007874
 74
     0
  0
LTYPE
  5
3215C
330
5
100
AcDbSymbolTableRecord
100
AcDbLinetypeTableRecord
  2
PHANTOM
 70
     0
  3
_____ _ _ _____ _ _ _____ _ _ _____ _ _ ____  
 72
    65
 73
     6
 40
15.5
 49
8.0
 74
     0
 49
-1.5
 74
     0
 49
1.5
 74
     0
 49
-1.5
 74
     0
 49
1.5
 74
     0
 49
-1.5
 74
     0
  0
ENDTAB
  0
TABLE
  2
LAYER
  5
2
102
{ACAD_XDICTIONARY
360
3F95
102
}
330
0
100
AcDbSymbolTable
 70
    24
  0
LAYER
  5
10
330
2
100
AcDbSymbolTableRecord
100
AcDbLayerTableRecord
  2
0
 70
     0
 62
     7
  6
Continuous
370
    -3
390
F
  0
LAYER
  5
6D1
330
2
100
AcDbSymbolTableRecord
100
AcDbLayerTableRecord
  2
Defpoints
 70
     0
 62
     7
  6
Continuous
290
     0
370
    -3
390
F
  0
LAYER
  5
5F85
330
2
100
AcDbSymbolTableRecord
100
AcDbLayerTableRecord
  2
AM_0
 70
     0
 62
     7
  6
中線
370
    30
390
F
1001
AcAecLayerStandard
1000

1000

  0
LAYER
  5
AC9F
330
2
100
AcDbSymbolTableRecord
100
AcDbLayerTableRecord
  2
size
 70
     0
 62
     5
  6
Continuous
290
     0
370
    25
390
F
  0
LAYER
  5
ACA0
330
2
100
AcDbSymbolTableRecord
100
AcDbLayerTableRecord
  2
waku
 70
     0
 62
     7
  6
Continuous
370
    35
390
F
  0
LAYER
  5
ACA1
330
2
100
AcDbSymbolTableRecord
100
AcDbLayerTableRecord
  2
AM_6
 70
     0
 62
     2
  6
文字
370
    13
390
F
1001
AcAecLayerStandard
1000

1000

  0
LAYER
  5
ACC8
330
2
100
AcDbSymbolTableRecord
100
AcDbLayerTableRecord
  2
hyomoji
 70
     0
 62
     2
  6
Continuous
370
    13
390
F
  0
LAYER
  5
ACC9
330
2
100
AcDbSymbolTableRecord
100
AcDbLayerTableRecord
  2
hyosen1
 70
     0
 62
     1
  6
Continuous
370
    25
390
F
  0
LAYER
  5
ACCA
330
2
100
AcDbSymbolTableRecord
100
AcDbLayerTableRecord
  2
hyosen2
 70
     0
 62
     1
  6
Continuous
370
    13
390
F
  0
LAYER
  5
AD60
330
2
100
AcDbSymbolTableRecord
100
AcDbLayerTableRecord
  2
AM_1
 70
     0
 62
    30
  6
太線
370
    40
390
F
1001
AcAecLayerStandard
1000

1000

  0
LAYER
  5
AD64
330
2
100
AcDbSymbolTableRecord
100
AcDbLayerTableRecord
  2
AM_2
 70
     0
 62
     1
  6
細線
370
     9
390
F
1001
AcAecLayerStandard
1000

1000

  0
LAYER
  5
AD67
330
2
100
AcDbSymbolTableRecord
100
AcDbLayerTableRecord
  2
AM_3
 70
     0
 62
     6
  6
陰線1
370
     9
390
F
1001
AcAecLayerStandard
1000

1000

  0
LAYER
  5
AD68
330
2
100
AcDbSymbolTableRecord
100
AcDbLayerTableRecord
  2
AM_5
 70
     0
 62
     3
  6
寸法線
370
     9
390
F
1001
AcAecLayerStandard
1000

1000

  0
LAYER
  5
AD69
330
2
100
AcDbSymbolTableRecord
100
AcDbLayerTableRecord
  2
AM_7
 70
     0
 62
     4
  6
中心線1
370
     9
390
F
1001
AcAecLayerStandard
1000

1000

  0
LAYER
  5
AD6A
330
2
100
AcDbSymbolTableRecord
100
AcDbLayerTableRecord
  2
AM_8
 70
     0
 62
     1
  6
ハッチング
370
     9
390
F
1001
AcAecLayerStandard
1000

1000

  0
LAYER
  5
AD6E
330
2
100
AcDbSymbolTableRecord
100
AcDbLayerTableRecord
  2
AM_10
 70
     0
 62
     7
  6
切断線
370
    13
390
F
1001
AcAecLayerStandard
1000

1000

  0
LAYER
  5
AD6F
330
2
100
AcDbSymbolTableRecord
100
AcDbLayerTableRecord
  2
AM_11
 70
     0
 62
     2
  6
想像線1
370
     9
390
F
1001
AcAecLayerStandard
1000

1000

  0
LAYER
  5
B1B6
330
2
100
AcDbSymbolTableRecord
100
AcDbLayerTableRecord
  2
AM_CL
 70
     0
 62
     1
  6
Amconstr
370
    15
390
F
1001
AcAecLayerStandard
1000

1000

  0
LAYER
  5
B2EB
330
2
100
AcDbSymbolTableRecord
100
AcDbLayerTableRecord
  2
AM_14
 70
     0
 62
     5
  6
細線
370
     9
390
F
1001
AcAecLayerStandard
1000

1000

  0
LAYER
  5
B2EC
330
2
100
AcDbSymbolTableRecord
100
AcDbLayerTableRecord
  2
AM_15
 70
     0
 62
     6
  6
陰線1
370
     9
390
F
1001
AcAecLayerStandard
1000

1000

  0
LAYER
  5
CA46
330
2
100
AcDbSymbolTableRecord
100
AcDbLayerTableRecord
  2
001本体
 70
     0
 62
   121
  6
中線
370
    30
390
F
1001
AcAecLayerStandard
1000

1000

  0
LAYER
  5
EB4F
330
2
100
AcDbSymbolTableRecord
100
AcDbLayerTableRecord
  2
AM_4
 70
     0
 62
     3
  6
補助線
370
     9
390
F
1001
AcAecLayerStandard
1000

1000

  0
LAYER
  5
1E1B6
330
2
100
AcDbSymbolTableRecord
100
AcDbLayerTableRecord
  2
AM_12
 70
     0
 62
     7
  6
Continuous
290
     0
370
    15
390
F
  0
LAYER
  5
24E2B
330
2
100
AcDbSymbolTableRecord
100
AcDbLayerTableRecord
  2
000済
 70
     0
 62
    50
  6
中線
370
    30
390
F
1001
AcAecLayerStandard
1000

1000

  0
ENDTAB
  0
TABLE
  2
STYLE
  5
3
330
0
100
AcDbSymbolTable
 70
    15
  0
STYLE
  5
11
330
3
100
AcDbSymbolTableRecord
100
AcDbTextStyleTableRecord
  2
STANDARD
 70
     0
 40
0.0
 41
0.7
 50
0.0
 71
     0
 42
3.5
  3
romans.shx
  4
extfont.shx
  0
STYLE
  5
56
330
3
100
AcDbSymbolTableRecord
100
AcDbTextStyleTableRecord
  2

 70
     1
 40
0.0
 41
1.0
 50
0.0
 71
     0
 42
2.5
  3
ltypeshp.shx
  4

  0
STYLE
  5
58
330
3
100
AcDbSymbolTableRecord
100
AcDbTextStyleTableRecord
  2
ACISOTS
 70
     0
 40
1.0
 41
1.0
 50
0.0
 71
     0
 42
2.5
  3
isocp.shx
  4
extfont.shx
  0
STYLE
  5
63
330
3
100
AcDbSymbolTableRecord
100
AcDbTextStyleTableRecord
  2
ACISOGDT
 70
     0
 40
0.0
 41
1.0
 50
0.0
 71
     0
 42
2.5
  3
amgdt.shx
  4

  0
STYLE
  5
A74
330
3
100
AcDbSymbolTableRecord
100
AcDbTextStyleTableRecord
  2
DIM
 70
     0
 40
0.0
 41
1.0
 50
0.0
 71
     0
 42
2.5
  3
monotxt.shx
  4
extfont.shx
  0
STYLE
  5
AC80
330
3
100
AcDbSymbolTableRecord
100
AcDbTextStyleTableRecord
  2

 70
     1
 40
0.0
 41
1.0
 50
0.0
 71
     0
 42
3.2
  3
genltshp.shx
  4

  0
STYLE
  5
CA48
330
3
100
AcDbSymbolTableRecord
100
AcDbTextStyleTableRecord
  2
横書き
 70
     0
 40
0.0
 41
1.0
 50
0.0
 71
     0
 42
3.5
  3
TXT.shx
  4
bigfont.shx
  0
STYLE
  5
CA49
330
3
100
AcDbSymbolTableRecord
100
AcDbTextStyleTableRecord
  2
横書き2
 70
     0
 40
0.0
 41
1.0
 50
0.0
 71
     0
 42
4.0
  3
TXT.shx
  4
extfont2.shx
  0
STYLE
  5
CA4A
330
3
100
AcDbSymbolTableRecord
100
AcDbTextStyleTableRecord
  2
明朝
 70
     0
 40
0.0
 41
1.0
 50
0.0
 71
     0
 42
3.0
  3
MS Mincho.ttf
  4

1001
ACAD
1000
MS Mincho
1071
    32785
  0
STYLE
  5
1D540
330
3
100
AcDbSymbolTableRecord
100
AcDbTextStyleTableRecord
  2
ACANSTS
 70
     0
 40
1.0
 41
1.0
 50
0.0
 71
     0
 42
3.2
  3
romans.shx
  4
extfont.shx
  0
STYLE
  5
1D541
330
3
100
AcDbSymbolTableRecord
100
AcDbTextStyleTableRecord
  2
ACANSGDT
 70
     0
 40
0.0
 41
1.0
 50
0.0
 71
     0
 42
3.2
  3
amgdt.shx
  4

  0
ENDTAB
  0
TABLE
  2
VIEW
  5
6
330
0
100
AcDbSymbolTable
 70
     6
  0
VIEW
  5
AE1
330
6
100
AcDbSymbolTableRecord
100
AcDbViewTableRecord
  2
AM_VIEW1
 70
     0
 40
148.5
 10
1876.338856879554
 20
-5865.134660833434
 41
282.4136094674557
 11
0.0
 21
0.0
 31
1.0
 12
0.0
 22
0.0
 32
0.0
 42
50.0
 43
-1370.695619172058
 44
-1370.695619172058
 50
0.0
 71
     0
281
     0
 72
     0
  0
VIEW
  5
AE2
330
6
100
AcDbSymbolTableRecord
100
AcDbViewTableRecord
  2
AM_VIEW2
 70
     0
 40
148.5
 10
2013.925247412098
 20
-5865.134660833434
 41
282.4136094674557
 11
0.0
 21
0.0
 31
1.0
 12
0.0
 22
0.0
 32
0.0
 42
50.0
 43
-1370.695619172058
 44
-1370.695619172058
 50
0.0
 71
     0
281
     0
 72
     0
  0
VIEW
  5
AE3
330
6
100
AcDbSymbolTableRecord
100
AcDbViewTableRecord
  2
AM_VIEW3
 70
     0
 40
148.5
 10
1876.338856879554
 20
-6013.634660833434
 41
282.4136094674557
 11
0.0
 21
0.0
 31
1.0
 12
0.0
 22
0.0
 32
0.0
 42
50.0
 43
-1370.695619172058
 44
-1370.695619172058
 50
0.0
 71
     0
281
     0
 72
     0
  0
VIEW
  5
AE4
330
6
100
AcDbSymbolTableRecord
100
AcDbViewTableRecord
  2
AM_VIEW4
 70
     0
 40
148.5
 10
2013.925247412098
 20
-6013.634660833434
 41
282.4136094674557
 11
0.0
 21
0.0
 31
1.0
 12
0.0
 22
0.0
 32
0.0
 42
50.0
 43
-1370.695619172058
 44
-1370.695619172058
 50
0.0
 71
     0
281
     0
 72
     0
  0
VIEW
  5
AE5
330
6
100
AcDbSymbolTableRecord
100
AcDbViewTableRecord
  2
AM_VIEW5
 70
     0
 40
148.5
 10
1945.132052145826
 20
-5939.384660833434
 41
282.4136094674557
 11
0.0
 21
0.0
 31
1.0
 12
0.0
 22
0.0
 32
0.0
 42
50.0
 43
-1370.695619172058
 44
-1370.695619172058
 50
0.0
 71
     0
281
     0
 72
     0
  0
VIEW
  5
AE6
330
6
100
AcDbSymbolTableRecord
100
AcDbViewTableRecord
  2
AM_VIEW6
 70
     0
 40
296.9970300000004
 10
1945.132052145826
 20
-5939.384660833434
 41
564.8215706627218
 11
0.0
 21
0.0
 31
1.0
 12
0.0
 22
0.0
 32
0.0
 42
50.0
 43
-1370.695619172058
 44
-1370.695619172058
 50
0.0
 71
     0
281
     0
 72
     0
  0
ENDTAB
  0
TABLE
  2
UCS
  5
7
330
0
100
AcDbSymbolTable
 70
     0
  0
ENDTAB
  0
TABLE
  2
APPID
  5
9
330
0
100
AcDbSymbolTable
 70
    60
  0
APPID
  5
12
330
9
100
AcDbSymbolTableRecord
100
AcDbRegAppTableRecord
  2
ACAD
 70
     0
  0
APPID
  5
30
330
9
100
AcDbSymbolTableRecord
100
AcDbRegAppTableRecord
  2
MCAD_NO_VIS
 70
     0
  0
APPID
  5
31
330
9
100
AcDbSymbolTableRecord
100
AcDbRegAppTableRecord
  2
ACAD_TEMP_GRAPHIC
 70
     0
  0
APPID
  5
44
330
9
100
AcDbSymbolTableRecord
100
AcDbRegAppTableRecord
  2
ACATTRIBSERVICES
 70
     0
  0
APPID
  5
7A1
330
9
100
AcDbSymbolTableRecord
100
AcDbRegAppTableRecord
  2
GENIUS_GENDIMSH_14
 70
     0
  0
APPID
  5
A49
330
9
100
AcDbSymbolTableRecord
100
AcDbRegAppTableRecord
  2
GENIUS_GENREC_14
 70
     0
  0
APPID
  5
A4A
330
9
100
AcDbSymbolTableRecord
100
AcDbRegAppTableRecord
  2
GENIUS_GENOBJ-N-REC_13
 70
     0
  0
APPID
  5
A4B
330
9
100
AcDbSymbolTableRecord
100
AcDbRegAppTableRecord
  2
GENIUS_GENODEF_13
 70
     0
  0
APPID
  5
A4C
330
9
100
AcDbSymbolTableRecord
100
AcDbRegAppTableRecord
  2
DCO15
 70
     0
  0
APPID
  5
ADC
330
9
100
AcDbSymbolTableRecord
100
AcDbRegAppTableRecord
  2
GENIUS_GENOLIS_13
 70
     0
  0
APPID
  5
ADD
330
9
100
AcDbSymbolTableRecord
100
AcDbRegAppTableRecord
  2
GENIUS_GENOENT_13
 70
     0
  0
APPID
  5
ADE
330
9
100
AcDbSymbolTableRecord
100
AcDbRegAppTableRecord
  2
GENIUS_GENOBJ-N-TIT_13
 70
     0
  0
APPID
  5
ADF
330
9
100
AcDbSymbolTableRecord
100
AcDbRegAppTableRecord
  2
GENIUS_GENTITLE_13
 70
     0
  0
APPID
  5
AE0
330
9
100
AcDbSymbolTableRecord
100
AcDbRegAppTableRecord
  2
GENIUS_GENOREF_13
 70
     0
  0
APPID
  5
AE7
330
9
100
AcDbSymbolTableRecord
100
AcDbRegAppTableRecord
  2
GENIUS_GENSCREG_15
 70
     0
  0
APPID
  5
AE8
330
9
100
AcDbSymbolTableRecord
100
AcDbRegAppTableRecord
  2
GENIUS_GENOBJ-N-SDF_13
 70
     0
  0
APPID
  5
FAF
330
9
100
AcDbSymbolTableRecord
100
AcDbRegAppTableRecord
  2
GENIUS_GENBLLY_14
 70
     0
  0
APPID
  5
FB0
330
9
100
AcDbSymbolTableRecord
100
AcDbRegAppTableRecord
  2
GENIUS_GENTRA_14
 70
     0
  0
APPID
  5
1285
330
9
100
AcDbSymbolTableRecord
100
AcDbRegAppTableRecord
  2
GENIUS_GENDTOL_13
 70
     0
  0
APPID
  5
142D
330
9
100
AcDbSymbolTableRecord
100
AcDbRegAppTableRecord
  2
GENIUS_GENOBJ-N-CEN_13
 70
     0
  0
APPID
  5
1AB5
330
9
100
AcDbSymbolTableRecord
100
AcDbRegAppTableRecord
  2
GENIUS_GENOBJ-N-CRS_13
 70
     0
  0
APPID
  5
1B36
330
9
100
AcDbSymbolTableRecord
100
AcDbRegAppTableRecord
  2
GENIUS_GENOBJ-N-HTC_13
 70
     0
  0
APPID
  5
1B37
330
9
100
AcDbSymbolTableRecord
100
AcDbRegAppTableRecord
  2
GENIUS_GENHATCH_13
 70
     0
  0
APPID
  5
216D
330
9
100
AcDbSymbolTableRecord
100
AcDbRegAppTableRecord
  2
GENIUS_GENOBJ-N-FIL_13
 70
     0
  0
APPID
  5
2356
330
9
100
AcDbSymbolTableRecord
100
AcDbRegAppTableRecord
  2
GEVID990412420
 70
     0
  0
APPID
  5
2357
330
9
100
AcDbSymbolTableRecord
100
AcDbRegAppTableRecord
  2
GEVDC
 70
     0
  0
APPID
  5
2358
330
9
100
AcDbSymbolTableRecord
100
AcDbRegAppTableRecord
  2
GEVCON
 70
     0
  0
APPID
  5
235B
330
9
100
AcDbSymbolTableRecord
100
AcDbRegAppTableRecord
  2
GEVRADREF
 70
     0
  0
APPID
  5
2360
330
9
100
AcDbSymbolTableRecord
100
AcDbRegAppTableRecord
  2
GENIUS_GENBH_13
 70
     0
  0
APPID
  5
2362
330
9
100
AcDbSymbolTableRecord
100
AcDbRegAppTableRecord
  2
GENIUS_GENOBJ-NBEHI-BHF_13
 70
     0
  0
APPID
  5
2364
330
9
100
AcDbSymbolTableRecord
100
AcDbRegAppTableRecord
  2
GENIUS_GENOBJ-NBEHI-BHB_13
 70
     0
  0
APPID
  5
2379
330
9
100
AcDbSymbolTableRecord
100
AcDbRegAppTableRecord
  2
GENIUS_GENOBJ-F-SCPASSM_13
 70
     0
  0
APPID
  5
3D74
330
9
100
AcDbSymbolTableRecord
100
AcDbRegAppTableRecord
  2
GENIUS_GENDIM_13
 70
     0
  0
APPID
  5
3D76
330
9
100
AcDbSymbolTableRecord
100
AcDbRegAppTableRecord
  2
GENIUS_GE3DTOL_13
 70
     0
  0
APPID
  5
3D9C
330
9
100
AcDbSymbolTableRecord
100
AcDbRegAppTableRecord
  2
AD_DRAW
 70
     0
  0
APPID
  5
3DE8
330
9
100
AcDbSymbolTableRecord
100
AcDbRegAppTableRecord
  2
ASURF_PCURVE_APPNAME
 70
     0
  0
APPID
  5
3DED
330
9
100
AcDbSymbolTableRecord
100
AcDbRegAppTableRecord
  2
AMG_3D2D_5.0
 70
     0
  0
APPID
  5
3E1B
330
9
100
AcDbSymbolTableRecord
100
AcDbRegAppTableRecord
  2
DESIGNERASSEMBLIES
 70
     0
  0
APPID
  5
3E20
330
9
100
AcDbSymbolTableRecord
100
AcDbRegAppTableRecord
  2
ACADM_DIM_EDIT
 70
     0
  0
APPID
  5
3E21
330
9
100
AcDbSymbolTableRecord
100
AcDbRegAppTableRecord
  2
AMDT_DM_ADJ
 70
     0
  0
APPID
  5
4143
330
9
100
AcDbSymbolTableRecord
100
AcDbRegAppTableRecord
  2
GENIUS_GENFIL_13
 70
     0
  0
APPID
  5
4144
330
9
100
AcDbSymbolTableRecord
100
AcDbRegAppTableRecord
  2
GENIUS_GENOBJ-N-CHA_13
 70
     0
  0
APPID
  5
4E17
330
9
100
AcDbSymbolTableRecord
100
AcDbRegAppTableRecord
  2
GEVID1008153417
 70
     0
  0
APPID
  5
4E58
330
9
100
AcDbSymbolTableRecord
100
AcDbRegAppTableRecord
  2
GEVID1008153418
 70
     0
  0
APPID
  5
4E5E
330
9
100
AcDbSymbolTableRecord
100
AcDbRegAppTableRecord
  2
GEVID1008153419
 70
     0
  0
APPID
  5
4E64
330
9
100
AcDbSymbolTableRecord
100
AcDbRegAppTableRecord
  2
GEVID1008153420
 70
     0
  0
APPID
  5
4E75
330
9
100
AcDbSymbolTableRecord
100
AcDbRegAppTableRecord
  2
GEVID1008153421
 70
     0
  0
APPID
  5
4EB7
330
9
100
AcDbSymbolTableRecord
100
AcDbRegAppTableRecord
  2
GENIUS_AMGTXT_16
 70
     0
  0
APPID
  5
7645
330
9
100
AcDbSymbolTableRecord
100
AcDbRegAppTableRecord
  2
GENIUS_GENOBJ-N-DIM_13
 70
     0
  0
APPID
  5
AAD0
330
9
100
AcDbSymbolTableRecord
100
AcDbRegAppTableRecord
  2
ACAD_DSTYLE_DIMARC_LENGTH_SYMBOL
 70
     0
  0
APPID
  5
AAD1
330
9
100
AcDbSymbolTableRecord
100
AcDbRegAppTableRecord
  2
ACAD_DSTYLE_DIMJOGGED_JOGANGLE_SYMBOL
 70
     0
  0
APPID
  5
AAFD
330
9
100
AcDbSymbolTableRecord
100
AcDbRegAppTableRecord
  2
ACAD_PSEXT
 70
     0
  0
APPID
  5
AD61
330
9
100
AcDbSymbolTableRecord
100
AcDbRegAppTableRecord
  2
AcAecLayerStandard
 70
     0
  0
APPID
  5
AEE3
330
9
100
AcDbSymbolTableRecord
100
AcDbRegAppTableRecord
  2
ACAD_EXEMPT_FROM_CAD_STANDARDS
 70
     0
  0
APPID
  5
B1BE
330
9
100
AcDbSymbolTableRecord
100
AcDbRegAppTableRecord
  2
GENIUS_GENCEN_19
 70
     0
  0
APPID
  5
B4DF
330
9
100
AcDbSymbolTableRecord
100
AcDbRegAppTableRecord
  2
ACAD_MLEADERVER
 70
     0
  0
APPID
  5
CA4C
330
9
100
AcDbSymbolTableRecord
100
AcDbRegAppTableRecord
  2
ACAD_DSTYLE_DIMRADIAL_EXTENSION
 70
     0
  0
APPID
  5
1ED6D
330
9
100
AcDbSymbolTableRecord
100
AcDbRegAppTableRecord
  2
ACAD_DSTYLE_DIMINSPECT
 70
     0
  0
APPID
  5
219D8
330
9
100
AcDbSymbolTableRecord
100
AcDbRegAppTableRecord
  2
ACDBBLOCKREPETAG
 70
     0
  0
APPID
  5
219D9
330
9
100
AcDbSymbolTableRecord
100
AcDbRegAppTableRecord
  2
AcDbDynamicBlockGUID
 70
     0
  0
ENDTAB
  0
TABLE
  2
DIMSTYLE
  5
A
330
0
100
AcDbSymbolTable
 70
    34
100
AcDbDimStyleTable
 71
     1
340
2515
  0
DIMSTYLE
105
A76
330
A
100
AcDbSymbolTableRecord
100
AcDbDimStyleTableRecord
  2
STANDARD
 70
     0
 41
3.0
 42
1.0
 43
7.0
 44
2.0
 73
     0
 74
     0
 77
     1
140
2.799999999999999
141
0.0
143
0.0394
147
0.7
171
     4
172
     1
173
     1
176
     3
177
     3
178
     2
271
     3
272
     3
273
     8
274
     4
289
     0
340
A74
341
A66
343
A66
344
A66
  0
DIMSTYLE
105
2515
330
A
100
AcDbSymbolTableRecord
100
AcDbDimStyleTableRecord
  2
SYS
 70
     0
  4
"
 41
1.0
 42
1.0
 43
10.0
 44
1.0
 47
0.1
 48
0.1
 73
     0
 74
     0
 77
     1
 78
     8
 79
     2
140
3.5
141
0.0
143
0.0393701
146
0.71
147
1.5
172
     1
176
   256
177
   256
178
     7
271
     2
272
     2
283
     0
284
     8
340
11
371
    -1
372
    -1
1001
ACAD_DSTYLE_DIMJOGGED_JOGANGLE_SYMBOL
1070
   384
1040
0.7853981633974483
1001
ACAD_DSTYLE_DIMARC_LENGTH_SYMBOL
1070
   379
1070
     1
  0
DIMSTYLE
105
2516
102
{ACAD_REACTORS
330
3B89D
102
}
330
A
100
AcDbSymbolTableRecord
100
AcDbDimStyleTableRecord
  2
SYS$3
 70
     0
  4
"
 41
2.0
 42
1.0
 43
10.0
 44
1.0
 47
0.1
 48
0.1
 73
     0
 77
     1
 78
     8
 79
     2
140
3.2
141
0.0
143
0.0393701
146
0.71
147
1.0
176
   256
177
   256
178
     2
271
     2
272
     2
283
     0
284
     8
288
     1
340
11
342
A66
371
    -1
372
    -1
1001
ACAD_DSTYLE_DIMJOGGED_JOGANGLE_SYMBOL
1070
   384
1040
0.7853981633974483
1001
ACAD_DSTYLE_DIMARC_LENGTH_SYMBOL
1070
   379
1070
     1
  0
DIMSTYLE
105
2517
102
{ACAD_REACTORS
330
3B7DD
102
}
330
A
100
AcDbSymbolTableRecord
100
AcDbDimStyleTableRecord
  2
SYS$4
 70
     0
  4
"
 41
2.0
 42
1.0
 43
10.0
 44
1.0
 47
0.1
 48
0.1
 73
     0
 77
     1
 78
     8
 79
     2
140
3.2
141
0.0
143
0.0393701
146
0.71
147
1.0
173
     1
176
   256
177
   256
178
     2
271
     2
272
     2
283
     0
284
     8
288
     1
340
11
344
A66
371
    -1
372
    -1
1001
ACAD_DSTYLE_DIMJOGGED_JOGANGLE_SYMBOL
1070
   384
1040
0.7853981633974483
1001
ACAD_DSTYLE_DIMARC_LENGTH_SYMBOL
1070
   379
1070
     1
  0
DIMSTYLE
105
2518
330
A
100
AcDbSymbolTableRecord
100
AcDbDimStyleTableRecord
  2
SYS$6
 70
     0
  4
"
 41
2.0
 42
1.0
 43
10.0
 44
1.0
 47
0.1
 48
0.1
 73
     0
 74
     0
 78
     8
 79
     2
140
3.5
141
0.0
143
0.0393701
146
0.71
147
1.5
172
     1
176
   256
177
   256
178
     2
271
     2
272
     2
283
     0
284
     8
340
11
341
A66
371
    -1
372
    -1
1001
ACAD_DSTYLE_DIMJOGGED_JOGANGLE_SYMBOL
1070
   384
1040
0.7853981633974483
1001
ACAD_DSTYLE_DIMARC_LENGTH_SYMBOL
1070
   379
1070
     1
  0
DIMSTYLE
105
2519
330
A
100
AcDbSymbolTableRecord
100
AcDbDimStyleTableRecord
  2
SYS$7
 70
     0
  4
"
 41
2.0
 42
1.0
 43
10.0
 44
1.0
 47
0.1
 48
0.1
 73
     0
 74
     0
 77
     1
 78
     8
 79
     2
140
3.2
141
0.0
143
0.0393701
146
0.71
147
1.0
172
     1
176
   256
177
   256
178
     2
271
     2
272
     2
283
     0
284
     8
340
11
341
A66
342
A66
371
    -1
372
    -1
1001
ACAD_DSTYLE_DIMJOGGED_JOGANGLE_SYMBOL
1070
   384
1040
0.7853981633974483
1001
ACAD_DSTYLE_DIMARC_LENGTH_SYMBOL
1070
   379
1070
     1
  0
DIMSTYLE
105
251A
330
A
100
AcDbSymbolTableRecord
100
AcDbDimStyleTableRecord
  2
SYS$SF
 70
     0
  4
"
 41
2.5
 42
1.0
 43
10.0
 44
1.0
 47
0.1
 48
0.1
 73
     0
 74
     0
 75
     1
 76
     1
 77
     1
 78
     8
 79
     2
140
3.5
141
0.0
143
0.0393701
146
0.71
147
1.5
172
     1
176
   256
177
   256
178
     2
271
     2
272
     3
283
     0
284
     8
340
11
341
6C4
342
6C4
371
    -1
372
    -1
1001
ACAD_DSTYLE_DIMJOGGED_JOGANGLE_SYMBOL
1070
   384
1040
0.7853981633974483
1001
ACAD_DSTYLE_DIMARC_LENGTH_SYMBOL
1070
   379
1070
     1
  0
DIMSTYLE
105
251B
330
A
100
AcDbSymbolTableRecord
100
AcDbDimStyleTableRecord
  2
SYS$SH
 70
     0
  4
"
 41
2.5
 42
1.0
 43
10.0
 44
1.0
 47
0.1
 48
0.1
 73
     0
 74
     0
 75
     1
 76
     1
 77
     1
 78
     8
 79
     2
140
3.5
141
0.0
143
0.0393701
144
2.0
146
0.71
147
1.5
172
     1
173
     1
176
   256
177
   256
178
     2
271
     2
272
     3
283
     0
284
     8
340
11
341
6C4
343
72
344
6C4
371
    -1
372
    -1
1001
ACAD_DSTYLE_DIMJOGGED_JOGANGLE_SYMBOL
1070
   384
1040
0.7853981633974483
1001
ACAD_DSTYLE_DIMARC_LENGTH_SYMBOL
1070
   379
1070
     1
  0
DIMSTYLE
105
2A59
330
A
100
AcDbSymbolTableRecord
100
AcDbDimStyleTableRecord
  2
SYS$2
 70
     0
  4
"
 41
1.0
 42
1.0
 43
10.0
 44
1.0
 47
0.1
 48
0.1
 73
     0
 74
     0
 77
     1
 78
     8
 79
     2
140
3.2
141
0.0
143
0.0393701
146
0.71
147
1.0
172
     1
176
   256
177
   256
178
     2
271
     2
272
     2
283
     0
284
     8
340
11
342
6C4
371
    -1
372
    -1
1001
ACAD_DSTYLE_DIMJOGGED_JOGANGLE_SYMBOL
1070
   384
1040
0.7853981633974483
1001
ACAD_DSTYLE_DIMARC_LENGTH_SYMBOL
1070
   379
1070
     1
  0
DIMSTYLE
105
2AAB
102
{ACAD_REACTORS
330
3B7DE
330
3B7DF
330
3B7E0
330
3B7E1
330
3B7E2
330
3B7E4
330
3B7E5
330
3B7E6
330
3B7E7
102
}
330
A
100
AcDbSymbolTableRecord
100
AcDbDimStyleTableRecord
  2
SYS$0
 70
     0
  4
"
 41
1.0
 42
1.0
 43
10.0
 44
1.0
 47
0.1
 48
0.1
 73
     0
 74
     0
 77
     1
 78
     8
 79
     2
140
3.200000000000001
141
0.0
143
0.0393701
146
0.71
147
1.0
172
     1
176
   256
177
   256
178
     2
271
     2
272
     2
283
     0
284
     8
340
11
341
A66
342
6C4
371
    -1
372
    -1
1001
ACAD_DSTYLE_DIMJOGGED_JOGANGLE_SYMBOL
1070
   384
1040
0.7853981633974483
1001
ACAD_DSTYLE_DIMARC_LENGTH_SYMBOL
1070
   379
1070
     1
  0
DIMSTYLE
105
AF99
330
A
100
AcDbSymbolTableRecord
100
AcDbDimStyleTableRecord
  2
AM_ISO
 70
     0
  4
"
 41
2.5
 42
1.0
 43
10.0
 44
1.0
 47
0.1
 48
0.1
 73
     0
 74
     0
 77
     1
 78
     8
 79
     2
140
3.5
141
0.0
143
0.0393701
146
0.71
147
1.5
172
     1
176
   256
177
   256
178
     2
271
     2
272
     3
274
     4
283
     0
284
     8
340
11
371
    -1
372
    -1
  0
DIMSTYLE
105
AF9A
330
A
100
AcDbSymbolTableRecord
100
AcDbDimStyleTableRecord
  2
AM_ISO$3
 70
     0
  4
"
 41
2.5
 42
1.0
 43
10.0
 44
1.0
 47
0.1
 48
0.1
 73
     0
 77
     1
 78
     8
 79
     2
140
3.5
141
0.0
143
0.0393701
146
0.71
147
1.5
176
   256
177
   256
178
     2
271
     2
272
     3
274
     4
283
     0
284
     8
288
     1
289
     0
340
11
371
    -1
372
    -1
  0
DIMSTYLE
105
AF9B
330
A
100
AcDbSymbolTableRecord
100
AcDbDimStyleTableRecord
  2
AM_ISO$4
 70
     0
  4
"
 41
2.5
 42
1.0
 43
10.0
 44
1.0
 47
0.1
 48
0.1
 73
     0
 77
     1
 78
     8
 79
     2
140
3.5
141
0.0
143
0.0393701
146
0.71
147
1.5
176
   256
177
   256
178
     2
271
     2
272
     3
274
     4
283
     0
284
     8
288
     1
289
     0
340
11
371
    -1
372
    -1
  0
DIMSTYLE
105
AF9C
330
A
100
AcDbSymbolTableRecord
100
AcDbDimStyleTableRecord
  2
AM_ISO$6
 70
     0
  4
"
 41
2.5
 42
1.0
 43
10.0
 44
1.0
 47
0.1
 48
0.1
 73
     0
 74
     0
 78
     8
 79
     2
140
3.5
141
0.0
143
0.0393701
146
0.71
147
1.5
172
     1
176
   256
177
   256
178
     2
271
     2
272
     3
274
     4
283
     0
284
     8
340
11
371
    -1
372
    -1
  0
DIMSTYLE
105
AF9D
330
A
100
AcDbSymbolTableRecord
100
AcDbDimStyleTableRecord
  2
AM_ISO$7
 70
     0
  4
"
 41
2.5
 42
1.0
 43
10.0
 44
1.0
 47
0.1
 48
0.1
 73
     0
 74
     0
 77
     1
 78
     8
 79
     2
140
5.0
141
0.0
143
0.0393701
146
0.71
147
1.5
172
     1
176
   256
177
   256
178
     2
271
     2
272
     3
274
     4
283
     0
284
     8
340
11
371
    -1
372
    -1
  0
DIMSTYLE
105
AF9E
330
A
100
AcDbSymbolTableRecord
100
AcDbDimStyleTableRecord
  2
AM_ISO$SF
 70
     0
  4
"
 41
2.5
 42
1.0
 43
10.0
 44
1.0
 47
0.1
 48
0.1
 73
     0
 74
     0
 75
     1
 76
     1
 77
     1
 78
     8
 79
     2
140
3.5
141
0.0
143
0.0393701
146
0.71
147
1.5
172
     1
176
   256
177
   256
178
     2
271
     2
272
     3
274
     4
283
     0
284
     8
340
11
371
    -1
372
    -1
  0
DIMSTYLE
105
AF9F
330
A
100
AcDbSymbolTableRecord
100
AcDbDimStyleTableRecord
  2
AM_ISO$SH
 70
     0
  4
"
 41
2.5
 42
1.0
 43
10.0
 44
1.0
 47
0.1
 48
0.1
 73
     0
 74
     0
 75
     1
 76
     1
 77
     1
 78
     8
 79
     2
140
3.5
141
0.0
143
0.0393701
144
2.0
146
0.71
147
1.5
172
     1
173
     1
176
   256
177
   256
178
     2
271
     2
272
     3
274
     4
283
     0
284
     8
340
11
343
72
371
    -1
372
    -1
  0
DIMSTYLE
105
B658
330
A
100
AcDbSymbolTableRecord
100
AcDbDimStyleTableRecord
  2
AM_ANSI
 70
     0
  4
mm
 41
0.1
 42
0.05
 43
0.5
 44
0.1
 47
0.1
 48
0.1
 78
     7
 79
     2
140
0.12
141
0.0
146
0.71
147
0.06
176
   256
177
   256
178
     2
274
     4
284
     7
340
11
371
    -1
372
    -1
  0
DIMSTYLE
105
CA4B
330
A
100
AcDbSymbolTableRecord
100
AcDbDimStyleTableRecord
  2
原寸
 70
     0
 41
2.5
 42
1.0
 43
10.0
 44
0.7
 73
     0
 74
     0
 77
     3
 78
     8
 79
     2
140
3.5
141
0.0
147
1.0
172
     1
179
     1
271
     2
272
     2
340
CA48
341
A66
342
A66
  0
DIMSTYLE
105
1D542
330
A
100
AcDbSymbolTableRecord
100
AcDbDimStyleTableRecord
  2
DIMSTYLE
 70
     0
 41
1.0
 42
2.54
 44
2.54
 73
     0
 74
     0
140
3.2
147
1.6
173
     1
279
     2
340
11
  0
DIMSTYLE
105
1D543
330
A
100
AcDbSymbolTableRecord
100
AcDbDimStyleTableRecord
  2
AM_ANSI$3
 70
     0
  4
mm
 41
0.1
 42
0.05
 43
0.5
 44
0.1
 47
0.1
 48
0.1
 78
     7
 79
     2
140
0.12
141
0.0
146
0.71
147
0.06
176
   256
177
   256
178
     2
274
     4
284
     7
288
     1
289
     0
340
11
371
    -1
372
    -1
1001
ACAD_DSTYLE_DIMARC_LENGTH_SYMBOL
1070
   379
1070
     1
  0
DIMSTYLE
105
1D544
330
A
100
AcDbSymbolTableRecord
100
AcDbDimStyleTableRecord
  2
AM_ANSI$4
 70
     0
  4
mm
 41
0.1
 42
0.05
 43
0.5
 44
0.1
 47
0.1
 48
0.1
 78
     7
 79
     2
140
0.12
141
0.0
146
0.71
147
0.06
176
   256
177
   256
178
     2
274
     4
284
     7
288
     1
289
     0
340
11
371
    -1
372
    -1
1001
ACAD_DSTYLE_DIMARC_LENGTH_SYMBOL
1070
   379
1070
     1
  0
DIMSTYLE
105
1D545
330
A
100
AcDbSymbolTableRecord
100
AcDbDimStyleTableRecord
  2
AM_ANSI$7
 70
     0
  4
mm
 41
0.1
 42
0.05
 43
0.5
 44
0.1
 47
0.1
 48
0.1
 78
     7
 79
     2
140
0.24
141
0.0
146
0.71
147
0.06
176
   256
177
   256
178
     2
274
     4
284
     7
340
11
371
    -1
372
    -1
1001
ACAD_DSTYLE_DIMARC_LENGTH_SYMBOL
1070
   379
1070
     1
  0
DIMSTYLE
105
1D546
330
A
100
AcDbSymbolTableRecord
100
AcDbDimStyleTableRecord
  2
AM_ANSI$SF
 70
     0
  4
mm
 41
0.1
 42
0.05
 43
0.5
 44
0.1
 47
0.1
 48
0.1
 75
     1
 76
     1
 78
     7
 79
     2
140
0.12
141
0.0
146
0.71
147
0.06
176
   256
177
   256
178
     2
274
     4
284
     7
340
11
371
    -1
372
    -1
1001
ACAD_DSTYLE_DIMARC_LENGTH_SYMBOL
1070
   379
1070
     1
  0
DIMSTYLE
105
1D547
330
A
100
AcDbSymbolTableRecord
100
AcDbDimStyleTableRecord
  2
AM_ANSI$SH
 70
     0
  4
mm
 41
0.1
 42
0.05
 43
0.5
 44
0.1
 47
0.1
 48
0.1
 75
     1
 76
     1
 78
     7
 79
     2
140
0.12
141
0.0
146
0.71
147
0.06
173
     1
176
   256
177
   256
178
     2
274
     4
284
     7
340
11
343
72
371
    -1
372
    -1
1001
ACAD_DSTYLE_DIMARC_LENGTH_SYMBOL
1070
   379
1070
     1
  0
DIMSTYLE
105
1DA90
330
A
100
AcDbSymbolTableRecord
100
AcDbDimStyleTableRecord
  2
SYSORG4P0
 70
     0
  4
"
 41
1.0
 42
1.0
 43
10.0
 44
1.0
 47
0.2
 48
0.2000000002
 71
     1
 73
     0
 74
     0
 77
     1
 78
     8
 79
     2
140
3.5
141
0.0
143
0.0393701
144
3.999999999999793
146
0.6
147
1.5
172
     1
176
   256
177
   256
178
     7
271
     2
272
     2
283
     0
284
     8
340
11
341
A66
342
6C4
371
    -1
372
    -1
  0
DIMSTYLE
105
1DA91
330
A
100
AcDbSymbolTableRecord
100
AcDbDimStyleTableRecord
  2
SYSORG2P0
 70
     0
  4
"
 41
1.0
 42
1.0
 43
10.0
 44
1.0
 47
0.2
 48
0.2000000002
 71
     1
 73
     0
 74
     0
 77
     1
 78
     8
 79
     2
140
3.5
141
0.0
143
0.0393701
144
2.000000119209307
146
0.6
147
1.5
172
     1
176
   256
177
   256
178
     7
271
     2
272
     2
283
     0
284
     8
340
11
341
A66
342
6C4
371
    -1
372
    -1
  0
DIMSTYLE
105
1DA92
330
A
100
AcDbSymbolTableRecord
100
AcDbDimStyleTableRecord
  2
SYSORG0P5
 70
     0
  4
"
 41
1.0
 42
1.0
 43
10.0
 44
1.0
 47
0.1
 48
0.1
 73
     0
 74
     0
 77
     1
 78
     8
 79
     2
140
3.5
141
0.0
143
0.0393701
144
0.5
146
0.71
147
1.5
172
     1
176
   256
177
   256
178
     7
271
     2
272
     2
283
     0
284
     8
340
11
371
    -1
372
    -1
  0
DIMSTYLE
105
32EB5
330
A
100
AcDbSymbolTableRecord
100
AcDbDimStyleTableRecord
  2
SYS0000
 70
     0
  4
"
 41
2.5
 42
1.0
 43
10.0
 44
1.0
 47
0.1
 48
0.1
 73
     0
 74
     0
 77
     1
 78
     8
 79
     2
140
3.5
141
0.0
143
0.0393701
146
0.71
147
1.5
172
     1
176
   256
177
   256
178
     2
271
     1
272
     3
283
     0
284
     8
340
11
341
6C4
342
32DFB
371
    -1
372
    -1
  0
DIMSTYLE
105
425A4
330
A
100
AcDbSymbolTableRecord
100
AcDbDimStyleTableRecord
  2
DIMSTYLE$0
 70
     0
 41
1.0
 42
2.54
 44
2.54
 73
     0
 74
     0
140
3.2
147
1.6
173
     1
279
     2
340
11
  0
ENDTAB
  0
TABLE
  2
BLOCK_RECORD
  5
1
330
0
100
AcDbSymbolTable
 70
    24
  0
BLOCK_RECORD
  5
1F
102
{ACAD_XDICTIONARY
360
8A
102
}
330
1
100
AcDbSymbolTableRecord
100
AcDbBlockTableRecord
  2
*Model_Space
340
22
  0
BLOCK_RECORD
  5
1B
330
1
100
AcDbSymbolTableRecord
100
AcDbBlockTableRecord
  2
*Paper_Space
340
1E
  0
BLOCK_RECORD
  5
23
330
1
100
AcDbSymbolTableRecord
100
AcDbBlockTableRecord
  2
*Paper_Space0
340
26
  0
BLOCK_RECORD
  5
72
330
1
100
AcDbSymbolTableRecord
100
AcDbBlockTableRecord
  2
GENAXEH
340
0
  0
BLOCK_RECORD
  5
6C4
330
1
100
AcDbSymbolTableRecord
100
AcDbBlockTableRecord
  2
_Dot
340
0
102
{BLKREFS
331
52AC7
331
52AC8
331
52AD0
331
52AD1
331
52AD9
331
52ADA
331
52AE2
331
52AE3
331
52AEB
331
52AEC
331
52B08
331
52B09
331
52B11
331
52B12
331
535D1
331
535D2
331
535DA
331
535DB
102
}
  0
BLOCK_RECORD
  5
A66
330
1
100
AcDbSymbolTableRecord
100
AcDbBlockTableRecord
  2
_OPEN30
340
0
102
{BLKREFS
331
52AC1
102
}
  0
BLOCK_RECORD
  5
32629
330
1
100
AcDbSymbolTableRecord
100
AcDbBlockTableRecord
  2
GENDOT
340
0
102
{BLKREFS
331
535EF
331
535F0
102
}
  0
BLOCK_RECORD
  5
32DFB
330
1
100
AcDbSymbolTableRecord
100
AcDbBlockTableRecord
  2
_DotSmall
340
0
  0
BLOCK_RECORD
  5
3BCA7
330
1
100
AcDbSymbolTableRecord
100
AcDbBlockTableRecord
  2
*D7
340
0
  0
BLOCK_RECORD
  5
3BCB0
330
1
100
AcDbSymbolTableRecord
100
AcDbBlockTableRecord
  2
*D8
340
0
  0
BLOCK_RECORD
  5
3BCBC
330
1
100
AcDbSymbolTableRecord
100
AcDbBlockTableRecord
  2
*D9
340
0
  0
BLOCK_RECORD
  5
3BCC8
330
1
100
AcDbSymbolTableRecord
100
AcDbBlockTableRecord
  2
*D10
340
0
  0
BLOCK_RECORD
  5
3BCD4
330
1
100
AcDbSymbolTableRecord
100
AcDbBlockTableRecord
  2
*D11
340
0
  0
BLOCK_RECORD
  5
3BCE0
330
1
100
AcDbSymbolTableRecord
100
AcDbBlockTableRecord
  2
*D12
340
0
  0
BLOCK_RECORD
  5
3BCEC
330
1
100
AcDbSymbolTableRecord
100
AcDbBlockTableRecord
  2
*D13
340
0
  0
BLOCK_RECORD
  5
3BCF8
330
1
100
AcDbSymbolTableRecord
100
AcDbBlockTableRecord
  2
*D14
340
0
  0
BLOCK_RECORD
  5
3BD04
330
1
100
AcDbSymbolTableRecord
100
AcDbBlockTableRecord
  2
*D15
340
0
  0
BLOCK_RECORD
  5
3BD12
330
1
100
AcDbSymbolTableRecord
100
AcDbBlockTableRecord
  2
*D16
340
0
  0
BLOCK_RECORD
  5
3BD7D
330
1
100
AcDbSymbolTableRecord
100
AcDbBlockTableRecord
  2
*D17
340
0
  0
BLOCK_RECORD
  5
53635
330
1
100
AcDbSymbolTableRecord
100
AcDbBlockTableRecord
  2
*S22
340
0
  0
BLOCK_RECORD
  5
5363F
330
1
100
AcDbSymbolTableRecord
100
AcDbBlockTableRecord
  2
*S23
340
0
  0
ENDTAB
  0
ENDSEC
  0
SECTION
  2
BLOCKS
  0
BLOCK
  5
20
330
1F
100
AcDbEntity
  8
0
100
AcDbBlockBegin
  2
*Model_Space
 70
     0
 10
0.0
 20
0.0
 30
0.0
  3
*Model_Space
  1

  0
ENDBLK
  5
21
330
1F
100
AcDbEntity
  8
0
100
AcDbBlockEnd
  0
BLOCK
  5
1C
330
1B
100
AcDbEntity
 67
     1
  8
0
100
AcDbBlockBegin
  2
*Paper_Space
 70
     0
 10
0.0
 20
0.0
 30
0.0
  3
*Paper_Space
  1

  0
ENDBLK
  5
1D
330
1B
100
AcDbEntity
 67
     1
  8
0
100
AcDbBlockEnd
  0
BLOCK
  5
24
330
23
100
AcDbEntity
 67
     1
  8
0
100
AcDbBlockBegin
  2
*Paper_Space0
 70
     0
 10
0.0
 20
0.0
 30
0.0
  3
*Paper_Space0
  1

  0
ENDBLK
  5
25
330
23
100
AcDbEntity
 67
     1
  8
0
100
AcDbBlockEnd
  0
BLOCK
  5
74
330
72
100
AcDbEntity
  8
0
100
AcDbBlockBegin
  2
GENAXEH
 70
     0
 10
0.0
 20
0.0
 30
0.0
  3
GENAXEH
  1

  0
LINE
  5
73
330
72
100
AcDbEntity
  8
0
100
AcDbLine
 10
-1.0
 20
0.0
 30
0.0
 11
1.0
 21
0.0
 31
0.0
  0
ENDBLK
  5
75
330
72
100
AcDbEntity
  8
0
100
AcDbBlockEnd
  0
BLOCK
  5
6C7
330
6C4
100
AcDbEntity
  8
0
100
AcDbBlockBegin
  2
_Dot
 70
     0
 10
0.0
 20
0.0
 30
0.0
  3
_Dot
  1

  0
LWPOLYLINE
  5
6C5
330
6C4
100
AcDbEntity
  8
0
  6
ByBlock
 62
     0
100
AcDbPolyline
 90
        2
 70
     1
 43
0.5
 10
-0.25
 20
0.0
 42
1.0
 10
0.25
 20
0.0
 42
1.0
  0
LINE
  5
6C6
330
6C4
100
AcDbEntity
  8
0
  6
ByBlock
 62
     0
370
    -2
100
AcDbLine
 10
-0.5
 20
0.0
 30
0.0
 11
-1.0
 21
0.0
 31
0.0
  0
ENDBLK
  5
6C8
330
6C4
100
AcDbEntity
  8
0
100
AcDbBlockEnd
  0
BLOCK
  5
A6A
330
A66
100
AcDbEntity
  8
0
100
AcDbBlockBegin
  2
_OPEN30
 70
     0
 10
0.0
 20
0.0
 30
0.0
  3
_OPEN30
  1

  0
LINE
  5
A67
330
A66
100
AcDbEntity
  8
0
  6
ByBlock
 62
     0
100
AcDbLine
 10
-1.0
 20
0.26794919
 30
0.0
 11
0.0
 21
0.0
 31
0.0
  0
LINE
  5
A68
330
A66
100
AcDbEntity
  8
0
  6
ByBlock
 62
     0
100
AcDbLine
 10
0.0
 20
0.0
 30
0.0
 11
-1.0
 21
-0.26794919
 31
0.0
  0
LINE
  5
A69
330
A66
100
AcDbEntity
  8
0
  6
ByBlock
 62
     0
100
AcDbLine
 10
0.0
 20
0.0
 30
0.0
 11
-1.0
 21
0.0
 31
0.0
  0
ENDBLK
  5
A6B
330
A66
100
AcDbEntity
  8
0
100
AcDbBlockEnd
  0
BLOCK
  5
3262A
330
32629
100
AcDbEntity
  8
0
100
AcDbBlockBegin
  2
GENDOT
 70
     0
 10
0.0
 20
0.0
 30
0.0
  3
GENDOT
  1

  0
LINE
  5
3262B
330
32629
100
AcDbEntity
  8
0
100
AcDbLine
 10
0.0
 20
0.0
 30
0.0
 11
-1.0
 21
0.0
 31
0.0
  0
LWPOLYLINE
  5
3262C
330
32629
100
AcDbEntity
  8
0
100
AcDbPolyline
 90
        2
 70
     1
 43
0.25
 10
-0.125
 20
0.0
 42
1.0
 10
0.125
 20
0.0
 42
1.0
  0
ENDBLK
  5
3262D
330
32629
100
AcDbEntity
  8
0
100
AcDbBlockEnd
  0
BLOCK
  5
32DFC
330
32DFB
100
AcDbEntity
  8
0
100
AcDbBlockBegin
  2
_DotSmall
 70
     0
 10
0.0
 20
0.0
 30
0.0
  3
_DotSmall
  1

  0
LWPOLYLINE
  5
32DFD
330
32DFB
100
AcDbEntity
  8
0
  6
ByBlock
 62
     0
100
AcDbPolyline
 90
        2
 70
     1
 43
0.5
 10
-0.0625
 20
0.0
 42
1.0
 10
0.0625
 20
0.0
 42
1.0
  0
ENDBLK
  5
32DFE
330
32DFB
100
AcDbEntity
  8
0
100
AcDbBlockEnd
  0
BLOCK
  5
3BCAE
330
3BCA7
100
AcDbEntity
  8
0
 48
0.5
100
AcDbBlockBegin
  2
*D7
 70
     1
 10
0.0
 20
0.0
 30
0.0
  3
*D7
  1

  0
LINE
  5
52ABE
330
3BCA7
100
AcDbEntity
  8
AM_5
100
AcDbLine
 10
6190.68853903598
 20
-2416.476912679316
 30
0.0
 11
6178.915205702645
 21
-2416.476912679316
 31
0.0
  0
LINE
  5
52ABF
330
3BCA7
100
AcDbEntity
  8
AM_5
100
AcDbLine
 10
6178.915205702645
 20
-2416.476912679316
 30
0.0
 11
6174.021849229965
 21
-2421.589312459989
 31
0.0
  0
MTEXT
  5
52AC0
330
3BCA7
100
AcDbEntity
  8
AM_5
 62
     2
100
AcDbMText
 10
6185.301872369313
 20
-2413.876912679317
 30
0.0
 40
3.2
 41
0.0
 71
     5
 72
     1
  1
4-R10
 73
     1
 44
1.0
1001
ACAD
1000
MTEXTBEGIN
1070
    73
1070
     1
1070
    44
1040
1.0
1070
    74
1070
     0
1000
MTEXTEND
  0
INSERT
  5
52AC1
330
3BCA7
100
AcDbEntity
  8
AM_5
100
AcDbBlockReference
  2
_OPEN30
 10
6172.638926589797
 20
-2423.034139429322
 30
0.0
 41
2.0
 42
2.0
 43
2.0
 50
226.2541033823675
  0
POINT
  5
52AC2
330
3BCA7
100
AcDbEntity
  8
Defpoints
 62
     0
100
AcDbPoint
 10
6172.638926589797
 20
-2423.034139429322
 30
0.0
  0
POINT
  5
52AC3
330
3BCA7
100
AcDbEntity
  8
Defpoints
 62
     0
100
AcDbPoint
 10
6165.724313388954
 20
-2430.258274275983
 30
0.0
  0
ENDBLK
  5
3BCAF
330
3BCA7
100
AcDbEntity
  8
0
 48
0.5
100
AcDbBlockEnd
  0
BLOCK
  5
3BCBA
330
3BCB0
100
AcDbEntity
  8
0
 48
0.5
100
AcDbBlockBegin
  2
*D8
 70
     1
 10
0.0
 20
0.0
 30
0.0
  3
*D8
  1

  0
LINE
  5
52AC4
330
3BCB0
100
AcDbEntity
  8
AM_5
100
AcDbLine
 10
5938.224253388959
 20
-2588.12900368731
 30
0.0
 11
5938.224253388959
 21
-2557.62903368731
 31
0.0
  0
LINE
  5
52AC5
330
3BCB0
100
AcDbEntity
  8
AM_5
100
AcDbLine
 10
6158.224313388959
 20
-2588.12900368731
 30
0.0
 11
6158.224313388959
 21
-2557.62903368731
 31
0.0
  0
LINE
  5
52AC6
330
3BCB0
100
AcDbEntity
  8
AM_5
100
AcDbLine
 10
5939.224253388958
 20
-2558.62903368731
 30
0.0
 11
6157.224313388958
 21
-2558.62903368731
 31
0.0
  0
INSERT
  5
52AC7
330
3BCB0
100
AcDbEntity
  8
AM_5
100
AcDbBlockReference
  2
_Dot
 10
5938.224253388959
 20
-2558.62903368731
 30
0.0
 50
180.0
  0
INSERT
  5
52AC8
330
3BCB0
100
AcDbEntity
  8
AM_5
100
AcDbBlockReference
  2
_Dot
 10
6158.224313388959
 20
-2558.62903368731
 30
0.0
  0
MTEXT
  5
52AC9
330
3BCB0
100
AcDbEntity
  8
AM_5
 62
     2
100
AcDbMText
 10
6048.224283388958
 20
-2556.02903368731
 30
0.0
 40
3.200000000000001
 41
0.0
 71
     5
 72
     1
  1
220
 73
     1
 44
1.0
1001
ACAD
1000
MTEXTBEGIN
1070
    73
1070
     1
1070
    44
1040
1.0
1070
    74
1070
     0
1000
MTEXTEND
  0
POINT
  5
52ACA
330
3BCB0
100
AcDbEntity
  8
Defpoints
 62
     0
100
AcDbPoint
 10
5938.224253388959
 20
-2589.12900368731
 30
0.0
  0
POINT
  5
52ACB
330
3BCB0
100
AcDbEntity
  8
Defpoints
 62
     0
100
AcDbPoint
 10
6158.224313388959
 20
-2589.12900368731
 30
0.0
  0
POINT
  5
52ACC
330
3BCB0
100
AcDbEntity
  8
Defpoints
 62
     0
100
AcDbPoint
 10
6158.224313388959
 20
-2558.62903368731
 30
0.0
  0
ENDBLK
  5
3BCBB
330
3BCB0
100
AcDbEntity
  8
0
 48
0.5
100
AcDbBlockEnd
  0
BLOCK
  5
3BCC6
330
3BCBC
100
AcDbEntity
  8
0
 48
0.5
100
AcDbBlockBegin
  2
*D9
 70
     1
 10
0.0
 20
0.0
 30
0.0
  3
*D9
  1

  0
LINE
  5
52ACD
330
3BCBC
100
AcDbEntity
  8
AM_5
100
AcDbLine
 10
5930.724313388958
 20
-2600.62903368731
 30
0.0
 11
5930.724313388958
 21
-2549.62903368731
 31
0.0
  0
LINE
  5
52ACE
330
3BCBC
100
AcDbEntity
  8
AM_5
100
AcDbLine
 10
6165.724313388959
 20
-2600.62903368731
 30
0.0
 11
6165.724313388959
 21
-2549.62903368731
 31
0.0
  0
LINE
  5
52ACF
330
3BCBC
100
AcDbEntity
  8
AM_5
100
AcDbLine
 10
5931.724313388959
 20
-2550.62903368731
 30
0.0
 11
6164.724313388958
 21
-2550.62903368731
 31
0.0
  0
INSERT
  5
52AD0
330
3BCBC
100
AcDbEntity
  8
AM_5
100
AcDbBlockReference
  2
_Dot
 10
5930.724313388958
 20
-2550.62903368731
 30
0.0
 50
180.0
  0
INSERT
  5
52AD1
330
3BCBC
100
AcDbEntity
  8
AM_5
100
AcDbBlockReference
  2
_Dot
 10
6165.724313388959
 20
-2550.62903368731
 30
0.0
  0
MTEXT
  5
52AD2
330
3BCBC
100
AcDbEntity
  8
AM_5
 62
     2
100
AcDbMText
 10
6048.224313388959
 20
-2548.02903368731
 30
0.0
 40
3.200000000000001
 41
0.0
 71
     5
 72
     1
  1
235
 73
     1
 44
1.0
1001
ACAD
1000
MTEXTBEGIN
1070
    73
1070
     1
1070
    44
1040
1.0
1070
    74
1070
     0
1000
MTEXTEND
  0
POINT
  5
52AD3
330
3BCBC
100
AcDbEntity
  8
Defpoints
 62
     0
100
AcDbPoint
 10
5930.724313388958
 20
-2601.62903368731
 30
0.0
  0
POINT
  5
52AD4
330
3BCBC
100
AcDbEntity
  8
Defpoints
 62
     0
100
AcDbPoint
 10
6165.724313388959
 20
-2601.62903368731
 30
0.0
  0
POINT
  5
52AD5
330
3BCBC
100
AcDbEntity
  8
Defpoints
 62
     0
100
AcDbPoint
 10
6165.724313388959
 20
-2550.62903368731
 30
0.0
  0
ENDBLK
  5
3BCC7
330
3BCBC
100
AcDbEntity
  8
0
 48
0.5
100
AcDbBlockEnd
  0
BLOCK
  5
3BCD2
330
3BCC8
100
AcDbEntity
  8
0
 48
0.5
100
AcDbBlockBegin
  2
*D10
 70
     1
 10
0.0
 20
0.0
 30
0.0
  3
*D10
  1

  0
LINE
  5
52AD6
330
3BCC8
100
AcDbEntity
  8
AM_5
100
AcDbLine
 10
5915.724313388959
 20
-2569.62903368731
 30
0.0
 11
5915.724313388959
 21
-2541.62903368731
 31
0.0
  0
LINE
  5
52AD7
330
3BCC8
100
AcDbEntity
  8
AM_5
100
AcDbLine
 10
6180.724313388959
 20
-2569.62903368731
 30
0.0
 11
6180.724313388959
 21
-2541.62903368731
 31
0.0
  0
LINE
  5
52AD8
330
3BCC8
100
AcDbEntity
  8
AM_5
100
AcDbLine
 10
5916.724313388959
 20
-2542.62903368731
 30
0.0
 11
6179.724313388959
 21
-2542.62903368731
 31
0.0
  0
INSERT
  5
52AD9
330
3BCC8
100
AcDbEntity
  8
AM_5
100
AcDbBlockReference
  2
_Dot
 10
5915.724313388959
 20
-2542.62903368731
 30
0.0
 50
180.0
  0
INSERT
  5
52ADA
330
3BCC8
100
AcDbEntity
  8
AM_5
100
AcDbBlockReference
  2
_Dot
 10
6180.724313388959
 20
-2542.62903368731
 30
0.0
  0
MTEXT
  5
52ADB
330
3BCC8
100
AcDbEntity
  8
AM_5
 62
     2
100
AcDbMText
 10
6048.224313388959
 20
-2540.02903368731
 30
0.0
 40
3.200000000000001
 41
0.0
 71
     5
 72
     1
  1
265
 73
     1
 44
1.0
1001
ACAD
1000
MTEXTBEGIN
1070
    73
1070
     1
1070
    44
1040
1.0
1070
    74
1070
     0
1000
MTEXTEND
  0
POINT
  5
52ADC
330
3BCC8
100
AcDbEntity
  8
Defpoints
 62
     0
100
AcDbPoint
 10
5915.724313388959
 20
-2570.62903368731
 30
0.0
  0
POINT
  5
52ADD
330
3BCC8
100
AcDbEntity
  8
Defpoints
 62
     0
100
AcDbPoint
 10
6180.724313388959
 20
-2570.62903368731
 30
0.0
  0
POINT
  5
52ADE
330
3BCC8
100
AcDbEntity
  8
Defpoints
 62
     0
100
AcDbPoint
 10
6180.724313388959
 20
-2542.62903368731
 30
0.0
  0
ENDBLK
  5
3BCD3
330
3BCC8
100
AcDbEntity
  8
0
 48
0.5
100
AcDbBlockEnd
  0
BLOCK
  5
3BCDE
330
3BCD4
100
AcDbEntity
  8
0
 48
0.5
100
AcDbBlockBegin
  2
*D11
 70
     1
 10
0.0
 20
0.0
 30
0.0
  3
*D11
  1

  0
LINE
  5
52ADF
330
3BCD4
100
AcDbEntity
  8
AM_5
100
AcDbLine
 10
6159.224313388959
 20
-2589.12900368731
 30
0.0
 11
6191.724313388958
 21
-2589.12900368731
 31
0.0
  0
LINE
  5
52AE0
330
3BCD4
100
AcDbEntity
  8
AM_5
100
AcDbLine
 10
6159.224313388959
 20
-2624.12903368731
 30
0.0
 11
6191.724313388958
 21
-2624.12903368731
 31
0.0
  0
LINE
  5
52AE1
330
3BCD4
100
AcDbEntity
  8
AM_5
100
AcDbLine
 10
6190.724313388958
 20
-2590.12900368731
 30
0.0
 11
6190.724313388958
 21
-2623.12903368731
 31
0.0
  0
INSERT
  5
52AE2
330
3BCD4
100
AcDbEntity
  8
AM_5
100
AcDbBlockReference
  2
_Dot
 10
6190.724313388958
 20
-2589.12900368731
 30
0.0
 50
90.0
  0
INSERT
  5
52AE3
330
3BCD4
100
AcDbEntity
  8
AM_5
100
AcDbBlockReference
  2
_Dot
 10
6190.724313388958
 20
-2624.12903368731
 30
0.0
 50
270.0
  0
MTEXT
  5
52AE4
330
3BCD4
100
AcDbEntity
  8
AM_5
 62
     2
100
AcDbMText
 10
6188.124313388958
 20
-2606.53710192653
 30
0.0
 40
3.200000000000001
 41
0.0
 71
     5
 72
     1
  1
35
 11
0.0000000000000001
 21
1.0
 31
0.0
 73
     1
 44
1.0
1001
ACAD
1000
MTEXTBEGIN
1070
    73
1070
     1
1070
    44
1040
1.0
1070
    74
1070
     0
1000
MTEXTEND
  0
POINT
  5
52AE5
330
3BCD4
100
AcDbEntity
  8
Defpoints
 62
     0
100
AcDbPoint
 10
6158.224313388959
 20
-2589.12900368731
 30
0.0
  0
POINT
  5
52AE6
330
3BCD4
100
AcDbEntity
  8
Defpoints
 62
     0
100
AcDbPoint
 10
6158.224313388959
 20
-2624.12903368731
 30
0.0
  0
POINT
  5
52AE7
330
3BCD4
100
AcDbEntity
  8
Defpoints
 62
     0
100
AcDbPoint
 10
6190.724313388958
 20
-2624.12903368731
 30
0.0
  0
ENDBLK
  5
3BCDF
330
3BCD4
100
AcDbEntity
  8
0
 48
0.5
100
AcDbBlockEnd
  0
BLOCK
  5
3BCEA
330
3BCE0
100
AcDbEntity
  8
0
 48
0.5
100
AcDbBlockBegin
  2
*D12
 70
     1
 10
0.0
 20
0.0
 30
0.0
  3
*D12
  1

  0
LINE
  5
52AE8
330
3BCE0
100
AcDbEntity
  8
AM_5
100
AcDbLine
 10
6177.724313388959
 20
-2566.62903368731
 30
0.0
 11
6199.724313388959
 21
-2566.62903368731
 31
0.0
  0
LINE
  5
52AE9
330
3BCE0
100
AcDbEntity
  8
AM_5
100
AcDbLine
 10
6177.724313388959
 20
-2646.62903368731
 30
0.0
 11
6199.724313388959
 21
-2646.62903368731
 31
0.0
  0
LINE
  5
52AEA
330
3BCE0
100
AcDbEntity
  8
AM_5
100
AcDbLine
 10
6198.724313388959
 20
-2567.62903368731
 30
0.0
 11
6198.724313388959
 21
-2645.62903368731
 31
0.0
  0
INSERT
  5
52AEB
330
3BCE0
100
AcDbEntity
  8
AM_5
100
AcDbBlockReference
  2
_Dot
 10
6198.724313388959
 20
-2566.62903368731
 30
0.0
 50
90.0
  0
INSERT
  5
52AEC
330
3BCE0
100
AcDbEntity
  8
AM_5
100
AcDbBlockReference
  2
_Dot
 10
6198.724313388959
 20
-2646.62903368731
 30
0.0
 50
270.0
  0
MTEXT
  5
52AED
330
3BCE0
100
AcDbEntity
  8
AM_5
 62
     2
100
AcDbMText
 10
6196.12431338896
 20
-2606.629033687309
 30
0.0
 40
3.200000000000001
 41
0.0
 71
     5
 72
     1
  1
80
 11
0.0000000000000001
 21
1.0
 31
0.0
 73
     1
 44
1.0
1001
ACAD
1000
MTEXTBEGIN
1070
    73
1070
     1
1070
    44
1040
1.0
1070
    74
1070
     0
1000
MTEXTEND
  0
POINT
  5
52AEE
330
3BCE0
100
AcDbEntity
  8
Defpoints
 62
     0
100
AcDbPoint
 10
6176.724313388959
 20
-2566.62903368731
 30
0.0
  0
POINT
  5
52AEF
330
3BCE0
100
AcDbEntity
  8
Defpoints
 62
     0
100
AcDbPoint
 10
6176.724313388959
 20
-2646.62903368731
 30
0.0
  0
POINT
  5
52AF0
330
3BCE0
100
AcDbEntity
  8
Defpoints
 62
     0
100
AcDbPoint
 10
6198.724313388959
 20
-2646.62903368731
 30
0.0
  0
ENDBLK
  5
3BCEB
330
3BCE0
100
AcDbEntity
  8
0
 48
0.5
100
AcDbBlockEnd
  0
BLOCK
  5
3BCF6
330
3BCEC
100
AcDbEntity
  8
0
 48
0.5
100
AcDbBlockBegin
  2
*D13
 70
     1
 10
0.0
 20
0.0
 30
0.0
  3
*D13
  1

  0
LINE
  5
535CE
330
3BCEC
100
AcDbEntity
  8
AM_5
100
AcDbLine
 10
5920.724313388959
 20
-2486.258274275983
 30
0.0
 11
5920.724313388959
 21
-2501.258274275983
 31
0.0
  0
LINE
  5
535CF
330
3BCEC
100
AcDbEntity
  8
AM_5
100
AcDbLine
 10
6175.724313388958
 20
-2486.258274275983
 30
0.0
 11
6175.724313388958
 21
-2501.258274275983
 31
0.0
  0
LINE
  5
535D0
330
3BCEC
100
AcDbEntity
  8
AM_5
100
AcDbLine
 10
5921.724313388959
 20
-2500.258274275982
 30
0.0
 11
6174.724313388959
 21
-2500.258274275982
 31
0.0
  0
INSERT
  5
535D1
330
3BCEC
100
AcDbEntity
  8
AM_5
100
AcDbBlockReference
  2
_Dot
 10
5920.724313388959
 20
-2500.258274275982
 30
0.0
 50
180.0
  0
INSERT
  5
535D2
330
3BCEC
100
AcDbEntity
  8
AM_5
100
AcDbBlockReference
  2
_Dot
 10
6175.724313388958
 20
-2500.258274275982
 30
0.0
  0
MTEXT
  5
535D3
330
3BCEC
100
AcDbEntity
  8
AM_5
 62
     2
100
AcDbMText
 10
6048.224313388959
 20
-2497.658274275983
 30
0.0
 40
3.200000000000001
 41
0.0
 71
     5
 72
     1
  1
255
 73
     1
 44
1.0
1001
ACAD
1000
MTEXTBEGIN
1070
    73
1070
     1
1070
    44
1040
1.0
1070
    74
1070
     0
1000
MTEXTEND
  0
POINT
  5
535D4
330
3BCEC
100
AcDbEntity
  8
Defpoints
 62
     0
100
AcDbPoint
 10
5920.724313388959
 20
-2485.258274275983
 30
0.0
  0
POINT
  5
535D5
330
3BCEC
100
AcDbEntity
  8
Defpoints
 62
     0
100
AcDbPoint
 10
6175.724313388958
 20
-2485.258274275983
 30
0.0
  0
POINT
  5
535D6
330
3BCEC
100
AcDbEntity
  8
Defpoints
 62
     0
100
AcDbPoint
 10
6175.724313388958
 20
-2500.258274275982
 30
0.0
  0
ENDBLK
  5
3BCF7
330
3BCEC
100
AcDbEntity
  8
0
 48
0.5
100
AcDbBlockEnd
  0
BLOCK
  5
3BD02
330
3BCF8
100
AcDbEntity
  8
0
 48
0.5
100
AcDbBlockBegin
  2
*D14
 70
     1
 10
0.0
 20
0.0
 30
0.0
  3
*D14
  1

  0
LINE
  5
535D7
330
3BCF8
100
AcDbEntity
  8
AM_5
100
AcDbLine
 10
6171.724313388959
 20
-2420.258274275982
 30
0.0
 11
6186.724313388959
 21
-2420.258274275982
 31
0.0
  0
LINE
  5
535D8
330
3BCF8
100
AcDbEntity
  8
AM_5
100
AcDbLine
 10
6171.724313388959
 20
-2490.258274275982
 30
0.0
 11
6186.724313388959
 21
-2490.258274275982
 31
0.0
  0
LINE
  5
535D9
330
3BCF8
100
AcDbEntity
  8
AM_5
100
AcDbLine
 10
6185.724313388959
 20
-2421.258274275983
 30
0.0
 11
6185.724313388959
 21
-2489.258274275983
 31
0.0
  0
INSERT
  5
535DA
330
3BCF8
100
AcDbEntity
  8
AM_5
100
AcDbBlockReference
  2
_Dot
 10
6185.724313388959
 20
-2420.258274275982
 30
0.0
 50
90.0
  0
INSERT
  5
535DB
330
3BCF8
100
AcDbEntity
  8
AM_5
100
AcDbBlockReference
  2
_Dot
 10
6185.724313388959
 20
-2490.258274275982
 30
0.0
 50
270.0
  0
MTEXT
  5
535DC
330
3BCF8
100
AcDbEntity
  8
AM_5
 62
     2
100
AcDbMText
 10
6183.124313388959
 20
-2455.258274275982
 30
0.0
 40
3.200000000000001
 41
0.0
 71
     5
 72
     1
  1
70
 11
0.0000000000000001
 21
1.0
 31
0.0
 73
     1
 44
1.0
1001
ACAD
1000
MTEXTBEGIN
1070
    73
1070
     1
1070
    44
1040
1.0
1070
    74
1070
     0
1000
MTEXTEND
  0
POINT
  5
535DD
330
3BCF8
100
AcDbEntity
  8
Defpoints
 62
     0
100
AcDbPoint
 10
6170.724313388959
 20
-2420.258274275982
 30
0.0
  0
POINT
  5
535DE
330
3BCF8
100
AcDbEntity
  8
Defpoints
 62
     0
100
AcDbPoint
 10
6170.724313388959
 20
-2490.258274275982
 30
0.0
  0
POINT
  5
535DF
330
3BCF8
100
AcDbEntity
  8
Defpoints
 62
     0
100
AcDbPoint
 10
6185.724313388959
 20
-2490.258274275982
 30
0.0
  0
ENDBLK
  5
3BD03
330
3BCF8
100
AcDbEntity
  8
0
 48
0.5
100
AcDbBlockEnd
  0
BLOCK
  5
3BD10
330
3BD04
100
AcDbEntity
  8
0
 48
0.5
100
AcDbBlockBegin
  2
*D15
 70
     1
 10
0.0
 20
0.0
 30
0.0
  3
*D15
  1

  0
LINE
  5
52B03
330
3BD04
100
AcDbEntity
  8
AM_5
100
AcDbLine
 10
6239.4060850735
 20
-2565.62903368731
 30
0.0
 11
6239.4060850735
 21
-2557.62903368731
 31
0.0
  0
LINE
  5
52B04
330
3BD04
100
AcDbEntity
  8
AM_5
100
AcDbLine
 10
6236.406075063499
 20
-2565.62902367731
 30
0.0
 11
6236.406075063499
 21
-2557.62903368731
 31
0.0
  0
LINE
  5
52B05
330
3BD04
100
AcDbEntity
  8
AM_5
100
AcDbLine
 10
6240.406085073501
 20
-2558.62903368731
 30
0.0
 11
6241.4060850735
 21
-2558.62903368731
 31
0.0
  0
LINE
  5
52B06
330
3BD04
100
AcDbEntity
  8
AM_5
100
AcDbLine
 10
6235.406075063499
 20
-2558.62903368731
 30
0.0
 11
6230.912741730166
 21
-2558.62903368731
 31
0.0
  0
LINE
  5
52B07
330
3BD04
100
AcDbEntity
  8
AM_5
100
AcDbLine
 10
6239.4060850735
 20
-2558.62903368731
 30
0.0
 11
6236.406075063499
 21
-2558.62903368731
 31
0.0
  0
INSERT
  5
52B08
330
3BD04
100
AcDbEntity
  8
AM_5
100
AcDbBlockReference
  2
_Dot
 10
6239.4060850735
 20
-2558.62903368731
 30
0.0
 50
180.0
  0
INSERT
  5
52B09
330
3BD04
100
AcDbEntity
  8
AM_5
100
AcDbBlockReference
  2
_Dot
 10
6236.406075063499
 20
-2558.62903368731
 30
0.0
  0
MTEXT
  5
52B0A
330
3BD04
100
AcDbEntity
  8
AM_5
 62
     2
100
AcDbMText
 10
6232.659408396832
 20
-2556.02903368731
 30
0.0
 40
3.200000000000001
 41
0.0
 71
     5
 72
     1
  1
3
 73
     1
 44
1.0
1001
ACAD
1000
MTEXTBEGIN
1070
    73
1070
     1
1070
    44
1040
1.0
1070
    74
1070
     0
1000
MTEXTEND
  0
POINT
  5
52B0B
330
3BD04
100
AcDbEntity
  8
Defpoints
 62
     0
100
AcDbPoint
 10
6239.4060850735
 20
-2566.62903368731
 30
0.0
  0
POINT
  5
52B0C
330
3BD04
100
AcDbEntity
  8
Defpoints
 62
     0
100
AcDbPoint
 10
6236.406075063499
 20
-2566.629023677311
 30
0.0
  0
POINT
  5
52B0D
330
3BD04
100
AcDbEntity
  8
Defpoints
 62
     0
100
AcDbPoint
 10
6236.406075063499
 20
-2558.62903368731
 30
0.0
  0
ENDBLK
  5
3BD11
330
3BD04
100
AcDbEntity
  8
0
 48
0.5
100
AcDbBlockEnd
  0
BLOCK
  5
3BD1C
330
3BD12
100
AcDbEntity
  8
0
 48
0.5
100
AcDbBlockBegin
  2
*D16
 70
     1
 10
0.0
 20
0.0
 30
0.0
  3
*D16
  1

  0
LINE
  5
52B0E
330
3BD12
100
AcDbEntity
  8
AM_5
100
AcDbLine
 10
6239.4060850735
 20
-2565.62903368731
 30
0.0
 11
6239.4060850735
 21
-2557.62903368731
 31
0.0
  0
LINE
  5
52B0F
330
3BD12
100
AcDbEntity
  8
AM_5
100
AcDbLine
 10
6255.4060850735
 20
-2595.604348687311
 30
0.0
 11
6255.4060850735
 21
-2557.62903368731
 31
0.0
  0
LINE
  5
52B10
330
3BD12
100
AcDbEntity
  8
AM_5
100
AcDbLine
 10
6240.406085073501
 20
-2558.62903368731
 30
0.0
 11
6254.406085073501
 21
-2558.62903368731
 31
0.0
  0
INSERT
  5
52B11
330
3BD12
100
AcDbEntity
  8
AM_5
100
AcDbBlockReference
  2
_Dot
 10
6239.4060850735
 20
-2558.62903368731
 30
0.0
 50
180.0
  0
INSERT
  5
52B12
330
3BD12
100
AcDbEntity
  8
AM_5
100
AcDbBlockReference
  2
_Dot
 10
6255.4060850735
 20
-2558.62903368731
 30
0.0
  0
MTEXT
  5
52B13
330
3BD12
100
AcDbEntity
  8
AM_5
 62
     2
100
AcDbMText
 10
6247.4060850735
 20
-2556.02903368731
 30
0.0
 40
3.200000000000001
 41
0.0
 71
     5
 72
     1
  1
16
 73
     1
 44
1.0
1001
ACAD
1000
MTEXTBEGIN
1070
    73
1070
     1
1070
    44
1040
1.0
1070
    74
1070
     0
1000
MTEXTEND
  0
POINT
  5
52B14
330
3BD12
100
AcDbEntity
  8
Defpoints
 62
     0
100
AcDbPoint
 10
6239.4060850735
 20
-2566.62903368731
 30
0.0
  0
POINT
  5
52B15
330
3BD12
100
AcDbEntity
  8
Defpoints
 62
     0
100
AcDbPoint
 10
6255.4060850735
 20
-2596.604348687311
 30
0.0
  0
POINT
  5
52B16
330
3BD12
100
AcDbEntity
  8
Defpoints
 62
     0
100
AcDbPoint
 10
6255.4060850735
 20
-2558.62903368731
 30
0.0
  0
ENDBLK
  5
3BD1D
330
3BD12
100
AcDbEntity
  8
0
 48
0.5
100
AcDbBlockEnd
  0
BLOCK
  5
3BD87
330
3BD7D
100
AcDbEntity
  8
0
 48
0.5
100
AcDbBlockBegin
  2
*D17
 70
     1
 10
0.0
 20
0.0
 30
0.0
  3
*D17
  1

  0
LINE
  5
535EA
330
3BD7D
100
AcDbEntity
  8
AM_5
100
AcDbLine
 10
5892.762492099633
 20
-2591.278585584941
 30
0.0
 11
5910.477158766298
 21
-2591.278585584941
 31
0.0
  0
LINE
  5
535EB
330
3BD7D
100
AcDbEntity
  8
AM_5
100
AcDbLine
 10
5910.477158766298
 20
-2591.278585584941
 30
0.0
 11
5927.536831171209
 21
-2604.212433366294
 31
0.0
  0
LINE
  5
535EC
330
3BD7D
100
AcDbEntity
  8
AM_5
100
AcDbLine
 10
5933.911795606708
 20
-2609.045634008329
 30
0.0
 11
5935.505536715583
 21
-2610.253934168837
 31
0.0
  0
MTEXT
  5
535ED
330
3BD7D
100
AcDbEntity
  8
AM_5
 62
     2
100
AcDbMText
 10
5901.119825432966
 20
-2588.678585584941
 30
0.0
 40
3.2
 41
0.0
 71
     5
 72
     1
  1
2-M4タップ{  }  }
 73
     1
 44
1.0
1001
ACAD
1000
MTEXTBEGIN
1070
    73
1070
     1
1070
    44
1040
1.0
1070
    74
1070
     0
1000
MTEXTEND
  0
LINE
  5
535EE
330
3BD7D
100
AcDbEntity
  8
AM_5
100
AcDbLine
 10
5932.318054497834
 20
-2607.83733384782
 30
0.0
 11
5929.130572280083
 21
-2605.420733526802
 31
0.0
  0
INSERT
  5
535EF
330
3BD7D
100
AcDbEntity
  8
AM_5
100
AcDbBlockReference
  2
GENDOT
 10
5932.318054497834
 20
-2607.83733384782
 30
0.0
 41
2.0
 42
2.0
 43
2.0
 50
142.832292932852
  0
INSERT
  5
535F0
330
3BD7D
100
AcDbEntity
  8
AM_5
100
AcDbBlockReference
  2
GENDOT
 10
5929.130572280083
 20
-2605.420733526802
 30
0.0
 41
2.0
 42
2.0
 43
2.0
 50
322.8322929328521
  0
POINT
  5
535F1
330
3BD7D
100
AcDbEntity
  8
Defpoints
 62
     0
100
AcDbPoint
 10
5929.130572280083
 20
-2605.420733526802
 30
0.0
  0
POINT
  5
535F2
330
3BD7D
100
AcDbEntity
  8
Defpoints
 62
     0
100
AcDbPoint
 10
5932.318054497834
 20
-2607.83733384782
 30
0.0
  0
ENDBLK
  5
3BD88
330
3BD7D
100
AcDbEntity
  8
0
 48
0.5
100
AcDbBlockEnd
  0
BLOCK
  5
5363C
330
53635
100
AcDbEntity
  8
0
 48
0.5
100
AcDbBlockBegin
  2
*S22
 70
     1
 10
0.0
 20
0.0
 30
0.0
  3
*S22
  1

  0
LINE
  5
53636
330
53635
100
AcDbEntity
  8
AM_5
 62
     3
 48
0.5
100
AcDbLine
 10
6091.647071656194
 20
-2409.144924511022
 30
0.0
 11
6068.13773832286
 21
-2409.144924511022
 31
0.0
  0
LINE
  5
53637
330
53635
100
AcDbEntity
  8
AM_5
 62
     3
 48
0.5
100
AcDbLine
 10
6068.13773832286
 20
-2409.144924511022
 30
0.0
 11
6049.017213681374
 21
-2453.42216177227
 31
0.0
  0
LINE
  5
53638
330
53635
100
AcDbEntity
  8
AM_5
  6
Continuous
 62
     3
 48
0.5
100
AcDbLine
 10
6049.017213681374
 20
-2453.42216177227
 30
0.0
 11
6048.224313388959
 21
-2455.258274275982
 31
0.0
  0
LINE
  5
53639
330
53635
100
AcDbEntity
  8
AM_5
  6
Continuous
 62
     3
 48
0.5
100
AcDbLine
 10
6048.525228823255
 20
-2453.209704781167
 30
0.0
 11
6048.224313388959
 21
-2455.258274275982
 31
0.0
  0
LINE
  5
5363A
330
53635
100
AcDbEntity
  8
AM_5
  6
Continuous
 62
     3
 48
0.5
100
AcDbLine
 10
6048.224313388959
 20
-2455.258274275982
 30
0.0
 11
6049.509198539492
 21
-2453.634618763374
 31
0.0
  0
MTEXT
  5
5363B
330
53635
100
AcDbEntity
  8
AM_5
 62
     2
100
AcDbMText
 10
6071.337738322861
 20
-2407.544924511022
 30
0.0
 40
3.2
 41
0.0
 71
     7
 72
     5
  1
ポスト口センター
 73
     1
 44
1.0
1001
ACAD
1000
MTEXTBEGIN
1070
    73
1070
     1
1070
    44
1040
1.0
1070
    74
1070
     0
1000
MTEXTEND
  0
ENDBLK
  5
5363D
330
53635
100
AcDbEntity
  8
0
 48
0.5
100
AcDbBlockEnd
  0
BLOCK
  5
53646
330
5363F
100
AcDbEntity
  8
0
 48
0.5
100
AcDbBlockBegin
  2
*S23
 70
     1
 10
0.0
 20
0.0
 30
0.0
  3
*S23
  1

  0
LINE
  5
53640
330
5363F
100
AcDbEntity
  8
AM_5
 62
     3
 48
0.5
100
AcDbLine
 10
6082.570507173023
 20
-2657.448490736109
 30
0.0
 11
6059.06117383969
 21
-2657.448490736109
 31
0.0
  0
LINE
  5
53641
330
5363F
100
AcDbEntity
  8
AM_5
 62
     3
 48
0.5
100
AcDbLine
 10
6059.06117383969
 20
-2657.448490736109
 30
0.0
 11
6048.641420112501
 21
-2608.585055666015
 31
0.0
  0
LINE
  5
53642
330
5363F
100
AcDbEntity
  8
AM_5
  6
Continuous
 62
     3
 48
0.5
100
AcDbLine
 10
6048.641420112501
 20
-2608.585055666015
 30
0.0
 11
6048.224313388959
 21
-2606.62903368731
 31
0.0
  0
LINE
  5
53643
330
5363F
100
AcDbEntity
  8
AM_5
  6
Continuous
 62
     3
 48
0.5
100
AcDbLine
 10
6049.165534617316
 20
-2608.473292257298
 30
0.0
 11
6048.224313388959
 21
-2606.62903368731
 31
0.0
  0
LINE
  5
53644
330
5363F
100
AcDbEntity
  8
AM_5
  6
Continuous
 62
     3
 48
0.5
100
AcDbLine
 10
6048.224313388959
 20
-2606.62903368731
 30
0.0
 11
6048.117305607684
 21
-2608.696819074732
 31
0.0
  0
MTEXT
  5
53645
330
5363F
100
AcDbEntity
  8
AM_5
 62
     2
100
AcDbMText
 10
6062.261173839689
 20
-2655.848490736108
 30
0.0
 40
3.2
 41
0.0
 71
     7
 72
     5
  1
ポスト口センター
 73
     1
 44
1.0
1001
ACAD
1000
MTEXTBEGIN
1070
    73
1070
     1
1070
    44
1040
1.0
1070
    74
1070
     0
1000
MTEXTEND
  0
ENDBLK
  5
53647
330
5363F
100
AcDbEntity
  8
0
 48
0.5
100
AcDbBlockEnd
  0
ENDSEC
  0
SECTION
  2
ENTITIES
  0
AMDTACMWBLOCKBOMENTITY
  5
1EB3A
330
1F
100
AcDbEntity
  8
AM_6
 92
        8
310
0800000000000000
  0
AMDTACMWBLOCKBOMENTITY
  5
1EB3B
330
1F
100
AcDbEntity
  8
AM_5
 92
        8
310
0800000000000000
  0
AMDTACMWBLOCKBOMENTITY
  5
1EB3C
330
1F
100
AcDbEntity
  8
AM_5
 92
        8
310
0800000000000000
  0
AMDTACMWBLOCKBOMENTITY
  5
1EB3D
330
1F
100
AcDbEntity
  8
AM_5
 92
        8
310
0800000000000000
  0
AMDTACMWBLOCKBOMENTITY
  5
1EB3E
330
1F
100
AcDbEntity
  8
AM_5
 92
        8
310
0800000000000000
  0
AMDTACMWBLOCKBOMENTITY
  5
1EB3F
330
1F
100
AcDbEntity
  8
AM_5
 92
        8
310
0800000000000000
  0
AMDTACMWBLOCKBOMENTITY
  5
1EB40
330
1F
100
AcDbEntity
  8
AM_5
 92
        8
310
0800000000000000
  0
AMDTACMWBLOCKBOMENTITY
  5
1EB41
330
1F
100
AcDbEntity
  8
AM_5
 92
        8
310
0800000000000000
  0
ARC
  5
2121D
330
1F
100
AcDbEntity
  8
001本体
 48
0.5
 60
     1
100
AcDbCircle
 10
4762.519581199091
 20
-2259.06618040198
 30
0.0
 40
17.0
100
AcDbArc
 50
113.1764439438205
 51
176.107466317104
  0
AMDTACMWBLOCKBOMENTITY
  5
214E3
330
1F
100
AcDbEntity
  8
AM_5
 92
        8
310
0800000000000000
  0
AMDTACMWBLOCKBOMENTITY
  5
21FF0
330
1F
100
AcDbEntity
  8
AM_5
 92
        8
310
0800000000000000
  0
AMDTACMWBLOCKBOMENTITY
  5
21FF1
330
1F
100
AcDbEntity
  8
AM_5
 92
        8
310
0800000000000000
  0
AMDTACMWBLOCKBOMENTITY
  5
21FF2
330
1F
100
AcDbEntity
  8
AM_5
 92
        8
310
0800000000000000
  0
AMDTACMWBLOCKBOMENTITY
  5
21FF3
330
1F
100
AcDbEntity
  8
AM_5
 92
        8
310
0800000000000000
  0
AMDTACMWBLOCKBOMENTITY
  5
2627D
330
1F
100
AcDbEntity
  8
AM_6
 92
        8
310
0800000000000000
  0
AMDTACMWBLOCKBOMENTITY
  5
2627E
330
1F
100
AcDbEntity
  8
AM_5
 92
        8
310
0800000000000000
  0
AMDTACMWBLOCKBOMENTITY
  5
2627F
330
1F
100
AcDbEntity
  8
AM_5
 92
        8
310
0800000000000000
  0
AMDTACMWBLOCKBOMENTITY
  5
26280
330
1F
100
AcDbEntity
  8
AM_5
 92
        8
310
0800000000000000
  0
AMDTACMWBLOCKBOMENTITY
  5
26281
330
1F
100
AcDbEntity
  8
AM_5
 92
        8
310
0800000000000000
  0
AMDTACMWBLOCKBOMENTITY
  5
26282
330
1F
100
AcDbEntity
  8
AM_5
 92
        8
310
0800000000000000
  0
AMDTACMWBLOCKBOMENTITY
  5
26283
330
1F
100
AcDbEntity
  8
AM_5
 92
        8
310
0800000000000000
  0
POINT
  5
3B6FB
330
1F
100
AcDbEntity
  8
AM_0
  6
Continuous
 62
     3
100
AcDbPoint
 10
6239.4060850735
 20
-2566.62903368731
 30
0.0
  0
POINT
  5
3B6FC
330
1F
100
AcDbEntity
  8
AM_0
  6
Continuous
 62
     3
100
AcDbPoint
 10
6236.4060850735
 20
-2567.42902368731
 30
0.0
  0
POINT
  5
3B6FD
330
1F
100
AcDbEntity
  8
AM_0
  6
Continuous
 62
     3
100
AcDbPoint
 10
6239.4060850735
 20
-2566.62903368731
 30
0.0
  0
POINT
  5
3B6FF
330
1F
100
AcDbEntity
  8
AM_0
100
AcDbPoint
 10
6175.724313388958
 20
-2420.258274275982
 30
0.0
  0
POINT
  5
3B700
330
1F
100
AcDbEntity
  8
AM_0
100
AcDbPoint
 10
6175.724313388958
 20
-2490.258274275982
 30
0.0
  0
POINT
  5
3B701
330
1F
100
AcDbEntity
  8
AM_0
100
AcDbPoint
 10
5920.724313388959
 20
-2490.258274275982
 30
0.0
  0
LINE
  5
3B702
330
1F
100
AcDbEntity
  8
AM_2
100
AcDbLine
 10
5938.224313388959
 20
-2624.12903368731
 30
0.0
 11
5924.810093388959
 21
-2637.543283687311
 31
0.0
  0
LINE
  5
3B703
330
1F
100
AcDbEntity
  8
AM_2
100
AcDbLine
 10
5939.173653388959
 20
-2590.75867368731
 30
0.0
 11
5941.928323388959
 21
-2606.36835368731
 31
0.0
  0
LINE
  5
3B704
330
1F
100
AcDbEntity
  8
AM_2
100
AcDbLine
 10
5941.928263388959
 20
-2606.889743687311
 30
0.0
 11
5939.173593388958
 21
-2622.49945368731
 31
0.0
  0
LINE
  5
3B705
330
1F
100
AcDbEntity
  8
AM_2
100
AcDbLine
 10
5924.810093388959
 20
-2575.71482368731
 30
0.0
 11
5938.224253388959
 21
-2589.12900368731
 31
0.0
  0
LINE
  5
3B706
330
1F
100
AcDbEntity
  8
AM_2
100
AcDbLine
 10
6158.224313388959
 20
-2624.12903368731
 30
0.0
 11
6171.638493388958
 21
-2637.543253687311
 31
0.0
  0
LINE
  5
3B707
330
1F
100
AcDbEntity
  8
AM_2
100
AcDbLine
 10
6157.274973388958
 20
-2590.75867368731
 30
0.0
 11
6154.520333388958
 21
-2606.368383687311
 31
0.0
  0
LINE
  5
3B708
330
1F
100
AcDbEntity
  8
AM_2
100
AcDbLine
 10
6154.520333388958
 20
-2606.889743687311
 30
0.0
 11
6157.274973388958
 21
-2622.49949368731
 31
0.0
  0
LINE
  5
3B709
330
1F
100
AcDbEntity
  8
AM_2
100
AcDbLine
 10
6158.224313388959
 20
-2589.12900368731
 30
0.0
 11
6171.638493388958
 21
-2575.71482368731
 31
0.0
  0
LINE
  5
3B70A
330
1F
100
AcDbEntity
  8
AM_0
  6
Continuous
 62
     7
100
AcDbLine
 10
6236.4060850735
 20
-2572.94257368731
 30
0.0
 11
6236.4060850735
 21
-2640.26612368731
 31
0.0
  0
LINE
  5
3B70B
330
1F
100
AcDbEntity
  8
AM_0
  6
Continuous
 62
     7
100
AcDbLine
 10
6239.4060850735
 20
-2574.69989368731
 30
0.0
 11
6239.4060850735
 21
-2635.61570368731
 31
0.0
  0
LINE
  5
3B70C
330
1F
100
AcDbEntity
  8
AM_0
  6
Continuous
 62
     7
100
AcDbLine
 10
6239.4060850735
 20
-2636.84778368731
 30
0.0
 11
6251.4060850735
 21
-2622.79447368731
 31
0.0
  0
LINE
  5
3B70D
330
1F
100
AcDbEntity
  8
AM_0
  6
Continuous
 62
     7
100
AcDbLine
 10
6236.4060850735
 20
-2639.42411368731
 30
0.0
 11
6236.4060850735
 21
-2645.829043687311
 31
0.0
  0
LINE
  5
3B70E
330
1F
100
AcDbEntity
  8
AM_0
  6
Continuous
 62
     7
100
AcDbLine
 10
6239.4060850735
 20
-2646.62903368731
 30
0.0
 11
6239.4060850735
 21
-2635.61570368731
 31
0.0
  0
LINE
  5
3B70F
330
1F
100
AcDbEntity
  8
AM_0
  6
Continuous
 62
     7
100
AcDbLine
 10
6239.4060850735
 20
-2646.62903368731
 30
0.0
 11
6239.4060850735
 21
-2645.829043687311
 31
0.0
  0
LINE
  5
3B710
330
1F
100
AcDbEntity
  8
AM_0
  6
Continuous
 62
     7
100
AcDbLine
 10
6237.2060750735
 20
-2646.62903368731
 30
0.0
 11
6239.4060850735
 21
-2646.62903368731
 31
0.0
  0
LINE
  5
3B711
330
1F
100
AcDbEntity
  8
AM_0
  6
Continuous
 62
     7
100
AcDbLine
 10
6252.2061350735
 20
-2616.62903368731
 30
0.0
 11
6252.2061350735
 21
-2626.29767368731
 31
0.0
  0
LINE
  5
3B712
330
1F
100
AcDbEntity
  8
AM_0
  6
Continuous
 62
     7
100
AcDbLine
 10
6251.4060850735
 20
-2616.62903368731
 30
0.0
 11
6251.4060850735
 21
-2626.297643687311
 31
0.0
  0
LINE
  5
3B713
330
1F
100
AcDbEntity
  8
AM_0
  6
Continuous
 62
     7
100
AcDbLine
 10
6251.6404050735
 20
-2626.86332368731
 30
0.0
 11
6253.5274250735
 21
-2628.75034368731
 31
0.0
  0
LINE
  5
3B714
330
1F
100
AcDbEntity
  8
AM_0
  6
Continuous
 62
     7
100
AcDbLine
 10
6252.2061350735
 20
-2626.29767368731
 30
0.0
 11
6254.0930950735
 21
-2628.18467368731
 31
0.0
  0
LINE
  5
3B715
330
1F
100
AcDbEntity
  8
AM_0
  6
Continuous
 62
     7
100
AcDbLine
 10
6247.191605073499
 20
-2629.88602368731
 30
0.0
 11
6247.7999450735
 21
-2630.40549368731
 31
0.0
  0
LINE
  5
3B716
330
1F
100
AcDbEntity
  8
AM_0
  6
Continuous
 62
     7
100
AcDbLine
 10
6247.8000050735
 20
-2630.40546368731
 30
0.0
 11
6251.2351250735
 21
-2626.59382368731
 31
0.0
  0
LINE
  5
3B717
330
1F
100
AcDbEntity
  8
AM_0
  6
Continuous
 62
     7
100
AcDbLine
 10
6247.191605073499
 20
-2629.88605368731
 30
0.0
 11
6250.4384950735
 21
-2626.08359368731
 31
0.0
  0
LINE
  5
3B718
330
1F
100
AcDbEntity
  8
AM_0
  6
Continuous
 62
     7
100
AcDbLine
 10
6253.5274250735
 20
-2628.750373687311
 30
0.0
 11
6254.0930950735
 21
-2628.184703687311
 31
0.0
  0
LINE
  5
3B719
330
1F
100
AcDbEntity
  8
AM_0
  6
Continuous
 62
     7
100
AcDbLine
 10
6242.886865073501
 20
-2579.37903368731
 30
0.0
 11
6252.2061350735
 21
-2579.37903368731
 31
0.0
  0
LINE
  5
3B71A
330
1F
100
AcDbEntity
  8
AM_0
  6
Continuous
 62
     7
100
AcDbLine
 10
6242.6241050735
 20
-2580.179023687311
 30
0.0
 11
6252.2061350735
 21
-2580.179023687311
 31
0.0
  0
LINE
  5
3B71D
330
1F
100
AcDbEntity
  8
AM_0
  6
Continuous
 62
     7
100
AcDbLine
 10
6247.191605073499
 20
-2583.37214368731
 30
0.0
 11
6247.8000050735
 21
-2582.85263368731
 31
0.0
  0
LINE
  5
3B71E
330
1F
100
AcDbEntity
  8
AM_0
  6
Continuous
 62
     7
100
AcDbLine
 10
6239.4060850735
 20
-2566.62903368731
 30
0.0
 11
6239.4060850735
 21
-2574.69989368731
 31
0.0
  0
LINE
  5
3B71F
330
1F
100
AcDbEntity
  8
AM_0
  6
Continuous
 62
     7
100
AcDbLine
 10
6236.4060850735
 20
-2567.42902368731
 30
0.0
 11
6236.4060850735
 21
-2573.83393368731
 31
0.0
  0
LINE
  5
3B720
330
1F
100
AcDbEntity
  8
AM_0
  6
Continuous
 62
     7
100
AcDbLine
 10
6239.4060850735
 20
-2566.62903368731
 30
0.0
 11
6239.4060850735
 21
-2567.429053687311
 31
0.0
  0
LINE
  5
3B721
330
1F
100
AcDbEntity
  8
AM_0
  6
Continuous
 62
     7
100
AcDbLine
 10
6237.2060750735
 20
-2566.62903368731
 30
0.0
 11
6239.4060850735
 21
-2566.62903368731
 31
0.0
  0
LINE
  5
3B722
330
1F
100
AcDbEntity
  8
AM_7
100
AcDbLine
 10
5912.724313388959
 20
-2606.62903368731
 30
0.0
 11
6183.724313388959
 21
-2606.62903368731
 31
0.0
  0
LINE
  5
3B724
330
1F
100
AcDbEntity
  8
AM_7
 48
0.5
100
AcDbLine
 10
5930.724313388958
 20
-2601.62903368731
 30
0.0
 11
5930.724313388958
 21
-2611.62903368731
 31
0.0
  0
LINE
  5
3B725
330
1F
100
AcDbEntity
  8
AM_0
  6
Continuous
 62
     7
100
AcDbLine
 10
6255.4060850735
 20
-2596.604348687311
 30
0.0
 11
6255.4060850735
 21
-2616.629033687309
 31
0.0
  0
LINE
  5
3B728
330
1F
100
AcDbEntity
  8
AM_0
  6
Continuous
 62
     7
100
AcDbLine
 10
6239.4060850735
 20
-2596.62903368731
 30
0.0
 11
6255.4060850735
 21
-2596.62903368731
 31
0.0
  0
LINE
  5
3B729
330
1F
100
AcDbEntity
  8
AM_0
  6
Continuous
 62
     7
100
AcDbLine
 10
6251.4060850735
 20
-2596.62903368731
 30
0.0
 11
6251.4060850735
 21
-2586.96042368731
 31
0.0
  0
LINE
  5
3B72A
330
1F
100
AcDbEntity
  8
AM_0
  6
Continuous
 62
     7
100
AcDbLine
 10
6252.2061350735
 20
-2596.62903368731
 30
0.0
 11
6252.2061350735
 21
-2586.96039368731
 31
0.0
  0
LINE
  5
3B72B
330
1F
100
AcDbEntity
  8
AM_0
  6
Continuous
 62
     7
100
AcDbLine
 10
6239.4060250735
 20
-2576.410343687311
 30
0.0
 11
6251.4060850735
 21
-2590.463663687311
 31
0.0
  0
LINE
  5
3B72C
330
1F
100
AcDbEntity
  8
AM_0
  6
Continuous
 62
     7
100
AcDbLine
 10
6247.7999450735
 20
-2582.85263368731
 30
0.0
 11
6251.2351250735
 21
-2586.66428368731
 31
0.0
  0
LINE
  5
3B72D
330
1F
100
AcDbEntity
  8
AM_0
  6
Continuous
 62
     7
100
AcDbLine
 10
6247.191605073499
 20
-2583.37207368731
 30
0.0
 11
6250.4384350735
 21
-2587.17447368731
 31
0.0
  0
LINE
  5
3B72E
330
1F
100
AcDbEntity
  8
AM_0
  6
Continuous
 62
     7
100
AcDbLine
 10
6247.191605073499
 20
-2583.37210368731
 30
0.0
 11
6247.7999450735
 21
-2582.85263368731
 31
0.0
  0
LINE
  5
3B72F
330
1F
100
AcDbEntity
  8
AM_0
  6
Continuous
 62
     7
100
AcDbLine
 10
6253.5274250735
 20
-2584.507763687311
 30
0.0
 11
6254.0930950735
 21
-2585.07343368731
 31
0.0
  0
LINE
  5
3B730
330
1F
100
AcDbEntity
  8
AM_0
  6
Continuous
 62
     7
100
AcDbLine
 10
6252.2061350735
 20
-2586.96039368731
 30
0.0
 11
6254.0930950735
 21
-2585.07343368731
 31
0.0
  0
LINE
  5
3B731
330
1F
100
AcDbEntity
  8
AM_0
  6
Continuous
 62
     7
100
AcDbLine
 10
6251.6404050735
 20
-2586.394783687311
 30
0.0
 11
6253.5274250735
 21
-2584.507763687311
 31
0.0
  0
LINE
  5
3B732
330
1F
100
AcDbEntity
  8
AM_0
  6
Continuous
 62
     7
100
AcDbLine
 10
6239.4060850735
 20
-2575.30268368731
 30
0.0
 11
6242.8867950735
 21
-2579.37900368731
 31
0.0
  0
LINE
  5
3B733
330
1F
100
AcDbEntity
  8
AM_0
100
AcDbLine
 10
5930.724313388958
 20
-2420.258274275982
 30
0.0
 11
6165.724313388959
 21
-2420.258274275982
 31
0.0
  0
LINE
  5
3B734
330
1F
100
AcDbEntity
  8
AM_0
100
AcDbLine
 10
5930.724313388958
 20
-2490.258274275982
 30
0.0
 11
6165.724313388959
 21
-2490.258274275982
 31
0.0
  0
LINE
  5
3B735
330
1F
100
AcDbEntity
  8
AM_0
100
AcDbLine
 10
5920.724313388959
 20
-2430.258274275983
 30
0.0
 11
5920.724313388959
 21
-2480.258274275982
 31
0.0
  0
LINE
  5
3B736
330
1F
100
AcDbEntity
  8
AM_0
100
AcDbLine
 10
6175.724313388958
 20
-2430.258274275983
 30
0.0
 11
6175.724313388958
 21
-2480.258274275982
 31
0.0
  0
CIRCLE
  5
3B737
330
1F
100
AcDbEntity
  8
AM_3
 48
0.5
100
AcDbCircle
 10
5930.724313388958
 20
-2606.62903368731
 30
0.0
 40
1.649999999999999
  0
ARC
  5
3B738
330
1F
100
AcDbEntity
  8
AM_2
100
AcDbCircle
 10
5940.451153388959
 20
-2606.62903368731
 30
0.0
 40
1.5
100
AcDbArc
 50
349.9918899999889
 51
10.0081150000345
  0
ARC
  5
3B739
330
1F
100
AcDbEntity
  8
AM_2
100
AcDbCircle
 10
6155.997443388959
 20
-2606.62903368731
 30
0.0
 40
1.5
100
AcDbArc
 50
169.9918899999889
 51
190.008110000011
  0
ARC
  5
3B73A
330
1F
100
AcDbEntity
  8
AM_0
  6
Continuous
 62
     7
100
AcDbCircle
 10
6237.2060750735
 20
-2645.829043687311
 30
0.0
 40
0.8000000099999999
100
AcDbArc
 50
180.0
 51
270.0
  0
ARC
  5
3B73B
330
1F
100
AcDbEntity
  8
AM_0
  6
Continuous
 62
     7
100
AcDbCircle
 10
6249.9060850735
 20
-2625.62903368731
 30
0.0
 40
0.6999999900000002
100
AcDbArc
 50
319.5068099999887
 51
139.5068099999862
  0
ARC
  5
3B73C
330
1F
100
AcDbEntity
  8
AM_0
  6
Continuous
 62
     7
100
AcDbCircle
 10
6252.2060750735
 20
-2626.297643687311
 30
0.0
 40
0.8000000099999999
100
AcDbArc
 50
180.0
 51
225.0
  0
ARC
  5
3B73D
330
1F
100
AcDbEntity
  8
AM_0
  6
Continuous
 62
     7
100
AcDbCircle
 10
6252.2061350735
 20
-2582.12903368731
 30
0.0
 40
2.75
100
AcDbArc
 50
299.2232599999653
 51
90.0
  0
ARC
  5
3B73E
330
1F
100
AcDbEntity
  8
AM_0
  6
Continuous
 62
     7
100
AcDbCircle
 10
6252.2061350735
 20
-2582.12903368731
 30
0.0
 40
2.75
100
AcDbArc
 50
134.8390400000222
 51
297.0598299999772
  0
ARC
  5
3B73F
330
1F
100
AcDbEntity
  8
AM_0
  6
Continuous
 62
     7
100
AcDbCircle
 10
6237.2060750735
 20
-2567.42902368731
 30
0.0
 40
0.8000000099999999
100
AcDbArc
 50
90.0
 51
180.0
  0
ARC
  5
3B740
330
1F
100
AcDbEntity
  8
AM_0
  6
Continuous
 62
     7
100
AcDbCircle
 10
5921.724313388959
 20
-2640.62903368731
 30
0.0
 40
6.0
100
AcDbArc
 50
180.0
 51
270.0
  0
ARC
  5
3B741
330
1F
100
AcDbEntity
  8
AM_0
  6
Continuous
 62
     7
100
AcDbCircle
 10
5926.224313388959
 20
-2636.12903368731
 30
0.0
 40
3.0
100
AcDbArc
 50
180.0
 51
270.0
  0
ARC
  5
3B742
330
1F
100
AcDbEntity
  8
AM_0
  6
Continuous
 62
     7
100
AcDbCircle
 10
5940.224313388959
 20
-2622.12903368731
 30
0.0
 40
2.0
100
AcDbArc
 50
180.0
 51
270.0
  0
ARC
  5
3B743
330
1F
100
AcDbEntity
  8
AM_0
  6
Continuous
 62
     7
100
AcDbCircle
 10
5940.974313388959
 20
-2621.62903368731
 30
0.0
 40
2.0
100
AcDbArc
 50
180.0
 51
270.0
  0
ARC
  5
3B744
330
1F
100
AcDbEntity
  8
AM_2
100
AcDbCircle
 10
5943.61506338896
 20
-2608.642153687311
 30
0.0
 40
2.021755699999999
100
AcDbArc
 50
95.29958600001384
 51
156.4667399999649
  0
ARC
  5
3B745
330
1F
100
AcDbEntity
  8
AM_2
100
AcDbCircle
 10
5943.615023388958
 20
-2604.61603368731
 30
0.0
 40
2.021654399999999
100
AcDbArc
 50
203.5315700000412
 51
264.7009600000163
  0
ARC
  5
3B746
330
1F
100
AcDbEntity
  8
AM_2
100
AcDbCircle
 10
6152.833623388959
 20
-2608.642003687311
 30
0.0
 40
2.021602399999999
100
AcDbArc
 50
23.53032800001352
 51
84.70087600001509
  0
ARC
  5
3B747
330
1F
100
AcDbEntity
  8
AM_2
100
AcDbCircle
 10
6152.833623388959
 20
-2604.61609368731
 30
0.0
 40
2.021600199999999
100
AcDbArc
 50
275.2991200000021
 51
336.4696699999777
  0
ARC
  5
3B748
330
1F
100
AcDbEntity
  8
AM_0
  6
Continuous
 62
     7
100
AcDbCircle
 10
6249.9060850735
 20
-2625.62903368731
 30
0.0
 40
1.6422691
100
AcDbArc
 50
311.9246099999853
 51
335.9755700000012
  0
ARC
  5
3B749
330
1F
100
AcDbEntity
  8
AM_0
  6
Continuous
 62
     7
100
AcDbCircle
 10
6249.9060850735
 20
-2625.62903368731
 30
0.0
 40
1.6422691
100
AcDbArc
 50
24.02443300000906
 51
74.73526300000568
  0
ARC
  5
3B74A
330
1F
100
AcDbEntity
  8
AM_0
  6
Continuous
 62
     7
100
AcDbCircle
 10
6249.9060850735
 20
-2587.62903368731
 30
0.0
 40
1.6422691
100
AcDbArc
 50
285.2647399999845
 51
335.9755700000012
  0
ARC
  5
3B74B
330
1F
100
AcDbEntity
  8
AM_0
  6
Continuous
 62
     7
100
AcDbCircle
 10
6249.9060850735
 20
-2587.62903368731
 30
0.0
 40
1.6422691
100
AcDbArc
 50
24.02443300000906
 51
48.07538599999162
  0
ARC
  5
3B74C
330
1F
100
AcDbEntity
  8
AM_0
  6
Continuous
 62
     7
100
AcDbCircle
 10
6252.2060750735
 20
-2586.96042368731
 30
0.0
 40
0.8000000099999999
100
AcDbArc
 50
134.9999999999999
 51
180.0
  0
ARC
  5
3B74D
330
1F
100
AcDbEntity
  8
AM_0
  6
Continuous
 62
     7
100
AcDbCircle
 10
6249.9060850735
 20
-2587.62903368731
 30
0.0
 40
0.6999999900000002
100
AcDbArc
 50
220.4931900000112
 51
40.4931940000161
  0
CIRCLE
  5
3B74E
330
1F
100
AcDbEntity
  8
AM_0
  6
Continuous
 62
     7
100
AcDbCircle
 10
6252.2061350735
 20
-2582.12903368731
 30
0.0
 40
1.75
  0
CIRCLE
  5
3B74F
330
1F
100
AcDbEntity
  8
AM_0
  6
Continuous
 62
     7
100
AcDbCircle
 10
6252.2061350735
 20
-2582.12903368731
 30
0.0
 40
1.95
  0
ARC
  5
3B750
330
1F
100
AcDbEntity
  8
AM_0
100
AcDbCircle
 10
6165.724313388959
 20
-2430.258274275983
 30
0.0
 40
10.0
100
AcDbArc
 50
0.0
 51
90.0
  0
ARC
  5
3B751
330
1F
100
AcDbEntity
  8
AM_0
100
AcDbCircle
 10
6165.724313388959
 20
-2480.258274275982
 30
0.0
 40
10.0
100
AcDbArc
 50
270.0
 51
0.0
  0
ARC
  5
3B752
330
1F
100
AcDbEntity
  8
AM_0
100
AcDbCircle
 10
5930.724313388958
 20
-2430.258274275983
 30
0.0
 40
10.0
100
AcDbArc
 50
90.0
 51
180.0
  0
ARC
  5
3B753
330
1F
100
AcDbEntity
  8
AM_0
100
AcDbCircle
 10
5930.724313388958
 20
-2480.258274275982
 30
0.0
 40
10.0
100
AcDbArc
 50
180.0
 51
270.0
  0
CIRCLE
  5
3B754
330
1F
100
AcDbEntity
  8
AM_3
 48
0.5
100
AcDbCircle
 10
5930.724313388958
 20
-2606.62903368731
 30
0.0
 40
2.0
  0
POLYLINE
  5
3B755
330
1F
100
AcDbEntity
  8
AM_0
  6
Continuous
 62
     7
100
AcDb2dPolyline
 66
     1
 10
0.0
 20
0.0
 30
0.0
  0
VERTEX
  5
3B756
330
3B755
100
AcDbEntity
  8
AM_0
  6
Continuous
 62
     7
100
AcDbVertex
100
AcDb2dVertex
 10
5921.724313388959
 20
-2646.62903368731
 30
0.0
  0
VERTEX
  5
3B757
330
3B755
100
AcDbEntity
  8
AM_0
  6
Continuous
 62
     7
100
AcDbVertex
100
AcDb2dVertex
 10
6174.724313388959
 20
-2646.62903368731
 30
0.0
  0
SEQEND
  5
3B758
330
3B755
100
AcDbEntity
  8
AM_0
  6
Continuous
 62
     7
  0
POLYLINE
  5
3B759
330
1F
100
AcDbEntity
  8
AM_0
  6
Continuous
 62
     7
100
AcDb2dPolyline
 66
     1
 10
0.0
 20
0.0
 30
0.0
  0
VERTEX
  5
3B75A
330
3B759
100
AcDbEntity
  8
AM_0
  6
Continuous
 62
     7
100
AcDbVertex
100
AcDb2dVertex
 10
6174.724313388959
 20
-2646.62903368731
 30
0.0
 42
0.096813152
  0
VERTEX
  5
3B75B
330
3B759
100
AcDbEntity
  8
AM_0
  6
Continuous
 62
     7
100
AcDbVertex
100
AcDb2dVertex
 10
6177.708933388959
 20
-2645.78506368731
 30
0.0
 42
0.15870622
  0
VERTEX
  5
3B75C
330
3B759
100
AcDbEntity
  8
AM_0
  6
Continuous
 62
     7
100
AcDbVertex
100
AcDb2dVertex
 10
6179.880323388959
 20
-2643.61366368731
 30
0.0
 42
0.096813662
  0
VERTEX
  5
3B75D
330
3B759
100
AcDbEntity
  8
AM_0
  6
Continuous
 62
     7
100
AcDbVertex
100
AcDb2dVertex
 10
6180.724313388959
 20
-2640.62903368731
 30
0.0
  0
SEQEND
  5
3B75E
330
3B759
100
AcDbEntity
  8
AM_0
  6
Continuous
 62
     7
  0
POLYLINE
  5
3B75F
330
1F
100
AcDbEntity
  8
AM_0
  6
Continuous
 62
     7
100
AcDb2dPolyline
 66
     1
 10
0.0
 20
0.0
 30
0.0
  0
VERTEX
  5
3B760
330
3B75F
100
AcDbEntity
  8
AM_0
  6
Continuous
 62
     7
100
AcDbVertex
100
AcDb2dVertex
 10
6180.724313388959
 20
-2640.62903368731
 30
0.0
  0
VERTEX
  5
3B761
330
3B75F
100
AcDbEntity
  8
AM_0
  6
Continuous
 62
     7
100
AcDbVertex
100
AcDb2dVertex
 10
6180.724313388959
 20
-2572.62903368731
 30
0.0
  0
SEQEND
  5
3B762
330
3B75F
100
AcDbEntity
  8
AM_0
  6
Continuous
 62
     7
  0
POLYLINE
  5
3B763
330
1F
100
AcDbEntity
  8
AM_0
  6
Continuous
 62
     7
100
AcDb2dPolyline
 66
     1
 10
0.0
 20
0.0
 30
0.0
  0
VERTEX
  5
3B764
330
3B763
100
AcDbEntity
  8
AM_0
  6
Continuous
 62
     7
100
AcDbVertex
100
AcDb2dVertex
 10
6180.724313388959
 20
-2572.62903368731
 30
0.0
 42
0.096814558
  0
VERTEX
  5
3B765
330
3B763
100
AcDbEntity
  8
AM_0
  6
Continuous
 62
     7
100
AcDbVertex
100
AcDb2dVertex
 10
6179.880323388959
 20
-2569.644423687311
 30
0.0
 42
0.15870326
  0
VERTEX
  5
3B766
330
3B763
100
AcDbEntity
  8
AM_0
  6
Continuous
 62
     7
100
AcDbVertex
100
AcDb2dVertex
 10
6177.708913388959
 20
-2567.47302368731
 30
0.0
 42
0.09681471
  0
VERTEX
  5
3B767
330
3B763
100
AcDbEntity
  8
AM_0
  6
Continuous
 62
     7
100
AcDbVertex
100
AcDb2dVertex
 10
6174.724313388959
 20
-2566.62903368731
 30
0.0
  0
SEQEND
  5
3B768
330
3B763
100
AcDbEntity
  8
AM_0
  6
Continuous
 62
     7
  0
POLYLINE
  5
3B769
330
1F
100
AcDbEntity
  8
AM_0
  6
Continuous
 62
     7
100
AcDb2dPolyline
 66
     1
 10
0.0
 20
0.0
 30
0.0
  0
VERTEX
  5
3B76A
330
3B769
100
AcDbEntity
  8
AM_0
  6
Continuous
 62
     7
100
AcDbVertex
100
AcDb2dVertex
 10
6174.724313388959
 20
-2566.62903368731
 30
0.0
  0
VERTEX
  5
3B76B
330
3B769
100
AcDbEntity
  8
AM_0
  6
Continuous
 62
     7
100
AcDbVertex
100
AcDb2dVertex
 10
5921.724313388959
 20
-2566.62903368731
 30
0.0
  0
SEQEND
  5
3B76C
330
3B769
100
AcDbEntity
  8
AM_0
  6
Continuous
 62
     7
  0
POLYLINE
  5
3B76D
330
1F
100
AcDbEntity
  8
AM_0
  6
Continuous
 62
     7
100
AcDb2dPolyline
 66
     1
 10
0.0
 20
0.0
 30
0.0
  0
VERTEX
  5
3B76E
330
3B76D
100
AcDbEntity
  8
AM_0
  6
Continuous
 62
     7
100
AcDbVertex
100
AcDb2dVertex
 10
5921.724313388959
 20
-2566.62903368731
 30
0.0
 42
0.096812695
  0
VERTEX
  5
3B76F
330
3B76D
100
AcDbEntity
  8
AM_0
  6
Continuous
 62
     7
100
AcDbVertex
100
AcDb2dVertex
 10
5918.739693388959
 20
-2567.47301368731
 30
0.0
 42
0.15870804
  0
VERTEX
  5
3B770
330
3B76D
100
AcDbEntity
  8
AM_0
  6
Continuous
 62
     7
100
AcDbVertex
100
AcDb2dVertex
 10
5916.568273388959
 20
-2569.64444368731
 30
0.0
 42
0.096812489
  0
VERTEX
  5
3B771
330
3B76D
100
AcDbEntity
  8
AM_0
  6
Continuous
 62
     7
100
AcDbVertex
100
AcDb2dVertex
 10
5915.724313388959
 20
-2572.62903368731
 30
0.0
  0
SEQEND
  5
3B772
330
3B76D
100
AcDbEntity
  8
AM_0
  6
Continuous
 62
     7
  0
POLYLINE
  5
3B773
330
1F
100
AcDbEntity
  8
AM_0
  6
Continuous
 62
     7
100
AcDb2dPolyline
 66
     1
 10
0.0
 20
0.0
 30
0.0
  0
VERTEX
  5
3B774
330
3B773
100
AcDbEntity
  8
AM_0
  6
Continuous
 62
     7
100
AcDbVertex
100
AcDb2dVertex
 10
5915.724313388959
 20
-2572.62903368731
 30
0.0
  0
VERTEX
  5
3B775
330
3B773
100
AcDbEntity
  8
AM_0
  6
Continuous
 62
     7
100
AcDbVertex
100
AcDb2dVertex
 10
5915.724313388959
 20
-2640.62903368731
 30
0.0
  0
SEQEND
  5
3B776
330
3B773
100
AcDbEntity
  8
AM_0
  6
Continuous
 62
     7
  0
POLYLINE
  5
3B777
330
1F
100
AcDbEntity
  8
AM_0
  6
Continuous
 62
     7
100
AcDb2dPolyline
 66
     1
 10
0.0
 20
0.0
 30
0.0
  0
VERTEX
  5
3B778
330
3B777
100
AcDbEntity
  8
AM_0
  6
Continuous
 62
     7
100
AcDbVertex
100
AcDb2dVertex
 10
5926.224313388959
 20
-2639.12903368731
 30
0.0
  0
VERTEX
  5
3B779
330
3B777
100
AcDbEntity
  8
AM_0
  6
Continuous
 62
     7
100
AcDbVertex
100
AcDb2dVertex
 10
6170.224313388959
 20
-2639.12903368731
 30
0.0
  0
SEQEND
  5
3B77A
330
3B777
100
AcDbEntity
  8
AM_0
  6
Continuous
 62
     7
  0
POLYLINE
  5
3B77B
330
1F
100
AcDbEntity
  8
AM_0
  6
Continuous
 62
     7
100
AcDb2dPolyline
 66
     1
 10
0.0
 20
0.0
 30
0.0
  0
VERTEX
  5
3B77C
330
3B77B
100
AcDbEntity
  8
AM_0
  6
Continuous
 62
     7
100
AcDbVertex
100
AcDb2dVertex
 10
6170.224313388959
 20
-2639.12903368731
 30
0.0
 42
0.09680802
  0
VERTEX
  5
3B77D
330
3B77B
100
AcDbEntity
  8
AM_0
  6
Continuous
 62
     7
100
AcDbVertex
100
AcDb2dVertex
 10
6171.716633388959
 20
-2638.70706368731
 30
0.0
 42
0.15871872
  0
VERTEX
  5
3B77E
330
3B77B
100
AcDbEntity
  8
AM_0
  6
Continuous
 62
     7
100
AcDbVertex
100
AcDb2dVertex
 10
6172.802343388959
 20
-2637.62135368731
 30
0.0
 42
0.096808173
  0
VERTEX
  5
3B77F
330
3B77B
100
AcDbEntity
  8
AM_0
  6
Continuous
 62
     7
100
AcDbVertex
100
AcDb2dVertex
 10
6173.224313388959
 20
-2636.12903368731
 30
0.0
  0
SEQEND
  5
3B780
330
3B77B
100
AcDbEntity
  8
AM_0
  6
Continuous
 62
     7
  0
POLYLINE
  5
3B781
330
1F
100
AcDbEntity
  8
AM_0
  6
Continuous
 62
     7
100
AcDb2dPolyline
 66
     1
 10
0.0
 20
0.0
 30
0.0
  0
VERTEX
  5
3B782
330
3B781
100
AcDbEntity
  8
AM_0
  6
Continuous
 62
     7
100
AcDbVertex
100
AcDb2dVertex
 10
6173.224313388959
 20
-2636.12903368731
 30
0.0
  0
VERTEX
  5
3B783
330
3B781
100
AcDbEntity
  8
AM_0
  6
Continuous
 62
     7
100
AcDbVertex
100
AcDb2dVertex
 10
6173.224313388959
 20
-2577.12903368731
 30
0.0
  0
SEQEND
  5
3B784
330
3B781
100
AcDbEntity
  8
AM_0
  6
Continuous
 62
     7
  0
POLYLINE
  5
3B785
330
1F
100
AcDbEntity
  8
AM_0
  6
Continuous
 62
     7
100
AcDb2dPolyline
 66
     1
 10
0.0
 20
0.0
 30
0.0
  0
VERTEX
  5
3B786
330
3B785
100
AcDbEntity
  8
AM_0
  6
Continuous
 62
     7
100
AcDbVertex
100
AcDb2dVertex
 10
6173.224313388959
 20
-2577.12903368731
 30
0.0
 42
0.096811746
  0
VERTEX
  5
3B787
330
3B785
100
AcDbEntity
  8
AM_0
  6
Continuous
 62
     7
100
AcDbVertex
100
AcDb2dVertex
 10
6172.802333388959
 20
-2575.636713687309
 30
0.0
 42
0.15870917
  0
VERTEX
  5
3B788
330
3B785
100
AcDbEntity
  8
AM_0
  6
Continuous
 62
     7
100
AcDbVertex
100
AcDb2dVertex
 10
6171.716633388959
 20
-2574.55103368731
 30
0.0
 42
0.096812614
  0
VERTEX
  5
3B789
330
3B785
100
AcDbEntity
  8
AM_0
  6
Continuous
 62
     7
100
AcDbVertex
100
AcDb2dVertex
 10
6170.224313388959
 20
-2574.12903368731
 30
0.0
  0
SEQEND
  5
3B78A
330
3B785
100
AcDbEntity
  8
AM_0
  6
Continuous
 62
     7
  0
POLYLINE
  5
3B78B
330
1F
100
AcDbEntity
  8
AM_0
  6
Continuous
 62
     7
100
AcDb2dPolyline
 66
     1
 10
0.0
 20
0.0
 30
0.0
  0
VERTEX
  5
3B78C
330
3B78B
100
AcDbEntity
  8
AM_0
  6
Continuous
 62
     7
100
AcDbVertex
100
AcDb2dVertex
 10
6170.224313388959
 20
-2574.12903368731
 30
0.0
  0
VERTEX
  5
3B78D
330
3B78B
100
AcDbEntity
  8
AM_0
  6
Continuous
 62
     7
100
AcDbVertex
100
AcDb2dVertex
 10
5926.224313388959
 20
-2574.12903368731
 30
0.0
  0
SEQEND
  5
3B78E
330
3B78B
100
AcDbEntity
  8
AM_0
  6
Continuous
 62
     7
  0
POLYLINE
  5
3B78F
330
1F
100
AcDbEntity
  8
AM_0
  6
Continuous
 62
     7
100
AcDb2dPolyline
 66
     1
 10
0.0
 20
0.0
 30
0.0
  0
VERTEX
  5
3B790
330
3B78F
100
AcDbEntity
  8
AM_0
  6
Continuous
 62
     7
100
AcDbVertex
100
AcDb2dVertex
 10
5926.224313388959
 20
-2574.12903368731
 30
0.0
 42
0.096814558
  0
VERTEX
  5
3B791
330
3B78F
100
AcDbEntity
  8
AM_0
  6
Continuous
 62
     7
100
AcDbVertex
100
AcDb2dVertex
 10
5924.732003388959
 20
-2574.55103368731
 30
0.0
 42
0.15870326
  0
VERTEX
  5
3B792
330
3B78F
100
AcDbEntity
  8
AM_0
  6
Continuous
 62
     7
100
AcDbVertex
100
AcDb2dVertex
 10
5923.646303388959
 20
-2575.63673368731
 30
0.0
 42
0.09681471
  0
VERTEX
  5
3B793
330
3B78F
100
AcDbEntity
  8
AM_0
  6
Continuous
 62
     7
100
AcDbVertex
100
AcDb2dVertex
 10
5923.224313388959
 20
-2577.12903368731
 30
0.0
  0
SEQEND
  5
3B794
330
3B78F
100
AcDbEntity
  8
AM_0
  6
Continuous
 62
     7
  0
POLYLINE
  5
3B795
330
1F
100
AcDbEntity
  8
AM_0
  6
Continuous
 62
     7
100
AcDb2dPolyline
 66
     1
 10
0.0
 20
0.0
 30
0.0
  0
VERTEX
  5
3B796
330
3B795
100
AcDbEntity
  8
AM_0
  6
Continuous
 62
     7
100
AcDbVertex
100
AcDb2dVertex
 10
5923.224313388959
 20
-2577.12903368731
 30
0.0
  0
VERTEX
  5
3B797
330
3B795
100
AcDbEntity
  8
AM_0
  6
Continuous
 62
     7
100
AcDbVertex
100
AcDb2dVertex
 10
5923.224313388959
 20
-2636.12903368731
 30
0.0
  0
SEQEND
  5
3B798
330
3B795
100
AcDbEntity
  8
AM_0
  6
Continuous
 62
     7
  0
POLYLINE
  5
3B799
330
1F
100
AcDbEntity
  8
AM_0
  6
Continuous
 62
     7
100
AcDb2dPolyline
 66
     1
 10
0.0
 20
0.0
 30
0.0
  0
VERTEX
  5
3B79A
330
3B799
100
AcDbEntity
  8
AM_0
  6
Continuous
 62
     7
100
AcDbVertex
100
AcDb2dVertex
 10
5940.224313388959
 20
-2624.12903368731
 30
0.0
  0
VERTEX
  5
3B79B
330
3B799
100
AcDbEntity
  8
AM_0
  6
Continuous
 62
     7
100
AcDbVertex
100
AcDb2dVertex
 10
6156.224313388959
 20
-2624.12903368731
 30
0.0
  0
SEQEND
  5
3B79C
330
3B799
100
AcDbEntity
  8
AM_0
  6
Continuous
 62
     7
  0
POLYLINE
  5
3B79D
330
1F
100
AcDbEntity
  8
AM_0
  6
Continuous
 62
     7
100
AcDb2dPolyline
 66
     1
 10
0.0
 20
0.0
 30
0.0
  0
VERTEX
  5
3B79E
330
3B79D
100
AcDbEntity
  8
AM_0
  6
Continuous
 62
     7
100
AcDbVertex
100
AcDb2dVertex
 10
6156.224313388959
 20
-2624.12903368731
 30
0.0
 42
0.096805699
  0
VERTEX
  5
3B79F
330
3B79D
100
AcDbEntity
  8
AM_0
  6
Continuous
 62
     7
100
AcDbVertex
100
AcDb2dVertex
 10
6157.219193388959
 20
-2623.847723687311
 30
0.0
 42
0.15872532
  0
VERTEX
  5
3B7A0
330
3B79D
100
AcDbEntity
  8
AM_0
  6
Continuous
 62
     7
100
AcDbVertex
100
AcDb2dVertex
 10
6157.943013388959
 20
-2623.12390368731
 30
0.0
 42
0.096804778
  0
VERTEX
  5
3B7A1
330
3B79D
100
AcDbEntity
  8
AM_0
  6
Continuous
 62
     7
100
AcDbVertex
100
AcDb2dVertex
 10
6158.224313388959
 20
-2622.12903368731
 30
0.0
  0
SEQEND
  5
3B7A2
330
3B79D
100
AcDbEntity
  8
AM_0
  6
Continuous
 62
     7
  0
POLYLINE
  5
3B7A3
330
1F
100
AcDbEntity
  8
AM_0
  6
Continuous
 62
     7
100
AcDb2dPolyline
 66
     1
 10
0.0
 20
0.0
 30
0.0
  0
VERTEX
  5
3B7A4
330
3B7A3
100
AcDbEntity
  8
AM_0
  6
Continuous
 62
     7
100
AcDbVertex
100
AcDb2dVertex
 10
6158.224313388959
 20
-2622.12903368731
 30
0.0
  0
VERTEX
  5
3B7A5
330
3B7A3
100
AcDbEntity
  8
AM_0
  6
Continuous
 62
     7
100
AcDbVertex
100
AcDb2dVertex
 10
6158.224313388959
 20
-2591.12903368731
 30
0.0
  0
SEQEND
  5
3B7A6
330
3B7A3
100
AcDbEntity
  8
AM_0
  6
Continuous
 62
     7
  0
POLYLINE
  5
3B7A7
330
1F
100
AcDbEntity
  8
AM_0
  6
Continuous
 62
     7
100
AcDb2dPolyline
 66
     1
 10
0.0
 20
0.0
 30
0.0
  0
VERTEX
  5
3B7A8
330
3B7A7
100
AcDbEntity
  8
AM_0
  6
Continuous
 62
     7
100
AcDbVertex
100
AcDb2dVertex
 10
6158.224313388959
 20
-2591.12903368731
 30
0.0
 42
0.09680707
  0
VERTEX
  5
3B7A9
330
3B7A7
100
AcDbEntity
  8
AM_0
  6
Continuous
 62
     7
100
AcDbVertex
100
AcDb2dVertex
 10
6157.943003388958
 20
-2590.13414368731
 30
0.0
 42
0.15871985
  0
VERTEX
  5
3B7AA
330
3B7A7
100
AcDbEntity
  8
AM_0
  6
Continuous
 62
     7
100
AcDbVertex
100
AcDb2dVertex
 10
6157.219213388959
 20
-2589.41035368731
 30
0.0
 42
0.096808297
  0
VERTEX
  5
3B7AB
330
3B7A7
100
AcDbEntity
  8
AM_0
  6
Continuous
 62
     7
100
AcDbVertex
100
AcDb2dVertex
 10
6156.224313388959
 20
-2589.12903368731
 30
0.0
  0
SEQEND
  5
3B7AC
330
3B7A7
100
AcDbEntity
  8
AM_0
  6
Continuous
 62
     7
  0
POLYLINE
  5
3B7AD
330
1F
100
AcDbEntity
  8
AM_0
  6
Continuous
 62
     7
100
AcDb2dPolyline
 66
     1
 10
0.0
 20
0.0
 30
0.0
  0
VERTEX
  5
3B7AE
330
3B7AD
100
AcDbEntity
  8
AM_0
  6
Continuous
 62
     7
100
AcDbVertex
100
AcDb2dVertex
 10
6156.224313388959
 20
-2589.12903368731
 30
0.0
  0
VERTEX
  5
3B7AF
330
3B7AD
100
AcDbEntity
  8
AM_0
  6
Continuous
 62
     7
100
AcDbVertex
100
AcDb2dVertex
 10
5940.224313388959
 20
-2589.12903368731
 30
0.0
  0
SEQEND
  5
3B7B0
330
3B7AD
100
AcDbEntity
  8
AM_0
  6
Continuous
 62
     7
  0
POLYLINE
  5
3B7B1
330
1F
100
AcDbEntity
  8
AM_0
  6
Continuous
 62
     7
100
AcDb2dPolyline
 66
     1
 10
0.0
 20
0.0
 30
0.0
  0
VERTEX
  5
3B7B2
330
3B7B1
100
AcDbEntity
  8
AM_0
  6
Continuous
 62
     7
100
AcDbVertex
100
AcDb2dVertex
 10
5940.224313388959
 20
-2589.12903368731
 30
0.0
 42
0.096811288
  0
VERTEX
  5
3B7B3
330
3B7B1
100
AcDbEntity
  8
AM_0
  6
Continuous
 62
     7
100
AcDbVertex
100
AcDb2dVertex
 10
5939.229433388959
 20
-2589.41035368731
 30
0.0
 42
0.15871099
  0
VERTEX
  5
3B7B4
330
3B7B1
100
AcDbEntity
  8
AM_0
  6
Continuous
 62
     7
100
AcDbVertex
100
AcDb2dVertex
 10
5938.505633388959
 20
-2590.13416368731
 30
0.0
 42
0.09681144
  0
VERTEX
  5
3B7B5
330
3B7B1
100
AcDbEntity
  8
AM_0
  6
Continuous
 62
     7
100
AcDbVertex
100
AcDb2dVertex
 10
5938.224313388959
 20
-2591.12903368731
 30
0.0
  0
SEQEND
  5
3B7B6
330
3B7B1
100
AcDbEntity
  8
AM_0
  6
Continuous
 62
     7
  0
POLYLINE
  5
3B7B7
330
1F
100
AcDbEntity
  8
AM_0
  6
Continuous
 62
     7
100
AcDb2dPolyline
 66
     1
 10
0.0
 20
0.0
 30
0.0
  0
VERTEX
  5
3B7B8
330
3B7B7
100
AcDbEntity
  8
AM_0
  6
Continuous
 62
     7
100
AcDbVertex
100
AcDb2dVertex
 10
5938.224313388959
 20
-2591.12903368731
 30
0.0
  0
VERTEX
  5
3B7B9
330
3B7B7
100
AcDbEntity
  8
AM_0
  6
Continuous
 62
     7
100
AcDbVertex
100
AcDb2dVertex
 10
5938.224313388959
 20
-2622.12903368731
 30
0.0
  0
SEQEND
  5
3B7BA
330
3B7B7
100
AcDbEntity
  8
AM_0
  6
Continuous
 62
     7
  0
POLYLINE
  5
3B7BB
330
1F
100
AcDbEntity
  8
AM_0
  6
Continuous
 62
     7
100
AcDb2dPolyline
 66
     1
 10
0.0
 20
0.0
 30
0.0
  0
VERTEX
  5
3B7BC
330
3B7BB
100
AcDbEntity
  8
AM_0
  6
Continuous
 62
     7
100
AcDbVertex
100
AcDb2dVertex
 10
5940.974313388959
 20
-2623.62903368731
 30
0.0
  0
VERTEX
  5
3B7BD
330
3B7BB
100
AcDbEntity
  8
AM_0
  6
Continuous
 62
     7
100
AcDbVertex
100
AcDb2dVertex
 10
6155.474313388959
 20
-2623.62903368731
 30
0.0
  0
SEQEND
  5
3B7BE
330
3B7BB
100
AcDbEntity
  8
AM_0
  6
Continuous
 62
     7
  0
POLYLINE
  5
3B7BF
330
1F
100
AcDbEntity
  8
AM_0
  6
Continuous
 62
     7
100
AcDb2dPolyline
 66
     1
 10
0.0
 20
0.0
 30
0.0
  0
VERTEX
  5
3B7C0
330
3B7BF
100
AcDbEntity
  8
AM_0
  6
Continuous
 62
     7
100
AcDbVertex
100
AcDb2dVertex
 10
6155.474313388959
 20
-2623.62903368731
 30
0.0
 42
0.096805699
  0
VERTEX
  5
3B7C1
330
3B7BF
100
AcDbEntity
  8
AM_0
  6
Continuous
 62
     7
100
AcDbVertex
100
AcDb2dVertex
 10
6156.469193388959
 20
-2623.347723687311
 30
0.0
 42
0.15872532
  0
VERTEX
  5
3B7C2
330
3B7BF
100
AcDbEntity
  8
AM_0
  6
Continuous
 62
     7
100
AcDbVertex
100
AcDb2dVertex
 10
6157.193013388959
 20
-2622.623903687311
 30
0.0
 42
0.096804778
  0
VERTEX
  5
3B7C3
330
3B7BF
100
AcDbEntity
  8
AM_0
  6
Continuous
 62
     7
100
AcDbVertex
100
AcDb2dVertex
 10
6157.474313388959
 20
-2621.62903368731
 30
0.0
  0
SEQEND
  5
3B7C4
330
3B7BF
100
AcDbEntity
  8
AM_0
  6
Continuous
 62
     7
  0
POLYLINE
  5
3B7C5
330
1F
100
AcDbEntity
  8
AM_0
  6
Continuous
 62
     7
100
AcDb2dPolyline
 66
     1
 10
0.0
 20
0.0
 30
0.0
  0
VERTEX
  5
3B7C6
330
3B7C5
100
AcDbEntity
  8
AM_0
  6
Continuous
 62
     7
100
AcDbVertex
100
AcDb2dVertex
 10
6157.474313388959
 20
-2621.62903368731
 30
0.0
  0
VERTEX
  5
3B7C7
330
3B7C5
100
AcDbEntity
  8
AM_0
  6
Continuous
 62
     7
100
AcDbVertex
100
AcDb2dVertex
 10
6157.474313388959
 20
-2591.62903368731
 30
0.0
  0
SEQEND
  5
3B7C8
330
3B7C5
100
AcDbEntity
  8
AM_0
  6
Continuous
 62
     7
  0
POLYLINE
  5
3B7C9
330
1F
100
AcDbEntity
  8
AM_0
  6
Continuous
 62
     7
100
AcDb2dPolyline
 66
     1
 10
0.0
 20
0.0
 30
0.0
  0
VERTEX
  5
3B7CA
330
3B7C9
100
AcDbEntity
  8
AM_0
  6
Continuous
 62
     7
100
AcDbVertex
100
AcDb2dVertex
 10
6157.474313388959
 20
-2591.62903368731
 30
0.0
 42
0.09680707
  0
VERTEX
  5
3B7CB
330
3B7C9
100
AcDbEntity
  8
AM_0
  6
Continuous
 62
     7
100
AcDbVertex
100
AcDb2dVertex
 10
6157.193003388958
 20
-2590.63414368731
 30
0.0
 42
0.15871985
  0
VERTEX
  5
3B7CC
330
3B7C9
100
AcDbEntity
  8
AM_0
  6
Continuous
 62
     7
100
AcDbVertex
100
AcDb2dVertex
 10
6156.469213388959
 20
-2589.91035368731
 30
0.0
 42
0.096808297
  0
VERTEX
  5
3B7CD
330
3B7C9
100
AcDbEntity
  8
AM_0
  6
Continuous
 62
     7
100
AcDbVertex
100
AcDb2dVertex
 10
6155.474313388959
 20
-2589.62903368731
 30
0.0
  0
SEQEND
  5
3B7CE
330
3B7C9
100
AcDbEntity
  8
AM_0
  6
Continuous
 62
     7
  0
POLYLINE
  5
3B7CF
330
1F
100
AcDbEntity
  8
AM_0
  6
Continuous
 62
     7
100
AcDb2dPolyline
 66
     1
 10
0.0
 20
0.0
 30
0.0
  0
VERTEX
  5
3B7D0
330
3B7CF
100
AcDbEntity
  8
AM_0
  6
Continuous
 62
     7
100
AcDbVertex
100
AcDb2dVertex
 10
6155.474313388959
 20
-2589.62903368731
 30
0.0
  0
VERTEX
  5
3B7D1
330
3B7CF
100
AcDbEntity
  8
AM_0
  6
Continuous
 62
     7
100
AcDbVertex
100
AcDb2dVertex
 10
5940.974313388959
 20
-2589.62903368731
 30
0.0
  0
SEQEND
  5
3B7D2
330
3B7CF
100
AcDbEntity
  8
AM_0
  6
Continuous
 62
     7
  0
POLYLINE
  5
3B7D3
330
1F
100
AcDbEntity
  8
AM_0
  6
Continuous
 62
     7
100
AcDb2dPolyline
 66
     1
 10
0.0
 20
0.0
 30
0.0
  0
VERTEX
  5
3B7D4
330
3B7D3
100
AcDbEntity
  8
AM_0
  6
Continuous
 62
     7
100
AcDbVertex
100
AcDb2dVertex
 10
5940.974313388959
 20
-2589.62903368731
 30
0.0
 42
0.096811288
  0
VERTEX
  5
3B7D5
330
3B7D3
100
AcDbEntity
  8
AM_0
  6
Continuous
 62
     7
100
AcDbVertex
100
AcDb2dVertex
 10
5939.979433388959
 20
-2589.91035368731
 30
0.0
 42
0.15871099
  0
VERTEX
  5
3B7D6
330
3B7D3
100
AcDbEntity
  8
AM_0
  6
Continuous
 62
     7
100
AcDbVertex
100
AcDb2dVertex
 10
5939.255633388959
 20
-2590.63416368731
 30
0.0
 42
0.09681144
  0
VERTEX
  5
3B7D7
330
3B7D3
100
AcDbEntity
  8
AM_0
  6
Continuous
 62
     7
100
AcDbVertex
100
AcDb2dVertex
 10
5938.974313388959
 20
-2591.62903368731
 30
0.0
  0
SEQEND
  5
3B7D8
330
3B7D3
100
AcDbEntity
  8
AM_0
  6
Continuous
 62
     7
  0
POLYLINE
  5
3B7D9
330
1F
100
AcDbEntity
  8
AM_0
  6
Continuous
 62
     7
100
AcDb2dPolyline
 66
     1
 10
0.0
 20
0.0
 30
0.0
  0
VERTEX
  5
3B7DA
330
3B7D9
100
AcDbEntity
  8
AM_0
  6
Continuous
 62
     7
100
AcDbVertex
100
AcDb2dVertex
 10
5938.974313388959
 20
-2591.62903368731
 30
0.0
  0
VERTEX
  5
3B7DB
330
3B7D9
100
AcDbEntity
  8
AM_0
  6
Continuous
 62
     7
100
AcDbVertex
100
AcDb2dVertex
 10
5938.974313388959
 20
-2621.62903368731
 30
0.0
  0
SEQEND
  5
3B7DC
330
3B7D9
100
AcDbEntity
  8
AM_0
  6
Continuous
 62
     7
  0
DIMENSION
  5
3B7DD
330
1F
100
AcDbEntity
  8
AM_5
100
AcDbDimension
  2
*D7
 10
6165.724313388954
 20
-2430.258274275983
 30
0.0
 11
6185.301872369313
 21
-2416.476912679316
 31
0.0
 70
   164
  1
4-<>
 71
     5
 42
10.00000000000136
  3
SYS$4
100
AcDbRadialDimension
 15
6172.638926589797
 25
-2423.034139429322
 35
0.0
 40
0.0
1001
ACAD_DSTYLE_DIMRADIAL_EXTENSION
1070
   387
1070
     1
1070
   388
1040
0.0
1070
   390
1040
1.570796326794896
1001
ACAD_DSTYLE_DIMINSPECT
1070
   396
1000
100%
1070
   395
1000

1070
   394
1070
    33
1070
   393
1070
     0
  0
DIMENSION
  5
3B7DE
330
1F
100
AcDbEntity
  8
AM_5
100
AcDbDimension
  2
*D8
 10
6158.224313388959
 20
-2558.62903368731
 30
0.0
 11
6048.224283388958
 21
-2556.02903368731
 31
0.0
 70
    32
 71
     5
 42
220.0000600000003
  3
SYS$0
100
AcDbAlignedDimension
 13
5938.224253388959
 23
-2589.12900368731
 33
0.0
 14
6158.224313388959
 24
-2589.12900368731
 34
0.0
100
AcDbRotatedDimension
1001
ACAD_DSTYLE_DIMINSPECT
1070
   396
1000
100%
1070
   395
1000

1070
   394
1070
    33
1070
   393
1070
     0
  0
DIMENSION
  5
3B7DF
330
1F
100
AcDbEntity
  8
AM_5
100
AcDbDimension
  2
*D9
 10
6165.724313388959
 20
-2550.62903368731
 30
0.0
 11
6048.224313388959
 21
-2548.02903368731
 31
0.0
 70
    32
 71
     5
 42
235.0
  3
SYS$0
100
AcDbAlignedDimension
 13
5930.724313388958
 23
-2601.62903368731
 33
0.0
 14
6165.724313388959
 24
-2601.62903368731
 34
0.0
100
AcDbRotatedDimension
1001
ACAD_DSTYLE_DIMINSPECT
1070
   396
1000
100%
1070
   395
1000

1070
   394
1070
    33
1070
   393
1070
     0
  0
DIMENSION
  5
3B7E0
330
1F
100
AcDbEntity
  8
AM_5
100
AcDbDimension
  2
*D10
 10
6180.724313388959
 20
-2542.62903368731
 30
0.0
 11
6048.224313388959
 21
-2540.02903368731
 31
0.0
 70
    32
 71
     5
 42
265.0
  3
SYS$0
100
AcDbAlignedDimension
 13
5915.724313388959
 23
-2570.62903368731
 33
0.0
 14
6180.724313388959
 24
-2570.62903368731
 34
0.0
100
AcDbRotatedDimension
1001
ACAD_DSTYLE_DIMINSPECT
1070
   396
1000
100%
1070
   395
1000

1070
   394
1070
    33
1070
   393
1070
     0
  0
DIMENSION
  5
3B7E1
330
1F
100
AcDbEntity
  8
AM_5
100
AcDbDimension
  2
*D11
 10
6190.724313388958
 20
-2624.12903368731
 30
0.0
 11
6190.724313388958
 21
-2606.53710192653
 31
0.0
 70
   160
 71
     5
 42
35.00003000000015
  3
SYS$0
100
AcDbAlignedDimension
 13
6158.224313388959
 23
-2589.12900368731
 33
0.0
 14
6158.224313388959
 24
-2624.12903368731
 34
0.0
 50
90.0
100
AcDbRotatedDimension
1001
ACAD_DSTYLE_DIMINSPECT
1070
   396
1000
100%
1070
   395
1000

1070
   394
1070
    33
1070
   393
1070
     0
  0
DIMENSION
  5
3B7E2
330
1F
100
AcDbEntity
  8
AM_5
100
AcDbDimension
  2
*D12
 10
6198.724313388959
 20
-2646.62903368731
 30
0.0
 11
6196.12431338896
 21
-2606.629033687309
 31
0.0
 70
    32
 71
     5
 42
80.0
  3
SYS$0
100
AcDbAlignedDimension
 13
6176.724313388959
 23
-2566.62903368731
 33
0.0
 14
6176.724313388959
 24
-2646.62903368731
 34
0.0
 50
90.0
100
AcDbRotatedDimension
1001
ACAD_DSTYLE_DIMINSPECT
1070
   396
1000
100%
1070
   395
1000

1070
   394
1070
    33
1070
   393
1070
     0
  0
HATCH
  5
3B7E3
330
1F
100
AcDbEntity
  8
AM_8
100
AcDbHatch
 10
0.0
 20
0.0
 30
0.0
210
0.0
220
0.0
230
1.0
  2
_U
 70
     0
 71
     0
 91
        1
 92
        1
 93
        8
 72
     1
 10
6175.724313388958
 20
-2480.258274275982
 11
6175.724313388958
 21
-2430.258274275983
 72
     2
 10
6165.724313388959
 20
-2430.258274275983
 40
10.00000000000005
 50
0.0000000000003257
 51
90.00000000000031
 73
     1
 72
     1
 10
6165.724313388959
 20
-2420.258274275982
 11
5930.724313388958
 21
-2420.258274275982
 72
     2
 10
5930.724313388958
 20
-2430.258274275983
 40
10.0
 50
90.0
 51
180.0
 73
     1
 72
     1
 10
5920.724313388959
 20
-2430.258274275983
 11
5920.724313388959
 21
-2480.258274275982
 72
     2
 10
5930.724313388958
 20
-2480.258274275982
 40
10.0
 50
180.0
 51
270.0
 73
     1
 72
     1
 10
5930.724313388958
 20
-2490.258274275982
 11
6165.724313388959
 21
-2490.258274275982
 72
     2
 10
6165.724313388959
 20
-2480.258274275982
 40
10.0
 50
270.0
 51
360.0
 73
     1
 97
        0
 75
     0
 76
     0
 52
45.0
 41
4.0
 77
     0
 78
     1
 53
45.0
 43
5744.583772804626
 44
-2776.288244822742
 45
-2.828427124746189
 46
2.82842712474619
 79
     0
 98
        1
 10
5744.583772804626
 20
-2776.288244822742
1001
GENIUS_GENODEF_13
1002
{
1000
HIER
1070
     0
1002
}
1002
{
1000
MANEDIT
1070
     0
1002
}
1002
{
1000
NOSEL
1070
     0
1002
}
1002
{
1000
BEHIND
1070
     0
1002
}
1002
{
1000
OTHER
1070
     0
1002
}
1002
{
1000
REACTOR
1002
}
1001
GENIUS_GENOBJ-N-HTC_13
1002
{
1000
OWNER
1000
GEN
1002
}
1001
GENIUS_GENHATCH_13
1002
{
1000
DATA
1040
45.0
1042
2.5
1000
_U
1070
     0
1011
6010.749144989956
1021
-2472.639581897551
1031
0.0
1002
}
1002
{
1000
UCS
1010
0.0
1020
0.0
1030
0.0
1010
1.0
1020
0.0
1030
0.0
1010
0.0
1020
1.0
1030
0.0
1002
}
  0
DIMENSION
  5
3B7E4
330
1F
100
AcDbEntity
  8
AM_5
100
AcDbDimension
  2
*D13
 10
6175.724313388958
 20
-2500.258274275982
 30
0.0
 11
6048.224313388959
 21
-2500.258274275982
 31
0.0
 70
   160
 71
     5
 42
255.0
  3
SYS$0
100
AcDbAlignedDimension
 13
5920.724313388959
 23
-2485.258274275983
 33
0.0
 14
6175.724313388958
 24
-2485.258274275983
 34
0.0
100
AcDbRotatedDimension
1001
ACAD_DSTYLE_DIMINSPECT
1070
   396
1000
100%
1070
   395
1000

1070
   394
1070
    33
1070
   393
1070
     0
  0
DIMENSION
  5
3B7E5
330
1F
100
AcDbEntity
  8
AM_5
100
AcDbDimension
  2
*D14
 10
6185.724313388959
 20
-2490.258274275982
 30
0.0
 11
6183.124313388959
 21
-2455.258274275982
 31
0.0
 70
    32
 71
     5
 42
70.0
  3
SYS$0
100
AcDbAlignedDimension
 13
6170.724313388959
 23
-2420.258274275982
 33
0.0
 14
6170.724313388959
 24
-2490.258274275982
 34
0.0
 50
90.0
100
AcDbRotatedDimension
1001
ACAD_DSTYLE_DIMINSPECT
1070
   396
1000
100%
1070
   395
1000

1070
   394
1070
    33
1070
   393
1070
     0
  0
DIMENSION
  5
3B7E6
330
1F
100
AcDbEntity
  8
AM_5
100
AcDbDimension
  2
*D15
 10
6236.406075063499
 20
-2558.62903368731
 30
0.0
 11
6232.659408396832
 21
-2556.02903368731
 31
0.0
 70
    32
 71
     5
 42
3.00001001000146
  3
SYS$0
100
AcDbAlignedDimension
 13
6239.4060850735
 23
-2566.62903368731
 33
0.0
 14
6236.406075063499
 24
-2566.629023677311
 34
0.0
100
AcDbRotatedDimension
1001
ACAD_DSTYLE_DIMINSPECT
1070
   396
1000
100%
1070
   395
1000

1070
   394
1070
    33
1070
   393
1070
     0
  0
DIMENSION
  5
3B7E7
330
1F
100
AcDbEntity
  8
AM_5
100
AcDbDimension
  2
*D16
 10
6255.4060850735
 20
-2558.62903368731
 30
0.0
 11
6247.4060850735
 21
-2556.02903368731
 31
0.0
 70
    32
 71
     5
 42
16.0
  3
SYS$0
100
AcDbAlignedDimension
 13
6239.4060850735
 23
-2566.62903368731
 33
0.0
 14
6255.4060850735
 24
-2596.604348687311
 34
0.0
100
AcDbRotatedDimension
1001
ACAD_DSTYLE_DIMINSPECT
1070
   396
1000
100%
1070
   395
1000

1070
   394
1070
    33
1070
   393
1070
     0
  0
LINE
  5
3B7E8
330
1F
100
AcDbEntity
  8
AM_7
 48
0.5
100
AcDbLine
 10
6258.406085073501
 20
-2606.629033687311
 30
0.0
 11
6233.4060850735
 21
-2606.62903368731
 31
0.0
1001
GENIUS_GENODEF_13
1002
{
1000
HIER
1070
     0
1002
}
1002
{
1000
MANEDIT
1070
     0
1002
}
1002
{
1000
NOSEL
1070
     0
1002
}
1002
{
1000
BEHIND
1070
     0
1002
}
1002
{
1000
OTHER
1070
     0
1002
}
1002
{
1000
REACTOR
1002
}
1001
GENIUS_GENOBJ-N-CEN_13
1002
{
1000
OWNER
1000
GEN
1002
}
1001
GENIUS_GENCEN_19
1002
{
1040
3.0
1002
}
  0
LINE
  5
3B881
330
1F
100
AcDbEntity
  8
AM_0
100
AcDbLine
 10
5784.04782652164
 20
-2315.982271409578
 30
0.0
 11
5894.04782652164
 21
-2315.982271409578
 31
0.0
  0
LINE
  5
3B882
330
1F
100
AcDbEntity
  8
AM_2
100
AcDbLine
 10
5784.04782652164
 20
-2339.982271409578
 30
0.0
 11
5894.04782652164
 21
-2339.982271409578
 31
0.0
  0
LINE
  5
3B883
330
1F
100
AcDbEntity
  8
AM_2
100
AcDbLine
 10
5784.04782652164
 20
-2331.982271409578
 30
0.0
 11
5894.04782652164
 21
-2331.982271409578
 31
0.0
  0
LINE
  5
3B884
330
1F
100
AcDbEntity
  8
AM_2
100
AcDbLine
 10
5784.04782652164
 20
-2323.982271409578
 30
0.0
 11
5894.04782652164
 21
-2323.982271409578
 31
0.0
  0
LINE
  5
3B885
330
1F
100
AcDbEntity
  8
AM_2
100
AcDbLine
 10
5804.047826521641
 20
-2315.982271409578
 30
0.0
 11
5804.047826521642
 21
-2387.982271409578
 31
0.0
  0
MTEXT
  5
3B886
330
1F
100
AcDbEntity
  8
AM_6
100
AcDbMText
 10
5794.047826521641
 20
-2343.982271409578
 30
0.0
 40
3.2
 41
20.0
 71
     5
 72
     5
  1
仕上げ
 73
     1
 44
1.0
1001
ACAD
1000
MTEXTBEGIN
1070
    73
1070
     1
1070
    44
1040
1.0
1070
    74
1070
     0
1000
MTEXTEND
  0
MTEXT
  5
3B887
330
1F
100
AcDbEntity
  8
AM_6
100
AcDbMText
 10
5794.047826521641
 20
-2335.982271409578
 30
0.0
 40
3.2
 41
20.0
 71
     5
 72
     5
  1
材　質
 73
     1
 44
1.0
1001
ACAD
1000
MTEXTBEGIN
1070
    73
1070
     1
1070
    44
1040
1.0
1070
    74
1070
     0
1000
MTEXTEND
  0
MTEXT
  5
3B888
330
1F
100
AcDbEntity
  8
AM_6
100
AcDbMText
 10
5794.047826521641
 20
-2319.982271409578
 30
0.0
 40
3.2
 41
20.0
 71
     5
 72
     5
  1
品　名
 73
     1
 44
1.0
1001
ACAD
1000
MTEXTBEGIN
1070
    73
1070
     1
1070
    44
1040
1.0
1070
    74
1070
     0
1000
MTEXTEND
  0
MTEXT
  5
3B889
330
1F
100
AcDbEntity
  8
AM_6
100
AcDbMText
 10
5794.047826521641
 20
-2327.982271409578
 30
0.0
 40
3.2
 41
20.0
 71
     5
 72
     5
  1
品　番
 73
     1
 44
1.0
1001
ACAD
1000
MTEXTBEGIN
1070
    73
1070
     1
1070
    44
1040
1.0
1070
    74
1070
     0
1000
MTEXTEND
  0
MTEXT
  5
3B88A
330
1F
100
AcDbEntity
  8
AM_6
100
AcDbMText
 10
5804.047826521641
 20
-2343.982271409578
 30
0.0
 40
3.2
 41
90.0
 71
     4
 72
     5
  1
　ヘアーライン（シルバー）、塗装（ブロンズ）
 73
     1
 44
1.0
1001
ACAD
1000
MTEXTBEGIN
1070
    73
1070
     1
1070
    44
1040
1.0
1070
    74
1070
     0
1000
MTEXTEND
  0
MTEXT
  5
3B88B
330
1F
100
AcDbEntity
  8
AM_6
100
AcDbMText
 10
5804.047826521641
 20
-2335.982271409578
 30
0.0
 40
3.2
 41
90.0
 71
     4
 72
     5
  1
　ステンレス
 73
     1
 44
1.0
1001
ACAD
1000
MTEXTBEGIN
1070
    73
1070
     1
1070
    44
1040
1.0
1070
    74
1070
     0
1000
MTEXTEND
  0
MTEXT
  5
3B88C
330
1F
100
AcDbEntity
  8
AM_6
100
AcDbMText
 10
5804.047826521641
 20
-2327.982271409578
 30
0.0
 40
3.2
 41
90.0
 71
     4
 72
     5
  1
　DP-84
 73
     1
 44
1.0
1001
ACAD
1000
MTEXTBEGIN
1070
    73
1070
     1
1070
    44
1040
1.0
1070
    74
1070
     0
1000
MTEXTEND
  0
MTEXT
  5
3B88D
330
1F
100
AcDbEntity
  8
AM_6
100
AcDbMText
 10
5804.047826521641
 20
-2319.982271409578
 30
0.0
 40
3.2
 41
90.0
 71
     4
 72
     5
  1
　ポスト口
 73
     1
 44
1.0
1001
ACAD
1000
MTEXTBEGIN
1070
    73
1070
     1
1070
    44
1040
1.0
1070
    74
1070
     0
1000
MTEXTEND
  0
LINE
  5
3B88E
330
1F
100
AcDbEntity
  8
AM_0
100
AcDbLine
 10
5894.04782652164
 20
-2315.982271409578
 30
0.0
 11
5894.047826521642
 21
-2387.982271409578
 31
0.0
  0
LINE
  5
3B88F
330
1F
100
AcDbEntity
  8
AM_0
100
AcDbLine
 10
5784.047826521639
 20
-2387.982271409578
 30
0.0
 11
5894.04782652164
 21
-2387.982271409578
 31
0.0
  0
MTEXT
  5
3B890
330
1F
100
AcDbEntity
  8
AM_6
100
AcDbMText
 10
5794.047826521641
 20
-2351.982271409578
 30
0.0
 40
3.2
 41
20.0
 71
     5
 72
     5
  1
セットビス
 73
     1
 44
1.0
1001
ACAD
1000
MTEXTBEGIN
1070
    73
1070
     1
1070
    44
1040
1.0
1070
    74
1070
     0
1000
MTEXTEND
  0
LINE
  5
3B891
330
1F
100
AcDbEntity
  8
AM_2
100
AcDbLine
 10
5784.04782652164
 20
-2347.982271409578
 30
0.0
 11
5894.04782652164
 21
-2347.982271409578
 31
0.0
  0
MTEXT
  5
3B892
330
1F
100
AcDbEntity
  8
AM_6
100
AcDbMText
 10
5804.047826521641
 20
-2351.982271409578
 30
0.0
 40
3.2
 41
90.0
 71
     4
 72
     5
  1
　M4×12 ナベ小ネジ + Fe：２本
 73
     1
 44
1.0
1001
ACAD
1000
MTEXTBEGIN
1070
    73
1070
     1
1070
    44
1040
1.0
1070
    74
1070
     0
1000
MTEXTEND
  0
CIRCLE
  5
3B893
330
1F
100
AcDbEntity
  8
AM_6
 48
0.5
100
AcDbCircle
 10
5835.840633374326
 20
-2352.223390739148
 30
0.0
 40
1.916990197049926
  0
MTEXT
  5
3B894
330
1F
100
AcDbEntity
  8
AM_6
100
AcDbMText
 10
5804.047826521641
 20
-2359.982271409578
 30
0.0
 40
3.2
 41
90.0
 71
     4
 72
     5
  1
　M4×20 ナベ小ネジ + Fe：２本
 73
     1
 44
1.0
1001
ACAD
1000
MTEXTBEGIN
1070
    73
1070
     1
1070
    44
1040
1.0
1070
    74
1070
     0
1000
MTEXTEND
  0
CIRCLE
  5
3B895
330
1F
100
AcDbEntity
  8
AM_6
 48
0.5
100
AcDbCircle
 10
5835.840633374326
 20
-2360.223390739148
 30
0.0
 40
1.916990197049926
  0
LINE
  5
3B896
330
1F
100
AcDbEntity
  8
AM_2
100
AcDbLine
 10
5804.047826521641
 20
-2355.982271409578
 30
0.0
 11
5894.04782652164
 21
-2355.982271409578
 31
0.0
  0
MTEXT
  5
3B897
330
1F
100
AcDbEntity
  8
AM_6
100
AcDbMText
 10
5794.047826521642
 20
-2367.982271409578
 30
0.0
 40
3.2
 41
20.0
 71
     5
 72
     5
  1
備　考
 73
     1
 44
1.0
1001
ACAD
1000
MTEXTBEGIN
1070
    73
1070
     1
1070
    44
1040
1.0
1070
    74
1070
     0
1000
MTEXTEND
  0
LINE
  5
3B898
330
1F
100
AcDbEntity
  8
AM_2
100
AcDbLine
 10
5784.047826521642
 20
-2363.982271409578
 30
0.0
 11
5894.047826521642
 21
-2363.982271409578
 31
0.0
  0
LINE
  5
3B899
330
1F
100
AcDbEntity
  8
AM_2
100
AcDbLine
 10
5804.047826521641
 20
-2371.982271409578
 30
0.0
 11
5894.047826521642
 21
-2371.982271409578
 31
0.0
  0
MTEXT
  5
3B89A
330
1F
100
AcDbEntity
  8
AM_6
100
AcDbMText
 10
5804.047826521641
 20
-2367.982271409578
 30
0.0
 40
3.2
 41
90.0
 71
     4
 72
     5
  1
　※ポストガイド DP-78 、ポストフード DP-79
 73
     1
 44
1.0
1001
ACAD
1000
MTEXTBEGIN
1070
    73
1070
     1
1070
    44
1040
1.0
1070
    74
1070
     0
1000
MTEXTEND
  0
MTEXT
  5
3B89B
330
1F
100
AcDbEntity
  8
AM_6
100
AcDbMText
 10
5804.047826521641
 20
-2375.982271409578
 30
0.0
 40
3.2
 41
90.0
 71
     4
 72
     5
  1
　　郵便受箱 DP-67A ・68N　をご使用下さい。
 73
     1
 44
1.0
1001
ACAD
1000
MTEXTBEGIN
1070
    73
1070
     1
1070
    44
1040
1.0
1070
    74
1070
     0
1000
MTEXTEND
  0
MTEXT
  5
3B89C
330
1F
100
AcDbEntity
  8
AM_6
 48
0.5
100
AcDbMText
 10
6048.224313388959
 20
-2508.779132021294
 30
0.0
 40
3.5
 41
25.89562350332199
 71
     5
 72
     5
  1
切欠推奨寸法
 73
     1
 44
1.0
1001
ACAD
1000
MTEXTBEGIN
1070
    73
1070
     1
1070
    44
1040
1.0
1070
    74
1070
     0
1000
MTEXTEND
  0
DIMENSION
  5
3B89D
330
1F
100
AcDbEntity
  8
AM_5
100
AcDbDimension
  2
*D17
 10
5932.318054497834
 20
-2607.83733384782
 30
0.0
 11
5901.119825432966
 21
-2591.278585584941
 31
0.0
 70
   163
  1
2-M4タップ{  }  }
 71
     5
 42
4.000000000002728
  3
SYS$3
100
AcDbDiametricDimension
 15
5929.130572280083
 25
-2605.420733526802
 35
0.0
 40
0.0
1001
ACAD
1000
DSTYLE
1002
{
1070
   172
1070
     1
1070
   342
1005
32629
1002
}
  0
LINE
  5
3B89E
330
1F
100
AcDbEntity
  8
AM_7
 48
0.5
100
AcDbLine
 10
6165.724313388959
 20
-2601.62903368731
 30
0.0
 11
6165.724313388959
 21
-2611.62903368731
 31
0.0
  0
CIRCLE
  5
3B89F
330
1F
100
AcDbEntity
  8
AM_3
 48
0.5
100
AcDbCircle
 10
6165.724313388959
 20
-2606.62903368731
 30
0.0
 40
1.649999999999999
  0
CIRCLE
  5
3B8A0
330
1F
100
AcDbEntity
  8
AM_3
 48
0.5
100
AcDbCircle
 10
6165.724313388959
 20
-2606.62903368731
 30
0.0
 40
2.0
  0
LINE
  5
3B8A1
330
1F
100
AcDbEntity
  8
size
100
AcDbLine
 10
5772.547826521641
 20
-2304.482271409578
 30
0.0
 11
5772.547826521641
 21
-2724.482271409578
 31
0.0
1001
GENIUS_GENREC_14
1002
{
1000
PYDIR
1011
6069.547826521641
1021
-2304.482271409578
1031
0.0
1002
}
1002
{
1000
PXDIR
1011
5772.547826521641
1021
-2724.482271409578
1031
0.0
1002
}
1002
{
1000
PORI
1011
5772.547826521641
1021
-2304.482271409578
1031
0.0
1002
}
1002
{
1000
PINS
1011
5921.047826521641
1021
-2514.482271409578
1031
0.0
1002
}
1002
{
1000
HVAL
1000
297
1002
}
1002
{
1000
H
1070
     2
1002
}
1002
{
1000
WVAL
1000
420
1002
}
1002
{
1000
W
1070
     2
1002
}
1002
{
1000
C
1070
     4
1002
}
1001
GENIUS_GENOBJ-N-REC_13
1002
{
1000
OWNER
1000
GEN
1002
}
1001
GENIUS_GENODEF_13
1002
{
1000
HIER
1070
     0
1002
}
1002
{
1000
MANEDIT
1070
     0
1002
}
1002
{
1000
NOSEL
1070
     0
1002
}
1002
{
1000
BEHIND
1070
     0
1002
}
1002
{
1000
OTHER
1070
     0
1002
}
1002
{
1000
REACTOR
1002
}
  0
LINE
  5
3B8A2
330
1F
100
AcDbEntity
  8
size
100
AcDbLine
 10
5772.547826521641
 20
-2724.482271409578
 30
0.0
 11
6366.547826521641
 21
-2724.482271409579
 31
0.0
1001
GENIUS_GENREC_14
1002
{
1000
PYDIR
1011
6069.547826521641
1021
-2304.482271409578
1031
0.0
1002
}
1002
{
1000
PXDIR
1011
5772.547826521641
1021
-2724.482271409578
1031
0.0
1002
}
1002
{
1000
PORI
1011
5772.547826521641
1021
-2304.482271409578
1031
0.0
1002
}
1002
{
1000
PINS
1011
5921.047826521641
1021
-2514.482271409578
1031
0.0
1002
}
1002
{
1000
HVAL
1000
297
1002
}
1002
{
1000
H
1070
     2
1002
}
1002
{
1000
WVAL
1000
420
1002
}
1002
{
1000
W
1070
     2
1002
}
1002
{
1000
C
1070
     4
1002
}
1001
GENIUS_GENOBJ-N-REC_13
1002
{
1000
OWNER
1000
GEN
1002
}
1001
GENIUS_GENODEF_13
1002
{
1000
HIER
1070
     0
1002
}
1002
{
1000
MANEDIT
1070
     0
1002
}
1002
{
1000
NOSEL
1070
     0
1002
}
1002
{
1000
BEHIND
1070
     0
1002
}
1002
{
1000
OTHER
1070
     0
1002
}
1002
{
1000
REACTOR
1002
}
  0
LINE
  5
3B8A3
330
1F
100
AcDbEntity
  8
size
100
AcDbLine
 10
6366.547826521641
 20
-2304.482271409579
 30
0.0
 11
5772.547826521641
 21
-2304.482271409578
 31
0.0
1001
GENIUS_GENREC_14
1002
{
1000
PYDIR
1011
6069.547826521641
1021
-2304.482271409578
1031
0.0
1002
}
1002
{
1000
PXDIR
1011
5772.547826521641
1021
-2724.482271409578
1031
0.0
1002
}
1002
{
1000
PORI
1011
5772.547826521641
1021
-2304.482271409578
1031
0.0
1002
}
1002
{
1000
PINS
1011
5921.047826521641
1021
-2514.482271409578
1031
0.0
1002
}
1002
{
1000
HVAL
1000
297
1002
}
1002
{
1000
H
1070
     2
1002
}
1002
{
1000
WVAL
1000
420
1002
}
1002
{
1000
W
1070
     2
1002
}
1002
{
1000
C
1070
     4
1002
}
1001
GENIUS_GENOBJ-N-REC_13
1002
{
1000
OWNER
1000
GEN
1002
}
1001
GENIUS_GENODEF_13
1002
{
1000
HIER
1070
     0
1002
}
1002
{
1000
MANEDIT
1070
     0
1002
}
1002
{
1000
NOSEL
1070
     0
1002
}
1002
{
1000
BEHIND
1070
     0
1002
}
1002
{
1000
OTHER
1070
     0
1002
}
1002
{
1000
REACTOR
1002
}
  0
LINE
  5
3B8A4
330
1F
100
AcDbEntity
  8
waku
100
AcDbLine
 10
5784.04782652164
 20
-2712.982271409578
 30
0.0
 11
6355.04782652164
 21
-2712.982271409578
 31
0.0
1001
GENIUS_GENREC_14
1002
{
1000
PYDIR
1011
6069.547826521641
1021
-2304.482271409578
1031
0.0
1002
}
1002
{
1000
PXDIR
1011
5772.547826521641
1021
-2724.482271409578
1031
0.0
1002
}
1002
{
1000
PORI
1011
5772.547826521641
1021
-2304.482271409578
1031
0.0
1002
}
1002
{
1000
PINS
1011
5921.047826521641
1021
-2514.482271409578
1031
0.0
1002
}
1002
{
1000
HVAL
1000
297
1002
}
1002
{
1000
H
1070
     2
1002
}
1002
{
1000
WVAL
1000
420
1002
}
1002
{
1000
W
1070
     2
1002
}
1002
{
1000
C
1070
     4
1002
}
1001
GENIUS_GENOBJ-N-REC_13
1002
{
1000
OWNER
1000
GEN
1002
}
1001
GENIUS_GENODEF_13
1002
{
1000
HIER
1070
     0
1002
}
1002
{
1000
MANEDIT
1070
     0
1002
}
1002
{
1000
NOSEL
1070
     0
1002
}
1002
{
1000
BEHIND
1070
     0
1002
}
1002
{
1000
OTHER
1070
     0
1002
}
1002
{
1000
REACTOR
1002
}
  0
LINE
  5
3B8A5
330
1F
100
AcDbEntity
  8
waku
100
AcDbLine
 10
6355.04782652164
 20
-2315.982271409578
 30
0.0
 11
5784.04782652164
 21
-2315.982271409578
 31
0.0
1001
GENIUS_GENREC_14
1002
{
1000
PYDIR
1011
6072.547826521641
1021
-2304.482271409578
1031
0.0
1002
}
1002
{
1000
PXDIR
1011
5775.547826521641
1021
-2724.482271409578
1031
0.0
1002
}
1002
{
1000
PORI
1011
5775.547826521641
1021
-2304.482271409578
1031
0.0
1002
}
1002
{
1000
PINS
1011
5924.047826521641
1021
-2514.482271409578
1031
0.0
1002
}
1002
{
1000
HVAL
1000
297
1002
}
1002
{
1000
H
1070
     2
1002
}
1002
{
1000
WVAL
1000
420
1002
}
1002
{
1000
W
1070
     2
1002
}
1002
{
1000
C
1070
     4
1002
}
1001
GENIUS_GENOBJ-N-REC_13
1002
{
1000
OWNER
1000
GEN
1002
}
1001
GENIUS_GENODEF_13
1002
{
1000
HIER
1070
     0
1002
}
1002
{
1000
MANEDIT
1070
     0
1002
}
1002
{
1000
NOSEL
1070
     0
1002
}
1002
{
1000
BEHIND
1070
     0
1002
}
1002
{
1000
OTHER
1070
     0
1002
}
1002
{
1000
REACTOR
1002
}
  0
LINE
  5
3B8A6
330
1F
100
AcDbEntity
  8
waku
100
AcDbLine
 10
5784.04782652164
 20
-2315.982271409578
 30
0.0
 11
5784.04782652164
 21
-2712.982271409578
 31
0.0
  0
LINE
  5
3B8A7
330
1F
100
AcDbEntity
  8
size
100
AcDbLine
 10
6366.547826521641
 20
-2724.482271409578
 30
0.0
 11
6366.547826521641
 21
-2304.482271409578
 31
0.0
1001
GENIUS_GENREC_14
1002
{
1000
PYDIR
1011
6366.547826521641
1021
-2304.482271409578
1031
0.0
1002
}
1002
{
1000
PXDIR
1011
6069.547826521641
1021
-2724.482271409578
1031
0.0
1002
}
1002
{
1000
PORI
1011
6069.547826521641
1021
-2304.482271409578
1031
0.0
1002
}
1002
{
1000
PINS
1011
6218.04782652164
1021
-2514.482271409578
1031
0.0
1002
}
1002
{
1000
HVAL
1000
297
1002
}
1002
{
1000
H
1070
     2
1002
}
1002
{
1000
WVAL
1000
420
1002
}
1002
{
1000
W
1070
     2
1002
}
1002
{
1000
C
1070
     4
1002
}
1001
GENIUS_GENOBJ-N-REC_13
1002
{
1000
OWNER
1000
GEN
1002
}
1001
GENIUS_GENODEF_13
1002
{
1000
HIER
1070
     0
1002
}
1002
{
1000
MANEDIT
1070
     0
1002
}
1002
{
1000
NOSEL
1070
     0
1002
}
1002
{
1000
BEHIND
1070
     0
1002
}
1002
{
1000
OTHER
1070
     0
1002
}
1002
{
1000
REACTOR
1002
}
  0
LINE
  5
3B8A8
330
1F
100
AcDbEntity
  8
waku
100
AcDbLine
 10
6355.047826521641
 20
-2315.982271409578
 30
0.0
 11
6355.047826521641
 21
-2712.982271409578
 31
0.0
  0
LINE
  5
4C5E8
330
1F
100
AcDbEntity
  8
AM_0
  6
Continuous
 62
     7
100
AcDbLine
 10
6255.4060850735
 20
-2616.629033687309
 30
0.0
 11
6239.4060850735
 21
-2616.62903368731
 31
0.0
  0
MTEXT
  5
4D22D
330
1F
100
AcDbEntity
  8
AM_6
100
AcDbMText
 10
5804.047826521642
 20
-2383.982271409578
 30
0.0
 40
3.2
 41
90.0
 71
     4
 72
     5
  1
　※塗装（ブロンズ）は受注生産です。
 73
     1
 44
1.0
1001
ACAD
1000
MTEXTBEGIN
1070
    73
1070
     1
1070
    44
1040
1.0
1070
    74
1070
     0
1000
MTEXTEND
  0
LINE
  5
4D22F
330
1F
100
AcDbEntity
  8
AM_2
100
AcDbLine
 10
5804.047826521641
 20
-2379.982271409578
 30
0.0
 11
5894.04782652164
 21
-2379.982271409578
 31
0.0
  0
LINE
  5
535C6
330
1F
100
AcDbEntity
  8
AM_7
 48
0.5
100
AcDbLine
 10
6177.724313388959
 20
-2455.258274275982
 30
0.0
 11
5918.724313388959
 21
-2455.258274275982
 31
0.0
1001
GENIUS_GENOBJ-N-CEN_13
1002
{
1000
OWNER
1000
GEN
1002
}
1001
GENIUS_GENODEF_13
1002
{
1000
HIER
1070
     0
1002
}
1002
{
1000
MANEDIT
1070
     0
1002
}
1002
{
1000
NOSEL
1070
     0
1002
}
1002
{
1000
BEHIND
1070
     0
1002
}
1002
{
1000
OTHER
1070
     0
1002
}
1002
{
1000
REACTOR
1002
}
1001
GENIUS_GENCEN_19
1002
{
1040
3.0
1002
}
  0
LINE
  5
535C7
330
1F
100
AcDbEntity
  8
AM_7
  6
CENTER
100
AcDbLine
 10
6048.224313388959
 20
-2492.258274275983
 30
0.0
 11
6048.224313388959
 21
-2418.258274275983
 31
0.0
  0
INSERT
  5
535C8
330
1F
100
AcDbEntity
  8
AM_5
 48
0.5
100
AcDbBlockReference
  2
*S22
 10
0.0
 20
0.0
 30
0.0
  0
LINE
  5
535E0
330
1F
100
AcDbEntity
  8
AM_7
  6
CENTER
100
AcDbLine
 10
6048.224313388959
 20
-2648.62903368731
 30
0.0
 11
6048.224313388958
 21
-2564.62903368731
 31
0.0
  0
INSERT
  5
535E1
330
1F
100
AcDbEntity
  8
AM_5
 48
0.5
100
AcDbBlockReference
  2
*S23
 10
0.0
 20
0.0
 30
0.0
  0
ENDSEC
  0
SECTION
  2
OBJECTS
  0
DICTIONARY
  5
C
330
0
100
AcDbDictionary
281
     1
  3
ACAD_2007HEADERVARS_RT
350
5364A
  3
ACAD_BGPLOT_KEY
350
AB06
  3
ACAD_COLOR
350
A91D
  3
ACAD_GROUP
350
D
  3
ACAD_LAYOUT
350
1A
  3
ACAD_MATERIAL
350
A91C
  3
ACAD_MLINESTYLE
350
17
  3
ACAD_PLOTSETTINGS
350
19
  3
ACAD_PLOTSTYLENAME
350
E
  3
ACAD_TABLESTYLE
350
AAB9
  3
ACAD_VISUALSTYLE
350
B0F1
  3
AcAsAppObject
350
3DA1
  3
ACASGREF_MASTER
350
3DE9
  3
AcDbVariableDictionary
350
34
  3
AcmDictionary
350
47
  3
AD_GREF_MODULE
350
3DEA
  3
AD_MAPI_MODULE
350
3E06
  3
AMG
350
2B
  3
AMGSNAPSETTINGS
350
7D
  3
ASE_INDEX_DICTIONARY
350
B331
  3
DWGPROPS
350
53649
  3
MAPISURF_MODULE
350
3DEB
  0
DICTIONARY
  5
53529
330
8
100
AcDbDictionary
280
     1
281
     1
  0
DICTIONARY
  5
3F95
330
2
100
AcDbDictionary
280
     1
281
     1
  3
ACAD_LAYERFILTERS
360
3F9CB
  3
ACAD_LAYERSTATES
360
3F96
  3
ACLYDICTIONARY
360
3F9CA
  3
AMLAYER_GROUPCOLORS
360
AAB4
  0
DICTIONARY
  5
8A
330
1F
100
AcDbDictionary
280
     1
281
     1
  3
ACAD_SORTENTS
360
B1BA
  0
DICTIONARY
  5
5364A
102
{ACAD_REACTORS
330
C
102
}
330
C
100
AcDbDictionary
281
     1
  3
DIMARCSYM
350
5364B
  0
DICTIONARY
  5
AB06
102
{ACAD_REACTORS
330
C
102
}
330
C
100
AcDbDictionary
280
     1
281
     1
  0
DICTIONARY
  5
A91D
102
{ACAD_REACTORS
330
C
102
}
330
C
100
AcDbDictionary
281
     1
  0
DICTIONARY
  5
D
102
{ACAD_REACTORS
330
C
102
}
330
C
100
AcDbDictionary
281
     1
  0
DICTIONARY
  5
1A
102
{ACAD_REACTORS
330
C
102
}
330
C
100
AcDbDictionary
281
     1
  3
Model
350
22
  3
ﾚｲｱｳﾄ1
350
1E
  3
ﾚｲｱｳﾄ2
350
26
  0
DICTIONARY
  5
A91C
102
{ACAD_REACTORS
330
C
102
}
330
C
100
AcDbDictionary
281
     1
  3
ByBlock
350
B0EF
  3
ByLayer
350
B0EE
  3
Global
350
B0F0
  0
DICTIONARY
  5
17
102
{ACAD_REACTORS
330
C
102
}
330
C
100
AcDbDictionary
281
     1
  3
Standard
350
18
  0
DICTIONARY
  5
19
102
{ACAD_REACTORS
330
C
102
}
330
C
100
AcDbDictionary
281
     1
  0
ACDBDICTIONARYWDFLT
  5
E
102
{ACAD_REACTORS
330
C
102
}
330
C
100
AcDbDictionary
281
     1
  3
Normal
350
F
100
AcDbDictionaryWithDefault
340
F
  0
DICTIONARY
  5
AAB9
102
{ACAD_REACTORS
330
C
102
}
330
C
100
AcDbDictionary
281
     1
  3
Standard
350
AABA
  0
DICTIONARY
  5
B0F1
102
{ACAD_REACTORS
330
C
102
}
330
C
100
AcDbDictionary
281
     1
  3
2dWireframe
350
B0F7
  3
3D Hidden
350
B0F9
  3
3dWireframe
350
B0F8
  3
Basic
350
B0F6
  3
Brighten
350
B0FD
  3
ColorChange
350
B101
  3
Conceptual
350
B0FA
  3
Dim
350
B0FC
  3
Facepattern
350
B100
  3
Flat
350
B0F2
  3
FlatWithEdges
350
B0F3
  3
Gouraud
350
B0F4
  3
GouraudWithEdges
350
B0F5
  3
Linepattern
350
B0FF
  3
Realistic
350
B0FB
  3
Thicken
350
B0FE
  0
ACAD_PROXY_OBJECT
  5
3DA1
102
{ACAD_REACTORS
330
C
102
}
330
C
100
AcDbProxyObject
 90
      499
 91
      576
 95
   917527
 70
     0
 93
       10
310
407F
 94
        0
1001
ACAD
1000
AcRTDxfName
1000
ASAPP
  0
ACAD_PROXY_OBJECT
  5
3DE9
102
{ACAD_REACTORS
330
C
102
}
330
C
100
AcDbProxyObject
 90
      499
 91
      581
 95
   917527
 70
     0
 93
       34
310
010000407F
 94
        0
1001
ACAD
1000
AcRTDxfName
1000
ACASGREFMASTER
  0
DICTIONARY
  5
34
102
{ACAD_REACTORS
330
C
102
}
330
C
100
AcDbDictionary
281
     1
  3
CTABLESTYLE
350
AAF3
  3
DIMASSOC
350
A10C
  3
FIELDEVAL
350
AB07
  3
HPORIGIN
350
EB56
  3
INDEXCTL
350
35
  3
SORTENTS
350
194C
  0
DICTIONARY
  5
47
102
{ACAD_REACTORS
330
C
102
}
330
C
100
AcDbDictionary
281
     1
  3
AcmBOM
350
7E8
  3
AcmStdDictionary
350
4C
  3
AMDTSECTSYM_ARROWCOLOR
350
A929
  0
ACAD_PROXY_OBJECT
  5
3DEA
102
{ACAD_REACTORS
330
C
102
}
330
C
100
AcDbProxyObject
 90
      499
 91
      582
 95
   917527
 70
     0
 93
      114
310
00000043800000000000000000003F
 94
        0
1001
ACAD
1000
AcRTDxfName
1000
ACADGREFMODULE
  0
ACAD_PROXY_OBJECT
  5
3E06
102
{ACAD_REACTORS
330
C
102
}
330
C
100
AcDbProxyObject
 90
      499
 91
      594
 95
   917527
 70
     0
 93
       34
310
05000044FF
 94
        0
1001
ACAD
1000
AcRTDxfName
1000
MAPIADMODULE
  0
DICTIONARY
  5
2B
102
{ACAD_REACTORS
330
C
102
}
330
C
100
AcDbDictionary
281
     1
  0
DICTIONARY
  5
7D
102
{ACAD_REACTORS
330
C
102
}
330
C
100
AcDbDictionary
281
     1
  0
DICTIONARY
  5
B331
102
{ACAD_REACTORS
330
C
102
}
330
C
100
AcDbDictionary
281
     1
  3
ASEBlockHierarchyIndexRecord
350
B332
1001
DCO15
1040
1594111214.218
  0
XRECORD
  5
53649
102
{ACAD_REACTORS
330
C
102
}
330
C
100
AcDbXrecord
280
     1
  1
DWGPROPS COOKIE
  2

  3

  4

  6

  7

  8
Administrator
  9

300
AmdtFileType=84
301
=
302
=
303
=
304
=
305
=
306
=
307
=
308
=
309
=
 40
8.464036782407408
 41
2455567.561054317
 42
2456272.804308079
  1

 90
        1
  0
ACAD_PROXY_OBJECT
  5
3DEB
102
{ACAD_REACTORS
330
C
102
}
330
C
100
AcDbProxyObject
 90
      499
 91
      583
 95
   917527
 70
     0
 93
        8
310
047E
 94
        0
1001
ACAD
1000
AcRTDxfName
1000
AMDTMAPISURFMOUDULE
  0
DICTIONARY
  5
3F9CB
102
{ACAD_REACTORS
330
3F95
102
}
330
3F95
100
AcDbDictionary
281
     1
  0
DICTIONARY
  5
3F96
102
{ACAD_REACTORS
330
3F95
102
}
330
3F95
100
AcDbDictionary
281
     1
  3
20011210
350
3FB7
  0
DICTIONARY
  5
3F9CA
102
{ACAD_REACTORS
330
3F95
102
}
330
3F95
100
AcDbDictionary
281
     1
1001
ACAD
1000
<All
  0
DICTIONARY
  5
AAB4
102
{ACAD_REACTORS
330
3F95
102
}
330
3F95
100
AcDbDictionary
280
     1
281
     1
  0
SORTENTSTABLE
  5
B1BA
102
{ACAD_REACTORS
330
8A
102
}
330
8A
100
AcDbSortentsTable
330
1F
331
26282
  5
26282
331
3B74D
  5
3B7E3
331
3B70E
  5
3B731
331
3B88A
  5
3B8B6
331
3B755
  5
3B7EB
331
3B716
  5
3B739
331
3B892
  5
3B8BE
331
3B71E
  5
3B741
331
3B89A
  5
3B8C6
331
3B7D3
  5
3B807
331
3B8A2
  5
4D3FA
331
1EB3F
  5
1EB3F
331
3B72E
  5
3B753
331
3B736
  5
3B785
331
535C8
  5
535E1
331
3B7E3
  5
3B8A7
331
3B6FF
  5
3B722
331
3B73E
  5
3B7B1
331
3B76D
  5
3B7F2
331
3B707
  5
3B72A
331
3B746
  5
3B7D9
331
4D22D
  5
535CB
331
3B883
  5
3B8AF
331
535E0
  5
535E2
331
26283
  5
26283
331
3B74E
  5
3B7E4
331
3B70F
  5
3B732
331
3B88B
  5
3B8B7
331
3B785
  5
3B7F7
331
3B717
  5
3B73A
331
3B893
  5
3B8BF
331
3B71F
  5
3B742
331
3B89B
  5
3B8C7
331
3B795
  5
3B7FA
331
3B8A3
  5
4D4DD
331
3B79D
  5
3B7FC
331
1EB40
  5
1EB40
331
3B72F
  5
3B754
331
3B737
  5
3B78F
331
3B7AD
  5
3B7FF
331
3B7E4
  5
3B8A8
331
3B700
  5
3B723
331
3B73F
  5
3B7B7
331
3B747
  5
3B7DD
331
3B884
  5
3B8B0
331
535E1
  5
535E6
331
3B708
  5
3B72B
331
3B74F
  5
3B7E5
331
3B710
  5
3B733
331
3B88C
  5
3B8B8
331
3B7C5
  5
3B804
331
3B718
  5
3B73B
331
3B894
  5
3B8C0
331
3B75F
  5
3B7EE
331
3B720
  5
3B743
331
3B89C
  5
3B8C8
331
3B8A4
  5
535B9
331
1EB41
  5
1EB41
331
21FF0
  5
2215D
331
3B728
  5
3B74C
331
3B730
  5
3B755
331
3B7DD
  5
3B809
331
3B738
  5
3B795
331
3B7E5
  5
3B8A9
331
3B701
  5
3B724
331
2627D
  5
2627D
331
3B740
  5
3B7BB
331
3B777
  5
3B7F4
331
4D22F
  5
535CC
331
3B885
  5
3B8B1
331
3B748
  5
3B7DE
331
3B709
  5
3B72C
331
3B750
  5
3B7E6
331
3B711
  5
3B734
331
3B88D
  5
3B8B9
331
3B719
  5
3B73C
331
3B895
  5
3B8C1
331
3B78F
  5
3B7F9
331
3B721
  5
3B744
331
3B89D
  5
3B8C9
331
3B8A5
  5
535BA
331
1EB3A
  5
1EB3A
331
21FF1
  5
2215E
331
3B729
  5
3B74E
331
3B731
  5
3B759
331
3B7DE
  5
3B80A
331
3B7A7
  5
3B7FE
331
3B739
  5
3B799
331
4C5E8
  5
3B74B
331
3B7E6
  5
3B8AA
331
3B702
  5
3B725
331
2627E
  5
2627E
331
3B741
  5
3B7BF
331
3B7B7
  5
3B801
331
3B7BF
  5
3B803
331
3B886
  5
3B8B2
331
3B749
  5
3B7DF
331
3B70A
  5
3B72D
331
3B751
  5
3B7E7
331
3B712
  5
3B735
331
3B88E
  5
3B8BA
331
3B759
  5
3B7ED
331
3B71A
  5
3B73D
331
3B896
  5
3B8C2
331
3B7CF
  5
3B806
331
3B722
  5
3B745
331
3B89E
  5
3B8CA
331
3B8A6
  5
535C6
331
1EB3B
  5
1EB3B
331
21FF2
  5
22406
331
3B72A
  5
3B74F
331
3B732
  5
3B75F
331
3B7DF
  5
3B80B
331
3B6FB
  5
3B71E
331
3B73A
  5
3B79D
331
3B769
  5
3B7F0
331
3B7E7
  5
3B8AB
331
3B703
  5
3B726
331
2627F
  5
2627F
331
3B742
  5
3B7C5
331
3B887
  5
3B8B3
331
3B74A
  5
3B7E0
331
214E3
  5
2154A
331
3B70B
  5
3B72E
331
3B752
  5
3B7E8
331
3B781
  5
3B7F6
331
3B713
  5
3B736
331
3B88F
  5
3B8BB
331
3B897
  5
3B8C3
331
3B89F
  5
3B8CB
331
3B799
  5
3B7FB
331
3B8A7
  5
535C7
331
1EB3C
  5
1EB3C
331
21FF3
  5
22408
331
3B72B
  5
3B750
331
3B733
  5
3B763
331
3B7E0
  5
3B880
331
3B6FC
  5
3B71F
331
3B73B
  5
3B7A3
331
3B7B1
  5
3B800
331
3B7E8
  5
3B8AC
331
3B704
  5
3B727
331
3B743
  5
3B7C9
331
26280
  5
26280
331
3B74B
  5
3B7E1
331
3B70C
  5
3B72F
331
3B888
  5
3B8B4
331
3B753
  5
3B7E9
331
3B714
  5
3B737
331
3B890
  5
3B8BC
331
3B7C9
  5
3B805
331
3B898
  5
3B8C4
331
3B724
  5
3B747
331
3B8A0
  5
3B8CC
331
535C6
  5
535CD
331
1EB3D
  5
1EB3D
331
3B72C
  5
3B751
331
3B7D9
  5
3B808
331
3B8A8
  5
535C8
331
3B763
  5
3B7EF
331
2121D
  5
21225
331
3B734
  5
3B773
331
3B7E1
  5
3B881
331
3B6FD
  5
3B720
331
3B73C
  5
3B7A7
331
3B705
  5
3B728
331
3B744
  5
3B7CF
331
3B773
  5
3B7F3
331
3B881
  5
3B8AD
331
3B77B
  5
3B7F5
331
26281
  5
26281
331
3B74C
  5
3B7E2
331
3B70D
  5
3B730
331
3B889
  5
3B8B5
331
3B754
  5
3B7EA
331
3B715
  5
3B738
331
3B891
  5
3B8BD
331
3B78B
  5
3B7F8
331
3B71D
  5
3B740
331
3B899
  5
3B8C5
331
3B725
  5
3B748
331
3B8A1
  5
3B8CD
331
535C7
  5
535E0
331
1EB3E
  5
1EB3E
331
3B72D
  5
3B752
331
3B7A3
  5
3B7FD
331
3B735
  5
3B77B
331
3B7E2
  5
3B8A6
331
3B73D
  5
3B7AD
331
3B706
  5
3B729
331
3B745
  5
3B7D3
331
3B7BB
  5
3B802
331
3B882
  5
3B8AE
  0
XRECORD
  5
5364B
102
{ACAD_REACTORS
330
5364A
102
}
330
5364A
100
AcDbXrecord
280
     1
 70
     1
  0
LAYOUT
  5
22
102
{ACAD_XDICTIONARY
360
5364E
102
}
102
{ACAD_REACTORS
330
1A
102
}
330
1A
100
AcDbPlotSettings
  1

  2
Adobe PDF
  4
A3
  6

 40
3.174999952316284
 41
3.174999952316284
 42
3.17498779296875
 43
3.17498779296875
 44
297.0318298339844
 45
420.1583251953125
 46
0.0
 47
1.371553106741458
 48
7017.19475029137
 49
-3860.982271409579
140
7437.19475029137
141
-3563.982271409579
142
1.0
143
1.021735647008087
 70
  3764
 72
     1
 73
     1
 74
     4
  7
monochrome.ctb
 75
     0
147
0.9787267410393917
148
-7017.19475029137
149
3860.982271409579
100
AcDbLayout
  1
Model
 70
     1
 71
     0
 10
0.0
 20
0.0
 11
12.0
 21
9.0
 12
0.0
 22
0.0
 32
0.0
 14
0.0
 24
0.0
 34
0.0
 15
0.0
 25
0.0
 35
0.0
146
0.0
 13
0.0
 23
0.0
 33
0.0
 16
1.0
 26
0.0
 36
0.0
 17
0.0
 27
1.0
 37
0.0
 76
     0
330
1F
331
B0EC
1001
ACAD_PSEXT
1000
Adobe PDF
1000
Adobe PDF Converter
1000
My Documents\*.pdf
1000

1070
     0
  0
LAYOUT
  5
1E
102
{ACAD_XDICTIONARY
360
5364C
102
}
102
{ACAD_REACTORS
330
1A
102
}
330
1A
100
AcDbPlotSettings
  1

  2
\\ML370\XEROX
  4
A4
  6

 40
3.174999952316284
 41
3.174999952316284
 42
3.175003051757812
 43
3.17498779296875
 44
209.8674926757813
 45
296.6719970703125
 46
0.0
 47
0.0
 48
0.0
 49
0.0
140
0.0
141
0.0
142
1.0
143
1.0
 70
   688
 72
     1
 73
     1
 74
     5
  7
monochrome.ctb
 75
    16
147
1.0
148
0.0
149
0.0
100
AcDbLayout
  1
ﾚｲｱｳﾄ1
 70
     1
 71
     1
 10
-3.17498779296875
 20
-3.174999952316284
 11
293.4970092773438
 21
206.692492723465
 12
0.0
 22
0.0
 32
0.0
 14
1.000000000000000E+20
 24
1.000000000000000E+20
 34
1.000000000000000E+20
 15
-1.000000000000000E+20
 25
-1.000000000000000E+20
 35
-1.000000000000000E+20
146
0.0
 13
0.0
 23
0.0
 33
0.0
 16
1.0
 26
0.0
 36
0.0
 17
0.0
 27
1.0
 37
0.0
 76
     0
330
1B
  0
LAYOUT
  5
26
102
{ACAD_XDICTIONARY
360
53650
102
}
102
{ACAD_REACTORS
330
1A
102
}
330
1A
100
AcDbPlotSettings
  1

  2
\\ML370\XEROX
  4

  6

 40
0.0
 41
0.0
 42
0.0
 43
0.0
 44
0.0
 45
0.0
 46
0.0
 47
0.0
 48
0.0
 49
0.0
140
0.0
141
0.0
142
1.0
143
1.0
 70
   688
 72
     0
 73
     0
 74
     5
  7
monochrome.ctb
 75
    16
147
1.0
148
0.0
149
0.0
100
AcDbLayout
  1
ﾚｲｱｳﾄ2
 70
     1
 71
     2
 10
0.0
 20
0.0
 11
12.0
 21
9.0
 12
0.0
 22
0.0
 32
0.0
 14
0.0
 24
0.0
 34
0.0
 15
0.0
 25
0.0
 35
0.0
146
0.0
 13
0.0
 23
0.0
 33
0.0
 16
1.0
 26
0.0
 36
0.0
 17
0.0
 27
1.0
 37
0.0
 76
     0
330
23
  0
MATERIAL
  5
B0EF
102
{ACAD_XDICTIONARY
360
53656
102
}
102
{ACAD_REACTORS
330
A91C
102
}
330
A91C
100
AcDbMaterial
  1
ByBlock
  0
MATERIAL
  5
B0EE
102
{ACAD_XDICTIONARY
360
53654
102
}
102
{ACAD_REACTORS
330
A91C
102
}
330
A91C
100
AcDbMaterial
  1
ByLayer
  0
MATERIAL
  5
B0F0
102
{ACAD_XDICTIONARY
360
53658
102
}
102
{ACAD_REACTORS
330
A91C
102
}
330
A91C
100
AcDbMaterial
  1
Global
  0
MLINESTYLE
  5
18
102
{ACAD_REACTORS
330
17
102
}
330
17
100
AcDbMlineStyle
  2
STANDARD
 70
     0
  3

 62
   256
 51
90.0
 52
90.0
 71
     2
 49
0.5
 62
   256
  6
BYLAYER
 49
-0.5
 62
   256
  6
BYLAYER
  0
ACDBPLACEHOLDER
  5
F
102
{ACAD_REACTORS
330
E
102
}
330
E
  0
TABLESTYLE
  5
AABA
102
{ACAD_XDICTIONARY
360
53652
102
}
102
{ACAD_REACTORS
330
AAB9
102
}
330
AAB9
100
AcDbTableStyle
  3
Standard
 70
     0
 71
     0
 40
1.5
 41
1.5
280
     0
281
     0
  7
STANDARD
140
4.5
170
     2
 62
     0
 63
     7
283
     0
274
    -2
284
     1
 64
     0
275
    -2
285
     1
 65
     0
276
    -2
286
     1
 66
     0
277
    -2
287
     1
 67
     0
278
    -2
288
     1
 68
     0
279
    -2
289
     1
 69
     0
  7
STANDARD
140
6.0
170
     5
 62
     0
 63
     7
283
     0
274
    -2
284
     1
 64
     0
275
    -2
285
     1
 65
     0
276
    -2
286
     1
 66
     0
277
    -2
287
     1
 67
     0
278
    -2
288
     1
 68
     0
279
    -2
289
     1
 69
     0
  7
STANDARD
140
4.5
170
     5
 62
     0
 63
     7
283
     0
274
    -2
284
     1
 64
     0
275
    -2
285
     1
 65
     0
276
    -2
286
     1
 66
     0
277
    -2
287
     1
 67
     0
278
    -2
288
     1
 68
     0
279
    -2
289
     1
 69
     0
  0
VISUALSTYLE
  5
B0F7
102
{ACAD_REACTORS
330
B0F1
102
}
330
B0F1
100
AcDbVisualStyle
  2
2dWireframe
 70
     4
 71
     0
 72
     2
 73
     0
 90
        0
 40
-0.6
 41
-30.0
 62
     5
 63
     7
 74
     1
 91
        4
 64
     7
 65
   257
 75
     1
175
     1
 42
1.0
 92
        0
 66
   257
 43
1.0
 76
     1
 77
     6
 78
     2
 67
     7
 79
     5
170
     0
171
     0
290
     0
174
     0
 93
        1
 44
0.0
173
     0
291
     0
 45
0.0
1001
ACAD
1000
AcDbSavedByObjectVersion
1070
     0
  0
VISUALSTYLE
  5
B0F9
102
{ACAD_REACTORS
330
B0F1
102
}
330
B0F1
100
AcDbVisualStyle
  2
3D Hidden
 70
     6
 71
     1
 72
     2
 73
     2
 90
        0
 40
-0.6
 41
-30.0
 62
     5
 63
     7
 74
     2
 91
        2
 64
     7
 65
   257
 75
     2
175
     1
 42
40.0
 92
        0
 66
   257
 43
1.0
 76
     1
 77
     6
 78
     2
 67
     7
 79
     3
170
     0
171
     0
290
     0
174
     0
 93
        1
 44
0.0
173
     0
291
     0
 45
0.0
1001
ACAD
1000
AcDbSavedByObjectVersion
1070
     0
  0
VISUALSTYLE
  5
B0F8
102
{ACAD_REACTORS
330
B0F1
102
}
330
B0F1
100
AcDbVisualStyle
  2
3dWireframe
 70
     5
 71
     0
 72
     2
 73
     0
 90
        0
 40
-0.6
 41
-30.0
 62
     5
 63
     7
 74
     1
 91
        4
 64
     7
 65
   257
 75
     1
175
     1
 42
1.0
 92
        0
 66
   257
 43
1.0
 76
     1
 77
     6
 78
     2
 67
     7
 79
     5
170
     0
171
     0
290
     0
174
     0
 93
        1
 44
0.0
173
     0
291
     0
 45
0.0
1001
ACAD
1000
AcDbSavedByObjectVersion
1070
     0
  0
VISUALSTYLE
  5
B0F6
102
{ACAD_REACTORS
330
B0F1
102
}
330
B0F1
100
AcDbVisualStyle
  2
Basic
 70
     7
 71
     1
 72
     0
 73
     1
 90
        0
 40
-0.6
 41
-30.0
 62
     5
 63
     7
 74
     0
 91
        4
 64
     7
 65
   257
 75
     1
175
     1
 42
1.0
 92
        8
 66
     7
 43
1.0
 76
     1
 77
     6
 78
     2
 67
     7
 79
     5
170
     0
171
     0
290
     0
174
     0
 93
        1
 44
0.0
173
     0
291
     1
 45
0.0
1001
ACAD
1000
AcDbSavedByObjectVersion
1070
     0
  0
VISUALSTYLE
  5
B0FD
102
{ACAD_REACTORS
330
B0F1
102
}
330
B0F1
100
AcDbVisualStyle
  2
Brighten
 70
    12
 71
     2
 72
     2
 73
     0
 90
        0
 40
-0.6
 41
-30.0
 62
     5
 63
     7
 74
     1
 91
        4
 64
     7
 65
   257
 75
     1
175
     1
 42
1.0
 92
        8
 66
     7
 43
1.0
 76
     1
 77
     6
 78
     2
 67
     7
 79
     5
170
     0
171
     0
290
     0
174
     0
 93
        1
 44
50.0
173
     0
291
     1
 45
0.0
1001
ACAD
1000
AcDbSavedByObjectVersion
1070
     0
  0
VISUALSTYLE
  5
B101
102
{ACAD_REACTORS
330
B0F1
102
}
330
B0F1
100
AcDbVisualStyle
  2
ColorChange
 70
    16
 71
     2
 72
     2
 73
     3
 90
        0
 40
-0.6
 41
-30.0
 62
     5
 63
     8
 74
     1
 91
        4
 64
     7
 65
   257
 75
     1
175
     1
 42
1.0
 92
        8
 66
     8
 43
1.0
 76
     1
 77
     6
 78
     2
 67
     7
 79
     5
170
     0
171
     0
290
     0
174
     0
 93
        1
 44
0.0
173
     0
291
     1
 45
0.0
1001
ACAD
1000
AcDbSavedByObjectVersion
1070
     0
  0
VISUALSTYLE
  5
B0FA
102
{ACAD_REACTORS
330
B0F1
102
}
330
B0F1
100
AcDbVisualStyle
  2
Conceptual
 70
     9
 71
     3
 72
     2
 73
     0
 90
        0
 40
-0.6
 41
-30.0
 62
     5
 63
     7
 74
     2
 91
        2
 64
     7
 65
   257
 75
     1
175
     1
 42
40.0
 92
        8
 66
     7
 43
1.0
 76
     1
 77
     6
 78
     2
 67
     7
 79
     3
170
     0
171
     0
290
     0
174
     0
 93
        1
 44
0.0
173
     0
291
     0
 45
0.0
1001
ACAD
1000
AcDbSavedByObjectVersion
1070
     0
  0
VISUALSTYLE
  5
B0FC
102
{ACAD_REACTORS
330
B0F1
102
}
330
B0F1
100
AcDbVisualStyle
  2
Dim
 70
    11
 71
     2
 72
     2
 73
     0
 90
        0
 40
-0.6
 41
-30.0
 62
     5
 63
     7
 74
     1
 91
        4
 64
     7
 65
   257
 75
     1
175
     1
 42
1.0
 92
        8
 66
     7
 43
1.0
 76
     1
 77
     6
 78
     2
 67
     7
 79
     5
170
     0
171
     0
290
     0
174
     0
 93
        1
 44
-50.0
173
     0
291
     1
 45
0.0
1001
ACAD
1000
AcDbSavedByObjectVersion
1070
     0
  0
VISUALSTYLE
  5
B100
102
{ACAD_REACTORS
330
B0F1
102
}
330
B0F1
100
AcDbVisualStyle
  2
Facepattern
 70
    15
 71
     2
 72
     2
 73
     0
 90
        0
 40
-0.6
 41
-30.0
 62
     5
 63
     7
 74
     1
 91
        4
 64
     7
 65
   257
 75
     1
175
     1
 42
1.0
 92
        8
 66
     7
 43
1.0
 76
     1
 77
     6
 78
     2
 67
     7
 79
     5
170
     0
171
     0
290
     0
174
     0
 93
        1
 44
0.0
173
     0
291
     1
 45
0.0
1001
ACAD
1000
AcDbSavedByObjectVersion
1070
     0
  0
VISUALSTYLE
  5
B0F2
102
{ACAD_REACTORS
330
B0F1
102
}
330
B0F1
100
AcDbVisualStyle
  2
Flat
 70
     0
 71
     2
 72
     1
 73
     1
 90
        2
 40
-0.6
 41
30.0
 62
     5
 63
     7
 74
     0
 91
        4
 64
     7
 65
   257
 75
     1
175
     1
 42
1.0
 92
        8
 66
     7
 43
1.0
 76
     1
 77
     6
 78
     2
 67
     7
 79
     5
170
     0
171
     0
290
     0
174
     0
 93
       13
 44
0.0
173
     0
291
     1
 45
0.0
1001
ACAD
1000
AcDbSavedByObjectVersion
1070
     0
  0
VISUALSTYLE
  5
B0F3
102
{ACAD_REACTORS
330
B0F1
102
}
330
B0F1
100
AcDbVisualStyle
  2
FlatWithEdges
 70
     1
 71
     2
 72
     1
 73
     1
 90
        2
 40
-0.6
 41
30.0
 62
     5
 63
     7
 74
     1
 91
        4
 64
     7
 65
   257
 75
     1
175
     1
 42
1.0
 92
        0
 66
   257
 43
1.0
 76
     1
 77
     6
 78
     2
 67
     7
 79
     5
170
     0
171
     0
290
     0
174
     0
 93
       13
 44
0.0
173
     0
291
     1
 45
0.0
1001
ACAD
1000
AcDbSavedByObjectVersion
1070
     0
  0
VISUALSTYLE
  5
B0F4
102
{ACAD_REACTORS
330
B0F1
102
}
330
B0F1
100
AcDbVisualStyle
  2
Gouraud
 70
     2
 71
     2
 72
     2
 73
     1
 90
        2
 40
-0.6
 41
30.0
 62
     5
 63
     7
 74
     0
 91
        4
 64
     7
 65
   257
 75
     1
175
     1
 42
1.0
 92
        0
 66
     7
 43
1.0
 76
     1
 77
     6
 78
     2
 67
     7
 79
     5
170
     0
171
     0
290
     0
174
     0
 93
       13
 44
0.0
173
     0
291
     1
 45
0.0
1001
ACAD
1000
AcDbSavedByObjectVersion
1070
     0
  0
VISUALSTYLE
  5
B0F5
102
{ACAD_REACTORS
330
B0F1
102
}
330
B0F1
100
AcDbVisualStyle
  2
GouraudWithEdges
 70
     3
 71
     2
 72
     2
 73
     1
 90
        2
 40
-0.6
 41
30.0
 62
     5
 63
     7
 74
     1
 91
        4
 64
     7
 65
   257
 75
     1
175
     1
 42
1.0
 92
        0
 66
   257
 43
1.0
 76
     1
 77
     6
 78
     2
 67
     7
 79
     5
170
     0
171
     0
290
     0
174
     0
 93
       13
 44
0.0
173
     0
291
     1
 45
0.0
1001
ACAD
1000
AcDbSavedByObjectVersion
1070
     0
  0
VISUALSTYLE
  5
B0FF
102
{ACAD_REACTORS
330
B0F1
102
}
330
B0F1
100
AcDbVisualStyle
  2
Linepattern
 70
    14
 71
     2
 72
     2
 73
     0
 90
        0
 40
-0.6
 41
-30.0
 62
     5
 63
     7
 74
     1
 91
        4
 64
     7
 65
   257
 75
     7
175
     7
 42
1.0
 92
        8
 66
     7
 43
1.0
 76
     1
 77
     6
 78
     2
 67
     7
 79
     5
170
     0
171
     0
290
     0
174
     0
 93
        1
 44
0.0
173
     0
291
     1
 45
0.0
1001
ACAD
1000
AcDbSavedByObjectVersion
1070
     0
  0
VISUALSTYLE
  5
B0FB
102
{ACAD_REACTORS
330
B0F1
102
}
330
B0F1
100
AcDbVisualStyle
  2
Realistic
 70
     8
 71
     2
 72
     2
 73
     0
 90
        0
 40
-0.6
 41
-30.0
 62
     5
 63
     7
 74
     1
 91
        0
 64
     7
 65
   257
 75
     1
175
     1
 42
1.0
 92
        8
 66
     8
 43
1.0
 76
     1
 77
     6
 78
     2
 67
     7
 79
     5
170
     0
171
     0
290
     0
174
     0
 93
       13
 44
0.0
173
     0
291
     0
 45
0.0
1001
ACAD
1000
AcDbSavedByObjectVersion
1070
     0
  0
VISUALSTYLE
  5
B0FE
102
{ACAD_REACTORS
330
B0F1
102
}
330
B0F1
100
AcDbVisualStyle
  2
Thicken
 70
    13
 71
     2
 72
     2
 73
     0
 90
        0
 40
-0.6
 41
-30.0
 62
     5
 63
     7
 74
     1
 91
        4
 64
     7
 65
   257
 75
     1
175
     1
 42
1.0
 92
       12
 66
     7
 43
1.0
 76
     1
 77
     6
 78
     2
 67
     7
 79
     5
170
     0
171
     0
290
     0
174
     0
 93
        1
 44
0.0
173
     0
291
     1
 45
0.0
1001
ACAD
1000
AcDbSavedByObjectVersion
1070
     0
  0
DICTIONARYVAR
  5
AAF3
102
{ACAD_REACTORS
330
34
102
}
330
34
100
DictionaryVariables
280
     0
  1
STANDARD
  0
DICTIONARYVAR
  5
A10C
102
{ACAD_REACTORS
330
34
102
}
330
34
100
DictionaryVariables
280
     0
  1
1
  0
DICTIONARYVAR
  5
AB07
102
{ACAD_REACTORS
330
34
102
}
330
34
100
DictionaryVariables
280
     0
  1
4
  0
DICTIONARYVAR
  5
EB56
102
{ACAD_REACTORS
330
34
102
}
330
34
100
DictionaryVariables
280
     0
  1
0.000000;0.000000
  0
DICTIONARYVAR
  5
35
102
{ACAD_REACTORS
330
34
102
}
330
34
100
DictionaryVariables
280
     0
  1
0
  0
DICTIONARYVAR
  5
194C
102
{ACAD_REACTORS
330
34
102
}
330
34
100
DictionaryVariables
280
     0
  1
127
  0
DICTIONARY
  5
7E8
102
{ACAD_REACTORS
330
47
102
}
330
47
100
AcDbDictionary
281
     1
  0
DICTIONARY
  5
4C
102
{ACAD_REACTORS
330
47
102
}
330
47
100
AcDbDictionary
281
     1
  0
XRECORD
  5
A929
102
{ACAD_REACTORS
330
47
102
}
330
47
100
AcDbXrecord
280
     1
 90
-1023410169
  0
XRECORD
  5
B332
102
{ACAD_REACTORS
330
B331
102
}
330
B331
100
AcDbXrecord
280
     1
  0
XRECORD
  5
3FB7
102
{ACAD_REACTORS
330
3F96
102
}
330
3F96
100
AcDbXrecord
280
     1
 91
        3
330
0
 90
        8
 62
     7
370
    40
331
16
  1
Color_7
330
0
 90
        0
 62
    14
370
    -3
331
16
  1
Color_14
330
0
 90
        8
 62
     7
370
    20
331
16
  1
Color_7
330
6D1
 90
        0
 62
     7
370
    -3
331
16
  1
Color_7
330
0
 90
        8
 62
     7
370
    50
331
16
  1
Color_7
330
0
 90
        8
 62
     2
370
    35
331
16
  1
Color_2
330
0
 90
        8
 62
     7
370
    -3
331
16
  1
Color_7
330
10
 90
        8
 62
     7
370
    -3
331
16
  1
Color_7
  0
DICTIONARY
  5
5364E
330
22
100
AcDbDictionary
280
     1
281
     1
  3
ACAD_XREC_ROUNDTRIP
360
5364F
  0
DICTIONARY
  5
5364C
330
1E
100
AcDbDictionary
280
     1
281
     1
  3
ACAD_XREC_ROUNDTRIP
360
5364D
  0
DICTIONARY
  5
53650
330
26
100
AcDbDictionary
280
     1
281
     1
  3
ACAD_XREC_ROUNDTRIP
360
53651
  0
DICTIONARY
  5
53656
330
B0EF
100
AcDbDictionary
280
     1
281
     1
  3
ACAD_XREC_ROUNDTRIP
360
53657
  0
DICTIONARY
  5
53654
330
B0EE
100
AcDbDictionary
280
     1
281
     1
  3
ACAD_XREC_ROUNDTRIP
360
53655
  0
DICTIONARY
  5
53658
330
B0F0
100
AcDbDictionary
280
     1
281
     1
  3
ACAD_XREC_ROUNDTRIP
360
53659
  0
DICTIONARY
  5
53652
330
AABA
100
AcDbDictionary
280
     1
281
     1
  3
ACAD_XREC_ROUNDTRIP
360
53653
  0
XRECORD
  5
5364F
102
{ACAD_REACTORS
330
5364E
102
}
330
5364E
100
AcDbXrecord
280
     1
102
SHADEPLOT
 70
     1
102
SHADEPLOTRESLEVEL
 70
     2
102
SHADEPLOTCUSTOMDPI
 70
   300
  0
XRECORD
  5
5364D
102
{ACAD_REACTORS
330
5364C
102
}
330
5364C
100
AcDbXrecord
280
     1
102
SHADEPLOT
 70
     0
102
SHADEPLOTRESLEVEL
 70
     2
102
SHADEPLOTCUSTOMDPI
 70
   300
  0
XRECORD
  5
53651
102
{ACAD_REACTORS
330
53650
102
}
330
53650
100
AcDbXrecord
280
     1
102
SHADEPLOT
 70
     0
102
SHADEPLOTRESLEVEL
 70
     2
102
SHADEPLOTCUSTOMDPI
 70
   300
  0
XRECORD
  5
53657
102
{ACAD_REACTORS
330
53656
102
}
330
53656
100
AcDbXrecord
280
     1
102
MATERIAL
148
0.0
149
0.0
149
0.0
 93
        0
 94
       63
282
     0
 72
     1
 77
     1
171
     1
175
     1
179
     1
273
     0
  0
XRECORD
  5
53655
102
{ACAD_REACTORS
330
53654
102
}
330
53654
100
AcDbXrecord
280
     1
102
MATERIAL
148
0.0
149
0.0
149
0.0
 93
        0
 94
       63
282
     0
 72
     1
 77
     1
171
     1
175
     1
179
     1
273
     0
  0
XRECORD
  5
53659
102
{ACAD_REACTORS
330
53658
102
}
330
53658
100
AcDbXrecord
280
     1
102
MATERIAL
148
0.0
149
0.0
149
0.0
 93
        0
 94
       63
282
     0
 72
     1
 77
     1
171
     1
175
     1
179
     1
273
     0
  0
XRECORD
  5
53653
102
{ACAD_REACTORS
330
53652
102
}
330
53652
100
AcDbXrecord
280
     1
102
ACAD_ROUNDTRIP_PRE2007_TABLESTYLE
 90
        4
 91
        0
  1

 92
        4
 93
        0
  2

 94
        4
 95
        0
  3

  0
ENDSEC
  0
EOF
