  0
SECTION
  2
HEADER
  9
$ACADVER
  1
AC1015
  9
$ACADMAINTVER
 70
    20
  9
$DWGCODEPAGE
  3
ANSI_932
  9
$INSBASE
 10
0.0
 20
0.0
 30
0.0
  9
$EXTMIN
 10
5772.513311556715
 20
-2289.645993461234
 30
-0.0000000349181948
  9
$EXTMAX
 10
6069.812402487043
 20
-2079.237595543878
 30
0.0000000814935746
  9
$LIMMIN
 10
1735.132052145826
 20
-6087.884660833434
  9
$LIMMAX
 10
2155.132052145826
 20
-5790.884660833434
  9
$ORTHOMODE
 70
     0
  9
$REGENMODE
 70
     1
  9
$FILLMODE
 70
     1
  9
$QTEXTMODE
 70
     0
  9
$MIRRTEXT
 70
     0
  9
$LTSCALE
 40
1.0
  9
$ATTMODE
 70
     1
  9
$TEXTSIZE
 40
3.5
  9
$TRACEWID
 40
1.0
  9
$TEXTSTYLE
  7
STANDARD
  9
$CLAYER
  8
AM_11
  9
$CELTYPE
  6
ByLayer
  9
$CECOLOR
 62
   256
  9
$CELTSCALE
 40
0.5
  9
$DISPSILH
 70
     0
  9
$DIMSCALE
 40
1.0
  9
$DIMASZ
 40
1.0
  9
$DIMEXO
 40
1.0
  9
$DIMDLI
 40
10.0
  9
$DIMRND
 40
0.0
  9
$DIMDLE
 40
0.0
  9
$DIMEXE
 40
1.0
  9
$DIMTP
 40
0.1
  9
$DIMTM
 40
0.1
  9
$DIMTXT
 40
3.5
  9
$DIMCEN
 40
0.0
  9
$DIMTSZ
 40
0.0
  9
$DIMTOL
 70
     0
  9
$DIMLIM
 70
     0
  9
$DIMTIH
 70
     0
  9
$DIMTOH
 70
     0
  9
$DIMSE1
 70
     0
  9
$DIMSE2
 70
     0
  9
$DIMTAD
 70
     1
  9
$DIMZIN
 70
     8
  9
$DIMBLK
  1

  9
$DIMASO
 70
     1
  9
$DIMSHO
 70
     1
  9
$DIMPOST
  1

  9
$DIMAPOST
  1
"
  9
$DIMALT
 70
     0
  9
$DIMALTD
 70
     2
  9
$DIMALTF
 40
0.0393701
  9
$DIMLFAC
 40
1.0
  9
$DIMTOFL
 70
     1
  9
$DIMTVP
 40
0.0
  9
$DIMTIX
 70
     0
  9
$DIMSOXD
 70
     0
  9
$DIMSAH
 70
     0
  9
$DIMBLK1
  1

  9
$DIMBLK2
  1

  9
$DIMSTYLE
  2
SYS
  9
$DIMCLRD
 70
   256
  9
$DIMCLRE
 70
   256
  9
$DIMCLRT
 70
     7
  9
$DIMTFAC
 40
0.71
  9
$DIMGAP
 40
1.5
  9
$DIMJUST
 70
     0
  9
$DIMSD1
 70
     0
  9
$DIMSD2
 70
     0
  9
$DIMTOLJ
 70
     0
  9
$DIMTZIN
 70
     8
  9
$DIMALTZ
 70
     0
  9
$DIMALTTZ
 70
     0
  9
$DIMUPT
 70
     0
  9
$DIMDEC
 70
     1
  9
$DIMTDEC
 70
     2
  9
$DIMALTU
 70
     2
  9
$DIMALTTD
 70
     2
  9
$DIMTXSTY
  7
STANDARD
  9
$DIMAUNIT
 70
     0
  9
$DIMADEC
 70
     0
  9
$DIMALTRND
 40
0.0
  9
$DIMAZIN
 70
     2
  9
$DIMDSEP
 70
    46
  9
$DIMATFIT
 70
     3
  9
$DIMFRAC
 70
     0
  9
$DIMLDRBLK
  1

  9
$DIMLUNIT
 70
     2
  9
$DIMLWD
 70
    -1
  9
$DIMLWE
 70
    -1
  9
$DIMTMOVE
 70
     0
  9
$LUNITS
 70
     2
  9
$LUPREC
 70
     2
  9
$SKETCHINC
 40
1.0
  9
$FILLETRAD
 40
2.0
  9
$AUNITS
 70
     0
  9
$AUPREC
 70
     0
  9
$MENU
  1
.
  9
$ELEVATION
 40
0.0
  9
$PELEVATION
 40
0.0
  9
$THICKNESS
 40
0.0
  9
$LIMCHECK
 70
     0
  9
$CHAMFERA
 40
0.0
  9
$CHAMFERB
 40
0.0
  9
$CHAMFERC
 40
20.0
  9
$CHAMFERD
 40
0.0
  9
$SKPOLY
 70
     0
  9
$TDCREATE
 40
2455567.561054317
  9
$TDUCREATE
 40
2455567.186054318
  9
$TDUPDATE
 40
2456272.817767280
  9
$TDUUPDATE
 40
2456272.442767280
  9
$TDINDWG
 40
8.4494284838
  9
$TDUSRTIMER
 40
8.4494228819
  9
$USRTIMER
 70
     1
  9
$ANGBASE
 50
0.0
  9
$ANGDIR
 70
     0
  9
$PDMODE
 70
     0
  9
$PDSIZE
 40
-3.0
  9
$PLINEWID
 40
0.0
  9
$SPLFRAME
 70
     0
  9
$SPLINETYPE
 70
     6
  9
$SPLINESEGS
 70
     8
  9
$HANDSEED
  5
53B6F
  9
$SURFTAB1
 70
     6
  9
$SURFTAB2
 70
     6
  9
$SURFTYPE
 70
     6
  9
$SURFU
 70
     6
  9
$SURFV
 70
     6
  9
$UCSBASE
  2

  9
$UCSNAME
  2

  9
$UCSORG
 10
0.0
 20
0.0
 30
0.0
  9
$UCSXDIR
 10
1.0
 20
0.0
 30
0.0
  9
$UCSYDIR
 10
0.0
 20
1.0
 30
0.0
  9
$UCSORTHOREF
  2

  9
$UCSORTHOVIEW
 70
     0
  9
$UCSORGTOP
 10
0.0
 20
0.0
 30
0.0
  9
$UCSORGBOTTOM
 10
0.0
 20
0.0
 30
0.0
  9
$UCSORGLEFT
 10
0.0
 20
0.0
 30
0.0
  9
$UCSORGRIGHT
 10
0.0
 20
0.0
 30
0.0
  9
$UCSORGFRONT
 10
0.0
 20
0.0
 30
0.0
  9
$UCSORGBACK
 10
0.0
 20
0.0
 30
0.0
  9
$PUCSBASE
  2

  9
$PUCSNAME
  2

  9
$PUCSORG
 10
0.0
 20
0.0
 30
0.0
  9
$PUCSXDIR
 10
1.0
 20
0.0
 30
0.0
  9
$PUCSYDIR
 10
0.0
 20
1.0
 30
0.0
  9
$PUCSORTHOREF
  2

  9
$PUCSORTHOVIEW
 70
     0
  9
$PUCSORGTOP
 10
0.0
 20
0.0
 30
0.0
  9
$PUCSORGBOTTOM
 10
0.0
 20
0.0
 30
0.0
  9
$PUCSORGLEFT
 10
0.0
 20
0.0
 30
0.0
  9
$PUCSORGRIGHT
 10
0.0
 20
0.0
 30
0.0
  9
$PUCSORGFRONT
 10
0.0
 20
0.0
 30
0.0
  9
$PUCSORGBACK
 10
0.0
 20
0.0
 30
0.0
  9
$USERI1
 70
     0
  9
$USERI2
 70
     0
  9
$USERI3
 70
     0
  9
$USERI4
 70
     0
  9
$USERI5
 70
     0
  9
$USERR1
 40
0.0
  9
$USERR2
 40
0.0
  9
$USERR3
 40
0.0
  9
$USERR4
 40
0.0
  9
$USERR5
 40
0.0
  9
$WORLDVIEW
 70
     1
  9
$SHADEDGE
 70
     3
  9
$SHADEDIF
 70
    70
  9
$TILEMODE
 70
     1
  9
$MAXACTVP
 70
    64
  9
$PINSBASE
 10
0.0
 20
0.0
 30
0.0
  9
$PLIMCHECK
 70
     0
  9
$PEXTMIN
 10
1.000000000000000E+20
 20
1.000000000000000E+20
 30
1.000000000000000E+20
  9
$PEXTMAX
 10
-1.000000000000000E+20
 20
-1.000000000000000E+20
 30
-1.000000000000000E+20
  9
$PLIMMIN
 10
-3.17498779296875
 20
-3.174999952316283
  9
$PLIMMAX
 10
293.4970092773438
 20
206.692492723465
  9
$UNITMODE
 70
     0
  9
$VISRETAIN
 70
     1
  9
$PLINEGEN
 70
     0
  9
$PSLTSCALE
 70
     1
  9
$TREEDEPTH
 70
  3020
  9
$CMLSTYLE
  2
Standard
  9
$CMLJUST
 70
     0
  9
$CMLSCALE
 40
20.0
  9
$PROXYGRAPHICS
 70
     1
  9
$MEASUREMENT
 70
     1
  9
$CELWEIGHT
370
    -1
  9
$ENDCAPS
280
     0
  9
$JOINSTYLE
280
     0
  9
$LWDISPLAY
290
     1
  9
$INSUNITS
 70
     4
  9
$HYPERLINKBASE
  1

  9
$STYLESHEET
  1
monochrome.ctb
  9
$XEDIT
290
     1
  9
$CEPSNTYPE
380
     0
  9
$PSTYLEMODE
290
     1
  9
$FINGERPRINTGUID
  2
{E0FB5660-30B4-4D8A-8C1D-9D7E99D72F0A}
  9
$VERSIONGUID
  2
{46F9FB08-59DD-49A0-9555-35E05B01D9E7}
  9
$EXTNAMES
290
     1
  9
$PSVPSCALE
 40
0.0
  9
$OLESTARTUP
290
     0
  0
ENDSEC
  0
SECTION
  2
CLASSES
  0
CLASS
  1
ACDBDICTIONARYWDFLT
  2
AcDbDictionaryWithDefault
  3
ObjectDBX Classes
 90
        0
280
     0
281
     0
  0
CLASS
  1
ACDBPLACEHOLDER
  2
AcDbPlaceHolder
  3
ObjectDBX Classes
 90
        0
280
     0
281
     0
  0
CLASS
  1
LAYOUT
  2
AcDbLayout
  3
ObjectDBX Classes
 90
        0
280
     0
281
     0
  0
CLASS
  1
AMGSETTINGSOBJ
  2
AmgSettingsObj
  3
"AcadM|Product Description: AutoCAD Mechanical|Company: Autodesk"
 90
        0
280
     0
281
     0
  0
CLASS
  1
ACME_DOCUMENT
  2
AcMeDbDoc
  3
AcMeServices
 90
        0
280
     0
281
     0
  0
CLASS
  1
ACMESCOPE
  2
AcMeScope
  3
AcMeServices
 90
        0
280
     0
281
     0
  0
CLASS
  1
ACMECOMMANDHISTORY
  2
AcMeCommandHistory
  3
AcMeServices
 90
        0
280
     0
281
     0
  0
CLASS
  1
DICTIONARYVAR
  2
AcDbDictionaryVar
  3
ObjectDBX Classes
 90
        0
280
     0
281
     0
  0
CLASS
  1
ACIMSYSVARMAN
  2
AcImSysVarManager
  3
AcMeServices
 90
        0
280
     0
281
     0
  0
CLASS
  1
ACIMREALSYSVAR
  2
AcImRealSysVar
  3
AcMeServices
 90
        0
280
     0
281
     0
  0
CLASS
  1
ACIMINTSYSVAR
  2
AcImIntSysVar
  3
AcMeServices
 90
        0
280
     0
281
     0
  0
CLASS
  1
ACMEDRAWINGMAN
  2
AcMeDrawingMan
  3
AcMeServices
 90
        0
280
     0
281
     0
  0
CLASS
  1
ACMEVIEW
  2
AcMeView
  3
AcMeServices
 90
        0
280
     0
281
     0
  0
CLASS
  1
ACDBENTITYCACHE
  2
AcMeEntityCache
  3
AcMeServices
 90
        0
280
     0
281
     0
  0
CLASS
  1
GSMANAGER
  2
AcMeGSManager
  3
AcMeServices
 90
        0
280
     0
281
     0
  0
CLASS
  1
AMDTINTERNALREACTOR
  2
AmdtInternalReactor
  3
AcMeServices
 90
        0
280
     0
281
     0
  0
CLASS
  1
ACMESTATEMGR
  2
AcMeStateMgr
  3
AcMeServices
 90
        0
280
     0
281
     0
  0
CLASS
  1
ACGREFMASTER
  2
AcGrefMaster
  3
AcAttribServices
 90
        0
280
     0
281
     0
  0
CLASS
  1
ACME_DATABASE
  2
AcMeDbDatabase
  3
AcMeServices
 90
        0
280
     0
281
     0
  0
CLASS
  1
ACRFINSADJUSTERMGR
  2
AcRfInsAdjusterMgr
  3
AcMeServices
 90
        0
280
     0
281
     0
  0
CLASS
  1
ACGREFACADMASTER
  2
AcGrefacadMaster
  3
AcGrefServices
 90
        0
280
     0
281
     0
  0
CLASS
  1
AMIMASTER
  2
AmiMaster
  3
AmiServices
 90
        0
280
     0
281
     0
  0
CLASS
  1
ACMDATADICTIONARY
  2
AcmDataDictionary
  3
"AcmSymBB|Product Description: AutoCAD Mechanical|Company: Autodesk"
 90
        0
280
     0
281
     0
  0
CLASS
  1
ACMDATAENTRYBLOCK
  2
AcmDataEntryBlock
  3
"AcmSymBB|Product Description: AutoCAD Mechanical|Company: Autodesk"
 90
    32768
280
     0
281
     0
  0
CLASS
  1
ACIMSTRSYSVAR
  2
AcImStrSysVar
  3
AcMeServices
 90
        0
280
     0
281
     0
  0
CLASS
  1
ACMSTANDARDISO
  2
AcmStandardISO
  3
"Amdt_StdImp|Product Description: AutoCAD Mechanical|Company: Autodesk"
 90
        0
280
     0
281
     0
  0
CLASS
  1
AMGOBJPROPCFG
  2
AmgObjPropCfg
  3
"AmgLay|Product Description: AutoCAD Mechanical|Company: Autodesk"
 90
        1
280
     0
281
     0
  0
CLASS
  1
AMDTEDGESTANDARDISO
  2
AmdtEdgeStdISO
  3
"Amdt_StdImp|Product Description: AutoCAD Mechanical|Company: Autodesk"
 90
        0
280
     0
281
     0
  0
CLASS
  1
ACMSURFSTANDARDISO
  2
AcmSurfTextStdISO
  3
"Amdt_StdImp|Product Description: AutoCAD Mechanical|Company: Autodesk"
 90
        0
280
     0
281
     0
  0
CLASS
  1
ACMFCFSTANDARDISO
  2
AcmFCFStdISO
  3
"Amdt_StdImp|Product Description: AutoCAD Mechanical|Company: Autodesk"
 90
        0
280
     0
281
     0
  0
CLASS
  1
ACMWELDSTANDARDISO
  2
AcmWeldingStdISO
  3
"Amdt_StdImp|Product Description: AutoCAD Mechanical|Company: Autodesk"
 90
        0
280
     0
281
     0
  0
CLASS
  1
ACMIDSTANDARDISO
  2
AcmIdStdISO
  3
"Amdt_StdImp|Product Description: AutoCAD Mechanical|Company: Autodesk"
 90
        0
280
     0
281
     0
  0
CLASS
  1
ACMDATUMSTANDARDISO
  2
AcmDatumStdISO
  3
"Amdt_StdImp|Product Description: AutoCAD Mechanical|Company: Autodesk"
 90
        0
280
     0
281
     0
  0
CLASS
  1
ACMBOMSTANDARDISO
  2
AcmBOMStdISO
  3
"Amdt_StdImp|Product Description: AutoCAD Mechanical|Company: Autodesk"
 90
        0
280
     0
281
     0
  0
CLASS
  1
ACMDETAILSTANDARDISO
  2
AmdtDetailSymStdISO
  3
"Amdt_StdImp|Product Description: AutoCAD Mechanical|Company: Autodesk"
 90
        0
280
     0
281
     0
  0
CLASS
  1
ACMSECTIONSTANDARDISO
  2
AmdtSectionSymStdISO
  3
"Amdt_StdImp|Product Description: AutoCAD Mechanical|Company: Autodesk"
 90
        0
280
     0
281
     0
  0
CLASS
  1
ACMCENTERLINESTANDARDISO
  2
AmdtCenterLineStdISO
  3
"Amdt_StdImp|Product Description: AutoCAD Mechanical|Company: Autodesk"
 90
        0
280
     0
281
     0
  0
CLASS
  1
ACAMGLAYSTD
  2
AcAmgLayStd
  3
"AmgLay|Product Description: AutoCAD Mechanical|Company: Autodesk"
 90
        0
280
     0
281
     0
  0
CLASS
  1
ACAMGDIMSTD
  2
AcAmgDimStd
  3
"AmgDim|Product Description: AutoCAD Mechanical|Company: Autodesk"
 90
        0
280
     0
281
     0
  0
CLASS
  1
ACAMGTITLESTD
  2
AcAmgTitleStd
  3
"AmgTitle|Product Description: AutoCAD Mechanical|Company: Autodesk"
 90
        0
280
     0
281
     0
  0
CLASS
  1
ACAMGFILTERDAT
  2
AcAmgFilterDat
  3
"AcadM|Product Description: AutoCAD Mechanical|Company: Autodesk"
 90
    32768
280
     0
281
     0
  0
CLASS
  1
LAYER_INDEX
  2
AcDbLayerIndex
  3
ObjectDBX Classes
 90
    32768
280
     0
281
     0
  0
CLASS
  1
IDBUFFER
  2
AcDbIdBuffer
  3
ObjectDBX Classes
 90
    32768
280
     0
281
     0
  0
CLASS
  1
PLOTSETTINGS
  2
AcDbPlotSettings
  3
ObjectDBX Classes
 90
    32768
280
     0
281
     0
  0
CLASS
  1
AMDTFORMULAUPDATEDISPATCHER
  2
AmdtFormulaUpdateDispatcher
  3
AcMeServices
 90
    32768
280
     0
281
     0
  0
CLASS
  1
ACMSTANDARDANSI
  2
AcmStandardANSI
  3
"Amdt_StdImp|Product Description: AutoCAD Mechanical|Company: Autodesk"
 90
    32768
280
     0
281
     0
  0
CLASS
  1
ACMSURFSTANDARDANSI
  2
AcmSurfTextStdANSI
  3
"Amdt_StdImp|Product Description: AutoCAD Mechanical|Company: Autodesk"
 90
    32768
280
     0
281
     0
  0
CLASS
  1
ACMFCFSTANDARDANSI
  2
AcmFCFStdANSI
  3
"Amdt_StdImp|Product Description: AutoCAD Mechanical|Company: Autodesk"
 90
    32768
280
     0
281
     0
  0
CLASS
  1
ACMWELDSTANDARDANSI
  2
AcmWeldingStdANSI
  3
"Amdt_StdImp|Product Description: AutoCAD Mechanical|Company: Autodesk"
 90
    32768
280
     0
281
     0
  0
CLASS
  1
ACMIDSTANDARDANSI
  2
AcmIdStdANSI
  3
"Amdt_StdImp|Product Description: AutoCAD Mechanical|Company: Autodesk"
 90
    32768
280
     0
281
     0
  0
CLASS
  1
ACMDATUMSTANDARDANSI
  2
AcmDatumStdANSI
  3
"Amdt_StdImp|Product Description: AutoCAD Mechanical|Company: Autodesk"
 90
    32768
280
     0
281
     0
  0
CLASS
  1
ACMBOMSTANDARDANSI
  2
AcmBOMStdANSI
  3
"Amdt_StdImp|Product Description: AutoCAD Mechanical|Company: Autodesk"
 90
    32768
280
     0
281
     0
  0
CLASS
  1
ACMDETAILSTANDARDANSI
  2
AmdtDetailSymStdANSI
  3
"Amdt_StdImp|Product Description: AutoCAD Mechanical|Company: Autodesk"
 90
    32768
280
     0
281
     0
  0
CLASS
  1
ACMSECTIONSTANDARDANSI
  2
AmdtSectionSymStdANSI
  3
"Amdt_StdImp|Product Description: AutoCAD Mechanical|Company: Autodesk"
 90
    32768
280
     0
281
     0
  0
CLASS
  1
ACMCENTERLINESTANDARDANSI
  2
AmdtCenterLineStdANSI
  3
"Amdt_StdImp|Product Description: AutoCAD Mechanical|Company: Autodesk"
 90
    32768
280
     0
281
     0
  0
CLASS
  1
ACMBOM
  2
AcmBom
  3
"AcmSymBB|Product Description: AutoCAD Mechanical|Company: Autodesk"
 90
    32768
280
     0
281
     0
  0
CLASS
  1
ACMDATAENTRYPART
  2
AcmDataEntryPart
  3
"AcmSymBB|Product Description: AutoCAD Mechanical|Company: Autodesk"
 90
    32768
280
     0
281
     0
  0
CLASS
  1
ACMPARTREF
  2
AcmPartRef
  3
"AcmSymBB|Product Description: AutoCAD Mechanical|Company: Autodesk"
 90
    35839
280
     0
281
     1
  0
CLASS
  1
ACDBCIRCARCRES
  2
AcDbCircArcRes
  3
AcGrefServices
 90
    32768
280
     0
281
     0
  0
CLASS
  1
ACMBOMROW
  2
AcmBomRow
  3
"AcmSymBB|Product Description: AutoCAD Mechanical|Company: Autodesk"
 90
    32768
280
     0
281
     0
  0
CLASS
  1
ACMBALLOON
  2
AcmBalloon
  3
"AcmSymBB|Product Description: AutoCAD Mechanical|Company: Autodesk"
 90
    35839
280
     0
281
     1
  0
CLASS
  1
AMDTNOTE
  2
AmdtNote
  3
"AcmSymBB|Product Description: AutoCAD Mechanical|Company: Autodesk"
 90
     3071
280
     0
281
     1
  0
CLASS
  1
STDPART2D
  2
AmgStdPart
  3
"g3vace|Class: AmgStdPart|Product Description: AutoCAD Mechanical|Company: Autodesk"
 90
    35839
280
     0
281
     1
  0
CLASS
  1
ACDBSTDPARTRES_LINE
  2
AcDbStdPartRes_Line
  3
"g3vace|Class: AcDbStdPartRes_Line|Product Description: AutoCAD Mechanical|Company: Autodesk"
 90
    32768
280
     0
281
     0
  0
CLASS
  1
ACMDATAENTRY
  2
AcmDataEntry
  3
"AcmSymBB|Product Description: AutoCAD Mechanical|Company: Autodesk"
 90
    32768
280
     0
281
     0
  0
CLASS
  1
ACDBOPPOLYLINERES
  2
AcDbOpPolylineRes
  3
AcGrefServices
 90
    32768
280
     0
281
     0
  0
CLASS
  1
ACMPARTLIST
  2
AcmPartList
  3
"AcmSymBB|Product Description: AutoCAD Mechanical|Company: Autodesk"
 90
    35839
280
     0
281
     1
  0
CLASS
  1
ACDBLINERES
  2
AcDbLineRes
  3
AcGrefServices
 90
    32768
280
     0
281
     0
  0
CLASS
  1
ACRFINSADJ
  2
AcRfInsAdjuster
  3
AcMeServices
 90
    32768
280
     0
281
     0
  0
CLASS
  1
AM_DRAWING_MGR
  2
AcDmDwgMgr
  3
AcMechDwgViewMgmt
 90
        0
280
     0
281
     0
  0
CLASS
  1
AM_DWG_DOCUMENT
  2
AcDmDwgDocument
  3
AcMechDwgViewMgmt
 90
        0
280
     0
281
     0
  0
CLASS
  1
AM_DWG_SHEET
  2
AcDmSheet
  3
AcMechDwgViewMgmt
 90
        0
280
     0
281
     0
  0
CLASS
  1
AM_VIEWDIMPARMAP
  2
AcDmViewDimParMap
  3
AcMechDwgViewMgmt
 90
        0
280
     0
281
     0
  0
CLASS
  1
AM_DWGMGR_NAME
  2
AcDmDwgMgrName
  3
AcMechDwgViewMgmt
 90
        0
280
     0
281
     0
  0
CLASS
  1
AMDTMENUSTATEMGR
  2
AmdtMenuStateMgr
  3
McadcomServices
 90
        0
280
     0
281
     0
  0
CLASS
  1
AMDTMCOMMENUSTATE
  2
AmdtMcomMenuState
  3
McadcomServices
 90
        0
280
     0
281
     0
  0
CLASS
  1
ASAPP
  2
AcAsAppObject
  3
AutoSurfServices
 90
        0
280
     0
281
     0
  0
CLASS
  1
IM_STATIC_MAN
  2
AcImStaticVarManager
  3
AcMeServices
 90
    32768
280
     0
281
     0
  0
CLASS
  1
ACIMDBLSTATICVAR
  2
AcImDblStaticVar
  3
AcMeServices
 90
    32768
280
     0
281
     0
  0
CLASS
  1
ACIMSTRSTATICVAR
  2
AcImStrStaticVar
  3
AcMeServices
 90
    32768
280
     0
281
     0
  0
CLASS
  1
ACIMINTSTATICVAR
  2
AcImIntStaticVar
  3
AcMeServices
 90
    32768
280
     0
281
     0
  0
CLASS
  1
ACASGREFMASTER
  2
AcAsGrefMaster
  3
AutoSurfResolverServices
 90
        0
280
     0
281
     0
  0
CLASS
  1
ACADGREFMODULE
  2
AcAdGrefModule
  3
AdGrefServices
 90
        0
280
     0
281
     0
  0
CLASS
  1
AMDTMAPISURFMOUDULE
  2
AmdtMApiSurfModule
  3
MApiSurfServices
 90
        0
280
     0
281
     0
  0
CLASS
  1
MAPIAMMOUDLE
  2
MApiAmModule
  3
MApiAmServices
 90
        0
280
     0
281
     0
  0
CLASS
  1
AMDTADMENUSTATE
  2
AmdtAdMenuState
  3
DesignerServices
 90
        0
280
     0
281
     0
  0
CLASS
  1
ADAPPL
  2
AcAdAppl
  3
DesignerServices
 90
        0
280
     0
281
     0
  0
CLASS
  1
DEPMGR
  2
AcAdDepMgr
  3
DesignerServices
 90
        0
280
     0
281
     0
  0
CLASS
  1
PARAMMGR
  2
AcAdParamMgr
  3
DesignerServices
 90
        0
280
     0
281
     0
  0
CLASS
  1
PARAMSCOPE
  2
AcAdParamScope
  3
DesignerServices
 90
        0
280
     0
281
     0
  0
CLASS
  1
NAMEDAPPL
  2
AcAdNamedAppl
  3
DesignerServices
 90
        0
280
     0
281
     0
  0
CLASS
  1
ADHNTMPLT
  2
AdHoleNoteTemplateMgr
  3
DesignerServices
 90
    32768
280
     0
281
     0
  0
CLASS
  1
AM_HNTEMPLATE_MGR_NAME
  2
AdHoleNoteTemplateMgrName
  3
DesignerServices
 90
    32768
280
     0
281
     0
  0
CLASS
  1
AMDTDMMENUSTATE
  2
AmdtDmMenuState
  3
AcMechDwgViewMgmt
 90
        0
280
     0
281
     0
  0
CLASS
  1
MAPIADMODULE
  2
MApiAdModule
  3
MApiAdServices
 90
        0
280
     0
281
     0
  0
CLASS
  1
AMDTAMMENUSTATE
  2
AmdtAmMenuState
  3
DesignerAssemblies
 90
        0
280
     0
281
     0
  0
CLASS
  1
ACAMPROJECT
  2
AcAmProject
  3
DesignerAssemblies
 90
        0
280
     0
281
     0
  0
CLASS
  1
ACAMGRCOMPDEF
  2
AcAmGrCompDef
  3
DesignerAssemblies
 90
        0
280
     0
281
     0
  0
CLASS
  1
ACCMCONTEXT
  2
AcCmContext
  3
DesignerAssemblies
 90
        0
280
     0
281
     0
  0
CLASS
  1
ACAMCOMPDEF
  2
AcAmCompDef
  3
DesignerAssemblies
 90
        0
280
     0
281
     0
  0
CLASS
  1
ACAMCOMPDEFMGR
  2
AcAmCompDefMgr
  3
DesignerAssemblies
 90
        0
280
     0
281
     0
  0
CLASS
  1
AMCONTEXTMGR
  2
AcAmContextMgr
  3
DesignerAssemblies
 90
        0
280
     0
281
     0
  0
CLASS
  1
ACAMCONTEXTMODELER
  2
AcAmContextModeler
  3
DesignerAssemblies
 90
        0
280
     0
281
     0
  0
CLASS
  1
CATALOGSTATE
  2
AcAmCatalogState
  3
DesignerAssemblies
 90
        0
280
     0
281
     0
  0
CLASS
  1
ACAMGRCOMPDEFSET
  2
AcAmGrCompDefSet
  3
DesignerAssemblies
 90
        0
280
     0
281
     0
  0
CLASS
  1
AMDTBROWSERDBTAB
  2
AmdtBrowserDbTab
  3
McadcomServices
 90
        0
280
     0
281
     0
  0
CLASS
  1
CBROWSERAPPOBJECT
  2
CBrowserAppObject
  3
McadcomServices
 90
        0
280
     0
281
     0
  0
CLASS
  1
DM_PLACEHOLDER
  2
AcDmSelsetPlaceholder
  3
AcMechDwgViewMgmt
 90
        0
280
     0
281
     0
  0
CLASS
  1
ACMPICKOBJ
  2
AcmPickEnt
  3
"AcmSymBB|Product Description: AutoCAD Mechanical|Company: Autodesk"
 90
    32768
280
     0
281
     1
  0
CLASS
  1
ACMNOTESTANDARDISO
  2
AmdtNoteStdISO
  3
"Amdt_StdImp|Product Description: AutoCAD Mechanical|Company: Autodesk"
 90
        0
280
     0
281
     0
  0
CLASS
  1
ACMNOTESTANDARDANSI
  2
AmdtNoteStdANSI
  3
"Amdt_StdImp|Product Description: AutoCAD Mechanical|Company: Autodesk"
 90
    32768
280
     0
281
     0
  0
CLASS
  1
ACMTHREADLINESTANDARDISO
  2
AmdtThreadLineStdISO
  3
"Amdt_StdImp|Product Description: AutoCAD Mechanical|Company: Autodesk"
 90
        0
280
     0
281
     0
  0
CLASS
  1
ACMTHREADLINESTANDARDANSI
  2
AmdtThreadLineStdANSI
  3
"Amdt_StdImp|Product Description: AutoCAD Mechanical|Company: Autodesk"
 90
    32768
280
     0
281
     0
  0
CLASS
  1
TABLESTYLE
  2
AcDbTableStyle
  3
ObjectDBX Classes
 90
     4095
280
     0
281
     0
  0
CLASS
  1
SORTENTSTABLE
  2
AcDbSortentsTable
  3
ObjectDBX Classes
 90
        0
280
     0
281
     0
  0
CLASS
  1
MATERIAL
  2
AcDbMaterial
  3
ObjectDBX Classes
 90
     1024
280
     0
281
     0
  0
CLASS
  1
VISUALSTYLE
  2
AcDbVisualStyle
  3
ObjectDBX Classes
 90
     4095
280
     0
281
     0
  0
CLASS
  1
ACRFATTGENMGR
  2
AcRfAttGeneralMgr
  3
AcAttribServices
 90
    32768
280
     0
281
     0
  0
CLASS
  1
ACRFOBJATTMGR
  2
AcRfObjAttGroupMgr
  3
AcAttribServices
 90
    32768
280
     0
281
     0
  0
CLASS
  1
ACRFMCADAPIATTHOLDER
  2
AcRfMCADAPIAttHolder
  3
AcAttribServices
 90
    32768
280
     0
281
     0
  0
CLASS
  1
AMDTSYSATTR
  2
AmdtSystemAttribute
  3
AcAttribServices
 90
    32768
280
     0
281
     0
  0
CLASS
  1
ACMTAPERSTANDARDISO
  2
AcmTaperStdISO
  3
"Amdt_StdImp|Product Description: AutoCAD Mechanical|Company: Autodesk"
 90
        0
280
     0
281
     0
  0
CLASS
  1
CAMSSTRUCTBTNSTATE
  2
StructBtnState
  3
L"DesignerAssemblies"
 90
        0
280
     0
281
     0
  0
CLASS
  1
DIMASSOC
  2
AcDbDimAssoc
  3
"AcDbDimAssoc|Product Desc:     AcDim ARX App For Dimension|Company:          Autodesk, Inc.|WEB Address:      www.autodesk.com"
 90
    32768
280
     0
281
     0
  0
CLASS
  1
AMDTNOTETEMPLATEDB
  2
AmdtNoteTemplateDB
  3
AMDT_STDIMP_MODULE_NAME
 90
        0
280
     0
281
     0
  0
CLASS
  1
ACMTAPERSTANDARDANSI
  2
AcmTaperStdANSI
  3
"Amdt_StdImp|Product Description: AutoCAD Mechanical|Company: Autodesk"
 90
    32768
280
     0
281
     0
  0
CLASS
  1
ACAMGHOLECHARTSTDANSI
  2
AcAmgHoleChartStdANSI
  3
ACMSYMBB_MODULE_NAME
 90
    32768
280
     0
281
     0
  0
CLASS
  1
AMDTACMWBLOCKBOMENTITY
  2
AmdtAcmWblockBomEntity
  3
"AcmSymBB|Product Description: AutoCAD Mechanical|Company: Autodesk"
 90
     3071
280
     0
281
     1
  0
CLASS
  1
EXACXREFPANELOBJECT
  2
ExAcXREFPanelObject
  3
EXAC_ESW
 90
    33793
280
     0
281
     0
  0
CLASS
  1
NPOCOLLECTION
  2
AcDbImpNonPersistentObjectsCollection
  3
ObjectDBX Classes
 90
    33921
280
     0
281
     0
  0
CLASS
  1
LARGE_RADIAL_DIMENSION
  2
AcDbRadialDimensionLarge
  3
ObjectDBX Classes
 90
    33793
280
     0
281
     1
  0
CLASS
  1
AMDTEDGESTANDARDISO13715
  2
AmdtEdgeStdISO13715
  3
"Amdt_StdImp|Product Description: AutoCAD Mechanical|Company: Autodesk"
 90
        0
280
     0
281
     0
  0
CLASS
  1
ACAMGHOLECHARTSTDISO
  2
AcAmgHoleChartStdISO
  3
ACMSYMBB_MODULE_NAME
 90
        0
280
     0
281
     0
  0
ENDSEC
  0
SECTION
  2
TABLES
  0
TABLE
  2
VPORT
  5
8
102
{ACAD_XDICTIONARY
360
531FC
102
}
330
0
100
AcDbSymbolTable
 70
     1
  0
VPORT
  5
B0EC
330
8
100
AcDbSymbolTableRecord
100
AcDbViewportTableRecord
  2
*Active
 70
     0
 10
0.0
 20
0.0
 11
1.0
 21
1.0
 12
5919.74946966769
 22
-2204.189896901479
 13
0.0
 23
0.0
 14
2.5
 24
2.5
 15
10.0
 25
10.0
 16
0.0
 26
0.0
 36
1.0
 17
0.0
 27
0.0
 37
0.0
 40
713.7965823538733
 41
1.407124681933842
 42
50.0
 43
-1370.695619172058
 44
-1370.695619172058
 50
0.0
 51
0.0
 71
     0
 72
   100
 73
     1
 74
     3
 75
     0
 76
     0
 77
     0
 78
     0
281
     0
 65
     0
110
0.0
120
0.0
130
0.0
111
1.0
121
0.0
131
0.0
112
0.0
122
1.0
132
0.0
 79
     0
146
0.0
  0
ENDTAB
  0
TABLE
  2
LTYPE
  5
5
330
0
100
AcDbSymbolTable
 70
    34
  0
LTYPE
  5
14
330
5
100
AcDbSymbolTableRecord
100
AcDbLinetypeTableRecord
  2
ByBlock
 70
     0
  3

 72
    65
 73
     0
 40
0.0
  0
LTYPE
  5
15
330
5
100
AcDbSymbolTableRecord
100
AcDbLinetypeTableRecord
  2
ByLayer
 70
     0
  3

 72
    65
 73
     0
 40
0.0
  0
LTYPE
  5
16
330
5
100
AcDbSymbolTableRecord
100
AcDbLinetypeTableRecord
  2
Continuous
 70
     0
  3
Solid line
 72
    65
 73
     0
 40
0.0
  0
LTYPE
  5
4F
330
5
100
AcDbSymbolTableRecord
100
AcDbLinetypeTableRecord
  2
AM_ISO02W050
 70
     0
  3
__ __ __ __ __ __ __ __ __ __ __ __ __ __ __
 72
    65
 73
     2
 40
7.5
 49
6.0
 74
     0
 49
-1.5
 74
     0
  0
LTYPE
  5
52
330
5
100
AcDbSymbolTableRecord
100
AcDbLinetypeTableRecord
  2
Amconstr
 70
     0
  3
_______________________
 72
    65
 73
     2
 40
9999.0
 49
9999.0
 74
     0
 49
0.0
 74
     0
  0
LTYPE
  5
64
330
5
100
AcDbSymbolTableRecord
100
AcDbLinetypeTableRecord
  2
ACISOWELD
 70
     0
  3
_ _ _ _ _
 72
    65
 73
     2
 40
2.0
 49
2.0
 74
     0
 49
-1.0
 74
     0
  0
LTYPE
  5
65
330
5
100
AcDbSymbolTableRecord
100
AcDbLinetypeTableRecord
  2
ACISOTGB
 70
     0
  3
__ . . __ . .
 72
    65
 73
     6
 40
9.0
 49
4.0
 74
     0
 49
-1.0
 74
     0
 49
1.0
 74
     0
 49
-1.0
 74
     0
 49
1.0
 74
     0
 49
-1.0
 74
     0
  0
LTYPE
  5
66
330
5
100
AcDbSymbolTableRecord
100
AcDbLinetypeTableRecord
  2
ACISOTGL
 70
     0
  3
_ _ _ _ _
 72
    65
 73
     2
 40
3.0
 49
2.0
 74
     0
 49
-1.0
 74
     0
  0
LTYPE
  5
69
330
5
100
AcDbSymbolTableRecord
100
AcDbLinetypeTableRecord
  2
CENTER
 70
     0
  3
__ . __
 72
    65
 73
     4
 40
7.0
 49
4.0
 74
     0
 49
-1.0
 74
     0
 49
1.0
 74
     0
 49
-1.0
 74
     0
  0
LTYPE
  5
A6E
330
5
100
AcDbSymbolTableRecord
100
AcDbLinetypeTableRecord
  2
PHANTOM2
 70
     0
  3
Phantom (.5x) ___ _ _ ___ _ _ ___ _ _ ___ _ _
 72
    65
 73
     6
 40
31.75
 49
15.875
 74
     0
 49
-3.174999999999998
 74
     0
 49
3.174999999999998
 74
     0
 49
-3.174999999999998
 74
     0
 49
3.174999999999998
 74
     0
 49
-3.174999999999998
 74
     0
  0
LTYPE
  5
4DED
330
5
100
AcDbSymbolTableRecord
100
AcDbLinetypeTableRecord
  2
中線
 70
     0
  3
___________________
 72
    65
 73
     2
 40
2.0
 49
1.0
 74
     0
 49
1.0
 74
     0
  0
LTYPE
  5
4DF6
330
5
100
AcDbSymbolTableRecord
100
AcDbLinetypeTableRecord
  2
細線
 70
     0
  3
___________________
 72
    65
 73
     2
 40
2.0
 49
1.0
 74
     0
 49
1.0
 74
     0
  0
LTYPE
  5
4DF7
330
5
100
AcDbSymbolTableRecord
100
AcDbLinetypeTableRecord
  2
太線
 70
     0
  3
___________________
 72
    65
 73
     2
 40
2.0
 49
1.0
 74
     0
 49
1.0
 74
     0
  0
LTYPE
  5
4EA7
330
5
100
AcDbSymbolTableRecord
100
AcDbLinetypeTableRecord
  2
文字
 70
     0
  3
_________________
 72
    65
 73
     2
 40
2.0
 49
1.0
 74
     0
 49
1.0
 74
     0
  0
LTYPE
  5
4EA9
330
5
100
AcDbSymbolTableRecord
100
AcDbLinetypeTableRecord
  2
寸法線
 70
     0
  3
________________
 72
    65
 73
     2
 40
2.0
 49
1.0
 74
     0
 49
1.0
 74
     0
  0
LTYPE
  5
4F12
330
5
100
AcDbSymbolTableRecord
100
AcDbLinetypeTableRecord
  2
ハッチング
 70
     0
  3
_________________
 72
    65
 73
     2
 40
2.0
 49
1.0
 74
     0
 49
1.0
 74
     0
  0
LTYPE
  5
5180
330
5
100
AcDbSymbolTableRecord
100
AcDbLinetypeTableRecord
  2
陰線1
 70
     0
  3
__ __ __ __
 72
    65
 73
     2
 40
4.0
 49
2.2
 74
     0
 49
-1.8
 74
     0
  0
LTYPE
  5
5182
330
5
100
AcDbSymbolTableRecord
100
AcDbLinetypeTableRecord
  2
切断線
 70
     0
  3
/\/-/\/-/\/-/\/-/\/-/\/
 72
    65
 73
     2
 40
11.0001
 49
0.0001
 74
     4
 75
   135
340
56
 46
0.04
 50
0.0
 44
0.0
 45
0.0
 49
-11.0
 74
     0
  0
LTYPE
  5
5183
330
5
100
AcDbSymbolTableRecord
100
AcDbLinetypeTableRecord
  2
想像線1
 70
     0
  3
__ __ __ _____ __ __ ____
 72
    65
 73
     6
 40
14.5
 49
6.0
 74
     0
 49
-1.5
 74
     0
 49
2.0
 74
     0
 49
-1.5
 74
     0
 49
2.0
 74
     0
 49
-1.5
 74
     0
  0
LTYPE
  5
5185
330
5
100
AcDbSymbolTableRecord
100
AcDbLinetypeTableRecord
  2
中心線1
 70
     0
  3
___ _ ___ _ ___
 72
    65
 73
     4
 40
18.0
 49
12.0
 74
     0
 49
-2.0
 74
     0
 49
2.0
 74
     0
 49
-2.0
 74
     0
  0
LTYPE
  5
5188
330
5
100
AcDbSymbolTableRecord
100
AcDbLinetypeTableRecord
  2
補助線
 70
     0
  3
______________
 72
    65
 73
     2
 40
2.0
 49
1.0
 74
     0
 49
1.0
 74
     0
  0
LTYPE
  5
6427
330
5
100
AcDbSymbolTableRecord
100
AcDbLinetypeTableRecord
  2
HIDDEN
 70
     0
  3
Hidden __ __ __ __ __ __ __ __ __ __ __ __ __ _
 72
    65
 73
     2
 40
0.375
 49
0.25
 74
     0
 49
-0.125
 74
     0
  0
LTYPE
  5
AC81
330
5
100
AcDbSymbolTableRecord
100
AcDbLinetypeTableRecord
  2
破断線
 70
     0
  3
/\/-/\/-/\/-/\/-/\/-/\/
 72
    65
 73
     2
 40
0.4401
 49
0.0001
 74
     4
 75
   136
340
AC80
 46
0.0016
 50
0.0
 44
0.0
 45
0.0
 49
-0.4400000000000002
 74
     0
  0
LTYPE
  5
AC9E
330
5
100
AcDbSymbolTableRecord
100
AcDbLinetypeTableRecord
  2
Amzigzag
 70
     0
  3
/\/-/\/-/\/-/\/-/\/-/\/
 72
    65
 73
     2
 40
11.0001
 49
0.0001
 74
     4
 75
   135
340
56
 46
0.04
 50
0.0
 44
0.0
 45
0.0
 49
-11.0
 74
     0
  0
LTYPE
  5
AF0F
330
5
100
AcDbSymbolTableRecord
100
AcDbLinetypeTableRecord
  2
genzigzag
 70
     0
  3
/\/-/\/-/\/-/\/-/\/-/\/
 72
    65
 73
     2
 40
12.0001
 49
0.0001
 74
     4
 75
   135
340
AC80
 46
2.0
 50
0.0
 44
0.0
 45
0.0
 49
-12.0
 74
     0
  0
LTYPE
  5
AF95
330
5
100
AcDbSymbolTableRecord
100
AcDbLinetypeTableRecord
  2
AM_ISO08W050
 70
     0
  3
____ . ____ . ____ . ____ . ____ . ____ . ____
 72
    65
 73
     4
 40
18.0
 49
12.0
 74
     0
 49
-1.5
 74
     0
 49
3.0
 74
     0
 49
-1.5
 74
     0
  0
LTYPE
  5
AF96
330
5
100
AcDbSymbolTableRecord
100
AcDbLinetypeTableRecord
  2
AM_ISO09W050
 70
     0
  3
_____ . . _____ . . _____ . . ____ .. ____
 72
    65
 73
     6
 40
22.5
 49
12.0
 74
     0
 49
-1.5
 74
     0
 49
3.0
 74
     0
 49
-1.5
 74
     0
 49
3.0
 74
     0
 49
-1.5
 74
     0
  0
LTYPE
  5
AF97
330
5
100
AcDbSymbolTableRecord
100
AcDbLinetypeTableRecord
  2
AM_ISO08W050x2
 70
     0
  3
__ . __ . __ . __ . __ . __
 72
    65
 73
     4
 40
9.0
 49
6.0
 74
     0
 49
-0.75
 74
     0
 49
1.5
 74
     0
 49
-0.75
 74
     0
  0
LTYPE
  5
AF98
330
5
100
AcDbSymbolTableRecord
100
AcDbLinetypeTableRecord
  2
AM_ISO02W050x2
 70
     0
  3
 _ _ _ _ _ _ _ _ _ _ _ _
 72
    65
 73
     2
 40
3.75
 49
3.0
 74
     0
 49
-0.75
 74
     0
  0
LTYPE
  5
1D53A
330
5
100
AcDbSymbolTableRecord
100
AcDbLinetypeTableRecord
  2
DASHED
 70
     0
  3
__ __ __ __ __ __ __ __ __ __ __ __ __ __ __
 72
    65
 73
     2
 40
3.5
 49
2.0
 74
     0
 49
-1.5
 74
     0
  0
LTYPE
  5
1D53B
330
5
100
AcDbSymbolTableRecord
100
AcDbLinetypeTableRecord
  2
CENTER2
 70
     0
  3
Center (.5x) ___ _ ___ _ ___ _ ___ _ ___ _ ___
 72
    65
 73
     4
 40
1.125
 49
0.75
 74
     0
 49
-0.125
 74
     0
 49
0.125
 74
     0
 49
-0.125
 74
     0
  0
LTYPE
  5
1D53C
330
5
100
AcDbSymbolTableRecord
100
AcDbLinetypeTableRecord
  2
HIDDEN2
 70
     0
  3
Hidden (.5x) _ _ _ _ _ _ _ _ _ _ _ _ _ _ _ _ _
 72
    65
 73
     2
 40
0.1875
 49
0.125
 74
     0
 49
-0.0625
 74
     0
  0
LTYPE
  5
1D53D
330
5
100
AcDbSymbolTableRecord
100
AcDbLinetypeTableRecord
  2
Amzigzag2
 70
     0
  3
/\/-/\/-/\/-/\/-/\/-/\/
 72
    65
 73
     2
 40
0.4401
 49
0.0001
 74
     4
 75
   136
340
AC80
 46
0.0016
 50
0.0
 44
0.0
 45
0.0
 49
-0.4400000000000002
 74
     0
  0
LTYPE
  5
1D53E
330
5
100
AcDbSymbolTableRecord
100
AcDbLinetypeTableRecord
  2
ACANSTGB
 70
     0
  3
__ . . __ . .
 72
    65
 73
     6
 40
0.35433070866
 49
0.15748031496
 74
     0
 49
-0.03937007874
 74
     0
 49
0.03937007874
 74
     0
 49
-0.03937007874
 74
     0
 49
0.03937007874
 74
     0
 49
-0.03937007874
 74
     0
  0
LTYPE
  5
1D53F
330
5
100
AcDbSymbolTableRecord
100
AcDbLinetypeTableRecord
  2
ACANSTGL
 70
     0
  3
_ _ _ _ _
 72
    65
 73
     2
 40
0.11811023622
 49
0.07874015748
 74
     0
 49
-0.03937007874
 74
     0
  0
LTYPE
  5
3215C
330
5
100
AcDbSymbolTableRecord
100
AcDbLinetypeTableRecord
  2
PHANTOM
 70
     0
  3
_____ _ _ _____ _ _ _____ _ _ _____ _ _ ____  
 72
    65
 73
     6
 40
15.5
 49
8.0
 74
     0
 49
-1.5
 74
     0
 49
1.5
 74
     0
 49
-1.5
 74
     0
 49
1.5
 74
     0
 49
-1.5
 74
     0
  0
ENDTAB
  0
TABLE
  2
LAYER
  5
2
102
{ACAD_XDICTIONARY
360
3F95
102
}
330
0
100
AcDbSymbolTable
 70
    29
  0
LAYER
  5
10
330
2
100
AcDbSymbolTableRecord
100
AcDbLayerTableRecord
  2
0
 70
     0
 62
     7
  6
Continuous
370
    -3
390
F
  0
LAYER
  5
6D1
330
2
100
AcDbSymbolTableRecord
100
AcDbLayerTableRecord
  2
Defpoints
 70
     0
 62
     7
  6
Continuous
290
     0
370
    -3
390
F
  0
LAYER
  5
5F85
330
2
100
AcDbSymbolTableRecord
100
AcDbLayerTableRecord
  2
AM_0
 70
     0
 62
     7
  6
中線
370
    30
390
F
1001
AcAecLayerStandard
1000

1000

  0
LAYER
  5
AC9F
330
2
100
AcDbSymbolTableRecord
100
AcDbLayerTableRecord
  2
size
 70
     0
 62
     5
  6
Continuous
290
     0
370
    25
390
F
  0
LAYER
  5
ACA0
330
2
100
AcDbSymbolTableRecord
100
AcDbLayerTableRecord
  2
waku
 70
     0
 62
     7
  6
Continuous
370
    35
390
F
  0
LAYER
  5
ACA1
330
2
100
AcDbSymbolTableRecord
100
AcDbLayerTableRecord
  2
AM_6
 70
     0
 62
     2
  6
文字
370
    13
390
F
1001
AcAecLayerStandard
1000

1000

  0
LAYER
  5
ACC8
330
2
100
AcDbSymbolTableRecord
100
AcDbLayerTableRecord
  2
hyomoji
 70
     0
 62
     2
  6
Continuous
370
    13
390
F
  0
LAYER
  5
ACC9
330
2
100
AcDbSymbolTableRecord
100
AcDbLayerTableRecord
  2
hyosen1
 70
     0
 62
     1
  6
Continuous
370
    25
390
F
  0
LAYER
  5
ACCA
330
2
100
AcDbSymbolTableRecord
100
AcDbLayerTableRecord
  2
hyosen2
 70
     0
 62
     1
  6
Continuous
370
    13
390
F
  0
LAYER
  5
AD60
330
2
100
AcDbSymbolTableRecord
100
AcDbLayerTableRecord
  2
AM_1
 70
     0
 62
    30
  6
太線
370
    40
390
F
1001
AcAecLayerStandard
1000

1000

  0
LAYER
  5
AD64
330
2
100
AcDbSymbolTableRecord
100
AcDbLayerTableRecord
  2
AM_2
 70
     0
 62
     1
  6
細線
370
     9
390
F
1001
AcAecLayerStandard
1000

1000

  0
LAYER
  5
AD67
330
2
100
AcDbSymbolTableRecord
100
AcDbLayerTableRecord
  2
AM_3
 70
     0
 62
     6
  6
陰線1
370
     9
390
F
1001
AcAecLayerStandard
1000

1000

  0
LAYER
  5
AD68
330
2
100
AcDbSymbolTableRecord
100
AcDbLayerTableRecord
  2
AM_5
 70
     0
 62
     3
  6
寸法線
370
     9
390
F
1001
AcAecLayerStandard
1000

1000

  0
LAYER
  5
AD69
330
2
100
AcDbSymbolTableRecord
100
AcDbLayerTableRecord
  2
AM_7
 70
     0
 62
     4
  6
中心線1
370
     9
390
F
1001
AcAecLayerStandard
1000

1000

  0
LAYER
  5
AD6A
330
2
100
AcDbSymbolTableRecord
100
AcDbLayerTableRecord
  2
AM_8
 70
     0
 62
     1
  6
ハッチング
370
     9
390
F
1001
AcAecLayerStandard
1000

1000

  0
LAYER
  5
AD6E
330
2
100
AcDbSymbolTableRecord
100
AcDbLayerTableRecord
  2
AM_10
 70
     0
 62
     7
  6
切断線
370
    13
390
F
1001
AcAecLayerStandard
1000

1000

  0
LAYER
  5
AD6F
330
2
100
AcDbSymbolTableRecord
100
AcDbLayerTableRecord
  2
AM_11
 70
     0
 62
     2
  6
想像線1
370
     9
390
F
1001
AcAecLayerStandard
1000

1000

  0
LAYER
  5
B1B6
330
2
100
AcDbSymbolTableRecord
100
AcDbLayerTableRecord
  2
AM_CL
 70
     0
 62
     1
  6
Amconstr
370
    15
390
F
1001
AcAecLayerStandard
1000

1000

  0
LAYER
  5
B2EB
330
2
100
AcDbSymbolTableRecord
100
AcDbLayerTableRecord
  2
AM_14
 70
     0
 62
     5
  6
細線
370
     9
390
F
1001
AcAecLayerStandard
1000

1000

  0
LAYER
  5
B2EC
330
2
100
AcDbSymbolTableRecord
100
AcDbLayerTableRecord
  2
AM_15
 70
     0
 62
     6
  6
陰線1
370
     9
390
F
1001
AcAecLayerStandard
1000

1000

  0
LAYER
  5
CA46
330
2
100
AcDbSymbolTableRecord
100
AcDbLayerTableRecord
  2
001本体
 70
     0
 62
   121
  6
中線
370
    30
390
F
1001
AcAecLayerStandard
1000

1000

  0
LAYER
  5
EB4F
330
2
100
AcDbSymbolTableRecord
100
AcDbLayerTableRecord
  2
AM_4
 70
     0
 62
     3
  6
補助線
370
     9
390
F
1001
AcAecLayerStandard
1000

1000

  0
LAYER
  5
19759
330
2
100
AcDbSymbolTableRecord
100
AcDbLayerTableRecord
  2
000確認事項
 70
     0
 62
   130
  6
中線
370
    30
390
F
1001
AcAecLayerStandard
1000

1000

  0
LAYER
  5
1E1B6
330
2
100
AcDbSymbolTableRecord
100
AcDbLayerTableRecord
  2
AM_12
 70
     0
 62
     7
  6
Continuous
290
     0
370
    15
390
F
  0
LAYER
  5
24E2B
330
2
100
AcDbSymbolTableRecord
100
AcDbLayerTableRecord
  2
000済
 70
     0
 62
    50
  6
中線
370
    30
390
F
1001
AcAecLayerStandard
1000

1000

  0
LAYER
  5
4B3E6
330
2
100
AcDbSymbolTableRecord
100
AcDbLayerTableRecord
  2
アーム軌跡-AM_11
 70
     0
 62
     2
  6
想像線1
370
    15
390
F
  0
LAYER
  5
523C1
330
2
100
AcDbSymbolTableRecord
100
AcDbLayerTableRecord
  2
00ブラケット
 70
     0
 62
   150
  6
中線
370
    30
390
F
1001
AcAecLayerStandard
1000

1000

  0
LAYER
  5
52FFD
330
2
100
AcDbSymbolTableRecord
100
AcDbLayerTableRecord
  2
06取付足
 70
     0
 62
   211
  6
中線
370
    30
390
F
1001
AcAecLayerStandard
1000

1000

  0
LAYER
  5
53047
330
2
100
AcDbSymbolTableRecord
100
AcDbLayerTableRecord
  2
006固定ビス
 70
     0
 62
    30
  6
中線
370
    30
390
F
1001
AcAecLayerStandard
1000

1000

  0
ENDTAB
  0
TABLE
  2
STYLE
  5
3
330
0
100
AcDbSymbolTable
 70
    12
  0
STYLE
  5
11
330
3
100
AcDbSymbolTableRecord
100
AcDbTextStyleTableRecord
  2
STANDARD
 70
     0
 40
0.0
 41
0.7
 50
0.0
 71
     0
 42
3.5
  3
romans.shx
  4
extfont.shx
  0
STYLE
  5
56
330
3
100
AcDbSymbolTableRecord
100
AcDbTextStyleTableRecord
  2

 70
     1
 40
0.0
 41
1.0
 50
0.0
 71
     0
 42
2.5
  3
ltypeshp.shx
  4

  0
STYLE
  5
58
330
3
100
AcDbSymbolTableRecord
100
AcDbTextStyleTableRecord
  2
ACISOTS
 70
     0
 40
1.0
 41
1.0
 50
0.0
 71
     0
 42
2.5
  3
isocp.shx
  4
extfont.shx
  0
STYLE
  5
63
330
3
100
AcDbSymbolTableRecord
100
AcDbTextStyleTableRecord
  2
ACISOGDT
 70
     0
 40
0.0
 41
1.0
 50
0.0
 71
     0
 42
2.5
  3
amgdt.shx
  4

  0
STYLE
  5
A74
330
3
100
AcDbSymbolTableRecord
100
AcDbTextStyleTableRecord
  2
DIM
 70
     0
 40
0.0
 41
1.0
 50
0.0
 71
     0
 42
2.5
  3
monotxt.shx
  4
extfont.shx
  0
STYLE
  5
AC80
330
3
100
AcDbSymbolTableRecord
100
AcDbTextStyleTableRecord
  2

 70
     1
 40
0.0
 41
1.0
 50
0.0
 71
     0
 42
3.2
  3
genltshp.shx
  4

  0
STYLE
  5
CA48
330
3
100
AcDbSymbolTableRecord
100
AcDbTextStyleTableRecord
  2
横書き
 70
     0
 40
0.0
 41
1.0
 50
0.0
 71
     0
 42
3.5
  3
TXT.shx
  4
bigfont.shx
  0
STYLE
  5
CA49
330
3
100
AcDbSymbolTableRecord
100
AcDbTextStyleTableRecord
  2
横書き2
 70
     0
 40
0.0
 41
1.0
 50
0.0
 71
     0
 42
4.0
  3
TXT.shx
  4
extfont2.shx
  0
STYLE
  5
CA4A
330
3
100
AcDbSymbolTableRecord
100
AcDbTextStyleTableRecord
  2
明朝
 70
     0
 40
0.0
 41
1.0
 50
0.0
 71
     0
 42
3.0
  3
MS Mincho.ttf
  4

1001
ACAD
1000
MS Mincho
1071
    32785
  0
STYLE
  5
1D540
330
3
100
AcDbSymbolTableRecord
100
AcDbTextStyleTableRecord
  2
ACANSTS
 70
     0
 40
1.0
 41
1.0
 50
0.0
 71
     0
 42
3.2
  3
romans.shx
  4
extfont.shx
  0
STYLE
  5
1D541
330
3
100
AcDbSymbolTableRecord
100
AcDbTextStyleTableRecord
  2
ACANSGDT
 70
     0
 40
0.0
 41
1.0
 50
0.0
 71
     0
 42
3.2
  3
amgdt.shx
  4

  0
ENDTAB
  0
TABLE
  2
VIEW
  5
6
330
0
100
AcDbSymbolTable
 70
     6
  0
VIEW
  5
AE1
330
6
100
AcDbSymbolTableRecord
100
AcDbViewTableRecord
  2
AM_VIEW1
 70
     0
 40
148.5
 10
1876.338856879554
 20
-5865.134660833434
 41
282.4136094674557
 11
0.0
 21
0.0
 31
1.0
 12
0.0
 22
0.0
 32
0.0
 42
50.0
 43
-1370.695619172058
 44
-1370.695619172058
 50
0.0
 71
     0
281
     0
 72
     0
  0
VIEW
  5
AE2
330
6
100
AcDbSymbolTableRecord
100
AcDbViewTableRecord
  2
AM_VIEW2
 70
     0
 40
148.5
 10
2013.925247412098
 20
-5865.134660833434
 41
282.4136094674557
 11
0.0
 21
0.0
 31
1.0
 12
0.0
 22
0.0
 32
0.0
 42
50.0
 43
-1370.695619172058
 44
-1370.695619172058
 50
0.0
 71
     0
281
     0
 72
     0
  0
VIEW
  5
AE3
330
6
100
AcDbSymbolTableRecord
100
AcDbViewTableRecord
  2
AM_VIEW3
 70
     0
 40
148.5
 10
1876.338856879554
 20
-6013.634660833434
 41
282.4136094674557
 11
0.0
 21
0.0
 31
1.0
 12
0.0
 22
0.0
 32
0.0
 42
50.0
 43
-1370.695619172058
 44
-1370.695619172058
 50
0.0
 71
     0
281
     0
 72
     0
  0
VIEW
  5
AE4
330
6
100
AcDbSymbolTableRecord
100
AcDbViewTableRecord
  2
AM_VIEW4
 70
     0
 40
148.5
 10
2013.925247412098
 20
-6013.634660833434
 41
282.4136094674557
 11
0.0
 21
0.0
 31
1.0
 12
0.0
 22
0.0
 32
0.0
 42
50.0
 43
-1370.695619172058
 44
-1370.695619172058
 50
0.0
 71
     0
281
     0
 72
     0
  0
VIEW
  5
AE5
330
6
100
AcDbSymbolTableRecord
100
AcDbViewTableRecord
  2
AM_VIEW5
 70
     0
 40
148.5
 10
1945.132052145826
 20
-5939.384660833434
 41
282.4136094674557
 11
0.0
 21
0.0
 31
1.0
 12
0.0
 22
0.0
 32
0.0
 42
50.0
 43
-1370.695619172058
 44
-1370.695619172058
 50
0.0
 71
     0
281
     0
 72
     0
  0
VIEW
  5
AE6
330
6
100
AcDbSymbolTableRecord
100
AcDbViewTableRecord
  2
AM_VIEW6
 70
     0
 40
296.9970300000004
 10
1945.132052145826
 20
-5939.384660833434
 41
564.8215706627218
 11
0.0
 21
0.0
 31
1.0
 12
0.0
 22
0.0
 32
0.0
 42
50.0
 43
-1370.695619172058
 44
-1370.695619172058
 50
0.0
 71
     0
281
     0
 72
     0
  0
ENDTAB
  0
TABLE
  2
UCS
  5
7
330
0
100
AcDbSymbolTable
 70
     0
  0
ENDTAB
  0
TABLE
  2
APPID
  5
9
330
0
100
AcDbSymbolTable
 70
    60
  0
APPID
  5
12
330
9
100
AcDbSymbolTableRecord
100
AcDbRegAppTableRecord
  2
ACAD
 70
     0
  0
APPID
  5
30
330
9
100
AcDbSymbolTableRecord
100
AcDbRegAppTableRecord
  2
MCAD_NO_VIS
 70
     0
  0
APPID
  5
31
330
9
100
AcDbSymbolTableRecord
100
AcDbRegAppTableRecord
  2
ACAD_TEMP_GRAPHIC
 70
     0
  0
APPID
  5
44
330
9
100
AcDbSymbolTableRecord
100
AcDbRegAppTableRecord
  2
ACATTRIBSERVICES
 70
     0
  0
APPID
  5
7A1
330
9
100
AcDbSymbolTableRecord
100
AcDbRegAppTableRecord
  2
GENIUS_GENDIMSH_14
 70
     0
  0
APPID
  5
A49
330
9
100
AcDbSymbolTableRecord
100
AcDbRegAppTableRecord
  2
GENIUS_GENREC_14
 70
     0
  0
APPID
  5
A4A
330
9
100
AcDbSymbolTableRecord
100
AcDbRegAppTableRecord
  2
GENIUS_GENOBJ-N-REC_13
 70
     0
  0
APPID
  5
A4B
330
9
100
AcDbSymbolTableRecord
100
AcDbRegAppTableRecord
  2
GENIUS_GENODEF_13
 70
     0
  0
APPID
  5
A4C
330
9
100
AcDbSymbolTableRecord
100
AcDbRegAppTableRecord
  2
DCO15
 70
     0
  0
APPID
  5
ADC
330
9
100
AcDbSymbolTableRecord
100
AcDbRegAppTableRecord
  2
GENIUS_GENOLIS_13
 70
     0
  0
APPID
  5
ADD
330
9
100
AcDbSymbolTableRecord
100
AcDbRegAppTableRecord
  2
GENIUS_GENOENT_13
 70
     0
  0
APPID
  5
ADE
330
9
100
AcDbSymbolTableRecord
100
AcDbRegAppTableRecord
  2
GENIUS_GENOBJ-N-TIT_13
 70
     0
  0
APPID
  5
ADF
330
9
100
AcDbSymbolTableRecord
100
AcDbRegAppTableRecord
  2
GENIUS_GENTITLE_13
 70
     0
  0
APPID
  5
AE0
330
9
100
AcDbSymbolTableRecord
100
AcDbRegAppTableRecord
  2
GENIUS_GENOREF_13
 70
     0
  0
APPID
  5
AE7
330
9
100
AcDbSymbolTableRecord
100
AcDbRegAppTableRecord
  2
GENIUS_GENSCREG_15
 70
     0
  0
APPID
  5
AE8
330
9
100
AcDbSymbolTableRecord
100
AcDbRegAppTableRecord
  2
GENIUS_GENOBJ-N-SDF_13
 70
     0
  0
APPID
  5
FAF
330
9
100
AcDbSymbolTableRecord
100
AcDbRegAppTableRecord
  2
GENIUS_GENBLLY_14
 70
     0
  0
APPID
  5
FB0
330
9
100
AcDbSymbolTableRecord
100
AcDbRegAppTableRecord
  2
GENIUS_GENTRA_14
 70
     0
  0
APPID
  5
1285
330
9
100
AcDbSymbolTableRecord
100
AcDbRegAppTableRecord
  2
GENIUS_GENDTOL_13
 70
     0
  0
APPID
  5
142D
330
9
100
AcDbSymbolTableRecord
100
AcDbRegAppTableRecord
  2
GENIUS_GENOBJ-N-CEN_13
 70
     0
  0
APPID
  5
1AB5
330
9
100
AcDbSymbolTableRecord
100
AcDbRegAppTableRecord
  2
GENIUS_GENOBJ-N-CRS_13
 70
     0
  0
APPID
  5
1B36
330
9
100
AcDbSymbolTableRecord
100
AcDbRegAppTableRecord
  2
GENIUS_GENOBJ-N-HTC_13
 70
     0
  0
APPID
  5
1B37
330
9
100
AcDbSymbolTableRecord
100
AcDbRegAppTableRecord
  2
GENIUS_GENHATCH_13
 70
     0
  0
APPID
  5
216D
330
9
100
AcDbSymbolTableRecord
100
AcDbRegAppTableRecord
  2
GENIUS_GENOBJ-N-FIL_13
 70
     0
  0
APPID
  5
2356
330
9
100
AcDbSymbolTableRecord
100
AcDbRegAppTableRecord
  2
GEVID990412420
 70
     0
  0
APPID
  5
2357
330
9
100
AcDbSymbolTableRecord
100
AcDbRegAppTableRecord
  2
GEVDC
 70
     0
  0
APPID
  5
2358
330
9
100
AcDbSymbolTableRecord
100
AcDbRegAppTableRecord
  2
GEVCON
 70
     0
  0
APPID
  5
235B
330
9
100
AcDbSymbolTableRecord
100
AcDbRegAppTableRecord
  2
GEVRADREF
 70
     0
  0
APPID
  5
2360
330
9
100
AcDbSymbolTableRecord
100
AcDbRegAppTableRecord
  2
GENIUS_GENBH_13
 70
     0
  0
APPID
  5
2362
330
9
100
AcDbSymbolTableRecord
100
AcDbRegAppTableRecord
  2
GENIUS_GENOBJ-NBEHI-BHF_13
 70
     0
  0
APPID
  5
2364
330
9
100
AcDbSymbolTableRecord
100
AcDbRegAppTableRecord
  2
GENIUS_GENOBJ-NBEHI-BHB_13
 70
     0
  0
APPID
  5
2379
330
9
100
AcDbSymbolTableRecord
100
AcDbRegAppTableRecord
  2
GENIUS_GENOBJ-F-SCPASSM_13
 70
     0
  0
APPID
  5
3D74
330
9
100
AcDbSymbolTableRecord
100
AcDbRegAppTableRecord
  2
GENIUS_GENDIM_13
 70
     0
  0
APPID
  5
3D76
330
9
100
AcDbSymbolTableRecord
100
AcDbRegAppTableRecord
  2
GENIUS_GE3DTOL_13
 70
     0
  0
APPID
  5
3D9C
330
9
100
AcDbSymbolTableRecord
100
AcDbRegAppTableRecord
  2
AD_DRAW
 70
     0
  0
APPID
  5
3DE8
330
9
100
AcDbSymbolTableRecord
100
AcDbRegAppTableRecord
  2
ASURF_PCURVE_APPNAME
 70
     0
  0
APPID
  5
3DED
330
9
100
AcDbSymbolTableRecord
100
AcDbRegAppTableRecord
  2
AMG_3D2D_5.0
 70
     0
  0
APPID
  5
3E1B
330
9
100
AcDbSymbolTableRecord
100
AcDbRegAppTableRecord
  2
DESIGNERASSEMBLIES
 70
     0
  0
APPID
  5
3E20
330
9
100
AcDbSymbolTableRecord
100
AcDbRegAppTableRecord
  2
ACADM_DIM_EDIT
 70
     0
  0
APPID
  5
3E21
330
9
100
AcDbSymbolTableRecord
100
AcDbRegAppTableRecord
  2
AMDT_DM_ADJ
 70
     0
  0
APPID
  5
4143
330
9
100
AcDbSymbolTableRecord
100
AcDbRegAppTableRecord
  2
GENIUS_GENFIL_13
 70
     0
  0
APPID
  5
4144
330
9
100
AcDbSymbolTableRecord
100
AcDbRegAppTableRecord
  2
GENIUS_GENOBJ-N-CHA_13
 70
     0
  0
APPID
  5
4E17
330
9
100
AcDbSymbolTableRecord
100
AcDbRegAppTableRecord
  2
GEVID1008153417
 70
     0
  0
APPID
  5
4E58
330
9
100
AcDbSymbolTableRecord
100
AcDbRegAppTableRecord
  2
GEVID1008153418
 70
     0
  0
APPID
  5
4E5E
330
9
100
AcDbSymbolTableRecord
100
AcDbRegAppTableRecord
  2
GEVID1008153419
 70
     0
  0
APPID
  5
4E64
330
9
100
AcDbSymbolTableRecord
100
AcDbRegAppTableRecord
  2
GEVID1008153420
 70
     0
  0
APPID
  5
4E75
330
9
100
AcDbSymbolTableRecord
100
AcDbRegAppTableRecord
  2
GEVID1008153421
 70
     0
  0
APPID
  5
4EB7
330
9
100
AcDbSymbolTableRecord
100
AcDbRegAppTableRecord
  2
GENIUS_AMGTXT_16
 70
     0
  0
APPID
  5
7645
330
9
100
AcDbSymbolTableRecord
100
AcDbRegAppTableRecord
  2
GENIUS_GENOBJ-N-DIM_13
 70
     0
  0
APPID
  5
AAD0
330
9
100
AcDbSymbolTableRecord
100
AcDbRegAppTableRecord
  2
ACAD_DSTYLE_DIMARC_LENGTH_SYMBOL
 70
     0
  0
APPID
  5
AAD1
330
9
100
AcDbSymbolTableRecord
100
AcDbRegAppTableRecord
  2
ACAD_DSTYLE_DIMJOGGED_JOGANGLE_SYMBOL
 70
     0
  0
APPID
  5
AAFD
330
9
100
AcDbSymbolTableRecord
100
AcDbRegAppTableRecord
  2
ACAD_PSEXT
 70
     0
  0
APPID
  5
AD61
330
9
100
AcDbSymbolTableRecord
100
AcDbRegAppTableRecord
  2
AcAecLayerStandard
 70
     0
  0
APPID
  5
AEE3
330
9
100
AcDbSymbolTableRecord
100
AcDbRegAppTableRecord
  2
ACAD_EXEMPT_FROM_CAD_STANDARDS
 70
     0
  0
APPID
  5
B1BE
330
9
100
AcDbSymbolTableRecord
100
AcDbRegAppTableRecord
  2
GENIUS_GENCEN_19
 70
     0
  0
APPID
  5
B4DF
330
9
100
AcDbSymbolTableRecord
100
AcDbRegAppTableRecord
  2
ACAD_MLEADERVER
 70
     0
  0
APPID
  5
CA4C
330
9
100
AcDbSymbolTableRecord
100
AcDbRegAppTableRecord
  2
ACAD_DSTYLE_DIMRADIAL_EXTENSION
 70
     0
  0
APPID
  5
1ED6D
330
9
100
AcDbSymbolTableRecord
100
AcDbRegAppTableRecord
  2
ACAD_DSTYLE_DIMINSPECT
 70
     0
  0
APPID
  5
219D8
330
9
100
AcDbSymbolTableRecord
100
AcDbRegAppTableRecord
  2
ACDBBLOCKREPETAG
 70
     0
  0
APPID
  5
219D9
330
9
100
AcDbSymbolTableRecord
100
AcDbRegAppTableRecord
  2
AcDbDynamicBlockGUID
 70
     0
  0
ENDTAB
  0
TABLE
  2
DIMSTYLE
  5
A
330
0
100
AcDbSymbolTable
 70
    31
100
AcDbDimStyleTable
 71
     1
340
2515
  0
DIMSTYLE
105
A76
330
A
100
AcDbSymbolTableRecord
100
AcDbDimStyleTableRecord
  2
STANDARD
 70
     0
 41
3.0
 42
1.0
 43
7.0
 44
2.0
 73
     0
 74
     0
 77
     1
140
2.799999999999998
141
0.0
143
0.0394
147
0.7
171
     4
172
     1
173
     1
176
     3
177
     3
178
     2
271
     3
272
     3
273
     8
274
     4
289
     0
340
A74
341
A66
343
A66
344
A66
  0
DIMSTYLE
105
2515
330
A
100
AcDbSymbolTableRecord
100
AcDbDimStyleTableRecord
  2
SYS
 70
     0
  4
"
 41
1.0
 42
1.0
 43
10.0
 44
1.0
 47
0.1
 48
0.1
 73
     0
 74
     0
 77
     1
 78
     8
 79
     2
140
3.5
141
0.0
143
0.0393701
146
0.71
147
1.5
172
     1
176
   256
177
   256
178
     7
271
     2
272
     2
283
     0
284
     8
340
11
371
    -1
372
    -1
1001
ACAD_DSTYLE_DIMJOGGED_JOGANGLE_SYMBOL
1070
   384
1040
0.7853981633974483
1001
ACAD_DSTYLE_DIMARC_LENGTH_SYMBOL
1070
   379
1070
     1
  0
DIMSTYLE
105
2516
102
{ACAD_REACTORS
330
5245A
330
53008
330
53594
330
5370B
330
53A3E
102
}
330
A
100
AcDbSymbolTableRecord
100
AcDbDimStyleTableRecord
  2
SYS$3
 70
     0
  4
"
 41
2.0
 42
1.0
 43
10.0
 44
1.0
 47
0.1
 48
0.1
 73
     0
 77
     1
 78
     8
 79
     2
140
3.2
141
0.0
143
0.0393701
146
0.71
147
1.0
176
   256
177
   256
178
     2
271
     2
272
     2
283
     0
284
     8
288
     1
340
11
342
A66
371
    -1
372
    -1
1001
ACAD_DSTYLE_DIMJOGGED_JOGANGLE_SYMBOL
1070
   384
1040
0.7853981633974483
1001
ACAD_DSTYLE_DIMARC_LENGTH_SYMBOL
1070
   379
1070
     1
  0
DIMSTYLE
105
2517
330
A
100
AcDbSymbolTableRecord
100
AcDbDimStyleTableRecord
  2
SYS$4
 70
     0
  4
"
 41
2.0
 42
1.0
 43
10.0
 44
1.0
 47
0.1
 48
0.1
 73
     0
 77
     1
 78
     8
 79
     2
140
3.2
141
0.0
143
0.0393701
146
0.71
147
1.0
173
     1
176
   256
177
   256
178
     2
271
     2
272
     2
283
     0
284
     8
288
     1
340
11
344
A66
371
    -1
372
    -1
1001
ACAD_DSTYLE_DIMJOGGED_JOGANGLE_SYMBOL
1070
   384
1040
0.7853981633974483
1001
ACAD_DSTYLE_DIMARC_LENGTH_SYMBOL
1070
   379
1070
     1
  0
DIMSTYLE
105
2518
330
A
100
AcDbSymbolTableRecord
100
AcDbDimStyleTableRecord
  2
SYS$6
 70
     0
  4
"
 41
2.0
 42
1.0
 43
10.0
 44
1.0
 47
0.1
 48
0.1
 73
     0
 74
     0
 78
     8
 79
     2
140
3.5
141
0.0
143
0.0393701
146
0.71
147
1.5
172
     1
176
   256
177
   256
178
     2
271
     2
272
     2
283
     0
284
     8
340
11
341
A66
371
    -1
372
    -1
1001
ACAD_DSTYLE_DIMJOGGED_JOGANGLE_SYMBOL
1070
   384
1040
0.7853981633974483
1001
ACAD_DSTYLE_DIMARC_LENGTH_SYMBOL
1070
   379
1070
     1
  0
DIMSTYLE
105
2519
330
A
100
AcDbSymbolTableRecord
100
AcDbDimStyleTableRecord
  2
SYS$7
 70
     0
  4
"
 41
2.0
 42
1.0
 43
10.0
 44
1.0
 47
0.1
 48
0.1
 73
     0
 74
     0
 77
     1
 78
     8
 79
     2
140
3.2
141
0.0
143
0.0393701
146
0.71
147
1.0
172
     1
176
   256
177
   256
178
     2
271
     2
272
     2
283
     0
284
     8
340
11
341
A66
342
A66
371
    -1
372
    -1
1001
ACAD_DSTYLE_DIMJOGGED_JOGANGLE_SYMBOL
1070
   384
1040
0.7853981633974483
1001
ACAD_DSTYLE_DIMARC_LENGTH_SYMBOL
1070
   379
1070
     1
  0
DIMSTYLE
105
251A
330
A
100
AcDbSymbolTableRecord
100
AcDbDimStyleTableRecord
  2
SYS$SF
 70
     0
  4
"
 41
2.5
 42
1.0
 43
10.0
 44
1.0
 47
0.1
 48
0.1
 73
     0
 74
     0
 75
     1
 76
     1
 77
     1
 78
     8
 79
     2
140
3.5
141
0.0
143
0.0393701
146
0.71
147
1.5
172
     1
176
   256
177
   256
178
     2
271
     2
272
     3
283
     0
284
     8
340
11
341
6C4
342
6C4
371
    -1
372
    -1
1001
ACAD_DSTYLE_DIMJOGGED_JOGANGLE_SYMBOL
1070
   384
1040
0.7853981633974483
1001
ACAD_DSTYLE_DIMARC_LENGTH_SYMBOL
1070
   379
1070
     1
  0
DIMSTYLE
105
251B
330
A
100
AcDbSymbolTableRecord
100
AcDbDimStyleTableRecord
  2
SYS$SH
 70
     0
  4
"
 41
2.5
 42
1.0
 43
10.0
 44
1.0
 47
0.1
 48
0.1
 73
     0
 74
     0
 75
     1
 76
     1
 77
     1
 78
     8
 79
     2
140
3.5
141
0.0
143
0.0393701
144
2.0
146
0.71
147
1.5
172
     1
173
     1
176
   256
177
   256
178
     2
271
     2
272
     3
283
     0
284
     8
340
11
341
6C4
343
72
344
6C4
371
    -1
372
    -1
1001
ACAD_DSTYLE_DIMJOGGED_JOGANGLE_SYMBOL
1070
   384
1040
0.7853981633974483
1001
ACAD_DSTYLE_DIMARC_LENGTH_SYMBOL
1070
   379
1070
     1
  0
DIMSTYLE
105
2A59
330
A
100
AcDbSymbolTableRecord
100
AcDbDimStyleTableRecord
  2
SYS$2
 70
     0
  4
"
 41
1.0
 42
1.0
 43
10.0
 44
1.0
 47
0.1
 48
0.1
 73
     0
 74
     0
 77
     1
 78
     8
 79
     2
140
3.2
141
0.0
143
0.0393701
146
0.71
147
1.0
172
     1
176
   256
177
   256
178
     2
271
     2
272
     2
283
     0
284
     8
340
11
342
6C4
371
    -1
372
    -1
1001
ACAD_DSTYLE_DIMJOGGED_JOGANGLE_SYMBOL
1070
   384
1040
0.7853981633974483
1001
ACAD_DSTYLE_DIMARC_LENGTH_SYMBOL
1070
   379
1070
     1
  0
DIMSTYLE
105
2AAB
102
{ACAD_REACTORS
330
52447
330
52448
330
52449
330
5245E
330
52987
330
5299D
330
53593
330
53892
330
53941
102
}
330
A
100
AcDbSymbolTableRecord
100
AcDbDimStyleTableRecord
  2
SYS$0
 70
     0
  4
"
 41
1.0
 42
1.0
 43
10.0
 44
1.0
 47
0.1
 48
0.1
 73
     0
 74
     0
 77
     1
 78
     8
 79
     2
140
3.200000000000001
141
0.0
143
0.0393701
146
0.71
147
1.0
172
     1
176
   256
177
   256
178
     2
271
     2
272
     2
283
     0
284
     8
340
11
341
A66
342
6C4
371
    -1
372
    -1
1001
ACAD_DSTYLE_DIMJOGGED_JOGANGLE_SYMBOL
1070
   384
1040
0.7853981633974483
1001
ACAD_DSTYLE_DIMARC_LENGTH_SYMBOL
1070
   379
1070
     1
  0
DIMSTYLE
105
AF99
330
A
100
AcDbSymbolTableRecord
100
AcDbDimStyleTableRecord
  2
AM_ISO
 70
     0
  4
"
 41
2.5
 42
1.0
 43
10.0
 44
1.0
 47
0.1
 48
0.1
 73
     0
 74
     0
 77
     1
 78
     8
 79
     2
140
3.5
141
0.0
143
0.0393701
146
0.71
147
1.5
172
     1
176
   256
177
   256
178
     2
271
     2
272
     3
274
     4
283
     0
284
     8
340
11
371
    -1
372
    -1
  0
DIMSTYLE
105
AF9A
330
A
100
AcDbSymbolTableRecord
100
AcDbDimStyleTableRecord
  2
AM_ISO$3
 70
     0
  4
"
 41
2.5
 42
1.0
 43
10.0
 44
1.0
 47
0.1
 48
0.1
 73
     0
 77
     1
 78
     8
 79
     2
140
3.5
141
0.0
143
0.0393701
146
0.71
147
1.5
176
   256
177
   256
178
     2
271
     2
272
     3
274
     4
283
     0
284
     8
288
     1
289
     0
340
11
371
    -1
372
    -1
  0
DIMSTYLE
105
AF9B
330
A
100
AcDbSymbolTableRecord
100
AcDbDimStyleTableRecord
  2
AM_ISO$4
 70
     0
  4
"
 41
2.5
 42
1.0
 43
10.0
 44
1.0
 47
0.1
 48
0.1
 73
     0
 77
     1
 78
     8
 79
     2
140
3.5
141
0.0
143
0.0393701
146
0.71
147
1.5
176
   256
177
   256
178
     2
271
     2
272
     3
274
     4
283
     0
284
     8
288
     1
289
     0
340
11
371
    -1
372
    -1
  0
DIMSTYLE
105
AF9C
330
A
100
AcDbSymbolTableRecord
100
AcDbDimStyleTableRecord
  2
AM_ISO$6
 70
     0
  4
"
 41
2.5
 42
1.0
 43
10.0
 44
1.0
 47
0.1
 48
0.1
 73
     0
 74
     0
 78
     8
 79
     2
140
3.5
141
0.0
143
0.0393701
146
0.71
147
1.5
172
     1
176
   256
177
   256
178
     2
271
     2
272
     3
274
     4
283
     0
284
     8
340
11
371
    -1
372
    -1
  0
DIMSTYLE
105
AF9D
330
A
100
AcDbSymbolTableRecord
100
AcDbDimStyleTableRecord
  2
AM_ISO$7
 70
     0
  4
"
 41
2.5
 42
1.0
 43
10.0
 44
1.0
 47
0.1
 48
0.1
 73
     0
 74
     0
 77
     1
 78
     8
 79
     2
140
5.0
141
0.0
143
0.0393701
146
0.71
147
1.5
172
     1
176
   256
177
   256
178
     2
271
     2
272
     3
274
     4
283
     0
284
     8
340
11
371
    -1
372
    -1
  0
DIMSTYLE
105
AF9E
330
A
100
AcDbSymbolTableRecord
100
AcDbDimStyleTableRecord
  2
AM_ISO$SF
 70
     0
  4
"
 41
2.5
 42
1.0
 43
10.0
 44
1.0
 47
0.1
 48
0.1
 73
     0
 74
     0
 75
     1
 76
     1
 77
     1
 78
     8
 79
     2
140
3.5
141
0.0
143
0.0393701
146
0.71
147
1.5
172
     1
176
   256
177
   256
178
     2
271
     2
272
     3
274
     4
283
     0
284
     8
340
11
371
    -1
372
    -1
  0
DIMSTYLE
105
AF9F
330
A
100
AcDbSymbolTableRecord
100
AcDbDimStyleTableRecord
  2
AM_ISO$SH
 70
     0
  4
"
 41
2.5
 42
1.0
 43
10.0
 44
1.0
 47
0.1
 48
0.1
 73
     0
 74
     0
 75
     1
 76
     1
 77
     1
 78
     8
 79
     2
140
3.5
141
0.0
143
0.0393701
144
2.0
146
0.71
147
1.5
172
     1
173
     1
176
   256
177
   256
178
     2
271
     2
272
     3
274
     4
283
     0
284
     8
340
11
343
72
371
    -1
372
    -1
  0
DIMSTYLE
105
B658
330
A
100
AcDbSymbolTableRecord
100
AcDbDimStyleTableRecord
  2
AM_ANSI
 70
     0
  4
mm
 41
0.1
 42
0.05
 43
0.5
 44
0.1
 47
0.1
 48
0.1
 78
     7
 79
     2
140
0.12
141
0.0
146
0.71
147
0.06
176
   256
177
   256
178
     2
274
     4
284
     7
340
11
371
    -1
372
    -1
  0
DIMSTYLE
105
CA4B
330
A
100
AcDbSymbolTableRecord
100
AcDbDimStyleTableRecord
  2
原寸
 70
     0
 41
2.5
 42
1.0
 43
10.0
 44
0.7
 73
     0
 74
     0
 77
     3
 78
     8
 79
     2
140
3.5
141
0.0
147
1.0
172
     1
179
     1
271
     2
272
     2
340
CA48
341
A66
342
A66
  0
DIMSTYLE
105
1D542
330
A
100
AcDbSymbolTableRecord
100
AcDbDimStyleTableRecord
  2
DIMSTYLE
 70
     0
 41
1.0
 42
2.54
 44
2.54
 73
     0
 74
     0
140
3.2
147
1.6
173
     1
279
     2
340
11
  0
DIMSTYLE
105
1D543
330
A
100
AcDbSymbolTableRecord
100
AcDbDimStyleTableRecord
  2
AM_ANSI$3
 70
     0
  4
mm
 41
0.1
 42
0.05
 43
0.5
 44
0.1
 47
0.1
 48
0.1
 78
     7
 79
     2
140
0.12
141
0.0
146
0.71
147
0.06
176
   256
177
   256
178
     2
274
     4
284
     7
288
     1
289
     0
340
11
371
    -1
372
    -1
1001
ACAD_DSTYLE_DIMARC_LENGTH_SYMBOL
1070
   379
1070
     1
  0
DIMSTYLE
105
1D544
330
A
100
AcDbSymbolTableRecord
100
AcDbDimStyleTableRecord
  2
AM_ANSI$4
 70
     0
  4
mm
 41
0.1
 42
0.05
 43
0.5
 44
0.1
 47
0.1
 48
0.1
 78
     7
 79
     2
140
0.12
141
0.0
146
0.71
147
0.06
176
   256
177
   256
178
     2
274
     4
284
     7
288
     1
289
     0
340
11
371
    -1
372
    -1
1001
ACAD_DSTYLE_DIMARC_LENGTH_SYMBOL
1070
   379
1070
     1
  0
DIMSTYLE
105
1D545
330
A
100
AcDbSymbolTableRecord
100
AcDbDimStyleTableRecord
  2
AM_ANSI$7
 70
     0
  4
mm
 41
0.1
 42
0.05
 43
0.5
 44
0.1
 47
0.1
 48
0.1
 78
     7
 79
     2
140
0.24
141
0.0
146
0.71
147
0.06
176
   256
177
   256
178
     2
274
     4
284
     7
340
11
371
    -1
372
    -1
1001
ACAD_DSTYLE_DIMARC_LENGTH_SYMBOL
1070
   379
1070
     1
  0
DIMSTYLE
105
1D546
330
A
100
AcDbSymbolTableRecord
100
AcDbDimStyleTableRecord
  2
AM_ANSI$SF
 70
     0
  4
mm
 41
0.1
 42
0.05
 43
0.5
 44
0.1
 47
0.1
 48
0.1
 75
     1
 76
     1
 78
     7
 79
     2
140
0.12
141
0.0
146
0.71
147
0.06
176
   256
177
   256
178
     2
274
     4
284
     7
340
11
371
    -1
372
    -1
1001
ACAD_DSTYLE_DIMARC_LENGTH_SYMBOL
1070
   379
1070
     1
  0
DIMSTYLE
105
1D547
330
A
100
AcDbSymbolTableRecord
100
AcDbDimStyleTableRecord
  2
AM_ANSI$SH
 70
     0
  4
mm
 41
0.1
 42
0.05
 43
0.5
 44
0.1
 47
0.1
 48
0.1
 75
     1
 76
     1
 78
     7
 79
     2
140
0.12
141
0.0
146
0.71
147
0.06
173
     1
176
   256
177
   256
178
     2
274
     4
284
     7
340
11
343
72
371
    -1
372
    -1
1001
ACAD_DSTYLE_DIMARC_LENGTH_SYMBOL
1070
   379
1070
     1
  0
DIMSTYLE
105
1DA90
330
A
100
AcDbSymbolTableRecord
100
AcDbDimStyleTableRecord
  2
SYSORG4P0
 70
     0
  4
"
 41
1.0
 42
1.0
 43
10.0
 44
1.0
 47
0.2
 48
0.2000000002
 71
     1
 73
     0
 74
     0
 77
     1
 78
     8
 79
     2
140
3.5
141
0.0
143
0.0393701
144
3.999999999999793
146
0.6
147
1.5
172
     1
176
   256
177
   256
178
     7
271
     2
272
     2
283
     0
284
     8
340
11
341
A66
342
6C4
371
    -1
372
    -1
  0
DIMSTYLE
105
1DA91
330
A
100
AcDbSymbolTableRecord
100
AcDbDimStyleTableRecord
  2
SYSORG2P0
 70
     0
  4
"
 41
1.0
 42
1.0
 43
10.0
 44
1.0
 47
0.2
 48
0.2000000002
 71
     1
 73
     0
 74
     0
 77
     1
 78
     8
 79
     2
140
3.5
141
0.0
143
0.0393701
144
2.000000119209306
146
0.6
147
1.5
172
     1
176
   256
177
   256
178
     7
271
     2
272
     2
283
     0
284
     8
340
11
341
A66
342
6C4
371
    -1
372
    -1
  0
DIMSTYLE
105
1DA92
330
A
100
AcDbSymbolTableRecord
100
AcDbDimStyleTableRecord
  2
SYSORG0P5
 70
     0
  4
"
 41
1.0
 42
1.0
 43
10.0
 44
1.0
 47
0.1
 48
0.1
 73
     0
 74
     0
 77
     1
 78
     8
 79
     2
140
3.5
141
0.0
143
0.0393701
144
0.5
146
0.71
147
1.5
172
     1
176
   256
177
   256
178
     7
271
     2
272
     2
283
     0
284
     8
340
11
371
    -1
372
    -1
  0
DIMSTYLE
105
32EB5
330
A
100
AcDbSymbolTableRecord
100
AcDbDimStyleTableRecord
  2
SYS0000
 70
     0
  4
"
 41
2.5
 42
1.0
 43
10.0
 44
1.0
 47
0.1
 48
0.1
 73
     0
 74
     0
 77
     1
 78
     8
 79
     2
140
3.5
141
0.0
143
0.0393701
146
0.71
147
1.5
172
     1
176
   256
177
   256
178
     2
271
     1
272
     3
283
     0
284
     8
340
11
341
6C4
342
32DFB
371
    -1
372
    -1
  0
DIMSTYLE
105
425A4
330
A
100
AcDbSymbolTableRecord
100
AcDbDimStyleTableRecord
  2
DIMSTYLE$0
 70
     0
 41
1.0
 42
2.54
 44
2.54
 73
     0
 74
     0
140
3.2
147
1.6
173
     1
279
     2
340
11
  0
ENDTAB
  0
TABLE
  2
BLOCK_RECORD
  5
1
330
0
100
AcDbSymbolTable
 70
    25
  0
BLOCK_RECORD
  5
1F
102
{ACAD_XDICTIONARY
360
8A
102
}
330
1
100
AcDbSymbolTableRecord
100
AcDbBlockTableRecord
  2
*Model_Space
340
22
  0
BLOCK_RECORD
  5
1B
330
1
100
AcDbSymbolTableRecord
100
AcDbBlockTableRecord
  2
*Paper_Space
340
1E
  0
BLOCK_RECORD
  5
23
330
1
100
AcDbSymbolTableRecord
100
AcDbBlockTableRecord
  2
*Paper_Space0
340
26
  0
BLOCK_RECORD
  5
72
330
1
100
AcDbSymbolTableRecord
100
AcDbBlockTableRecord
  2
GENAXEH
340
0
  0
BLOCK_RECORD
  5
6C4
330
1
100
AcDbSymbolTableRecord
100
AcDbBlockTableRecord
  2
_Dot
340
0
102
{BLKREFS
331
536B0
331
536B1
331
536B9
331
536BA
331
5384A
331
5384B
331
53853
331
53854
331
5385C
331
5385D
331
5386E
331
5386F
331
538F2
331
538F3
331
53997
331
53998
331
539BF
331
539C0
102
}
  0
BLOCK_RECORD
  5
A66
330
1
100
AcDbSymbolTableRecord
100
AcDbBlockTableRecord
  2
_OPEN30
340
0
  0
BLOCK_RECORD
  5
32629
330
1
100
AcDbSymbolTableRecord
100
AcDbBlockTableRecord
  2
GENDOT
340
0
102
{BLKREFS
331
5383A
331
5383B
331
53867
331
53868
331
53879
331
5387A
331
53AFC
331
53AFD
331
53B05
331
53B06
102
}
  0
BLOCK_RECORD
  5
32DFB
330
1
100
AcDbSymbolTableRecord
100
AcDbBlockTableRecord
  2
_DotSmall
340
0
  0
BLOCK_RECORD
  5
5246C
330
1
100
AcDbSymbolTableRecord
100
AcDbBlockTableRecord
  2
*D6
340
0
  0
BLOCK_RECORD
  5
52478
330
1
100
AcDbSymbolTableRecord
100
AcDbBlockTableRecord
  2
*D7
340
0
  0
BLOCK_RECORD
  5
52484
330
1
100
AcDbSymbolTableRecord
100
AcDbBlockTableRecord
  2
*D8
340
0
  0
BLOCK_RECORD
  5
524D6
330
1
100
AcDbSymbolTableRecord
100
AcDbBlockTableRecord
  2
*D9
340
0
  0
BLOCK_RECORD
  5
524EB
330
1
100
AcDbSymbolTableRecord
100
AcDbBlockTableRecord
  2
*D10
340
0
  0
BLOCK_RECORD
  5
52988
330
1
100
AcDbSymbolTableRecord
100
AcDbBlockTableRecord
  2
*D11
340
0
  0
BLOCK_RECORD
  5
5299E
330
1
100
AcDbSymbolTableRecord
100
AcDbBlockTableRecord
  2
*D12
340
0
  0
BLOCK_RECORD
  5
53009
330
1
100
AcDbSymbolTableRecord
100
AcDbBlockTableRecord
  2
*D13
340
0
  0
BLOCK_RECORD
  5
53157
330
1
100
AcDbSymbolTableRecord
100
AcDbBlockTableRecord
  2
*S53314
340
0
102
{BLKREFS
331
52EAC
102
}
  0
BLOCK_RECORD
  5
535B3
330
1
100
AcDbSymbolTableRecord
100
AcDbBlockTableRecord
  2
*D16
340
0
  0
BLOCK_RECORD
  5
535BF
330
1
100
AcDbSymbolTableRecord
100
AcDbBlockTableRecord
  2
*D17
340
0
  0
BLOCK_RECORD
  5
5370C
330
1
100
AcDbSymbolTableRecord
100
AcDbBlockTableRecord
  2
*D18
340
0
  0
BLOCK_RECORD
  5
53893
330
1
100
AcDbSymbolTableRecord
100
AcDbBlockTableRecord
  2
*D19
340
0
  0
BLOCK_RECORD
  5
53942
330
1
100
AcDbSymbolTableRecord
100
AcDbBlockTableRecord
  2
*D20
340
0
  0
BLOCK_RECORD
  5
53A3F
330
1
100
AcDbSymbolTableRecord
100
AcDbBlockTableRecord
  2
*D21
340
0
  0
BLOCK_RECORD
  5
53B4A
330
1
100
AcDbSymbolTableRecord
100
AcDbBlockTableRecord
  2
*S23
340
0
  0
BLOCK_RECORD
  5
53B54
330
1
100
AcDbSymbolTableRecord
100
AcDbBlockTableRecord
  2
*S24
340
0
  0
ENDTAB
  0
ENDSEC
  0
SECTION
  2
BLOCKS
  0
BLOCK
  5
20
330
1F
100
AcDbEntity
  8
0
100
AcDbBlockBegin
  2
*Model_Space
 70
     0
 10
0.0
 20
0.0
 30
0.0
  3
*Model_Space
  1

  0
ENDBLK
  5
21
330
1F
100
AcDbEntity
  8
0
100
AcDbBlockEnd
  0
BLOCK
  5
1C
330
1B
100
AcDbEntity
 67
     1
  8
0
100
AcDbBlockBegin
  2
*Paper_Space
 70
     0
 10
0.0
 20
0.0
 30
0.0
  3
*Paper_Space
  1

  0
ENDBLK
  5
1D
330
1B
100
AcDbEntity
 67
     1
  8
0
100
AcDbBlockEnd
  0
BLOCK
  5
24
330
23
100
AcDbEntity
 67
     1
  8
0
100
AcDbBlockBegin
  2
*Paper_Space0
 70
     0
 10
0.0
 20
0.0
 30
0.0
  3
*Paper_Space0
  1

  0
ENDBLK
  5
25
330
23
100
AcDbEntity
 67
     1
  8
0
100
AcDbBlockEnd
  0
BLOCK
  5
74
330
72
100
AcDbEntity
  8
0
100
AcDbBlockBegin
  2
GENAXEH
 70
     0
 10
0.0
 20
0.0
 30
0.0
  3
GENAXEH
  1

  0
LINE
  5
73
330
72
100
AcDbEntity
  8
0
100
AcDbLine
 10
-1.0
 20
0.0
 30
0.0
 11
1.0
 21
0.0
 31
0.0
  0
ENDBLK
  5
75
330
72
100
AcDbEntity
  8
0
100
AcDbBlockEnd
  0
BLOCK
  5
6C7
330
6C4
100
AcDbEntity
  8
0
100
AcDbBlockBegin
  2
_Dot
 70
     0
 10
0.0
 20
0.0
 30
0.0
  3
_Dot
  1

  0
LWPOLYLINE
  5
6C5
330
6C4
100
AcDbEntity
  8
0
  6
ByBlock
 62
     0
100
AcDbPolyline
 90
        2
 70
     1
 43
0.5
 10
-0.25
 20
0.0
 42
1.0
 10
0.25
 20
0.0
 42
1.0
  0
LINE
  5
6C6
330
6C4
100
AcDbEntity
  8
0
  6
ByBlock
 62
     0
370
    -2
100
AcDbLine
 10
-0.5
 20
0.0
 30
0.0
 11
-1.0
 21
0.0
 31
0.0
  0
ENDBLK
  5
6C8
330
6C4
100
AcDbEntity
  8
0
100
AcDbBlockEnd
  0
BLOCK
  5
A6A
330
A66
100
AcDbEntity
  8
0
100
AcDbBlockBegin
  2
_OPEN30
 70
     0
 10
0.0
 20
0.0
 30
0.0
  3
_OPEN30
  1

  0
LINE
  5
A67
330
A66
100
AcDbEntity
  8
0
  6
ByBlock
 62
     0
100
AcDbLine
 10
-1.0
 20
0.26794919
 30
0.0
 11
0.0
 21
0.0
 31
0.0
  0
LINE
  5
A68
330
A66
100
AcDbEntity
  8
0
  6
ByBlock
 62
     0
100
AcDbLine
 10
0.0
 20
0.0
 30
0.0
 11
-1.0
 21
-0.26794919
 31
0.0
  0
LINE
  5
A69
330
A66
100
AcDbEntity
  8
0
  6
ByBlock
 62
     0
100
AcDbLine
 10
0.0
 20
0.0
 30
0.0
 11
-1.0
 21
0.0
 31
0.0
  0
ENDBLK
  5
A6B
330
A66
100
AcDbEntity
  8
0
100
AcDbBlockEnd
  0
BLOCK
  5
3262A
330
32629
100
AcDbEntity
  8
0
100
AcDbBlockBegin
  2
GENDOT
 70
     0
 10
0.0
 20
0.0
 30
0.0
  3
GENDOT
  1

  0
LINE
  5
3262B
330
32629
100
AcDbEntity
  8
0
100
AcDbLine
 10
0.0
 20
0.0
 30
0.0
 11
-1.0
 21
0.0
 31
0.0
  0
LWPOLYLINE
  5
3262C
330
32629
100
AcDbEntity
  8
0
100
AcDbPolyline
 90
        2
 70
     1
 43
0.25
 10
-0.125
 20
0.0
 42
1.0
 10
0.125
 20
0.0
 42
1.0
  0
ENDBLK
  5
3262D
330
32629
100
AcDbEntity
  8
0
100
AcDbBlockEnd
  0
BLOCK
  5
32DFC
330
32DFB
100
AcDbEntity
  8
0
100
AcDbBlockBegin
  2
_DotSmall
 70
     0
 10
0.0
 20
0.0
 30
0.0
  3
_DotSmall
  1

  0
LWPOLYLINE
  5
32DFD
330
32DFB
100
AcDbEntity
  8
0
  6
ByBlock
 62
     0
100
AcDbPolyline
 90
        2
 70
     1
 43
0.5
 10
-0.0625
 20
0.0
 42
1.0
 10
0.0625
 20
0.0
 42
1.0
  0
ENDBLK
  5
32DFE
330
32DFB
100
AcDbEntity
  8
0
100
AcDbBlockEnd
  0
BLOCK
  5
52476
330
5246C
100
AcDbEntity
  8
0
 48
0.5
100
AcDbBlockBegin
  2
*D6
 70
     1
 10
0.0
 20
0.0
 30
0.0
  3
*D6
  1

  0
LINE
  5
53847
330
5246C
100
AcDbEntity
  8
AM_5
100
AcDbLine
 10
5984.311020341179
 20
-2177.578888658257
 30
0.0
 11
5984.311020341179
 21
-2187.529731751632
 31
0.0
  0
LINE
  5
53848
330
5246C
100
AcDbEntity
  8
AM_5
100
AcDbLine
 10
5952.611004251814
 20
-2179.529731751632
 30
0.0
 11
5952.611004251814
 21
-2187.529731751632
 31
0.0
  0
LINE
  5
53849
330
5246C
100
AcDbEntity
  8
AM_5
100
AcDbLine
 10
5983.311020341179
 20
-2186.529731751632
 30
0.0
 11
5953.611004251814
 21
-2186.529731751632
 31
0.0
  0
INSERT
  5
5384A
330
5246C
100
AcDbEntity
  8
AM_5
100
AcDbBlockReference
  2
_Dot
 10
5984.311020341179
 20
-2186.529731751632
 30
0.0
  0
INSERT
  5
5384B
330
5246C
100
AcDbEntity
  8
AM_5
100
AcDbBlockReference
  2
_Dot
 10
5952.611004251814
 20
-2186.529731751632
 30
0.0
 50
180.0
  0
MTEXT
  5
5384C
330
5246C
100
AcDbEntity
  8
AM_5
 62
     2
100
AcDbMText
 10
5968.461012296497
 20
-2183.929731751632
 30
0.0
 40
3.200000000000001
 41
0.0
 71
     5
 72
     1
  1
31.7
 73
     1
 44
1.0
1001
ACAD
1000
MTEXTBEGIN
1070
    73
1070
     1
1070
    44
1040
1.0
1070
    74
1070
     0
1000
MTEXTEND
  0
POINT
  5
5384D
330
5246C
100
AcDbEntity
  8
Defpoints
 62
     0
100
AcDbPoint
 10
5984.311020341179
 20
-2176.578888658257
 30
0.0
  0
POINT
  5
5384E
330
5246C
100
AcDbEntity
  8
Defpoints
 62
     0
100
AcDbPoint
 10
5952.611004251814
 20
-2178.529731751632
 30
0.0
  0
POINT
  5
5384F
330
5246C
100
AcDbEntity
  8
Defpoints
 62
     0
100
AcDbPoint
 10
5952.611004251814
 20
-2186.529731751632
 30
0.0
  0
ENDBLK
  5
52477
330
5246C
100
AcDbEntity
  8
0
 48
0.5
100
AcDbBlockEnd
  0
BLOCK
  5
52482
330
52478
100
AcDbEntity
  8
0
 48
0.5
100
AcDbBlockBegin
  2
*D7
 70
     1
 10
0.0
 20
0.0
 30
0.0
  3
*D7
  1

  0
LINE
  5
53850
330
52478
100
AcDbEntity
  8
AM_5
100
AcDbLine
 10
5952.611004251814
 20
-2179.529731751632
 30
0.0
 11
5952.611004251814
 21
-2195.529731751632
 31
0.0
  0
LINE
  5
53851
330
52478
100
AcDbEntity
  8
AM_5
100
AcDbLine
 10
5990.111015763549
 20
-2177.529731751632
 30
0.0
 11
5990.111015763549
 21
-2195.529731751632
 31
0.0
  0
LINE
  5
53852
330
52478
100
AcDbEntity
  8
AM_5
100
AcDbLine
 10
5953.611004251814
 20
-2194.529731751632
 30
0.0
 11
5989.111015763548
 21
-2194.529731751632
 31
0.0
  0
INSERT
  5
53853
330
52478
100
AcDbEntity
  8
AM_5
100
AcDbBlockReference
  2
_Dot
 10
5952.611004251814
 20
-2194.529731751632
 30
0.0
 50
180.0
  0
INSERT
  5
53854
330
52478
100
AcDbEntity
  8
AM_5
100
AcDbBlockReference
  2
_Dot
 10
5990.111015763549
 20
-2194.529731751632
 30
0.0
  0
MTEXT
  5
53855
330
52478
100
AcDbEntity
  8
AM_5
 62
     2
100
AcDbMText
 10
5971.361010007681
 20
-2191.929731751632
 30
0.0
 40
3.200000000000001
 41
0.0
 71
     5
 72
     1
  1
37.5
 73
     1
 44
1.0
1001
ACAD
1000
MTEXTBEGIN
1070
    73
1070
     1
1070
    44
1040
1.0
1070
    74
1070
     0
1000
MTEXTEND
  0
POINT
  5
53856
330
52478
100
AcDbEntity
  8
Defpoints
 62
     0
100
AcDbPoint
 10
5952.611004251814
 20
-2178.529731751632
 30
0.0
  0
POINT
  5
53857
330
52478
100
AcDbEntity
  8
Defpoints
 62
     0
100
AcDbPoint
 10
5990.111015763549
 20
-2176.529731751632
 30
0.0
  0
POINT
  5
53858
330
52478
100
AcDbEntity
  8
Defpoints
 62
     0
100
AcDbPoint
 10
5990.111015763549
 20
-2194.529731751632
 30
0.0
  0
ENDBLK
  5
52483
330
52478
100
AcDbEntity
  8
0
 48
0.5
100
AcDbBlockEnd
  0
BLOCK
  5
5248E
330
52484
100
AcDbEntity
  8
0
 48
0.5
100
AcDbBlockBegin
  2
*D8
 70
     1
 10
0.0
 20
0.0
 30
0.0
  3
*D8
  1

  0
LINE
  5
53859
330
52484
100
AcDbEntity
  8
AM_5
100
AcDbLine
 10
5979.061024155879
 20
-2144.52969585693
 30
0.0
 11
5943.611004251813
 21
-2144.52969585693
 31
0.0
  0
LINE
  5
5385A
330
52484
100
AcDbEntity
  8
AM_5
100
AcDbLine
 10
5979.061024155879
 20
-2172.529767646334
 30
0.0
 11
5943.611004251813
 21
-2172.529767646334
 31
0.0
  0
LINE
  5
5385B
330
52484
100
AcDbEntity
  8
AM_5
100
AcDbLine
 10
5944.611004251814
 20
-2145.52969585693
 30
0.0
 11
5944.611004251814
 21
-2171.529767646334
 31
0.0
  0
INSERT
  5
5385C
330
52484
100
AcDbEntity
  8
AM_5
100
AcDbBlockReference
  2
_Dot
 10
5944.611004251814
 20
-2144.52969585693
 30
0.0
 50
90.0
  0
INSERT
  5
5385D
330
52484
100
AcDbEntity
  8
AM_5
100
AcDbBlockReference
  2
_Dot
 10
5944.611004251814
 20
-2172.529767646334
 30
0.0
 50
270.0
  0
MTEXT
  5
5385E
330
52484
100
AcDbEntity
  8
AM_5
 62
     2
100
AcDbMText
 10
5942.011004251814
 20
-2158.529731751631
 30
0.0
 40
3.200000000000001
 41
0.0
 71
     5
 72
     1
  1
28
 11
0.0000000000000001
 21
1.0
 31
0.0
 73
     1
 44
1.0
1001
ACAD
1000
MTEXTBEGIN
1070
    73
1070
     1
1070
    44
1040
1.0
1070
    74
1070
     0
1000
MTEXTEND
  0
POINT
  5
5385F
330
52484
100
AcDbEntity
  8
Defpoints
 62
     0
100
AcDbPoint
 10
5980.06102415588
 20
-2144.52969585693
 30
0.0
  0
POINT
  5
53860
330
52484
100
AcDbEntity
  8
Defpoints
 62
     0
100
AcDbPoint
 10
5980.06102415588
 20
-2172.529767646334
 30
0.0
  0
POINT
  5
53861
330
52484
100
AcDbEntity
  8
Defpoints
 62
     0
100
AcDbPoint
 10
5944.611004251814
 20
-2172.529767646334
 30
0.0
  0
ENDBLK
  5
5248F
330
52484
100
AcDbEntity
  8
0
 48
0.5
100
AcDbBlockEnd
  0
BLOCK
  5
524E0
330
524D6
100
AcDbEntity
  8
0
 48
0.5
100
AcDbBlockBegin
  2
*D9
 70
     1
 10
0.0
 20
0.0
 30
0.0
  3
*D9
  1

  0
LINE
  5
53862
330
524D6
100
AcDbEntity
  8
AM_5
100
AcDbLine
 10
6006.07291706812
 20
-2134.425670641133
 30
0.0
 11
5993.446250401451
 21
-2134.425670641133
 31
0.0
  0
LINE
  5
53863
330
524D6
100
AcDbEntity
  8
AM_5
100
AcDbLine
 10
5993.446250401451
 20
-2134.425670641133
 30
0.0
 11
5987.161282847239
 21
-2141.377161761691
 31
0.0
  0
LINE
  5
53864
330
524D6
100
AcDbEntity
  8
AM_5
100
AcDbLine
 10
5981.460757835124
 20
-2147.682229952168
 30
0.0
 11
5980.119456628354
 21
-2149.165776740347
 31
0.0
  0
MTEXT
  5
53865
330
524D6
100
AcDbEntity
  8
AM_5
 62
     2
100
AcDbMText
 10
6000.259583734788
 20
-2131.825670641134
 30
0.0
 40
3.2
 41
0.0
 71
     5
 72
     1
  1
2-\U+22054.5
 73
     1
 44
1.0
1001
ACAD
1000
MTEXTBEGIN
1070
    73
1070
     1
1070
    44
1040
1.0
1070
    74
1070
     0
1000
MTEXTEND
  0
LINE
  5
53866
330
524D6
100
AcDbEntity
  8
AM_5
100
AcDbLine
 10
5982.802059041894
 20
-2146.198683163989
 30
0.0
 11
5985.819981640468
 21
-2142.86070854987
 31
0.0
  0
INSERT
  5
53867
330
524D6
100
AcDbEntity
  8
AM_5
100
AcDbBlockReference
  2
GENDOT
 10
5982.802059041894
 20
-2146.198683163989
 30
0.0
 41
2.0
 42
2.0
 43
2.0
 50
47.8827014404989
  0
INSERT
  5
53868
330
524D6
100
AcDbEntity
  8
AM_5
100
AcDbBlockReference
  2
GENDOT
 10
5985.819981640468
 20
-2142.86070854987
 30
0.0
 41
2.0
 42
2.0
 43
2.0
 50
227.8827014404989
  0
POINT
  5
53869
330
524D6
100
AcDbEntity
  8
Defpoints
 62
     0
100
AcDbPoint
 10
5985.819981640468
 20
-2142.86070854987
 30
0.0
  0
POINT
  5
5386A
330
524D6
100
AcDbEntity
  8
Defpoints
 62
     0
100
AcDbPoint
 10
5982.802059041894
 20
-2146.198683163989
 30
0.0
  0
ENDBLK
  5
524E1
330
524D6
100
AcDbEntity
  8
0
 48
0.5
100
AcDbBlockEnd
  0
BLOCK
  5
524F5
330
524EB
100
AcDbEntity
  8
0
 48
0.5
100
AcDbBlockBegin
  2
*D10
 70
     1
 10
0.0
 20
0.0
 30
0.0
  3
*D10
  1

  0
LINE
  5
5386B
330
524EB
100
AcDbEntity
  8
AM_5
100
AcDbLine
 10
5951.611004251814
 20
-2138.529731751632
 30
0.0
 11
5935.611004251814
 21
-2138.529731751632
 31
0.0
  0
LINE
  5
5386C
330
524EB
100
AcDbEntity
  8
AM_5
100
AcDbLine
 10
5951.611004251814
 20
-2178.529731751632
 30
0.0
 11
5935.611004251814
 21
-2178.529731751632
 31
0.0
  0
LINE
  5
5386D
330
524EB
100
AcDbEntity
  8
AM_5
100
AcDbLine
 10
5936.611004251814
 20
-2139.529731751632
 30
0.0
 11
5936.611004251814
 21
-2177.529731751632
 31
0.0
  0
INSERT
  5
5386E
330
524EB
100
AcDbEntity
  8
AM_5
100
AcDbBlockReference
  2
_Dot
 10
5936.611004251814
 20
-2138.529731751632
 30
0.0
 50
90.0
  0
INSERT
  5
5386F
330
524EB
100
AcDbEntity
  8
AM_5
100
AcDbBlockReference
  2
_Dot
 10
5936.611004251814
 20
-2178.529731751632
 30
0.0
 50
270.0
  0
MTEXT
  5
53870
330
524EB
100
AcDbEntity
  8
AM_5
 62
     2
100
AcDbMText
 10
5934.011004251814
 20
-2158.529731751631
 30
0.0
 40
3.200000000000001
 41
0.0
 71
     5
 72
     1
  1
40
 11
0.0000000000000001
 21
1.0
 31
0.0
 73
     1
 44
1.0
1001
ACAD
1000
MTEXTBEGIN
1070
    73
1070
     1
1070
    44
1040
1.0
1070
    74
1070
     0
1000
MTEXTEND
  0
POINT
  5
53871
330
524EB
100
AcDbEntity
  8
Defpoints
 62
     0
100
AcDbPoint
 10
5952.611004251814
 20
-2138.529731751632
 30
0.0
  0
POINT
  5
53872
330
524EB
100
AcDbEntity
  8
Defpoints
 62
     0
100
AcDbPoint
 10
5952.611004251814
 20
-2178.529731751632
 30
0.0
  0
POINT
  5
53873
330
524EB
100
AcDbEntity
  8
Defpoints
 62
     0
100
AcDbPoint
 10
5936.611004251814
 20
-2178.529731751632
 30
0.0
  0
ENDBLK
  5
524F6
330
524EB
100
AcDbEntity
  8
0
 48
0.5
100
AcDbBlockEnd
  0
BLOCK
  5
52992
330
52988
100
AcDbEntity
  8
0
 48
0.5
100
AcDbBlockBegin
  2
*D11
 70
     1
 10
0.0
 20
0.0
 30
0.0
  3
*D11
  1

  0
LINE
  5
536AD
330
52988
100
AcDbEntity
  8
AM_5
100
AcDbLine
 10
5953.211004251816
 20
-2106.804615575973
 30
0.0
 11
5943.611003241816
 21
-2106.804615575973
 31
0.0
  0
LINE
  5
536AE
330
52988
100
AcDbEntity
  8
AM_5
100
AcDbLine
 10
5948.298235191893
 20
-2116.804615869313
 30
0.0
 11
5943.611003241816
 21
-2116.804615869313
 31
0.0
  0
LINE
  5
536AF
330
52988
100
AcDbEntity
  8
AM_5
100
AcDbLine
 10
5944.611003241815
 20
-2107.804615575973
 30
0.0
 11
5944.611003241815
 21
-2115.804615869313
 31
0.0
  0
INSERT
  5
536B0
330
52988
100
AcDbEntity
  8
AM_5
100
AcDbBlockReference
  2
_Dot
 10
5944.611003241815
 20
-2106.804615575973
 30
0.0
 50
90.0
  0
INSERT
  5
536B1
330
52988
100
AcDbEntity
  8
AM_5
100
AcDbBlockReference
  2
_Dot
 10
5944.611003241815
 20
-2116.804615869313
 30
0.0
 50
270.0
  0
MTEXT
  5
536B2
330
52988
100
AcDbEntity
  8
AM_5
 62
     2
100
AcDbMText
 10
5942.011003241816
 20
-2111.804615722642
 30
0.0
 40
3.200000000000001
 41
0.0
 71
     5
 72
     1
  1
10
 11
0.0000000000000001
 21
1.0
 31
0.0
 73
     1
 44
1.0
1001
ACAD
1000
MTEXTBEGIN
1070
    73
1070
     1
1070
    44
1040
1.0
1070
    74
1070
     0
1000
MTEXTEND
  0
POINT
  5
536B3
330
52988
100
AcDbEntity
  8
Defpoints
 62
     0
100
AcDbPoint
 10
5954.211004251816
 20
-2106.804615575973
 30
0.0
  0
POINT
  5
536B4
330
52988
100
AcDbEntity
  8
Defpoints
 62
     0
100
AcDbPoint
 10
5949.298235191894
 20
-2116.804615869313
 30
0.0
  0
POINT
  5
536B5
330
52988
100
AcDbEntity
  8
Defpoints
 62
     0
100
AcDbPoint
 10
5944.611003241815
 20
-2116.804615869313
 30
0.0
  0
ENDBLK
  5
52993
330
52988
100
AcDbEntity
  8
0
 48
0.5
100
AcDbBlockEnd
  0
BLOCK
  5
529A8
330
5299E
100
AcDbEntity
  8
0
 48
0.5
100
AcDbBlockBegin
  2
*D12
 70
     1
 10
0.0
 20
0.0
 30
0.0
  3
*D12
  1

  0
LINE
  5
536B6
330
5299E
100
AcDbEntity
  8
AM_5
100
AcDbLine
 10
5953.211004251816
 20
-2106.804615575973
 30
0.0
 11
5935.611004251814
 21
-2106.804615575973
 31
0.0
  0
LINE
  5
536B7
330
5299E
100
AcDbEntity
  8
AM_5
100
AcDbLine
 10
5951.611004251814
 20
-2122.804615575973
 30
0.0
 11
5935.611004251814
 21
-2122.804615575973
 31
0.0
  0
LINE
  5
536B8
330
5299E
100
AcDbEntity
  8
AM_5
100
AcDbLine
 10
5936.611004251814
 20
-2107.804615575973
 30
0.0
 11
5936.611004251814
 21
-2121.804615575973
 31
0.0
  0
INSERT
  5
536B9
330
5299E
100
AcDbEntity
  8
AM_5
100
AcDbBlockReference
  2
_Dot
 10
5936.611004251814
 20
-2106.804615575973
 30
0.0
 50
90.0
  0
INSERT
  5
536BA
330
5299E
100
AcDbEntity
  8
AM_5
100
AcDbBlockReference
  2
_Dot
 10
5936.611004251814
 20
-2122.804615575973
 30
0.0
 50
270.0
  0
MTEXT
  5
536BB
330
5299E
100
AcDbEntity
  8
AM_5
 62
     2
100
AcDbMText
 10
5934.011004251814
 20
-2114.804615575972
 30
0.0
 40
3.200000000000001
 41
0.0
 71
     5
 72
     1
  1
16
 11
0.0000000000000001
 21
1.0
 31
0.0
 73
     1
 44
1.0
1001
ACAD
1000
MTEXTBEGIN
1070
    73
1070
     1
1070
    44
1040
1.0
1070
    74
1070
     0
1000
MTEXTEND
  0
POINT
  5
536BC
330
5299E
100
AcDbEntity
  8
Defpoints
 62
     0
100
AcDbPoint
 10
5954.211004251816
 20
-2106.804615575973
 30
0.0
  0
POINT
  5
536BD
330
5299E
100
AcDbEntity
  8
Defpoints
 62
     0
100
AcDbPoint
 10
5952.611004251814
 20
-2122.804615575973
 30
0.0
  0
POINT
  5
536BE
330
5299E
100
AcDbEntity
  8
Defpoints
 62
     0
100
AcDbPoint
 10
5936.611004251814
 20
-2122.804615575973
 30
0.0
  0
ENDBLK
  5
529A9
330
5299E
100
AcDbEntity
  8
0
 48
0.5
100
AcDbBlockEnd
  0
BLOCK
  5
53013
330
53009
100
AcDbEntity
  8
0
 48
0.5
100
AcDbBlockBegin
  2
*D13
 70
     1
 10
0.0
 20
0.0
 30
0.0
  3
*D13
  1

  0
LINE
  5
53874
330
53009
100
AcDbEntity
  8
AM_5
100
AcDbLine
 10
6003.949435724764
 20
-2150.928880725317
 30
0.0
 11
5993.769435724768
 21
-2150.928880725317
 31
0.0
  0
LINE
  5
53875
330
53009
100
AcDbEntity
  8
AM_5
100
AcDbLine
 10
5993.769435724768
 20
-2150.928880725317
 30
0.0
 11
5988.013623047667
 21
-2155.554293431331
 31
0.0
  0
LINE
  5
53876
330
53009
100
AcDbEntity
  8
AM_5
100
AcDbLine
 10
5980.608417634688
 20
-2161.505170071933
 30
0.0
 11
5979.049427021429
 21
-2162.757986206796
 31
0.0
  0
MTEXT
  5
53877
330
53009
100
AcDbEntity
  8
AM_5
 62
     2
100
AcDbMText
 10
6000.589435724763
 20
-2148.328880725317
 30
0.0
 40
3.2
 41
0.0
 71
     5
 72
     1
  1
\U+22055.5
 73
     1
 44
1.0
1001
ACAD
1000
MTEXTBEGIN
1070
    73
1070
     1
1070
    44
1040
1.0
1070
    74
1070
     0
1000
MTEXTEND
  0
LINE
  5
53878
330
53009
100
AcDbEntity
  8
AM_5
100
AcDbLine
 10
5982.167408247946
 20
-2160.25235393707
 30
0.0
 11
5986.454632434409
 21
-2156.807109566194
 31
0.0
  0
INSERT
  5
53879
330
53009
100
AcDbEntity
  8
AM_5
100
AcDbBlockReference
  2
GENDOT
 10
5982.167408247946
 20
-2160.25235393707
 30
0.0
 41
2.0
 42
2.0
 43
2.0
 50
38.7856106469226
  0
INSERT
  5
5387A
330
53009
100
AcDbEntity
  8
AM_5
100
AcDbBlockReference
  2
GENDOT
 10
5986.454632434409
 20
-2156.807109566194
 30
0.0
 41
2.0
 42
2.0
 43
2.0
 50
218.7856106469226
  0
POINT
  5
5387B
330
53009
100
AcDbEntity
  8
Defpoints
 62
     0
100
AcDbPoint
 10
5986.454632434409
 20
-2156.807109566194
 30
0.0
  0
POINT
  5
5387C
330
53009
100
AcDbEntity
  8
Defpoints
 62
     0
100
AcDbPoint
 10
5982.167408247946
 20
-2160.25235393707
 30
0.0
  0
ENDBLK
  5
53014
330
53009
100
AcDbEntity
  8
0
 48
0.5
100
AcDbBlockEnd
  0
BLOCK
  5
5315E
330
53157
100
AcDbEntity
  8
0
 48
0.5
100
AcDbBlockBegin
  2
*S53314
 70
     1
 10
0.0
 20
0.0
 30
0.0
  3
*S53314
  1

  0
LINE
  5
53158
330
53157
100
AcDbEntity
  8
AM_5
 62
     3
 48
0.5
100
AcDbLine
 10
5991.773778579734
 20
-2166.710580431574
 30
0.0
 11
5963.432445246401
 21
-2166.710580431574
 31
0.0
  0
LINE
  5
53159
330
53157
100
AcDbEntity
  8
AM_5
 62
     3
 48
0.5
100
AcDbLine
 10
5963.432445246401
 20
-2166.710580431574
 30
0.0
 11
5956.940693959471
 21
-2160.218829144643
 31
0.0
  0
LINE
  5
5315A
330
53157
100
AcDbEntity
  8
AM_5
  6
Continuous
 62
     3
 48
0.5
100
AcDbLine
 10
5956.940693959471
 20
-2160.218829144643
 30
0.0
 11
5955.526480397097
 21
-2158.804615582269
 31
0.0
  0
LINE
  5
5315B
330
53157
100
AcDbEntity
  8
AM_5
  6
Continuous
 62
     3
 48
0.5
100
AcDbLine
 10
5957.319631337996
 20
-2159.839891766118
 30
0.0
 11
5955.526480397097
 21
-2158.804615582269
 31
0.0
  0
LINE
  5
5315C
330
53157
100
AcDbEntity
  8
AM_5
  6
Continuous
 62
     3
 48
0.5
100
AcDbLine
 10
5955.526480397097
 20
-2158.804615582269
 30
0.0
 11
5956.561756580946
 21
-2160.597766523168
 31
0.0
  0
MTEXT
  5
5315D
330
53157
100
AcDbEntity
  8
AM_5
 62
     2
100
AcDbMText
 10
5966.632445246403
 20
-2165.110580431574
 30
0.0
 40
3.2
 41
0.0
 71
     7
 72
     5
  1
M4バーリングタップ
 73
     1
 44
1.0
1001
ACAD
1000
MTEXTBEGIN
1070
    73
1070
     1
1070
    44
1040
1.0
1070
    74
1070
     0
1000
MTEXTEND
  0
ENDBLK
  5
5315F
330
53157
100
AcDbEntity
  8
0
 48
0.5
100
AcDbBlockEnd
  0
BLOCK
  5
535BD
330
535B3
100
AcDbEntity
  8
0
 48
0.5
100
AcDbBlockBegin
  2
*D16
 70
     1
 10
0.0
 20
0.0
 30
0.0
  3
*D16
  1

  0
LINE
  5
538EF
330
535B3
100
AcDbEntity
  8
AM_5
100
AcDbLine
 10
5843.658118947553
 20
-2245.642941417071
 30
0.0
 11
5843.658118947553
 21
-2268.642941417071
 31
0.0
  0
LINE
  5
538F0
330
535B3
100
AcDbEntity
  8
AM_5
100
AcDbLine
 10
5991.158118947552
 20
-2245.642941417071
 30
0.0
 11
5991.158118947552
 21
-2268.642941417071
 31
0.0
  0
LINE
  5
538F1
330
535B3
100
AcDbEntity
  8
AM_5
100
AcDbLine
 10
5844.658118947553
 20
-2267.642941417071
 30
0.0
 11
5990.158118947553
 21
-2267.642941417071
 31
0.0
  0
INSERT
  5
538F2
330
535B3
100
AcDbEntity
  8
AM_5
100
AcDbBlockReference
  2
_Dot
 10
5843.658118947553
 20
-2267.642941417071
 30
0.0
 50
180.0
  0
INSERT
  5
538F3
330
535B3
100
AcDbEntity
  8
AM_5
100
AcDbBlockReference
  2
_Dot
 10
5991.158118947552
 20
-2267.642941417071
 30
0.0
  0
MTEXT
  5
538F4
330
535B3
100
AcDbEntity
  8
AM_5
 62
     2
100
AcDbMText
 10
5917.408118947553
 20
-2265.042941417071
 30
0.0
 40
3.200000000000001
 41
0.0
 71
     5
 72
     1
  1
295
 73
     1
 44
1.0
1001
ACAD
1000
MTEXTBEGIN
1070
    73
1070
     1
1070
    44
1040
1.0
1070
    74
1070
     0
1000
MTEXTEND
  0
POINT
  5
538F5
330
535B3
100
AcDbEntity
  8
Defpoints
 62
     0
100
AcDbPoint
 10
5843.658118947553
 20
-2244.642941417071
 30
0.0
  0
POINT
  5
538F6
330
535B3
100
AcDbEntity
  8
Defpoints
 62
     0
100
AcDbPoint
 10
5991.158118947552
 20
-2244.642941417071
 30
0.0
  0
POINT
  5
538F7
330
535B3
100
AcDbEntity
  8
Defpoints
 62
     0
100
AcDbPoint
 10
5991.158118947552
 20
-2267.642941417071
 30
0.0
  0
ENDBLK
  5
535BE
330
535B3
100
AcDbEntity
  8
0
 48
0.5
100
AcDbBlockEnd
  0
BLOCK
  5
535C9
330
535BF
100
AcDbEntity
  8
0
 48
0.5
100
AcDbBlockBegin
  2
*D17
 70
     1
 10
0.0
 20
0.0
 30
0.0
  3
*D17
  1

  0
LINE
  5
53835
330
535BF
100
AcDbEntity
  8
AM_5
100
AcDbLine
 10
5826.854763822328
 20
-2229.54358105812
 30
0.0
 11
5836.174763822327
 21
-2229.54358105812
 31
0.0
  0
LINE
  5
53836
330
535BF
100
AcDbEntity
  8
AM_5
100
AcDbLine
 10
5836.174763822327
 20
-2229.54358105812
 30
0.0
 11
5840.255249572158
 21
-2232.596771742049
 31
0.0
  0
LINE
  5
53837
330
535BF
100
AcDbEntity
  8
AM_5
100
AcDbLine
 10
5847.060988322944
 20
-2237.689111092093
 30
0.0
 11
5848.662338617248
 21
-2238.887308586221
 31
0.0
  0
MTEXT
  5
53838
330
535BF
100
AcDbEntity
  8
AM_5
 62
     2
100
AcDbMText
 10
5831.014763822327
 20
-2226.943581058121
 30
0.0
 40
3.2
 41
0.0
 71
     5
 72
     1
  1
2-\U+22059
 73
     1
 44
1.0
1001
ACAD
1000
MTEXTBEGIN
1070
    73
1070
     1
1070
    44
1040
1.0
1070
    74
1070
     0
1000
MTEXTEND
  0
LINE
  5
53839
330
535BF
100
AcDbEntity
  8
AM_5
100
AcDbLine
 10
5845.459638028641
 20
-2236.490913597965
 30
0.0
 11
5841.85659986646
 21
-2233.794969236177
 31
0.0
  0
INSERT
  5
5383A
330
535BF
100
AcDbEntity
  8
AM_5
100
AcDbBlockReference
  2
GENDOT
 10
5845.459638028641
 20
-2236.490913597965
 30
0.0
 41
2.0
 42
2.0
 43
2.0
 50
143.1946226087931
  0
INSERT
  5
5383B
330
535BF
100
AcDbEntity
  8
AM_5
100
AcDbBlockReference
  2
GENDOT
 10
5841.85659986646
 20
-2233.794969236177
 30
0.0
 41
2.0
 42
2.0
 43
2.0
 50
323.1946226087931
  0
POINT
  5
5383C
330
535BF
100
AcDbEntity
  8
Defpoints
 62
     0
100
AcDbPoint
 10
5841.85659986646
 20
-2233.794969236177
 30
0.0
  0
POINT
  5
5383D
330
535BF
100
AcDbEntity
  8
Defpoints
 62
     0
100
AcDbPoint
 10
5845.459638028641
 20
-2236.490913597965
 30
0.0
  0
ENDBLK
  5
535CA
330
535BF
100
AcDbEntity
  8
0
 48
0.5
100
AcDbBlockEnd
  0
BLOCK
  5
53715
330
5370C
100
AcDbEntity
  8
0
 48
0.5
100
AcDbBlockBegin
  2
*D18
 70
     1
 10
0.0
 20
0.0
 30
0.0
  3
*D18
  1

  0
LINE
  5
53B00
330
5370C
100
AcDbEntity
  8
AM_5
100
AcDbLine
 10
5810.678378363269
 20
-2221.827809051711
 30
0.0
 11
5837.513045029936
 21
-2221.827809051712
 31
0.0
  0
LINE
  5
53B01
330
5370C
100
AcDbEntity
  8
AM_5
100
AcDbLine
 10
5837.513045029936
 20
-2221.827809051712
 30
0.0
 11
5841.565945495197
 21
-2225.992869268218
 31
0.0
  0
LINE
  5
53B02
330
5370C
100
AcDbEntity
  8
AM_5
100
AcDbLine
 10
5845.750292399904
 20
-2230.293013565924
 30
0.0
 11
5847.145074701472
 21
-2231.726394998491
 31
0.0
  0
MTEXT
  5
53B03
330
5370C
100
AcDbEntity
  8
AM_5
 62
     2
100
AcDbMText
 10
5823.595711696603
 20
-2216.561142385045
 30
0.0
 40
3.2
 41
0.0
 71
     5
 72
     1
  1
ブラケット取付ネジ用\P4-M4タップ
 73
     1
 44
1.0
1001
ACAD
1000
MTEXTBEGIN
1070
    73
1070
     1
1070
    44
1040
1.0
1070
    74
1070
     0
1000
MTEXTEND
  0
LINE
  5
53B04
330
5370C
100
AcDbEntity
  8
AM_5
100
AcDbLine
 10
5844.355510098335
 20
-2228.859632133355
 30
0.0
 11
5842.960727796765
 21
-2227.426250700786
 31
0.0
  0
INSERT
  5
53B05
330
5370C
100
AcDbEntity
  8
AM_5
100
AcDbBlockReference
  2
GENDOT
 10
5844.355510098335
 20
-2228.859632133355
 30
0.0
 41
2.0
 42
2.0
 43
2.0
 50
134.2180686108731
  0
INSERT
  5
53B06
330
5370C
100
AcDbEntity
  8
AM_5
100
AcDbBlockReference
  2
GENDOT
 10
5842.960727796765
 20
-2227.426250700786
 30
0.0
 41
2.0
 42
2.0
 43
2.0
 50
314.2180686108731
  0
POINT
  5
53B07
330
5370C
100
AcDbEntity
  8
Defpoints
 62
     0
100
AcDbPoint
 10
5842.960727796765
 20
-2227.426250700786
 30
0.0
  0
POINT
  5
53B08
330
5370C
100
AcDbEntity
  8
Defpoints
 62
     0
100
AcDbPoint
 10
5844.355510098335
 20
-2228.859632133355
 30
0.0
  0
ENDBLK
  5
53716
330
5370C
100
AcDbEntity
  8
0
 48
0.5
100
AcDbBlockEnd
  0
BLOCK
  5
5389D
330
53893
100
AcDbEntity
  8
0
 48
0.5
100
AcDbBlockBegin
  2
*D19
 70
     1
 10
0.0
 20
0.0
 30
0.0
  3
*D19
  1

  0
LINE
  5
53994
330
53893
100
AcDbEntity
  8
AM_5
100
AcDbLine
 10
5994.658118947553
 20
-2228.142941417071
 30
0.0
 11
6010.408118947551
 21
-2228.142941417071
 31
0.0
  0
LINE
  5
53995
330
53893
100
AcDbEntity
  8
AM_5
100
AcDbLine
 10
5994.658118947553
 20
-2242.142941417071
 30
0.0
 11
6010.408118947551
 21
-2242.142941417071
 31
0.0
  0
LINE
  5
53996
330
53893
100
AcDbEntity
  8
AM_5
100
AcDbLine
 10
6009.408118947551
 20
-2229.142941417071
 30
0.0
 11
6009.408118947551
 21
-2241.142941417071
 31
0.0
  0
INSERT
  5
53997
330
53893
100
AcDbEntity
  8
AM_5
100
AcDbBlockReference
  2
_Dot
 10
6009.408118947551
 20
-2228.142941417071
 30
0.0
 50
90.0
  0
INSERT
  5
53998
330
53893
100
AcDbEntity
  8
AM_5
100
AcDbBlockReference
  2
_Dot
 10
6009.408118947551
 20
-2242.142941417071
 30
0.0
 50
270.0
  0
MTEXT
  5
53999
330
53893
100
AcDbEntity
  8
AM_5
 62
     2
100
AcDbMText
 10
6006.808118947551
 20
-2235.142941417071
 30
0.0
 40
3.200000000000001
 41
0.0
 71
     5
 72
     1
  1
28
 11
0.0000000000000001
 21
1.0
 31
0.0
 73
     1
 44
1.0
1001
ACAD
1000
MTEXTBEGIN
1070
    73
1070
     1
1070
    44
1040
1.0
1070
    74
1070
     0
1000
MTEXTEND
  0
POINT
  5
5399A
330
53893
100
AcDbEntity
  8
Defpoints
 62
     0
100
AcDbPoint
 10
5993.658118947553
 20
-2228.142941417071
 30
0.0
  0
POINT
  5
5399B
330
53893
100
AcDbEntity
  8
Defpoints
 62
     0
100
AcDbPoint
 10
5993.658118947553
 20
-2242.142941417071
 30
0.0
  0
POINT
  5
5399C
330
53893
100
AcDbEntity
  8
Defpoints
 62
     0
100
AcDbPoint
 10
6009.408118947551
 20
-2242.142941417071
 30
0.0
  0
ENDBLK
  5
5389E
330
53893
100
AcDbEntity
  8
0
 48
0.5
100
AcDbBlockEnd
  0
BLOCK
  5
5394C
330
53942
100
AcDbEntity
  8
0
 48
0.5
100
AcDbBlockBegin
  2
*D20
 70
     1
 10
0.0
 20
0.0
 30
0.0
  3
*D20
  1

  0
LINE
  5
539BC
330
53942
100
AcDbEntity
  8
AM_5
100
AcDbLine
 10
5920.908118947552
 20
-2214.142941417071
 30
0.0
 11
6002.408118947552
 21
-2214.142941417071
 31
0.0
  0
LINE
  5
539BD
330
53942
100
AcDbEntity
  8
AM_5
100
AcDbLine
 10
5995.908118947553
 20
-2235.142941417071
 30
0.0
 11
6002.408118947552
 21
-2235.142941417071
 31
0.0
  0
LINE
  5
539BE
330
53942
100
AcDbEntity
  8
AM_5
100
AcDbLine
 10
6001.408118947551
 20
-2215.142941417071
 30
0.0
 11
6001.408118947551
 21
-2234.142941417071
 31
0.0
  0
INSERT
  5
539BF
330
53942
100
AcDbEntity
  8
AM_5
100
AcDbBlockReference
  2
_Dot
 10
6001.408118947551
 20
-2214.142941417071
 30
0.0
 50
90.0
  0
INSERT
  5
539C0
330
53942
100
AcDbEntity
  8
AM_5
100
AcDbBlockReference
  2
_Dot
 10
6001.408118947551
 20
-2235.142941417071
 30
0.0
 50
270.0
  0
MTEXT
  5
539C1
330
53942
100
AcDbEntity
  8
AM_5
 62
     2
100
AcDbMText
 10
5998.808118947552
 20
-2224.64294141707
 30
0.0
 40
3.200000000000001
 41
0.0
 71
     5
 72
     1
  1
42
 11
0.0000000000000001
 21
1.0
 31
0.0
 73
     1
 44
1.0
1001
ACAD
1000
MTEXTBEGIN
1070
    73
1070
     1
1070
    44
1040
1.0
1070
    74
1070
     0
1000
MTEXTEND
  0
POINT
  5
539C2
330
53942
100
AcDbEntity
  8
Defpoints
 62
     0
100
AcDbPoint
 10
5919.908118947553
 20
-2214.142941417071
 30
0.0
  0
POINT
  5
539C3
330
53942
100
AcDbEntity
  8
Defpoints
 62
     0
100
AcDbPoint
 10
5994.908118947552
 20
-2235.142941417071
 30
0.0
  0
POINT
  5
539C4
330
53942
100
AcDbEntity
  8
Defpoints
 62
     0
100
AcDbPoint
 10
6001.408118947551
 20
-2235.142941417071
 30
0.0
  0
ENDBLK
  5
5394D
330
53942
100
AcDbEntity
  8
0
 48
0.5
100
AcDbBlockEnd
  0
BLOCK
  5
53A49
330
53A3F
100
AcDbEntity
  8
0
 48
0.5
100
AcDbBlockBegin
  2
*D21
 70
     1
 10
0.0
 20
0.0
 30
0.0
  3
*D21
  1

  0
LINE
  5
53AF7
330
53A3F
100
AcDbEntity
  8
AM_5
100
AcDbLine
 10
5862.722468095972
 20
-2204.988266233662
 30
0.0
 11
5908.106468095972
 21
-2204.988266233662
 31
0.0
  0
LINE
  5
53AF8
330
53A3F
100
AcDbEntity
  8
AM_5
100
AcDbLine
 10
5908.106468095972
 20
-2204.988266233662
 30
0.0
 11
5915.269973412522
 21
-2212.038580784703
 31
0.0
  0
LINE
  5
53AF9
330
53A3F
100
AcDbEntity
  8
AM_5
100
AcDbLine
 10
5919.546264482582
 20
-2216.247302049429
 30
0.0
 11
5920.971694839269
 21
-2217.650209137671
 31
0.0
  0
MTEXT
  5
53AFA
330
53A3F
100
AcDbEntity
  8
AM_5
 62
     2
100
AcDbMText
 10
5884.914468095971
 20
-2202.388266233663
 30
0.0
 40
3.2
 41
0.0
 71
     5
 72
     1
  1
郵便受箱上部取付ネジ用　M4タップ
 73
     1
 44
1.0
1001
ACAD
1000
MTEXTBEGIN
1070
    73
1070
     1
1070
    44
1040
1.0
1070
    74
1070
     0
1000
MTEXTEND
  0
LINE
  5
53AFB
330
53A3F
100
AcDbEntity
  8
AM_5
100
AcDbLine
 10
5918.120834125897
 20
-2214.844394961188
 30
0.0
 11
5916.695403769208
 21
-2213.441487872945
 31
0.0
  0
INSERT
  5
53AFC
330
53A3F
100
AcDbEntity
  8
AM_5
100
AcDbBlockReference
  2
GENDOT
 10
5918.120834125897
 20
-2214.844394961188
 30
0.0
 41
2.0
 42
2.0
 43
2.0
 50
135.4562613088486
  0
INSERT
  5
53AFD
330
53A3F
100
AcDbEntity
  8
AM_5
100
AcDbBlockReference
  2
GENDOT
 10
5916.695403769208
 20
-2213.441487872945
 30
0.0
 41
2.0
 42
2.0
 43
2.0
 50
315.4562613088487
  0
POINT
  5
53AFE
330
53A3F
100
AcDbEntity
  8
Defpoints
 62
     0
100
AcDbPoint
 10
5916.695403769208
 20
-2213.441487872945
 30
0.0
  0
POINT
  5
53AFF
330
53A3F
100
AcDbEntity
  8
Defpoints
 62
     0
100
AcDbPoint
 10
5918.120834125897
 20
-2214.844394961188
 30
0.0
  0
ENDBLK
  5
53A4A
330
53A3F
100
AcDbEntity
  8
0
 48
0.5
100
AcDbBlockEnd
  0
BLOCK
  5
53B51
330
53B4A
100
AcDbEntity
  8
0
 48
0.5
100
AcDbBlockBegin
  2
*S23
 70
     1
 10
0.0
 20
0.0
 30
0.0
  3
*S23
  1

  0
LINE
  5
53B4B
330
53B4A
100
AcDbEntity
  8
AM_5
 62
     3
 48
0.5
100
AcDbLine
 10
5948.828847915546
 20
-2244.396762524796
 30
0.0
 11
5925.319514582214
 21
-2244.396762524796
 31
0.0
  0
LINE
  5
53B4C
330
53B4A
100
AcDbEntity
  8
AM_5
 62
     3
 48
0.5
100
AcDbLine
 10
5925.319514582214
 20
-2244.396762524796
 30
0.0
 11
5918.707763928731
 21
-2236.66311342145
 31
0.0
  0
LINE
  5
53B4D
330
53B4A
100
AcDbEntity
  8
AM_5
  6
Continuous
 62
     3
 48
0.5
100
AcDbLine
 10
5918.707763928731
 20
-2236.66311342145
 30
0.0
 11
5917.408118947553
 21
-2235.142941417071
 31
0.0
  0
LINE
  5
53B4E
330
53B4A
100
AcDbEntity
  8
AM_5
  6
Continuous
 62
     3
 48
0.5
100
AcDbLine
 10
5919.115092785965
 20
-2236.314874601456
 30
0.0
 11
5917.408118947553
 21
-2235.142941417071
 31
0.0
  0
LINE
  5
53B4F
330
53B4A
100
AcDbEntity
  8
AM_5
  6
Continuous
 62
     3
 48
0.5
100
AcDbLine
 10
5917.408118947553
 20
-2235.142941417071
 30
0.0
 11
5918.300435071497
 21
-2237.011352241444
 31
0.0
  0
MTEXT
  5
53B50
330
53B4A
100
AcDbEntity
  8
AM_5
 62
     2
100
AcDbMText
 10
5928.519514582212
 20
-2242.796762524795
 30
0.0
 40
3.2
 41
0.0
 71
     7
 72
     5
  1
ポスト口センター
 73
     1
 44
1.0
1001
ACAD
1000
MTEXTBEGIN
1070
    73
1070
     1
1070
    44
1040
1.0
1070
    74
1070
     0
1000
MTEXTEND
  0
ENDBLK
  5
53B52
330
53B4A
100
AcDbEntity
  8
0
 48
0.5
100
AcDbBlockEnd
  0
BLOCK
  5
53B5B
330
53B54
100
AcDbEntity
  8
0
 48
0.5
100
AcDbBlockBegin
  2
*S24
 70
     1
 10
0.0
 20
0.0
 30
0.0
  3
*S24
  1

  0
LINE
  5
53B55
330
53B54
100
AcDbEntity
  8
AM_5
 62
     3
 48
0.5
100
AcDbLine
 10
5846.977378532841
 20
-2213.57281537005
 30
0.0
 11
5900.204045199506
 21
-2213.57281537005
 31
0.0
  0
LINE
  5
53B56
330
53B54
100
AcDbEntity
  8
AM_5
 62
     3
 48
0.5
100
AcDbLine
 10
5900.204045199506
 20
-2213.57281537005
 30
0.0
 11
5905.114612155213
 21
-2219.142723594397
 31
0.0
  0
LINE
  5
53B57
330
53B54
100
AcDbEntity
  8
AM_5
  6
Continuous
 62
     3
 48
0.5
100
AcDbLine
 10
5905.114612155213
 20
-2219.142723594397
 30
0.0
 11
5906.437240782052
 21
-2220.642941417071
 31
0.0
  0
LINE
  5
53B58
330
53B54
100
AcDbEntity
  8
AM_5
  6
Continuous
 62
     3
 48
0.5
100
AcDbLine
 10
5904.712630004805
 20
-2219.497120863629
 30
0.0
 11
5906.437240782052
 21
-2220.642941417071
 31
0.0
  0
LINE
  5
53B59
330
53B54
100
AcDbEntity
  8
AM_5
  6
Continuous
 62
     3
 48
0.5
100
AcDbLine
 10
5906.437240782052
 20
-2220.642941417071
 30
0.0
 11
5905.516594305623
 21
-2218.788326325165
 31
0.0
  0
MTEXT
  5
53B5A
330
53B54
100
AcDbEntity
  8
AM_5
 62
     2
100
AcDbMText
 10
5897.004045199508
 20
-2211.97281537005
 30
0.0
 40
3.2
 41
0.0
 71
     9
 72
     5
  1
開口切欠は、使用するポスト口補強による
 73
     1
 44
1.0
1001
ACAD
1000
MTEXTBEGIN
1070
    73
1070
     1
1070
    44
1040
1.0
1070
    74
1070
     0
1000
MTEXTEND
  0
ENDBLK
  5
53B5C
330
53B54
100
AcDbEntity
  8
0
 48
0.5
100
AcDbBlockEnd
  0
ENDSEC
  0
SECTION
  2
ENTITIES
  0
AMDTACMWBLOCKBOMENTITY
  5
1EB3A
330
1F
100
AcDbEntity
  8
AM_6
 92
        8
310
0800000000000000
  0
AMDTACMWBLOCKBOMENTITY
  5
1EB3B
330
1F
100
AcDbEntity
  8
AM_5
 92
        8
310
0800000000000000
  0
AMDTACMWBLOCKBOMENTITY
  5
1EB3C
330
1F
100
AcDbEntity
  8
AM_5
 92
        8
310
0800000000000000
  0
AMDTACMWBLOCKBOMENTITY
  5
1EB3D
330
1F
100
AcDbEntity
  8
AM_5
 92
        8
310
0800000000000000
  0
AMDTACMWBLOCKBOMENTITY
  5
1EB3E
330
1F
100
AcDbEntity
  8
AM_5
 92
        8
310
0800000000000000
  0
AMDTACMWBLOCKBOMENTITY
  5
1EB3F
330
1F
100
AcDbEntity
  8
AM_5
 92
        8
310
0800000000000000
  0
AMDTACMWBLOCKBOMENTITY
  5
1EB40
330
1F
100
AcDbEntity
  8
AM_5
 92
        8
310
0800000000000000
  0
AMDTACMWBLOCKBOMENTITY
  5
1EB41
330
1F
100
AcDbEntity
  8
AM_5
 92
        8
310
0800000000000000
  0
ARC
  5
2121D
330
1F
100
AcDbEntity
  8
001本体
 48
0.5
 60
     1
100
AcDbCircle
 10
4762.519581199091
 20
-2259.06618040198
 30
0.0
 40
17.0
100
AcDbArc
 50
113.1764439438205
 51
176.107466317104
  0
AMDTACMWBLOCKBOMENTITY
  5
214E3
330
1F
100
AcDbEntity
  8
AM_5
 92
        8
310
0800000000000000
  0
AMDTACMWBLOCKBOMENTITY
  5
21FF0
330
1F
100
AcDbEntity
  8
AM_5
 92
        8
310
0800000000000000
  0
AMDTACMWBLOCKBOMENTITY
  5
21FF1
330
1F
100
AcDbEntity
  8
AM_5
 92
        8
310
0800000000000000
  0
AMDTACMWBLOCKBOMENTITY
  5
21FF2
330
1F
100
AcDbEntity
  8
AM_5
 92
        8
310
0800000000000000
  0
AMDTACMWBLOCKBOMENTITY
  5
21FF3
330
1F
100
AcDbEntity
  8
AM_5
 92
        8
310
0800000000000000
  0
AMDTACMWBLOCKBOMENTITY
  5
2627D
330
1F
100
AcDbEntity
  8
AM_6
 92
        8
310
0800000000000000
  0
AMDTACMWBLOCKBOMENTITY
  5
2627E
330
1F
100
AcDbEntity
  8
AM_5
 92
        8
310
0800000000000000
  0
AMDTACMWBLOCKBOMENTITY
  5
2627F
330
1F
100
AcDbEntity
  8
AM_5
 92
        8
310
0800000000000000
  0
AMDTACMWBLOCKBOMENTITY
  5
26280
330
1F
100
AcDbEntity
  8
AM_5
 92
        8
310
0800000000000000
  0
AMDTACMWBLOCKBOMENTITY
  5
26281
330
1F
100
AcDbEntity
  8
AM_5
 92
        8
310
0800000000000000
  0
AMDTACMWBLOCKBOMENTITY
  5
26282
330
1F
100
AcDbEntity
  8
AM_5
 92
        8
310
0800000000000000
  0
AMDTACMWBLOCKBOMENTITY
  5
26283
330
1F
100
AcDbEntity
  8
AM_5
 92
        8
310
0800000000000000
  0
LINE
  5
52424
330
1F
100
AcDbEntity
  8
AM_7
  6
中心線1
 48
0.5
370
     9
100
AcDbLine
 10
5984.311020341179
 20
-2140.480574845007
 30
0.0
 11
5984.311020341179
 21
-2176.578888658257
 31
0.0
  0
LINE
  5
52426
330
1F
100
AcDbEntity
  8
AM_7
  6
中心線1
 48
0.2
370
     9
100
AcDbLine
 10
5988.561016526483
 20
-2172.529767646334
 30
0.0
 11
5980.06102415588
 21
-2172.529767646334
 31
0.0
  0
CIRCLE
  5
52427
330
1F
100
AcDbEntity
  8
AM_0
 48
0.25
100
AcDbCircle
 10
5984.311020341182
 20
-2144.52969585693
 30
0.0
 40
2.249996185301398
  0
LINE
  5
52428
330
1F
100
AcDbEntity
  8
AM_0
 48
0.5
100
AcDbLine
 10
5952.611004251814
 20
-2138.529731751632
 30
0.0
 11
5988.111015763548
 21
-2138.529731751632
 31
0.0
1001
GENIUS_GENREC_14
1002
{
1000
PYDIR
1011
5987.611031852914
1021
-2178.529731751632
1031
0.0
1002
}
1002
{
1000
PXDIR
1011
6007.611031852913
1021
-2138.529731751632
1031
0.0
1002
}
1002
{
1000
PORI
1011
5952.611004251814
1021
-2138.529731751632
1031
0.0
1002
}
1002
{
1000
PINS
1011
5952.611004251814
1021
-2138.529731751632
1031
0.0
1002
}
1002
{
1000
PINS2
1011
6007.611031852913
1021
-2178.529731751632
1031
0.0
1002
}
1002
{
1000
C
1070
     1
1002
}
1001
GENIUS_GENODEF_13
1002
{
1000
HIER
1070
     0
1002
}
1002
{
1000
MANEDIT
1070
     0
1002
}
1002
{
1000
NOSEL
1070
     0
1002
}
1002
{
1000
BEHIND
1070
     0
1002
}
1002
{
1000
OTHER
1070
     0
1002
}
1002
{
1000
REACTOR
1002
}
1001
GENIUS_GENOBJ-N-REC_13
1002
{
1000
OWNER
1000
GEN
1002
}
  0
ARC
  5
52429
330
1F
100
AcDbEntity
  8
AM_0
 48
0.5
100
AcDbCircle
 10
5988.111015763548
 20
-2140.529731751632
 30
0.0
 40
2.0
100
AcDbArc
 50
0.0
 51
90.0
1001
GENIUS_GENREC_14
1002
{
1000
PYDIR
1011
5970.111015763548
1021
-2178.529731751632
1031
0.0
1002
}
1002
{
1000
PXDIR
1011
5990.111015763549
1021
-2138.529731751632
1031
0.0
1002
}
1002
{
1000
PORI
1011
5970.111015763548
1021
-2138.529731751632
1031
0.0
1002
}
1002
{
1000
PINS
1011
5970.111015763548
1021
-2138.529731751632
1031
0.0
1002
}
1002
{
1000
PINS2
1011
5990.111015763549
1021
-2178.529731751632
1031
0.0
1002
}
1002
{
1000
C
1070
     1
1002
}
1001
GENIUS_GENODEF_13
1002
{
1000
HIER
1070
     0
1002
}
1002
{
1000
MANEDIT
1070
     0
1002
}
1002
{
1000
NOSEL
1070
     0
1002
}
1002
{
1000
BEHIND
1070
     0
1002
}
1002
{
1000
OTHER
1070
     0
1002
}
1002
{
1000
REACTOR
1002
}
1001
GENIUS_GENOBJ-N-REC_13
1002
{
1000
OWNER
1000
GEN
1002
}
  0
LINE
  5
5242A
330
1F
100
AcDbEntity
  8
AM_0
 48
0.5
100
AcDbLine
 10
5990.111015763549
 20
-2140.529731751632
 30
0.0
 11
5990.111015763549
 21
-2176.529731751632
 31
0.0
1001
GENIUS_GENREC_14
1002
{
1000
PYDIR
1011
5970.111015763548
1021
-2178.529731751632
1031
0.0
1002
}
1002
{
1000
PXDIR
1011
5990.111015763549
1021
-2138.529731751632
1031
0.0
1002
}
1002
{
1000
PORI
1011
5970.111015763548
1021
-2138.529731751632
1031
0.0
1002
}
1002
{
1000
PINS
1011
5970.111015763548
1021
-2138.529731751632
1031
0.0
1002
}
1002
{
1000
PINS2
1011
5990.111015763549
1021
-2178.529731751632
1031
0.0
1002
}
1002
{
1000
C
1070
     1
1002
}
1001
GENIUS_GENODEF_13
1002
{
1000
HIER
1070
     0
1002
}
1002
{
1000
MANEDIT
1070
     0
1002
}
1002
{
1000
NOSEL
1070
     0
1002
}
1002
{
1000
BEHIND
1070
     0
1002
}
1002
{
1000
OTHER
1070
     0
1002
}
1002
{
1000
REACTOR
1002
}
1001
GENIUS_GENOBJ-N-REC_13
1002
{
1000
OWNER
1000
GEN
1002
}
  0
ARC
  5
5242B
330
1F
100
AcDbEntity
  8
AM_0
 48
0.5
100
AcDbCircle
 10
5988.111015763548
 20
-2176.529731751632
 30
0.0
 40
2.0
100
AcDbArc
 50
270.0
 51
0.0
1001
GENIUS_GENREC_14
1002
{
1000
PYDIR
1011
5970.111015763548
1021
-2178.529731751632
1031
0.0
1002
}
1002
{
1000
PXDIR
1011
5990.111015763549
1021
-2138.529731751632
1031
0.0
1002
}
1002
{
1000
PORI
1011
5970.111015763548
1021
-2138.529731751632
1031
0.0
1002
}
1002
{
1000
PINS
1011
5970.111015763548
1021
-2138.529731751632
1031
0.0
1002
}
1002
{
1000
PINS2
1011
5990.111015763549
1021
-2178.529731751632
1031
0.0
1002
}
1002
{
1000
C
1070
     1
1002
}
1001
GENIUS_GENODEF_13
1002
{
1000
HIER
1070
     0
1002
}
1002
{
1000
MANEDIT
1070
     0
1002
}
1002
{
1000
NOSEL
1070
     0
1002
}
1002
{
1000
BEHIND
1070
     0
1002
}
1002
{
1000
OTHER
1070
     0
1002
}
1002
{
1000
REACTOR
1002
}
1001
GENIUS_GENOBJ-N-REC_13
1002
{
1000
OWNER
1000
GEN
1002
}
  0
LINE
  5
5242C
330
1F
100
AcDbEntity
  8
AM_0
 48
0.5
100
AcDbLine
 10
5988.111015763548
 20
-2178.529731751632
 30
0.0
 11
5952.611004251814
 21
-2178.529731751632
 31
0.0
1001
GENIUS_GENREC_14
1002
{
1000
PYDIR
1011
5970.111020341179
1021
-2178.529731751632
1031
0.0
1002
}
1002
{
1000
PXDIR
1011
6007.611031852913
1021
-2138.529731751632
1031
0.0
1002
}
1002
{
1000
PORI
1011
5987.611031852914
1021
-2138.529731751632
1031
0.0
1002
}
1002
{
1000
PINS
1011
5987.611031852914
1021
-2138.529731751632
1031
0.0
1002
}
1002
{
1000
PINS2
1011
6007.611031852913
1021
-2178.529731751632
1031
0.0
1002
}
1002
{
1000
C
1070
     1
1002
}
1001
GENIUS_GENODEF_13
1002
{
1000
HIER
1070
     0
1002
}
1002
{
1000
MANEDIT
1070
     0
1002
}
1002
{
1000
NOSEL
1070
     0
1002
}
1002
{
1000
BEHIND
1070
     0
1002
}
1002
{
1000
OTHER
1070
     0
1002
}
1002
{
1000
REACTOR
1002
}
1001
GENIUS_GENOBJ-N-REC_13
1002
{
1000
OWNER
1000
GEN
1002
}
  0
LINE
  5
5242D
330
1F
100
AcDbEntity
  8
AM_0
 48
0.5
100
AcDbLine
 10
5952.611004251814
 20
-2178.529731751632
 30
0.0
 11
5952.611004251814
 21
-2138.529731751632
 31
0.0
1001
GENIUS_GENREC_14
1002
{
1000
PYDIR
1011
5970.111015763548
1021
-2178.529731751632
1031
0.0
1002
}
1002
{
1000
PXDIR
1011
5990.111015763549
1021
-2138.529731751632
1031
0.0
1002
}
1002
{
1000
PORI
1011
5970.111015763548
1021
-2138.529731751632
1031
0.0
1002
}
1002
{
1000
PINS
1011
5970.111015763548
1021
-2138.529731751632
1031
0.0
1002
}
1002
{
1000
PINS2
1011
5990.111015763549
1021
-2178.529731751632
1031
0.0
1002
}
1002
{
1000
C
1070
     1
1002
}
1001
GENIUS_GENODEF_13
1002
{
1000
HIER
1070
     0
1002
}
1002
{
1000
MANEDIT
1070
     0
1002
}
1002
{
1000
NOSEL
1070
     0
1002
}
1002
{
1000
BEHIND
1070
     0
1002
}
1002
{
1000
OTHER
1070
     0
1002
}
1002
{
1000
REACTOR
1002
}
1001
GENIUS_GENOBJ-N-REC_13
1002
{
1000
OWNER
1000
GEN
1002
}
  0
LINE
  5
5242E
330
1F
100
AcDbEntity
  8
AM_0
 48
0.5
100
AcDbLine
 10
5954.211004251814
 20
-2138.529731751632
 30
0.0
 11
5954.211004251814
 21
-2178.529731751632
 31
0.0
  0
LINE
  5
52430
330
1F
100
AcDbEntity
  8
AM_3
  6
陰線1
 48
0.2
100
AcDbLine
 10
5952.611004251814
 20
-2160.150726135345
 30
0.0
 11
5955.811004251813
 21
-2160.150726135345
 31
0.0
  0
LINE
  5
52431
330
1F
100
AcDbEntity
  8
AM_3
  6
陰線1
 48
0.2
100
AcDbLine
 10
5955.811004251813
 20
-2156.908729371873
 30
0.0
 11
5952.611004251814
 21
-2156.908729371873
 31
0.0
  0
LINE
  5
52432
330
1F
100
AcDbEntity
  8
AM_3
  6
陰線1
 48
0.2
100
AcDbLine
 10
5955.811004251813
 20
-2160.529731569143
 30
0.0
 11
5952.611004251814
 21
-2160.529731569143
 31
0.0
  0
LINE
  5
52433
330
1F
100
AcDbEntity
  8
AM_3
  6
陰線1
 48
0.2
100
AcDbLine
 10
5955.811004251813
 20
-2156.529731569143
 30
0.0
 11
5952.611004251814
 21
-2156.529731569143
 31
0.0
  0
CIRCLE
  5
52441
330
1F
100
AcDbEntity
  8
AM_0
 48
0.25
100
AcDbCircle
 10
5984.311020341182
 20
-2172.529767646334
 30
0.0
 40
2.249996185301398
  0
DIMENSION
  5
52447
330
1F
100
AcDbEntity
  8
AM_5
100
AcDbDimension
  2
*D6
 10
5952.611004251814
 20
-2186.529731751632
 30
0.0
 11
5968.461012296497
 21
-2183.929731751632
 31
0.0
 70
    32
  1
<>
 71
     5
 42
31.70001608936491
  3
SYS$0
100
AcDbAlignedDimension
 13
5984.311020341179
 23
-2176.578888658257
 33
0.0
 14
5952.611004251814
 24
-2178.529731751632
 34
0.0
100
AcDbRotatedDimension
1001
ACAD
1000
DSTYLE
1002
{
1070
   147
1040
1.0
1070
   286
1070
     0
1070
   284
1070
     8
1070
   274
1070
     2
1070
   272
1070
     2
1070
    47
1040
0.0
1070
    48
1040
0.2
1002
}
  0
DIMENSION
  5
52448
330
1F
100
AcDbEntity
  8
AM_5
100
AcDbDimension
  2
*D7
 10
5990.111015763549
 20
-2194.529731751632
 30
0.0
 11
5971.361010007681
 21
-2191.929731751632
 31
0.0
 70
    32
 71
     5
 42
37.50001151173456
  3
SYS$0
100
AcDbAlignedDimension
 13
5952.611004251814
 23
-2178.529731751632
 33
0.0
 14
5990.111015763549
 24
-2176.529731751632
 34
0.0
100
AcDbRotatedDimension
1001
ACAD
1000
DSTYLE
1002
{
1070
   147
1040
1.0
1070
    47
1040
0.5
1070
    48
1040
0.5
1002
}
  0
DIMENSION
  5
52449
330
1F
100
AcDbEntity
  8
AM_5
100
AcDbDimension
  2
*D8
 10
5944.611004251814
 20
-2172.529767646334
 30
0.0
 11
5942.011004251814
 21
-2158.529731751631
 31
0.0
 70
    32
 71
     5
 42
28.00007178940404
  3
SYS$0
100
AcDbAlignedDimension
 13
5980.06102415588
 23
-2144.52969585693
 33
0.0
 14
5980.06102415588
 24
-2172.529767646334
 34
0.0
 50
90.0
100
AcDbRotatedDimension
1001
ACAD
1000
DSTYLE
1002
{
1070
    47
1040
0.2
1070
    48
1040
0.2
1002
}
  0
LINE
  5
52455
330
1F
100
AcDbEntity
  8
AM_0
 48
0.5
100
AcDbLine
 10
5955.811004249607
 20
-2155.529731113143
 30
0.0
 11
5955.811004276114
 21
-2161.529731435127
 31
0.0
  0
LINE
  5
52456
330
1F
100
AcDbEntity
  8
AM_0
 48
0.5
100
AcDbLine
 10
5955.811004251813
 20
-2156.02973144318
 30
0.0
 11
5955.811004276114
 21
-2161.529731433459
 31
0.0
  0
LINE
  5
52457
330
1F
100
AcDbEntity
  8
AM_0
100
AcDbLine
 10
5955.811004276114
 20
-2161.529731435128
 30
0.0
 11
5954.211004397606
 21
-2161.529731512884
 31
0.0
  0
LINE
  5
52458
330
1F
100
AcDbEntity
  8
AM_0
100
AcDbLine
 10
5955.811004276114
 20
-2155.529731113143
 30
0.0
 11
5954.211004397606
 21
-2155.529731035387
 31
0.0
  0
DIMENSION
  5
5245A
330
1F
100
AcDbEntity
  8
AM_5
100
AcDbDimension
  2
*D9
 10
5982.802059041894
 20
-2146.198683163989
 30
0.0
 11
6000.259583734788
 21
-2134.425670641133
 31
0.0
 70
   163
  1
2-<>
 71
     5
 42
4.499992370603649
  3
SYS$3
100
AcDbDiametricDimension
 15
5985.819981640468
 25
-2142.86070854987
 35
0.0
 40
0.0
1001
ACAD
1000
DSTYLE
1002
{
1070
   172
1070
     1
1070
   342
1005
32629
1002
}
  0
LINE
  5
5245D
330
1F
100
AcDbEntity
  8
AM_7
 48
0.5
100
AcDbLine
 10
5949.611004251813
 20
-2158.529731751632
 30
0.0
 11
5993.111015763549
 21
-2158.529731751632
 31
0.0
1001
GENIUS_GENODEF_13
1002
{
1000
HIER
1070
     0
1002
}
1002
{
1000
MANEDIT
1070
     0
1002
}
1002
{
1000
NOSEL
1070
     0
1002
}
1002
{
1000
BEHIND
1070
     0
1002
}
1002
{
1000
OTHER
1070
     0
1002
}
1002
{
1000
REACTOR
1002
}
1001
GENIUS_GENOBJ-N-CEN_13
1002
{
1000
OWNER
1000
GEN
1002
}
1001
GENIUS_GENCEN_19
1002
{
1040
3.0
1002
}
  0
DIMENSION
  5
5245E
330
1F
100
AcDbEntity
  8
AM_5
100
AcDbDimension
  2
*D10
 10
5936.611004251814
 20
-2178.529731751632
 30
0.0
 11
5934.011004251814
 21
-2158.529731751631
 31
0.0
 70
    32
 71
     5
 42
40.0
  3
SYS$0
100
AcDbAlignedDimension
 13
5952.611004251814
 23
-2138.529731751632
 33
0.0
 14
5952.611004251814
 24
-2178.529731751632
 34
0.0
 50
90.0
100
AcDbRotatedDimension
1001
ACAD
1000
DSTYLE
1002
{
1070
   147
1040
1.0
1070
    47
1040
0.5
1070
    48
1040
0.5
1002
}
  0
LINE
  5
525DC
330
1F
100
AcDbEntity
  8
AM_7
  6
中心線1
 48
0.2
370
     9
100
AcDbLine
 10
5988.561016526483
 20
-2144.52969585693
 30
0.0
 11
5980.06102415588
 21
-2144.52969585693
 31
0.0
  0
LINE
  5
52645
330
1F
100
AcDbEntity
  8
AM_0
100
AcDbLine
 10
5784.047826521639
 20
-2087.982271409579
 30
0.0
 11
5894.04782652164
 21
-2087.982271409579
 31
0.0
  0
LINE
  5
52646
330
1F
100
AcDbEntity
  8
AM_0
100
AcDbLine
 10
5784.047826521643
 20
-2187.982271409579
 30
0.0
 11
5894.047826521646
 21
-2187.982271409579
 31
0.0
  0
LINE
  5
52647
330
1F
100
AcDbEntity
  8
AM_2
100
AcDbLine
 10
5784.047826521639
 20
-2111.982271409579
 30
0.0
 11
5894.047826521642
 21
-2111.982271409579
 31
0.0
  0
LINE
  5
52648
330
1F
100
AcDbEntity
  8
AM_2
100
AcDbLine
 10
5784.047826521639
 20
-2103.982271409579
 30
0.0
 11
5894.047826521642
 21
-2103.982271409579
 31
0.0
  0
LINE
  5
52649
330
1F
100
AcDbEntity
  8
AM_2
100
AcDbLine
 10
5784.047826521639
 20
-2095.982271409579
 30
0.0
 11
5894.047826521642
 21
-2095.982271409579
 31
0.0
  0
LINE
  5
5264A
330
1F
100
AcDbEntity
  8
AM_2
100
AcDbLine
 10
5804.047826521641
 20
-2087.982271409579
 30
0.0
 11
5804.047826521641
 21
-2187.982271409579
 31
0.0
  0
MTEXT
  5
5264B
330
1F
100
AcDbEntity
  8
AM_6
100
AcDbMText
 10
5794.047826521641
 20
-2115.982271409579
 30
0.0
 40
3.2
 41
20.0
 71
     5
 72
     5
  1
仕上げ
 73
     1
 44
1.0
1001
ACAD
1000
MTEXTBEGIN
1070
    73
1070
     1
1070
    44
1040
1.0
1070
    74
1070
     0
1000
MTEXTEND
  0
MTEXT
  5
5264C
330
1F
100
AcDbEntity
  8
AM_6
100
AcDbMText
 10
5794.047826521641
 20
-2107.982271409579
 30
0.0
 40
3.2
 41
20.0
 71
     5
 72
     5
  1
材　質
 73
     1
 44
1.0
1001
ACAD
1000
MTEXTBEGIN
1070
    73
1070
     1
1070
    44
1040
1.0
1070
    74
1070
     0
1000
MTEXTEND
  0
MTEXT
  5
5264D
330
1F
100
AcDbEntity
  8
AM_6
100
AcDbMText
 10
5794.047826521641
 20
-2091.982271409579
 30
0.0
 40
3.2
 41
20.0
 71
     5
 72
     5
  1
品　名
 73
     1
 44
1.0
1001
ACAD
1000
MTEXTBEGIN
1070
    73
1070
     1
1070
    44
1040
1.0
1070
    74
1070
     0
1000
MTEXTEND
  0
MTEXT
  5
5264E
330
1F
100
AcDbEntity
  8
AM_6
100
AcDbMText
 10
5794.047826521641
 20
-2099.982271409579
 30
0.0
 40
3.2
 41
20.0
 71
     5
 72
     5
  1
品　番
 73
     1
 44
1.0
1001
ACAD
1000
MTEXTBEGIN
1070
    73
1070
     1
1070
    44
1040
1.0
1070
    74
1070
     0
1000
MTEXTEND
  0
MTEXT
  5
5264F
330
1F
100
AcDbEntity
  8
AM_6
100
AcDbMText
 10
5804.047826521641
 20
-2115.982271409579
 30
0.0
 40
3.2
 41
90.0
 71
     4
 72
     5
  1
　有色クロメート
 73
     1
 44
1.0
1001
ACAD
1000
MTEXTBEGIN
1070
    73
1070
     1
1070
    44
1040
1.0
1070
    74
1070
     0
1000
MTEXTEND
  0
MTEXT
  5
52650
330
1F
100
AcDbEntity
  8
AM_6
100
AcDbMText
 10
5804.047826521641
 20
-2107.982271409579
 30
0.0
 40
3.2
 41
90.0
 71
     4
 72
     5
  1
　スチール
 73
     1
 44
1.0
1001
ACAD
1000
MTEXTBEGIN
1070
    73
1070
     1
1070
    44
1040
1.0
1070
    74
1070
     0
1000
MTEXTEND
  0
MTEXT
  5
52651
330
1F
100
AcDbEntity
  8
AM_6
100
AcDbMText
 10
5804.047826521641
 20
-2099.982271409579
 30
0.0
 40
3.2
 41
90.0
 71
     4
 72
     5
  1
　DP-170
 73
     1
 44
1.0
1001
ACAD
1000
MTEXTBEGIN
1070
    73
1070
     1
1070
    44
1040
1.0
1070
    74
1070
     0
1000
MTEXTEND
  0
MTEXT
  5
52652
330
1F
100
AcDbEntity
  8
AM_6
100
AcDbMText
 10
5804.047826521641
 20
-2091.982271409579
 30
0.0
 40
3.2
 41
90.0
 71
     4
 72
     5
  1
　ブラケット
 73
     1
 44
1.0
1001
ACAD
1000
MTEXTBEGIN
1070
    73
1070
     1
1070
    44
1040
1.0
1070
    74
1070
     0
1000
MTEXTEND
  0
LINE
  5
52654
330
1F
100
AcDbEntity
  8
size
100
AcDbLine
 10
5772.547826521641
 20
-2079.482271409579
 30
0.0
 11
6069.547826521641
 21
-2079.482271409579
 31
0.0
1001
GENIUS_GENREC_14
1002
{
1000
PYDIR
1011
5772.547826521641
1021
-1992.482271409579
1031
0.0
1002
}
1002
{
1000
PXDIR
1011
6192.547826521639
1021
-2289.482271409579
1031
0.0
1002
}
1002
{
1000
PORI
1011
5772.547826521641
1021
-2289.482271409579
1031
0.0
1002
}
1002
{
1000
PINS
1011
5982.547826521641
1021
-2140.982271409579
1031
0.0
1002
}
1002
{
1000
HVAL
1000
297
1002
}
1002
{
1000
H
1070
     2
1002
}
1002
{
1000
WVAL
1000
420
1002
}
1002
{
1000
W
1070
     2
1002
}
1002
{
1000
C
1070
     4
1002
}
1001
GENIUS_GENOBJ-N-REC_13
1002
{
1000
OWNER
1000
GEN
1002
}
1001
GENIUS_GENODEF_13
1002
{
1000
HIER
1070
     0
1002
}
1002
{
1000
MANEDIT
1070
     0
1002
}
1002
{
1000
NOSEL
1070
     0
1002
}
1002
{
1000
BEHIND
1070
     0
1002
}
1002
{
1000
OTHER
1070
     0
1002
}
1002
{
1000
REACTOR
1002
}
  0
LINE
  5
52655
330
1F
100
AcDbEntity
  8
size
100
AcDbLine
 10
6069.547826521641
 20
-2079.482271409579
 30
0.0
 11
6069.547826521641
 21
-2289.482271409579
 31
0.0
1001
GENIUS_GENREC_14
1002
{
1000
PYDIR
1011
5772.547826521641
1021
-1992.482271409579
1031
0.0
1002
}
1002
{
1000
PXDIR
1011
6192.547826521639
1021
-2289.482271409579
1031
0.0
1002
}
1002
{
1000
PORI
1011
5772.547826521641
1021
-2289.482271409579
1031
0.0
1002
}
1002
{
1000
PINS
1011
5982.547826521641
1021
-2140.982271409579
1031
0.0
1002
}
1002
{
1000
HVAL
1000
297
1002
}
1002
{
1000
H
1070
     2
1002
}
1002
{
1000
WVAL
1000
420
1002
}
1002
{
1000
W
1070
     2
1002
}
1002
{
1000
C
1070
     4
1002
}
1001
GENIUS_GENOBJ-N-REC_13
1002
{
1000
OWNER
1000
GEN
1002
}
1001
GENIUS_GENODEF_13
1002
{
1000
HIER
1070
     0
1002
}
1002
{
1000
MANEDIT
1070
     0
1002
}
1002
{
1000
NOSEL
1070
     0
1002
}
1002
{
1000
BEHIND
1070
     0
1002
}
1002
{
1000
OTHER
1070
     0
1002
}
1002
{
1000
REACTOR
1002
}
  0
LINE
  5
52656
330
1F
100
AcDbEntity
  8
waku
100
AcDbLine
 10
5784.047826521639
 20
-2280.982271409579
 30
0.0
 11
6058.04782652164
 21
-2280.982271409579
 31
0.0
1001
GENIUS_GENREC_14
1002
{
1000
PYDIR
1011
5772.547826521641
1021
-1992.482271409579
1031
0.0
1002
}
1002
{
1000
PXDIR
1011
6192.547826521639
1021
-2289.482271409579
1031
0.0
1002
}
1002
{
1000
PORI
1011
5772.547826521641
1021
-2289.482271409579
1031
0.0
1002
}
1002
{
1000
PINS
1011
5982.547826521641
1021
-2140.982271409579
1031
0.0
1002
}
1002
{
1000
HVAL
1000
297
1002
}
1002
{
1000
H
1070
     2
1002
}
1002
{
1000
WVAL
1000
420
1002
}
1002
{
1000
W
1070
     2
1002
}
1002
{
1000
C
1070
     4
1002
}
  0
LINE
  5
52657
330
1F
100
AcDbEntity
  8
waku
100
AcDbLine
 10
6058.04782652164
 20
-2087.982271409579
 30
0.0
 11
5784.047826521639
 21
-2087.982271409579
 31
0.0
1001
GENIUS_GENREC_14
1002
{
1000
PYDIR
1011
5649.54782652164
1021
-2079.482271409579
1031
0.0
1002
}
1002
{
1000
PXDIR
1011
6069.547826521641
1021
-2376.48227140958
1031
0.0
1002
}
1002
{
1000
PORI
1011
5649.54782652164
1021
-2376.48227140958
1031
0.0
1002
}
1002
{
1000
PINS
1011
5859.547826521641
1021
-2227.982271409579
1031
0.0
1002
}
1002
{
1000
HVAL
1000
297
1002
}
1002
{
1000
H
1070
     2
1002
}
1002
{
1000
WVAL
1000
420
1002
}
1002
{
1000
W
1070
     2
1002
}
1002
{
1000
C
1070
     4
1002
}
1001
GENIUS_GENOBJ-N-REC_13
1002
{
1000
OWNER
1000
GEN
1002
}
1001
GENIUS_GENODEF_13
1002
{
1000
HIER
1070
     0
1002
}
1002
{
1000
MANEDIT
1070
     0
1002
}
1002
{
1000
NOSEL
1070
     0
1002
}
1002
{
1000
BEHIND
1070
     0
1002
}
1002
{
1000
OTHER
1070
     0
1002
}
1002
{
1000
REACTOR
1002
}
  0
LINE
  5
52658
330
1F
100
AcDbEntity
  8
waku
100
AcDbLine
 10
5784.047826521639
 20
-2087.982271409579
 30
0.0
 11
5784.047826521639
 21
-2280.982271409579
 31
0.0
1001
GENIUS_GENREC_14
1002
{
1000
PYDIR
1011
5772.547826521641
1021
-1992.482271409579
1031
0.0
1002
}
1002
{
1000
PXDIR
1011
6192.547826521639
1021
-2289.482271409579
1031
0.0
1002
}
1002
{
1000
PORI
1011
5772.547826521641
1021
-2289.482271409579
1031
0.0
1002
}
1002
{
1000
PINS
1011
5982.547826521641
1021
-2140.982271409579
1031
0.0
1002
}
1002
{
1000
HVAL
1000
297
1002
}
1002
{
1000
H
1070
     2
1002
}
1002
{
1000
WVAL
1000
420
1002
}
1002
{
1000
W
1070
     2
1002
}
1002
{
1000
C
1070
     4
1002
}
1001
GENIUS_GENOBJ-N-REC_13
1002
{
1000
OWNER
1000
GEN
1002
}
1001
GENIUS_GENODEF_13
1002
{
1000
HIER
1070
     0
1002
}
1002
{
1000
MANEDIT
1070
     0
1002
}
1002
{
1000
NOSEL
1070
     0
1002
}
1002
{
1000
BEHIND
1070
     0
1002
}
1002
{
1000
OTHER
1070
     0
1002
}
1002
{
1000
REACTOR
1002
}
  0
LINE
  5
52659
330
1F
100
AcDbEntity
  8
waku
100
AcDbLine
 10
6058.04782652164
 20
-2280.982271409579
 30
0.0
 11
6058.04782652164
 21
-2087.982271409579
 31
0.0
1001
GENIUS_GENREC_14
1002
{
1000
PYDIR
1011
5649.54782652164
1021
-2073.482271409579
1031
0.0
1002
}
1002
{
1000
PXDIR
1011
6069.547826521641
1021
-2370.48227140958
1031
0.0
1002
}
1002
{
1000
PORI
1011
5649.54782652164
1021
-2370.48227140958
1031
0.0
1002
}
1002
{
1000
PINS
1011
5859.547826521641
1021
-2221.982271409579
1031
0.0
1002
}
1002
{
1000
HVAL
1000
297
1002
}
1002
{
1000
H
1070
     2
1002
}
1002
{
1000
WVAL
1000
420
1002
}
1002
{
1000
W
1070
     2
1002
}
1002
{
1000
C
1070
     4
1002
}
1001
GENIUS_GENOBJ-N-REC_13
1002
{
1000
OWNER
1000
GEN
1002
}
1001
GENIUS_GENODEF_13
1002
{
1000
HIER
1070
     0
1002
}
1002
{
1000
MANEDIT
1070
     0
1002
}
1002
{
1000
NOSEL
1070
     0
1002
}
1002
{
1000
BEHIND
1070
     0
1002
}
1002
{
1000
OTHER
1070
     0
1002
}
1002
{
1000
REACTOR
1002
}
  0
LINE
  5
5265A
330
1F
100
AcDbEntity
  8
size
100
AcDbLine
 10
5772.547826521641
 20
-2079.482271409579
 30
0.0
 11
5772.547826521641
 21
-2289.482271409579
 31
0.0
1001
GENIUS_GENREC_14
1002
{
1000
PYDIR
1011
5772.547826521641
1021
-1992.482271409579
1031
0.0
1002
}
1002
{
1000
PXDIR
1011
6192.547826521639
1021
-2289.482271409579
1031
0.0
1002
}
1002
{
1000
PORI
1011
5772.547826521641
1021
-2289.482271409579
1031
0.0
1002
}
1002
{
1000
PINS
1011
5982.547826521641
1021
-2140.982271409579
1031
0.0
1002
}
1002
{
1000
HVAL
1000
297
1002
}
1002
{
1000
H
1070
     2
1002
}
1002
{
1000
WVAL
1000
420
1002
}
1002
{
1000
W
1070
     2
1002
}
1002
{
1000
C
1070
     4
1002
}
1001
GENIUS_GENOBJ-N-REC_13
1002
{
1000
OWNER
1000
GEN
1002
}
1001
GENIUS_GENODEF_13
1002
{
1000
HIER
1070
     0
1002
}
1002
{
1000
MANEDIT
1070
     0
1002
}
1002
{
1000
NOSEL
1070
     0
1002
}
1002
{
1000
BEHIND
1070
     0
1002
}
1002
{
1000
OTHER
1070
     0
1002
}
1002
{
1000
REACTOR
1002
}
  0
LINE
  5
5265B
330
1F
100
AcDbEntity
  8
size
100
AcDbLine
 10
5772.547826521641
 20
-2289.482271409579
 30
0.0
 11
6069.547826521641
 21
-2289.482271409579
 31
0.0
1001
GENIUS_GENREC_14
1002
{
1000
PYDIR
1011
5772.547826521641
1021
-1992.482271409579
1031
0.0
1002
}
1002
{
1000
PXDIR
1011
6192.547826521639
1021
-2289.482271409579
1031
0.0
1002
}
1002
{
1000
PORI
1011
5772.547826521641
1021
-2289.482271409579
1031
0.0
1002
}
1002
{
1000
PINS
1011
5982.547826521641
1021
-2140.982271409579
1031
0.0
1002
}
1002
{
1000
HVAL
1000
297
1002
}
1002
{
1000
H
1070
     2
1002
}
1002
{
1000
WVAL
1000
420
1002
}
1002
{
1000
W
1070
     2
1002
}
1002
{
1000
C
1070
     4
1002
}
1001
GENIUS_GENOBJ-N-REC_13
1002
{
1000
OWNER
1000
GEN
1002
}
1001
GENIUS_GENODEF_13
1002
{
1000
HIER
1070
     0
1002
}
1002
{
1000
MANEDIT
1070
     0
1002
}
1002
{
1000
NOSEL
1070
     0
1002
}
1002
{
1000
BEHIND
1070
     0
1002
}
1002
{
1000
OTHER
1070
     0
1002
}
1002
{
1000
REACTOR
1002
}
  0
LINE
  5
5281D
330
1F
100
AcDbEntity
  8
AM_0
100
AcDbLine
 10
5990.311020341181
 20
-2106.804615575973
 30
0.0
 11
5954.211004251816
 21
-2106.804615575973
 31
0.0
  0
ARC
  5
5281E
330
1F
100
AcDbEntity
  8
AM_0
100
AcDbCircle
 10
5954.211004251816
 20
-2108.404615575973
 30
0.0
 40
1.600000000000362
100
AcDbArc
 50
90.0
 51
180.0
  0
LINE
  5
5281F
330
1F
100
AcDbEntity
  8
AM_0
100
AcDbLine
 10
5952.611004251814
 20
-2108.404615575973
 30
0.0
 11
5952.611004251814
 21
-2122.804615575973
 31
0.0
  0
LINE
  5
52820
330
1F
100
AcDbEntity
  8
AM_0
100
AcDbLine
 10
5952.611004251814
 20
-2122.804615575973
 30
0.0
 11
5954.211004251816
 21
-2122.804615575973
 31
0.0
  0
LINE
  5
52821
330
1F
100
AcDbEntity
  8
AM_0
100
AcDbLine
 10
5954.211004251816
 20
-2122.804615575973
 30
0.0
 11
5954.211004251816
 21
-2108.404615575973
 31
0.0
  0
LINE
  5
52822
330
1F
100
AcDbEntity
  8
AM_0
100
AcDbLine
 10
5954.211004251816
 20
-2108.404615575973
 30
0.0
 11
5990.311020341181
 21
-2108.404615575973
 31
0.0
  0
LINE
  5
52823
330
1F
100
AcDbEntity
  8
AM_0
 48
0.5
100
AcDbLine
 10
5990.311020341181
 20
-2108.404615575974
 30
0.0
 11
5990.311020341181
 21
-2106.804615575973
 31
0.0
  0
LINE
  5
52839
330
1F
100
AcDbEntity
  8
AM_3
  6
陰線1
 48
0.2
100
AcDbLine
 10
5952.611004251814
 20
-2115.183621016067
 30
0.0
 11
5955.811004251813
 21
-2115.183621016068
 31
0.0
  0
LINE
  5
5283A
330
1F
100
AcDbEntity
  8
AM_3
  6
陰線1
 48
0.2
100
AcDbLine
 10
5955.811004251813
 20
-2118.425617779541
 30
0.0
 11
5952.611004251814
 21
-2118.425617779541
 31
0.0
  0
LINE
  5
5283B
330
1F
100
AcDbEntity
  8
AM_3
  6
陰線1
 48
0.2
100
AcDbLine
 10
5955.811004251813
 20
-2114.804615582269
 30
0.0
 11
5952.611004251814
 21
-2114.80461558227
 31
0.0
  0
LINE
  5
5283C
330
1F
100
AcDbEntity
  8
AM_3
  6
陰線1
 48
0.2
100
AcDbLine
 10
5955.811004251813
 20
-2118.804615582269
 30
0.0
 11
5952.611004251814
 21
-2118.80461558227
 31
0.0
  0
LINE
  5
52842
330
1F
100
AcDbEntity
  8
AM_7
  6
中心線1
 48
0.2
370
     9
100
AcDbLine
 10
5959.123773311739
 20
-2116.804615391816
 30
0.0
 11
5949.298235191894
 21
-2116.804615869313
 31
0.0
1001
GENIUS_GENODEF_13
1002
{
1000
HIER
1070
     0
1002
}
1002
{
1000
MANEDIT
1070
     0
1002
}
1002
{
1000
NOSEL
1070
     0
1002
}
1002
{
1000
BEHIND
1070
     0
1002
}
1002
{
1000
OTHER
1070
     0
1002
}
1002
{
1000
REACTOR
1002
}
1001
GENIUS_GENOBJ-N-CEN_13
1002
{
1000
OWNER
1000
GEN
1002
}
1001
GENIUS_GENCEN_19
1002
{
1040
8.0
1002
}
  0
LINE
  5
52843
330
1F
100
AcDbEntity
  8
AM_7
  6
中心線1
 48
0.2
370
     9
100
AcDbLine
 10
5984.311020341182
 20
-2103.194615347091
 30
0.0
 11
5984.311020341182
 21
-2112.014615804856
 31
0.0
  0
LINE
  5
5284E
330
1F
100
AcDbEntity
  8
AM_0
 48
0.5
100
AcDbLine
 10
5955.811004249607
 20
-2113.804615230823
 30
0.0
 11
5955.811004276114
 21
-2119.804615552808
 31
0.0
  0
LINE
  5
5284F
330
1F
100
AcDbEntity
  8
AM_0
 48
0.5
100
AcDbLine
 10
5955.811004251813
 20
-2114.304615560861
 30
0.0
 11
5955.811004276114
 21
-2119.80461555114
 31
0.0
  0
LINE
  5
52851
330
1F
100
AcDbEntity
  8
AM_0
100
AcDbLine
 10
5955.811004276114
 20
-2119.804615552808
 30
0.0
 11
5954.211004397607
 21
-2119.804615630564
 31
0.0
  0
LINE
  5
52852
330
1F
100
AcDbEntity
  8
AM_0
100
AcDbLine
 10
5955.811004276114
 20
-2113.804615230823
 30
0.0
 11
5954.211004397607
 21
-2113.804615153068
 31
0.0
  0
DIMENSION
  5
52987
330
1F
100
AcDbEntity
  8
AM_5
100
AcDbDimension
  2
*D11
 10
5944.611003241815
 20
-2116.804615869313
 30
0.0
 11
5942.011003241816
 21
-2111.804615722642
 31
0.0
 70
    32
 71
     5
 42
10.00000029334023
  3
SYS$0
100
AcDbAlignedDimension
 13
5954.211004251816
 23
-2106.804615575973
 33
0.0
 14
5949.298235191894
 24
-2116.804615869313
 34
0.0
 50
90.0
100
AcDbRotatedDimension
1001
ACAD
1000
DSTYLE
1002
{
1070
   271
1070
     1
1002
}
  0
DIMENSION
  5
5299D
330
1F
100
AcDbEntity
  8
AM_5
100
AcDbDimension
  2
*D12
 10
5936.611004251814
 20
-2122.804615575973
 30
0.0
 11
5934.011004251814
 21
-2114.804615575972
 31
0.0
 70
    32
 71
     5
 42
16.0
  3
SYS$0
100
AcDbAlignedDimension
 13
5954.211004251816
 23
-2106.804615575973
 33
0.0
 14
5952.611004251814
 24
-2122.804615575973
 34
0.0
 50
90.0
100
AcDbRotatedDimension
1001
ACAD
1000
DSTYLE
1002
{
1070
   271
1070
     1
1002
}
  0
LINE
  5
52A05
330
1F
100
AcDbEntity
  8
AM_2
100
AcDbLine
 10
5784.047826521639
 20
-2119.982271409579
 30
0.0
 11
5894.047826521642
 21
-2119.982271409579
 31
0.0
  0
MTEXT
  5
52A06
330
1F
100
AcDbEntity
  8
AM_6
100
AcDbMText
 10
5794.047826521643
 20
-2175.982271409579
 30
0.0
 40
3.2
 41
20.0
 71
     5
 72
     5
  1
備　考
 73
     1
 44
1.0
1001
ACAD
1000
MTEXTBEGIN
1070
    73
1070
     1
1070
    44
1040
1.0
1070
    74
1070
     0
1000
MTEXTEND
  0
MTEXT
  5
52A07
330
1F
100
AcDbEntity
  8
AM_6
100
AcDbMText
 10
5804.047826521641
 20
-2175.982271409579
 30
0.0
 40
3.2
 41
90.0
 71
     4
 72
     5
  1
　※本製品は２枚セットで使用 
 73
     1
 44
1.0
1001
ACAD
1000
MTEXTBEGIN
1070
    73
1070
     1
1070
    44
1040
1.0
1070
    74
1070
     0
1000
MTEXTEND
  0
MTEXT
  5
52A73
330
1F
100
AcDbEntity
  8
AM_6
100
AcDbMText
 10
5804.047826521641
 20
-2183.982271409579
 30
0.0
 40
3.2
 41
90.0
 71
     4
 72
     5
  1
　※郵便受箱 DP-151、ポスト口 DP-82 をご使用下さい。
 73
     1
 44
1.0
1001
ACAD
1000
MTEXTBEGIN
1070
    73
1070
     1
1070
    44
1040
1.0
1070
    74
1070
     0
1000
MTEXTEND
  0
LINE
  5
52A74
330
1F
100
AcDbEntity
  8
AM_0
100
AcDbLine
 10
5894.04782652164
 20
-2087.982271409579
 30
0.0
 11
5894.047826521647
 21
-2187.982271409579
 31
0.0
  0
LINE
  5
52A75
330
1F
100
AcDbEntity
  8
AM_2
100
AcDbLine
 10
5784.047826521645
 20
-2171.982271409579
 30
0.0
 11
5894.047826521646
 21
-2171.982271409579
 31
0.0
  0
MTEXT
  5
52B63
330
1F
100
AcDbEntity
  8
AM_6
100
AcDbMText
 10
5794.047826521641
 20
-2123.982271409579
 30
0.0
 40
3.2
 41
20.0
 71
     5
 72
     5
  1
セット部品
 73
     1
 44
1.0
1001
ACAD
1000
MTEXTBEGIN
1070
    73
1070
     1
1070
    44
1040
1.0
1070
    74
1070
     0
1000
MTEXTEND
  0
MTEXT
  5
52B64
330
1F
100
AcDbEntity
  8
AM_6
100
AcDbMText
 10
5804.047826521641
 20
-2155.982271409579
 30
0.0
 40
3.2
 41
90.0
 71
     4
 72
     5
  1
　呼び5 みがき丸 平座金 Fe：６枚
 73
     1
 44
1.0
1001
ACAD
1000
MTEXTBEGIN
1070
    73
1070
     1
1070
    44
1040
1.0
1070
    74
1070
     0
1000
MTEXTEND
  0
LINE
  5
52BEC
330
1F
100
AcDbEntity
  8
AM_2
100
AcDbLine
 10
5804.047826521643
 20
-2179.982271409579
 30
0.0
 11
5894.047826521646
 21
-2179.982271409579
 31
0.0
  0
INSERT
  5
52EAC
330
1F
100
AcDbEntity
  8
AM_5
 48
0.5
100
AcDbBlockReference
  2
*S53314
 10
0.0
 20
40.0
 30
0.0
  0
CIRCLE
  5
53007
330
1F
100
AcDbEntity
  8
AM_0
100
AcDbCircle
 10
5984.311020341179
 20
-2158.529731751632
 30
0.0
 40
2.5
  0
DIMENSION
  5
53008
330
1F
100
AcDbEntity
  8
AM_5
100
AcDbDimension
  2
*D13
 10
5982.167408247946
 20
-2160.25235393707
 30
0.0
 11
6000.589435724763
 21
-2150.928880725317
 31
0.0
 70
   163
  1
<>
 71
     5
 42
5.500000000003637
  3
SYS$3
100
AcDbDiametricDimension
 15
5986.454632434409
 25
-2156.807109566194
 35
0.0
 40
0.0
1001
ACAD
1000
DSTYLE
1002
{
1070
    47
1040
0.2
1070
    48
1040
0.0
1070
   172
1070
     1
1070
   342
1005
32629
1002
}
  0
MTEXT
  5
53043
330
1F
100
AcDbEntity
  8
AM_6
100
AcDbMText
 10
5804.04782652164
 20
-2123.982271409579
 30
0.0
 40
3.2
 41
90.0
 71
     4
 72
     5
  1
　ブラケット取付ネジ　M4×8 トラス小ネジ + SUS：４本
 73
     1
 44
1.0
1001
ACAD
1000
MTEXTBEGIN
1070
    73
1070
     1
1070
    44
1040
1.0
1070
    74
1070
     0
1000
MTEXTEND
  0
CIRCLE
  5
53044
330
1F
100
AcDbEntity
  8
AM_6
 48
0.5
100
AcDbCircle
 10
5863.410305465578
 20
-2124.223390739149
 30
0.0
 40
1.916990197049925
  0
LINE
  5
53045
330
1F
100
AcDbEntity
  8
AM_2
100
AcDbLine
 10
5804.047826521641
 20
-2127.982271409579
 30
0.0
 11
5894.047826521643
 21
-2127.982271409579
 31
0.0
  0
MTEXT
  5
5308B
330
1F
100
AcDbEntity
  8
AM_6
100
AcDbMText
 10
5804.047826521641
 20
-2131.982271409579
 30
0.0
 40
3.2
 41
90.0
 71
     4
 72
     5
  1
　郵便受箱上部取付ネジ　M4×8 サラ小ネジ + SUS：１本
 73
     1
 44
1.0
1001
ACAD
1000
MTEXTBEGIN
1070
    73
1070
     1
1070
    44
1040
1.0
1070
    74
1070
     0
1000
MTEXTEND
  0
MTEXT
  5
5308C
330
1F
100
AcDbEntity
  8
AM_6
100
AcDbMText
 10
5804.047826521641
 20
-2139.982271409579
 30
0.0
 40
3.2
 41
90.0
 71
     4
 72
     5
  1
　郵便受箱下部取付ネジ　M4×8 トラス小ネジ + SUS：２本
 73
     1
 44
1.0
1001
ACAD
1000
MTEXTBEGIN
1070
    73
1070
     1
1070
    44
1040
1.0
1070
    74
1070
     0
1000
MTEXTEND
  0
MTEXT
  5
5308D
330
1F
100
AcDbEntity
  8
AM_6
100
AcDbMText
 10
5804.047826521641
 20
-2147.982271409579
 30
0.0
 40
3.2
 41
90.0
 71
     4
 72
     5
  1
　郵便受箱側面取付ネジ　M4×6 トラス小ネジ + SUS：２本
 73
     1
 44
1.0
1001
ACAD
1000
MTEXTBEGIN
1070
    73
1070
     1
1070
    44
1040
1.0
1070
    74
1070
     0
1000
MTEXTEND
  0
CIRCLE
  5
5308E
330
1F
100
AcDbEntity
  8
AM_6
 48
0.5
100
AcDbCircle
 10
5863.323224181245
 20
-2132.180948257146
 30
0.0
 40
1.916990197049925
  0
CIRCLE
  5
5308F
330
1F
100
AcDbEntity
  8
AM_6
 48
0.5
100
AcDbCircle
 10
5866.041341953632
 20
-2140.199746231266
 30
0.0
 40
1.916990197049925
  0
CIRCLE
  5
53090
330
1F
100
AcDbEntity
  8
AM_6
 48
0.5
100
AcDbCircle
 10
5866.041341953632
 20
-2148.199746231266
 30
0.0
 40
1.916990197049925
  0
LINE
  5
53092
330
1F
100
AcDbEntity
  8
AM_2
100
AcDbLine
 10
5804.047826521641
 20
-2143.98227140958
 30
0.0
 11
5894.047826521646
 21
-2143.982271409579
 31
0.0
  0
LINE
  5
53093
330
1F
100
AcDbEntity
  8
AM_2
100
AcDbLine
 10
5804.047826521641
 20
-2151.982271409579
 30
0.0
 11
5894.047826521646
 21
-2151.982271409579
 31
0.0
  0
LINE
  5
53094
330
1F
100
AcDbEntity
  8
AM_2
100
AcDbLine
 10
5804.047826521641
 20
-2135.982271409579
 30
0.0
 11
5894.047826521643
 21
-2135.982271409579
 31
0.0
  0
LINE
  5
53588
330
1F
100
AcDbEntity
  8
AM_11
100
AcDbLine
 10
5849.408118947553
 20
-2220.642941417071
 30
0.0
 11
5849.408118947553
 21
-2259.642941417071
 31
0.0
  0
LINE
  5
53589
330
1F
100
AcDbEntity
  8
AM_11
100
AcDbLine
 10
5849.408118947553
 20
-2259.642941417071
 30
0.0
 11
5985.408118947553
 21
-2259.642941417071
 31
0.0
  0
LINE
  5
5358A
330
1F
100
AcDbEntity
  8
AM_11
100
AcDbLine
 10
5985.408118947553
 20
-2259.642941417071
 30
0.0
 11
5985.408118947553
 21
-2220.642941417071
 31
0.0
  0
LINE
  5
5358B
330
1F
100
AcDbEntity
  8
AM_11
100
AcDbLine
 10
5985.408118947553
 20
-2220.642941417071
 30
0.0
 11
5849.408118947553
 21
-2220.642941417071
 31
0.0
  0
CIRCLE
  5
5358C
330
1F
100
AcDbEntity
  8
AM_0
  6
Continuous
 62
     7
 48
0.5
100
AcDbCircle
 10
5843.658118947553
 20
-2235.142941417071
 30
0.0
 40
2.25
  0
CIRCLE
  5
5358D
330
1F
100
AcDbEntity
  8
AM_0
  6
Continuous
 62
     7
 48
0.5
100
AcDbCircle
 10
5991.158118947552
 20
-2235.142941417071
 30
0.0
 40
2.25
  0
LINE
  5
5358E
330
1F
100
AcDbEntity
  8
AM_7
 48
0.5
100
AcDbLine
 10
5994.908118947552
 20
-2235.142941417071
 30
0.0
 11
5839.908118947553
 21
-2235.142941417071
 31
0.0
1001
GENIUS_GENOBJ-N-CEN_13
1002
{
1000
OWNER
1000
GEN
1002
}
1001
GENIUS_GENODEF_13
1002
{
1000
HIER
1070
     0
1002
}
1002
{
1000
MANEDIT
1070
     0
1002
}
1002
{
1000
NOSEL
1070
     0
1002
}
1002
{
1000
BEHIND
1070
     0
1002
}
1002
{
1000
OTHER
1070
     0
1002
}
1002
{
1000
REACTOR
1002
}
1001
GENIUS_GENCEN_19
1002
{
1040
3.0
1002
}
  0
LINE
  5
5358F
330
1F
100
AcDbEntity
  8
AM_7
 48
0.5
100
AcDbLine
 10
5843.658118947553
 20
-2238.892941417071
 30
0.0
 11
5843.658118947553
 21
-2231.392941417071
 31
0.0
1001
GENIUS_GENODEF_13
1002
{
1000
HIER
1070
     0
1002
}
1002
{
1000
MANEDIT
1070
     0
1002
}
1002
{
1000
NOSEL
1070
     0
1002
}
1002
{
1000
BEHIND
1070
     0
1002
}
1002
{
1000
OTHER
1070
     0
1002
}
1002
{
1000
REACTOR
1002
}
1001
GENIUS_GENOBJ-N-CEN_13
1002
{
1000
OWNER
1000
GEN
1002
}
1001
GENIUS_GENCEN_19
1002
{
1040
3.0
1002
}
  0
LINE
  5
53590
330
1F
100
AcDbEntity
  8
AM_7
 48
0.5
100
AcDbLine
 10
5991.158118947552
 20
-2238.892941417071
 30
0.0
 11
5991.158118947552
 21
-2231.392941417071
 31
0.0
1001
GENIUS_GENODEF_13
1002
{
1000
HIER
1070
     0
1002
}
1002
{
1000
MANEDIT
1070
     0
1002
}
1002
{
1000
NOSEL
1070
     0
1002
}
1002
{
1000
BEHIND
1070
     0
1002
}
1002
{
1000
OTHER
1070
     0
1002
}
1002
{
1000
REACTOR
1002
}
1001
GENIUS_GENOBJ-N-CEN_13
1002
{
1000
OWNER
1000
GEN
1002
}
1001
GENIUS_GENCEN_19
1002
{
1040
3.0
1002
}
  0
DIMENSION
  5
53593
330
1F
100
AcDbEntity
  8
AM_5
100
AcDbDimension
  2
*D16
 10
5991.158118947552
 20
-2267.642941417071
 30
0.0
 11
5917.408118947553
 21
-2265.042941417071
 31
0.0
 70
    32
 71
     5
 42
295.0
  3
SYS$0
100
AcDbAlignedDimension
 13
5843.658118947553
 23
-2244.642941417071
 33
0.0
 14
5991.158118947552
 24
-2244.642941417071
 34
0.0
100
AcDbRotatedDimension
1001
ACAD
1000
DSTYLE
1002
{
1070
   144
1040
2.0
1002
}
  0
DIMENSION
  5
53594
330
1F
100
AcDbEntity
  8
AM_5
100
AcDbDimension
  2
*D17
 10
5845.459638028641
 20
-2236.490913597965
 30
0.0
 11
5831.014763822327
 21
-2229.54358105812
 31
0.0
 70
   163
  1
2-<>
 71
     5
 42
8.999999999998181
  3
SYS$3
100
AcDbDiametricDimension
 15
5841.85659986646
 25
-2233.794969236177
 35
0.0
 40
0.0
1001
ACAD
1000
DSTYLE
1002
{
1070
   144
1040
2.0
1070
   172
1070
     1
1070
   342
1005
32629
1002
}
  0
HATCH
  5
53596
330
1F
100
AcDbEntity
  8
AM_8
 48
0.5
100
AcDbHatch
 10
0.0
 20
0.0
 30
0.0
210
0.0
220
0.0
230
1.0
  2
_U
 70
     0
 71
     0
 91
        1
 92
        1
 93
        2
 72
     2
 10
5991.158118947552
 20
-2235.142941417071
 40
2.249999999999607
 50
191.4591559026166
 51
393.6381210042334
 73
     1
 72
     2
 10
5991.158118947552
 20
-2235.142941417071
 40
2.250000000000274
 50
33.63812100423334
 51
191.4591559026166
 73
     1
 97
        0
 75
     0
 76
     0
 52
45.0
 41
0.75
 77
     0
 78
     1
 53
45.0
 43
3253.002628920389
 44
-1243.234296557444
 45
-0.5303300858899106
 46
0.5303300858899107
 79
     0
 98
        1
 10
3253.002628920389
 20
-1243.234296557444
1001
GENIUS_GENOBJ-N-HTC_13
1002
{
1000
OWNER
1000
GEN
1002
}
1001
GENIUS_GENODEF_13
1002
{
1000
HIER
1070
     0
1002
}
1002
{
1000
MANEDIT
1070
     0
1002
}
1002
{
1000
NOSEL
1070
     0
1002
}
1002
{
1000
BEHIND
1070
     0
1002
}
1002
{
1000
OTHER
1070
     0
1002
}
1002
{
1000
REACTOR
1002
}
1001
GENIUS_GENHATCH_13
1002
{
1000
DATA
1040
45.0
1042
1.25
1000
_U
1070
     0
1011
5992.324208179467
1021
-2234.367074770208
1031
0.0
1002
}
1002
{
1000
UCS
1010
0.0
1020
0.0
1030
0.0
1010
1.0
1020
0.0
1030
0.0
1010
0.0
1020
1.0
1030
0.0
1002
}
  0
HATCH
  5
53597
330
1F
100
AcDbEntity
  8
AM_8
 48
0.5
100
AcDbHatch
 10
0.0
 20
0.0
 30
0.0
210
0.0
220
0.0
230
1.0
  2
_U
 70
     0
 71
     0
 91
        1
 92
        1
 93
        2
 72
     2
 10
5843.658118947553
 20
-2235.142941417071
 40
2.249999999999607
 50
191.4591559026166
 51
393.6381210042334
 73
     1
 72
     2
 10
5843.658118947553
 20
-2235.142941417071
 40
2.250000000000274
 50
33.63812100423334
 51
191.4591559026166
 73
     1
 97
        0
 75
     0
 76
     0
 52
45.0
 41
0.75
 77
     0
 78
     1
 53
45.0
 43
3105.502628920389
 44
-1243.234296557444
 45
-0.5303300858899106
 46
0.5303300858899107
 79
     0
 98
        1
 10
3105.502628920389
 20
-1243.234296557444
1001
GENIUS_GENOBJ-N-HTC_13
1002
{
1000
OWNER
1000
GEN
1002
}
1001
GENIUS_GENODEF_13
1002
{
1000
HIER
1070
     0
1002
}
1002
{
1000
MANEDIT
1070
     0
1002
}
1002
{
1000
NOSEL
1070
     0
1002
}
1002
{
1000
BEHIND
1070
     0
1002
}
1002
{
1000
OTHER
1070
     0
1002
}
1002
{
1000
REACTOR
1002
}
1001
GENIUS_GENHATCH_13
1002
{
1000
DATA
1040
45.0
1042
1.25
1000
_U
1070
     0
1011
5844.824208179467
1021
-2234.367074770208
1031
0.0
1002
}
1002
{
1000
UCS
1010
0.0
1020
0.0
1030
0.0
1010
1.0
1020
0.0
1030
0.0
1010
0.0
1020
1.0
1030
0.0
1002
}
  0
MTEXT
  5
53598
330
1F
100
AcDbEntity
  8
AM_6
 48
0.5
100
AcDbMText
 10
5917.408118947553
 20
-2272.903370289727
 30
0.0
 40
3.2
 41
97.71792853726765
 71
     5
 72
     5
  1
郵便受箱DP-151取付の場合　郵便受箱側切欠推奨寸法（S=1/2）
 73
     1
 44
1.0
1001
ACAD
1000
MTEXTBEGIN
1070
    73
1070
     1
1070
    44
1040
1.0
1070
    74
1070
     0
1000
MTEXTEND
  0
LINE
  5
53599
330
1F
100
AcDbEntity
  8
AM_7
  6
CENTER
100
AcDbLine
 10
5917.408118947553
 20
-2260.642941417071
 30
0.0
 11
5917.408118947553
 21
-2211.642941417071
 31
0.0
  0
INSERT
  5
5359A
330
1F
100
AcDbEntity
  8
AM_5
 48
0.5
100
AcDbBlockReference
  2
*S23
 10
0.0
 20
0.0
 30
0.0
  0
CIRCLE
  5
536F5
330
1F
100
AcDbEntity
  8
AM_2
100
AcDbCircle
 10
5843.658118947553
 20
-2228.142941417071
 30
0.0
 40
1.0
  0
LINE
  5
536F7
330
1F
100
AcDbEntity
  8
AM_7
 48
0.2
100
AcDbLine
 10
5843.658118947553
 20
-2230.642941417071
 30
0.0
 11
5843.658118947553
 21
-2225.642941417071
 31
0.0
1001
GENIUS_GENODEF_13
1002
{
1000
HIER
1070
     0
1002
}
1002
{
1000
MANEDIT
1070
     0
1002
}
1002
{
1000
NOSEL
1070
     0
1002
}
1002
{
1000
BEHIND
1070
     0
1002
}
1002
{
1000
OTHER
1070
     0
1002
}
1002
{
1000
REACTOR
1002
}
1001
GENIUS_GENOBJ-N-CEN_13
1002
{
1000
OWNER
1000
GEN
1002
}
1001
GENIUS_GENCEN_19
1002
{
1040
3.0
1002
}
  0
CIRCLE
  5
536F9
330
1F
100
AcDbEntity
  8
AM_0
  6
Continuous
 62
     7
 48
0.5
100
AcDbCircle
 10
5843.658118947553
 20
-2228.142941417071
 30
0.0
 40
0.825
  0
LINE
  5
536FC
330
1F
100
AcDbEntity
  8
AM_7
 48
0.2
100
AcDbLine
 10
5846.158118947553
 20
-2228.142941417071
 30
0.0
 11
5841.158118947553
 21
-2228.142941417071
 31
0.0
1001
GENIUS_GENOBJ-N-CEN_13
1002
{
1000
OWNER
1000
GEN
1002
}
1001
GENIUS_GENODEF_13
1002
{
1000
HIER
1070
     0
1002
}
1002
{
1000
MANEDIT
1070
     0
1002
}
1002
{
1000
NOSEL
1070
     0
1002
}
1002
{
1000
BEHIND
1070
     0
1002
}
1002
{
1000
OTHER
1070
     0
1002
}
1002
{
1000
REACTOR
1002
}
1001
GENIUS_GENCEN_19
1002
{
1040
3.0
1002
}
  0
CIRCLE
  5
536FD
330
1F
100
AcDbEntity
  8
AM_2
100
AcDbCircle
 10
5843.658118947553
 20
-2242.142941417071
 30
0.0
 40
1.0
  0
CIRCLE
  5
536FE
330
1F
100
AcDbEntity
  8
AM_0
  6
Continuous
 62
     7
 48
0.5
100
AcDbCircle
 10
5843.658118947553
 20
-2242.142941417071
 30
0.0
 40
0.825
  0
LINE
  5
536FF
330
1F
100
AcDbEntity
  8
AM_7
 48
0.2
100
AcDbLine
 10
5846.158118947553
 20
-2242.142941417071
 30
0.0
 11
5841.158118947553
 21
-2242.142941417071
 31
0.0
1001
GENIUS_GENOBJ-N-CEN_13
1002
{
1000
OWNER
1000
GEN
1002
}
1001
GENIUS_GENODEF_13
1002
{
1000
HIER
1070
     0
1002
}
1002
{
1000
MANEDIT
1070
     0
1002
}
1002
{
1000
NOSEL
1070
     0
1002
}
1002
{
1000
BEHIND
1070
     0
1002
}
1002
{
1000
OTHER
1070
     0
1002
}
1002
{
1000
REACTOR
1002
}
1001
GENIUS_GENCEN_19
1002
{
1040
3.0
1002
}
  0
LINE
  5
53700
330
1F
100
AcDbEntity
  8
AM_7
 48
0.2
100
AcDbLine
 10
5843.658118947553
 20
-2239.642941417071
 30
0.0
 11
5843.658118947553
 21
-2244.642941417071
 31
0.0
1001
GENIUS_GENODEF_13
1002
{
1000
HIER
1070
     0
1002
}
1002
{
1000
MANEDIT
1070
     0
1002
}
1002
{
1000
NOSEL
1070
     0
1002
}
1002
{
1000
BEHIND
1070
     0
1002
}
1002
{
1000
OTHER
1070
     0
1002
}
1002
{
1000
REACTOR
1002
}
1001
GENIUS_GENOBJ-N-CEN_13
1002
{
1000
OWNER
1000
GEN
1002
}
1001
GENIUS_GENCEN_19
1002
{
1040
3.0
1002
}
  0
DIMENSION
  5
5370B
330
1F
100
AcDbEntity
  8
AM_5
100
AcDbDimension
  2
*D18
 10
5844.355510098335
 20
-2228.859632133355
 30
0.0
 11
5823.595711696603
 21
-2221.827809051712
 31
0.0
 70
   163
  1
ブラケット取付ネジ用\P4-M<>タップ
 71
     5
 42
4.000000000001818
  3
SYS$3
100
AcDbDiametricDimension
 15
5842.960727796765
 25
-2227.426250700786
 35
0.0
 40
0.0
1001
ACAD
1000
DSTYLE
1002
{
1070
     3
1000
<>
1070
   144
1040
2.0
1070
   172
1070
     1
1070
   342
1005
32629
1002
}
  0
CIRCLE
  5
5375C
330
1F
100
AcDbEntity
  8
AM_2
100
AcDbCircle
 10
5991.158118947552
 20
-2228.142941417071
 30
0.0
 40
1.0
  0
CIRCLE
  5
5375D
330
1F
100
AcDbEntity
  8
AM_0
  6
Continuous
 62
     7
 48
0.5
100
AcDbCircle
 10
5991.158118947552
 20
-2228.142941417071
 30
0.0
 40
0.825
  0
LINE
  5
5375E
330
1F
100
AcDbEntity
  8
AM_7
 48
0.2
100
AcDbLine
 10
5988.658118947553
 20
-2228.142941417071
 30
0.0
 11
5993.658118947553
 21
-2228.142941417071
 31
0.0
1001
GENIUS_GENOBJ-N-CEN_13
1002
{
1000
OWNER
1000
GEN
1002
}
1001
GENIUS_GENODEF_13
1002
{
1000
HIER
1070
     0
1002
}
1002
{
1000
MANEDIT
1070
     0
1002
}
1002
{
1000
NOSEL
1070
     0
1002
}
1002
{
1000
BEHIND
1070
     0
1002
}
1002
{
1000
OTHER
1070
     0
1002
}
1002
{
1000
REACTOR
1002
}
1001
GENIUS_GENCEN_19
1002
{
1040
3.0
1002
}
  0
LINE
  5
5375F
330
1F
100
AcDbEntity
  8
AM_7
 48
0.2
100
AcDbLine
 10
5991.158118947552
 20
-2230.642941417071
 30
0.0
 11
5991.158118947552
 21
-2225.642941417071
 31
0.0
1001
GENIUS_GENODEF_13
1002
{
1000
HIER
1070
     0
1002
}
1002
{
1000
MANEDIT
1070
     0
1002
}
1002
{
1000
NOSEL
1070
     0
1002
}
1002
{
1000
BEHIND
1070
     0
1002
}
1002
{
1000
OTHER
1070
     0
1002
}
1002
{
1000
REACTOR
1002
}
1001
GENIUS_GENOBJ-N-CEN_13
1002
{
1000
OWNER
1000
GEN
1002
}
1001
GENIUS_GENCEN_19
1002
{
1040
3.0
1002
}
  0
CIRCLE
  5
53760
330
1F
100
AcDbEntity
  8
AM_2
100
AcDbCircle
 10
5991.158118947552
 20
-2242.142941417071
 30
0.0
 40
1.0
  0
CIRCLE
  5
53761
330
1F
100
AcDbEntity
  8
AM_0
  6
Continuous
 62
     7
 48
0.5
100
AcDbCircle
 10
5991.158118947552
 20
-2242.142941417071
 30
0.0
 40
0.825
  0
LINE
  5
53762
330
1F
100
AcDbEntity
  8
AM_7
 48
0.2
100
AcDbLine
 10
5988.658118947553
 20
-2242.142941417071
 30
0.0
 11
5993.658118947553
 21
-2242.142941417071
 31
0.0
1001
GENIUS_GENOBJ-N-CEN_13
1002
{
1000
OWNER
1000
GEN
1002
}
1001
GENIUS_GENODEF_13
1002
{
1000
HIER
1070
     0
1002
}
1002
{
1000
MANEDIT
1070
     0
1002
}
1002
{
1000
NOSEL
1070
     0
1002
}
1002
{
1000
BEHIND
1070
     0
1002
}
1002
{
1000
OTHER
1070
     0
1002
}
1002
{
1000
REACTOR
1002
}
1001
GENIUS_GENCEN_19
1002
{
1040
3.0
1002
}
  0
LINE
  5
53763
330
1F
100
AcDbEntity
  8
AM_7
 48
0.2
100
AcDbLine
 10
5991.158118947552
 20
-2239.642941417071
 30
0.0
 11
5991.158118947552
 21
-2244.642941417071
 31
0.0
1001
GENIUS_GENODEF_13
1002
{
1000
HIER
1070
     0
1002
}
1002
{
1000
MANEDIT
1070
     0
1002
}
1002
{
1000
NOSEL
1070
     0
1002
}
1002
{
1000
BEHIND
1070
     0
1002
}
1002
{
1000
OTHER
1070
     0
1002
}
1002
{
1000
REACTOR
1002
}
1001
GENIUS_GENOBJ-N-CEN_13
1002
{
1000
OWNER
1000
GEN
1002
}
1001
GENIUS_GENCEN_19
1002
{
1040
3.0
1002
}
  0
DIMENSION
  5
53892
330
1F
100
AcDbEntity
  8
AM_5
100
AcDbDimension
  2
*D19
 10
6009.408118947551
 20
-2242.142941417071
 30
0.0
 11
6009.408118947551
 21
-2235.142941417071
 31
0.0
 70
   160
 71
     5
 42
28.0
  3
SYS$0
100
AcDbAlignedDimension
 13
5993.658118947553
 23
-2228.142941417071
 33
0.0
 14
5993.658118947553
 24
-2242.142941417071
 34
0.0
 50
90.00000000000003
100
AcDbRotatedDimension
1001
ACAD
1000
DSTYLE
1002
{
1070
   144
1040
2.0
1002
}
  0
INSERT
  5
538E5
330
1F
100
AcDbEntity
  8
AM_5
 48
0.5
100
AcDbBlockReference
  2
*S24
 10
0.0
 20
0.0
 30
0.0
  0
CIRCLE
  5
5391C
330
1F
100
AcDbEntity
  8
AM_2
100
AcDbCircle
 10
5917.408118947553
 20
-2214.142941417071
 30
0.0
 40
1.0
  0
CIRCLE
  5
5391D
330
1F
100
AcDbEntity
  8
AM_0
  6
Continuous
 62
     7
 48
0.5
100
AcDbCircle
 10
5917.408118947553
 20
-2214.142941417071
 30
0.0
 40
0.825
  0
LINE
  5
5391E
330
1F
100
AcDbEntity
  8
AM_7
 48
0.2
100
AcDbLine
 10
5919.908118947553
 20
-2214.142941417071
 30
0.0
 11
5914.908118947553
 21
-2214.142941417071
 31
0.0
1001
GENIUS_GENOBJ-N-CEN_13
1002
{
1000
OWNER
1000
GEN
1002
}
1001
GENIUS_GENODEF_13
1002
{
1000
HIER
1070
     0
1002
}
1002
{
1000
MANEDIT
1070
     0
1002
}
1002
{
1000
NOSEL
1070
     0
1002
}
1002
{
1000
BEHIND
1070
     0
1002
}
1002
{
1000
OTHER
1070
     0
1002
}
1002
{
1000
REACTOR
1002
}
1001
GENIUS_GENCEN_19
1002
{
1040
3.0
1002
}
  0
DIMENSION
  5
53941
330
1F
100
AcDbEntity
  8
AM_5
100
AcDbDimension
  2
*D20
 10
6001.408118947551
 20
-2235.142941417071
 30
0.0
 11
5998.808118947552
 21
-2224.64294141707
 31
0.0
 70
    32
 71
     5
 42
42.0
  3
SYS$0
100
AcDbAlignedDimension
 13
5919.908118947553
 23
-2214.142941417071
 33
0.0
 14
5994.908118947552
 24
-2235.142941417071
 34
0.0
 50
90.00000000000003
100
AcDbRotatedDimension
1001
ACAD
1000
DSTYLE
1002
{
1070
   144
1040
2.0
1002
}
  0
MTEXT
  5
53A0F
330
1F
100
AcDbEntity
  8
AM_6
100
AcDbMText
 10
5804.047826521641
 20
-2161.982271409579
 30
0.0
 40
3.2
 41
90.0
 71
     4
 72
     5
  1
　※ポスト口 DP-82 にセットしている取付ネジが、ドア厚の関係で
 73
     1
 44
1.0
1001
ACAD
1000
MTEXTBEGIN
1070
    73
1070
     1
1070
    44
1040
1.0
1070
    74
1070
     0
1000
MTEXTEND
  0
MTEXT
  5
53A10
330
1F
100
AcDbEntity
  8
AM_6
100
AcDbMText
 10
5804.047826521641
 20
-2167.982271409579
 30
0.0
 40
3.2
 41
90.0
 71
     4
 72
     5
  1
　　長すぎる場合に、平座金をスペーサーとして御使用下さい。
 73
     1
 44
1.0
1001
ACAD
1000
MTEXTBEGIN
1070
    73
1070
     1
1070
    44
1040
1.0
1070
    74
1070
     0
1000
MTEXTEND
  0
DIMENSION
  5
53A3E
330
1F
100
AcDbEntity
  8
AM_5
100
AcDbDimension
  2
*D21
 10
5918.120834125897
 20
-2214.844394961188
 30
0.0
 11
5884.914468095971
 21
-2204.988266233662
 31
0.0
 70
   163
  1
郵便受箱上部取付ネジ用　M<>タップ
 71
     5
 42
4.000000000005456
  3
SYS$3
100
AcDbDiametricDimension
 15
5916.695403769208
 25
-2213.441487872945
 35
0.0
 40
0.0
1001
ACAD
1000
DSTYLE
1002
{
1070
     3
1000
<>
1070
   144
1040
2.0
1070
   172
1070
     1
1070
   342
1005
32629
1002
}
  0
ENDSEC
  0
SECTION
  2
OBJECTS
  0
DICTIONARY
  5
C
330
0
100
AcDbDictionary
281
     1
  3
ACAD_2007HEADERVARS_RT
350
53B5F
  3
ACAD_BGPLOT_KEY
350
AB06
  3
ACAD_COLOR
350
A91D
  3
ACAD_GROUP
350
D
  3
ACAD_LAYOUT
350
1A
  3
ACAD_MATERIAL
350
A91C
  3
ACAD_MLINESTYLE
350
17
  3
ACAD_PLOTSETTINGS
350
19
  3
ACAD_PLOTSTYLENAME
350
E
  3
ACAD_TABLESTYLE
350
AAB9
  3
ACAD_VISUALSTYLE
350
B0F1
  3
AcAsAppObject
350
3DA1
  3
ACASGREF_MASTER
350
3DE9
  3
AcDbVariableDictionary
350
34
  3
AcmDictionary
350
47
  3
AD_GREF_MODULE
350
3DEA
  3
AD_MAPI_MODULE
350
3E06
  3
AMG
350
2B
  3
AMGSNAPSETTINGS
350
7D
  3
ASE_INDEX_DICTIONARY
350
B331
  3
DWGPROPS
350
53B5E
  3
MAPISURF_MODULE
350
3DEB
  0
DICTIONARY
  5
531FC
330
8
100
AcDbDictionary
280
     1
281
     1
  0
DICTIONARY
  5
3F95
330
2
100
AcDbDictionary
280
     1
281
     1
  3
ACAD_LAYERFILTERS
360
3F9CB
  3
ACAD_LAYERSTATES
360
3F96
  3
ACLYDICTIONARY
360
3F9CA
  3
AMLAYER_GROUPCOLORS
360
AAB4
  0
DICTIONARY
  5
8A
330
1F
100
AcDbDictionary
280
     1
281
     1
  3
ACAD_SORTENTS
360
B1BA
  0
DICTIONARY
  5
53B5F
102
{ACAD_REACTORS
330
C
102
}
330
C
100
AcDbDictionary
281
     1
  3
DIMARCSYM
350
53B60
  0
DICTIONARY
  5
AB06
102
{ACAD_REACTORS
330
C
102
}
330
C
100
AcDbDictionary
280
     1
281
     1
  0
DICTIONARY
  5
A91D
102
{ACAD_REACTORS
330
C
102
}
330
C
100
AcDbDictionary
281
     1
  0
DICTIONARY
  5
D
102
{ACAD_REACTORS
330
C
102
}
330
C
100
AcDbDictionary
281
     1
  0
DICTIONARY
  5
1A
102
{ACAD_REACTORS
330
C
102
}
330
C
100
AcDbDictionary
281
     1
  3
Model
350
22
  3
ﾚｲｱｳﾄ1
350
1E
  3
ﾚｲｱｳﾄ2
350
26
  0
DICTIONARY
  5
A91C
102
{ACAD_REACTORS
330
C
102
}
330
C
100
AcDbDictionary
281
     1
  3
ByBlock
350
B0EF
  3
ByLayer
350
B0EE
  3
Global
350
B0F0
  0
DICTIONARY
  5
17
102
{ACAD_REACTORS
330
C
102
}
330
C
100
AcDbDictionary
281
     1
  3
Standard
350
18
  0
DICTIONARY
  5
19
102
{ACAD_REACTORS
330
C
102
}
330
C
100
AcDbDictionary
281
     1
  0
ACDBDICTIONARYWDFLT
  5
E
102
{ACAD_REACTORS
330
C
102
}
330
C
100
AcDbDictionary
281
     1
  3
Normal
350
F
100
AcDbDictionaryWithDefault
340
F
  0
DICTIONARY
  5
AAB9
102
{ACAD_REACTORS
330
C
102
}
330
C
100
AcDbDictionary
281
     1
  3
Standard
350
AABA
  0
DICTIONARY
  5
B0F1
102
{ACAD_REACTORS
330
C
102
}
330
C
100
AcDbDictionary
281
     1
  3
2dWireframe
350
B0F7
  3
3D Hidden
350
B0F9
  3
3dWireframe
350
B0F8
  3
Basic
350
B0F6
  3
Brighten
350
B0FD
  3
ColorChange
350
B101
  3
Conceptual
350
B0FA
  3
Dim
350
B0FC
  3
Facepattern
350
B100
  3
Flat
350
B0F2
  3
FlatWithEdges
350
B0F3
  3
Gouraud
350
B0F4
  3
GouraudWithEdges
350
B0F5
  3
Linepattern
350
B0FF
  3
Realistic
350
B0FB
  3
Thicken
350
B0FE
  0
ACAD_PROXY_OBJECT
  5
3DA1
102
{ACAD_REACTORS
330
C
102
}
330
C
100
AcDbProxyObject
 90
      499
 91
      576
 95
   983063
 70
     0
 93
       10
310
407F
 94
        0
1001
ACAD
1000
AcRTDxfName
1000
ASAPP
1000
AcRTDxfName
1000
ASAPP
  0
ACAD_PROXY_OBJECT
  5
3DE9
102
{ACAD_REACTORS
330
C
102
}
330
C
100
AcDbProxyObject
 90
      499
 91
      581
 95
   983063
 70
     0
 93
       34
310
010000407F
 94
        0
1001
ACAD
1000
AcRTDxfName
1000
ACASGREFMASTER
1000
AcRTDxfName
1000
ACASGREFMASTER
  0
DICTIONARY
  5
34
102
{ACAD_REACTORS
330
C
102
}
330
C
100
AcDbDictionary
281
     1
  3
CTABLESTYLE
350
AAF3
  3
DIMASSOC
350
A10C
  3
FIELDEVAL
350
AB07
  3
HPORIGIN
350
EB56
  3
INDEXCTL
350
35
  3
SORTENTS
350
194C
  0
DICTIONARY
  5
47
102
{ACAD_REACTORS
330
C
102
}
330
C
100
AcDbDictionary
281
     1
  3
AcmBOM
350
7E8
  3
AcmStdDictionary
350
4C
  3
AMDTSECTSYM_ARROWCOLOR
350
A929
  0
ACAD_PROXY_OBJECT
  5
3DEA
102
{ACAD_REACTORS
330
C
102
}
330
C
100
AcDbProxyObject
 90
      499
 91
      582
 95
   983063
 70
     0
 93
      114
310
00000043800000000000000000003F
 94
        0
1001
ACAD
1000
AcRTDxfName
1000
ACADGREFMODULE
1000
AcRTDxfName
1000
ACADGREFMODULE
  0
ACAD_PROXY_OBJECT
  5
3E06
102
{ACAD_REACTORS
330
C
102
}
330
C
100
AcDbProxyObject
 90
      499
 91
      594
 95
   983063
 70
     0
 93
       34
310
05000044FF
 94
        0
1001
ACAD
1000
AcRTDxfName
1000
MAPIADMODULE
1000
AcRTDxfName
1000
MAPIADMODULE
  0
DICTIONARY
  5
2B
102
{ACAD_REACTORS
330
C
102
}
330
C
100
AcDbDictionary
281
     1
  0
DICTIONARY
  5
7D
102
{ACAD_REACTORS
330
C
102
}
330
C
100
AcDbDictionary
281
     1
  0
DICTIONARY
  5
B331
102
{ACAD_REACTORS
330
C
102
}
330
C
100
AcDbDictionary
281
     1
  3
ASEBlockHierarchyIndexRecord
350
B332
1001
DCO15
1040
1594111214.218
  0
XRECORD
  5
53B5E
102
{ACAD_REACTORS
330
C
102
}
330
C
100
AcDbXrecord
280
     1
  1
DWGPROPS COOKIE
  2

  3

  4

  6

  7

  8
Administrator
  9

300
AmdtFileType=84
301
=
302
=
303
=
304
=
305
=
306
=
307
=
308
=
309
=
 40
8.449428310185185
 41
2455567.561054317
 42
2456272.81776728
  1

 90
        1
  0
ACAD_PROXY_OBJECT
  5
3DEB
102
{ACAD_REACTORS
330
C
102
}
330
C
100
AcDbProxyObject
 90
      499
 91
      583
 95
   983063
 70
     0
 93
        8
310
047E
 94
        0
1001
ACAD
1000
AcRTDxfName
1000
AMDTMAPISURFMOUDULE
1000
AcRTDxfName
1000
AMDTMAPISURFMOUDULE
  0
DICTIONARY
  5
3F9CB
102
{ACAD_REACTORS
330
3F95
102
}
330
3F95
100
AcDbDictionary
281
     1
  0
DICTIONARY
  5
3F96
102
{ACAD_REACTORS
330
3F95
102
}
330
3F95
100
AcDbDictionary
281
     1
  3
20011210
350
3FB7
  0
DICTIONARY
  5
3F9CA
102
{ACAD_REACTORS
330
3F95
102
}
330
3F95
100
AcDbDictionary
281
     1
1001
ACAD
1000
<All
  0
DICTIONARY
  5
AAB4
102
{ACAD_REACTORS
330
3F95
102
}
330
3F95
100
AcDbDictionary
280
     1
281
     1
  0
SORTENTSTABLE
  5
B1BA
102
{ACAD_REACTORS
330
8A
102
}
330
8A
100
AcDbSortentsTable
330
1F
331
52428
  5
52428
331
52843
  5
52843
331
52430
  5
52430
331
525DC
  5
525DC
331
5264C
  5
5264C
331
52448
  5
52448
331
52654
  5
52654
331
1EB3A
  5
1EB3A
331
26281
  5
26281
331
53892
  5
538E5
331
52458
  5
52458
331
5283C
  5
5283C
331
5358E
  5
5358E
331
5375C
  5
5375D
331
53596
  5
53597
331
21FF2
  5
22406
331
52429
  5
52429
331
52431
  5
52431
331
52441
  5
52441
331
52645
  5
52645
331
52A73
  5
52A73
331
52449
  5
52449
331
5264D
  5
5264D
331
52B63
  5
52B63
331
52655
  5
52655
331
536F5
  5
536F9
331
536FD
  5
536FE
331
1EB3B
  5
1EB3B
331
26282
  5
26282
331
5281D
  5
5281D
331
53092
  5
53092
331
5358F
  5
53590
331
5375D
  5
5375E
331
214E3
  5
2154A
331
53597
  5
53598
331
21FF3
  5
22408
331
5242A
  5
5242A
331
52432
  5
52432
331
52646
  5
52646
331
52A74
  5
52A74
331
5264E
  5
5264E
331
53043
  5
53043
331
52B64
  5
52B64
331
52656
  5
52656
331
536FE
  5
536FF
331
1EB3C
  5
1EB3C
331
26283
  5
26283
331
5245A
  5
5245A
331
52BEC
  5
52BEC
331
5281E
  5
5281E
331
52EAC
  5
52EAC
331
5299D
  5
5299D
331
5308B
  5
5308B
331
53588
  5
53588
331
53093
  5
53093
331
53590
  5
53593
331
5375E
  5
5375F
331
53598
  5
53599
331
5242B
  5
5242B
331
52433
  5
52433
331
52A05
  5
52A05
331
52647
  5
52647
331
5284E
  5
5284E
331
53044
  5
53044
331
52A75
  5
52A75
331
5264F
  5
5264F
331
52657
  5
52657
331
536F7
  5
536FD
331
536FF
  5
53700
331
1EB3D
  5
1EB3D
331
2121D
  5
21225
331
5281F
  5
5281F
331
52424
  5
52424
331
5308C
  5
5308C
331
53589
  5
53589
331
53094
  5
53094
331
538E5
  5
53919
331
5375F
  5
53760
331
53599
  5
5359A
331
5242C
  5
5242C
331
52A06
  5
52A06
331
5284F
  5
5284F
331
52648
  5
52648
331
53045
  5
53045
331
52650
  5
52650
331
2627D
  5
2627D
331
53700
  5
5370B
331
1EB3E
  5
1EB3E
331
52658
  5
52658
331
52987
  5
52987
331
52820
  5
52820
331
5308D
  5
5308D
331
5358A
  5
5358A
331
53760
  5
53761
331
5359A
  5
536F5
331
5242D
  5
5242D
331
52649
  5
52649
331
52A07
  5
52A07
331
52651
  5
52651
331
536F9
  5
536FB
331
1EB3F
  5
1EB3F
331
2627E
  5
2627E
331
52455
  5
52455
331
52659
  5
52659
331
5245D
  5
5245D
331
52821
  5
52821
331
52426
  5
52426
331
52839
  5
52839
331
5308E
  5
5308E
331
53007
  5
53007
331
5358B
  5
5358B
331
53593
  5
53594
331
53761
  5
53762
331
5242E
  5
5242E
331
52851
  5
52851
331
5264A
  5
5264A
331
52652
  5
52652
331
2627F
  5
2627F
331
1EB40
  5
1EB40
331
52456
  5
52456
331
5265A
  5
5265A
331
5245E
  5
5245E
331
52822
  5
52822
331
5283A
  5
5283A
331
52427
  5
52427
331
5308F
  5
5308F
331
5358C
  5
5358C
331
53594
  5
53596
331
53762
  5
53763
331
21FF0
  5
2215D
331
52842
  5
52842
331
53008
  5
53008
331
52852
  5
52852
331
52447
  5
52447
331
5264B
  5
5264B
331
26280
  5
26280
331
1EB41
  5
1EB41
331
5370B
  5
5375C
331
5265B
  5
5265B
331
52457
  5
52457
331
52823
  5
52823
331
5283B
  5
5283B
331
53090
  5
53090
331
5358D
  5
5358D
331
53763
  5
53892
331
21FF1
  5
2215E
  0
XRECORD
  5
53B60
102
{ACAD_REACTORS
330
53B5F
102
}
330
53B5F
100
AcDbXrecord
280
     1
 70
     1
  0
LAYOUT
  5
22
102
{ACAD_XDICTIONARY
360
53B63
102
}
102
{ACAD_REACTORS
330
1A
102
}
330
1A
100
AcDbPlotSettings
  1

  2
Adobe PDF
  4
A3
  6

 40
3.174999952316283
 41
3.174999952316283
 42
3.17498779296875
 43
3.17498779296875
 44
297.0318298339844
 45
420.1583251953125
 46
0.0
 47
1.371553106741457
 48
7017.194750291371
 49
-3860.982271409579
140
7437.194750291372
141
-3563.982271409579
142
1.0
143
1.021735647008086
 70
  3764
 72
     1
 73
     1
 74
     4
  7
monochrome.ctb
 75
     0
147
0.9787267410393916
148
-7017.194750291371
149
3860.982271409579
100
AcDbLayout
  1
Model
 70
     1
 71
     0
 10
0.0
 20
0.0
 11
12.0
 21
9.0
 12
0.0
 22
0.0
 32
0.0
 14
0.0
 24
0.0
 34
0.0
 15
0.0
 25
0.0
 35
0.0
146
0.0
 13
0.0
 23
0.0
 33
0.0
 16
1.0
 26
0.0
 36
0.0
 17
0.0
 27
1.0
 37
0.0
 76
     0
330
1F
331
B0EC
1001
ACAD_PSEXT
1000
Adobe PDF
1000
Adobe PDF Converter
1000
My Documents\*.pdf
1000

1070
     0
  0
LAYOUT
  5
1E
102
{ACAD_XDICTIONARY
360
53B61
102
}
102
{ACAD_REACTORS
330
1A
102
}
330
1A
100
AcDbPlotSettings
  1

  2
\\ML370\XEROX
  4
A4
  6

 40
3.174999952316283
 41
3.174999952316283
 42
3.175003051757812
 43
3.17498779296875
 44
209.8674926757813
 45
296.6719970703125
 46
0.0
 47
0.0
 48
0.0
 49
0.0
140
0.0
141
0.0
142
1.0
143
1.0
 70
   688
 72
     1
 73
     1
 74
     5
  7
monochrome.ctb
 75
    16
147
1.0
148
0.0
149
0.0
100
AcDbLayout
  1
ﾚｲｱｳﾄ1
 70
     1
 71
     1
 10
-3.17498779296875
 20
-3.174999952316283
 11
293.4970092773438
 21
206.692492723465
 12
0.0
 22
0.0
 32
0.0
 14
1.000000000000000E+20
 24
1.000000000000000E+20
 34
1.000000000000000E+20
 15
-1.000000000000000E+20
 25
-1.000000000000000E+20
 35
-1.000000000000000E+20
146
0.0
 13
0.0
 23
0.0
 33
0.0
 16
1.0
 26
0.0
 36
0.0
 17
0.0
 27
1.0
 37
0.0
 76
     0
330
1B
  0
LAYOUT
  5
26
102
{ACAD_XDICTIONARY
360
53B65
102
}
102
{ACAD_REACTORS
330
1A
102
}
330
1A
100
AcDbPlotSettings
  1

  2
\\ML370\XEROX
  4

  6

 40
0.0
 41
0.0
 42
0.0
 43
0.0
 44
0.0
 45
0.0
 46
0.0
 47
0.0
 48
0.0
 49
0.0
140
0.0
141
0.0
142
1.0
143
1.0
 70
   688
 72
     0
 73
     0
 74
     5
  7
monochrome.ctb
 75
    16
147
1.0
148
0.0
149
0.0
100
AcDbLayout
  1
ﾚｲｱｳﾄ2
 70
     1
 71
     2
 10
0.0
 20
0.0
 11
12.0
 21
9.0
 12
0.0
 22
0.0
 32
0.0
 14
0.0
 24
0.0
 34
0.0
 15
0.0
 25
0.0
 35
0.0
146
0.0
 13
0.0
 23
0.0
 33
0.0
 16
1.0
 26
0.0
 36
0.0
 17
0.0
 27
1.0
 37
0.0
 76
     0
330
23
  0
MATERIAL
  5
B0EF
102
{ACAD_XDICTIONARY
360
53B6B
102
}
102
{ACAD_REACTORS
330
A91C
102
}
330
A91C
100
AcDbMaterial
  1
ByBlock
  0
MATERIAL
  5
B0EE
102
{ACAD_XDICTIONARY
360
53B69
102
}
102
{ACAD_REACTORS
330
A91C
102
}
330
A91C
100
AcDbMaterial
  1
ByLayer
  0
MATERIAL
  5
B0F0
102
{ACAD_XDICTIONARY
360
53B6D
102
}
102
{ACAD_REACTORS
330
A91C
102
}
330
A91C
100
AcDbMaterial
  1
Global
  0
MLINESTYLE
  5
18
102
{ACAD_REACTORS
330
17
102
}
330
17
100
AcDbMlineStyle
  2
STANDARD
 70
     0
  3

 62
   256
 51
90.0
 52
90.0
 71
     2
 49
0.5
 62
   256
  6
BYLAYER
 49
-0.5
 62
   256
  6
BYLAYER
  0
ACDBPLACEHOLDER
  5
F
102
{ACAD_REACTORS
330
E
102
}
330
E
  0
TABLESTYLE
  5
AABA
102
{ACAD_XDICTIONARY
360
53B67
102
}
102
{ACAD_REACTORS
330
AAB9
102
}
330
AAB9
100
AcDbTableStyle
  3
Standard
 70
     0
 71
     0
 40
1.5
 41
1.5
280
     0
281
     0
  7
STANDARD
140
4.5
170
     2
 62
     0
 63
     7
283
     0
274
    -2
284
     1
 64
     0
275
    -2
285
     1
 65
     0
276
    -2
286
     1
 66
     0
277
    -2
287
     1
 67
     0
278
    -2
288
     1
 68
     0
279
    -2
289
     1
 69
     0
  7
STANDARD
140
6.0
170
     5
 62
     0
 63
     7
283
     0
274
    -2
284
     1
 64
     0
275
    -2
285
     1
 65
     0
276
    -2
286
     1
 66
     0
277
    -2
287
     1
 67
     0
278
    -2
288
     1
 68
     0
279
    -2
289
     1
 69
     0
  7
STANDARD
140
4.5
170
     5
 62
     0
 63
     7
283
     0
274
    -2
284
     1
 64
     0
275
    -2
285
     1
 65
     0
276
    -2
286
     1
 66
     0
277
    -2
287
     1
 67
     0
278
    -2
288
     1
 68
     0
279
    -2
289
     1
 69
     0
  0
VISUALSTYLE
  5
B0F7
102
{ACAD_REACTORS
330
B0F1
102
}
330
B0F1
100
AcDbVisualStyle
  2
2dWireframe
 70
     4
 71
     0
 72
     2
 73
     0
 90
        0
 40
-0.6
 41
-30.0
 62
     5
 63
     7
 74
     1
 91
        4
 64
     7
 65
   257
 75
     1
175
     1
 42
1.0
 92
        0
 66
   257
 43
1.0
 76
     1
 77
     6
 78
     2
 67
     7
 79
     5
170
     0
171
     0
290
     0
174
     0
 93
        1
 44
0.0
173
     0
291
     0
 45
0.0
1001
ACAD
1000
AcDbSavedByObjectVersion
1070
     0
  0
VISUALSTYLE
  5
B0F9
102
{ACAD_REACTORS
330
B0F1
102
}
330
B0F1
100
AcDbVisualStyle
  2
3D Hidden
 70
     6
 71
     1
 72
     2
 73
     2
 90
        0
 40
-0.6
 41
-30.0
 62
     5
 63
     7
 74
     2
 91
        2
 64
     7
 65
   257
 75
     2
175
     1
 42
40.0
 92
        0
 66
   257
 43
1.0
 76
     1
 77
     6
 78
     2
 67
     7
 79
     3
170
     0
171
     0
290
     0
174
     0
 93
        1
 44
0.0
173
     0
291
     0
 45
0.0
1001
ACAD
1000
AcDbSavedByObjectVersion
1070
     0
  0
VISUALSTYLE
  5
B0F8
102
{ACAD_REACTORS
330
B0F1
102
}
330
B0F1
100
AcDbVisualStyle
  2
3dWireframe
 70
     5
 71
     0
 72
     2
 73
     0
 90
        0
 40
-0.6
 41
-30.0
 62
     5
 63
     7
 74
     1
 91
        4
 64
     7
 65
   257
 75
     1
175
     1
 42
1.0
 92
        0
 66
   257
 43
1.0
 76
     1
 77
     6
 78
     2
 67
     7
 79
     5
170
     0
171
     0
290
     0
174
     0
 93
        1
 44
0.0
173
     0
291
     0
 45
0.0
1001
ACAD
1000
AcDbSavedByObjectVersion
1070
     0
  0
VISUALSTYLE
  5
B0F6
102
{ACAD_REACTORS
330
B0F1
102
}
330
B0F1
100
AcDbVisualStyle
  2
Basic
 70
     7
 71
     1
 72
     0
 73
     1
 90
        0
 40
-0.6
 41
-30.0
 62
     5
 63
     7
 74
     0
 91
        4
 64
     7
 65
   257
 75
     1
175
     1
 42
1.0
 92
        8
 66
     7
 43
1.0
 76
     1
 77
     6
 78
     2
 67
     7
 79
     5
170
     0
171
     0
290
     0
174
     0
 93
        1
 44
0.0
173
     0
291
     1
 45
0.0
1001
ACAD
1000
AcDbSavedByObjectVersion
1070
     0
  0
VISUALSTYLE
  5
B0FD
102
{ACAD_REACTORS
330
B0F1
102
}
330
B0F1
100
AcDbVisualStyle
  2
Brighten
 70
    12
 71
     2
 72
     2
 73
     0
 90
        0
 40
-0.6
 41
-30.0
 62
     5
 63
     7
 74
     1
 91
        4
 64
     7
 65
   257
 75
     1
175
     1
 42
1.0
 92
        8
 66
     7
 43
1.0
 76
     1
 77
     6
 78
     2
 67
     7
 79
     5
170
     0
171
     0
290
     0
174
     0
 93
        1
 44
50.0
173
     0
291
     1
 45
0.0
1001
ACAD
1000
AcDbSavedByObjectVersion
1070
     0
  0
VISUALSTYLE
  5
B101
102
{ACAD_REACTORS
330
B0F1
102
}
330
B0F1
100
AcDbVisualStyle
  2
ColorChange
 70
    16
 71
     2
 72
     2
 73
     3
 90
        0
 40
-0.6
 41
-30.0
 62
     5
 63
     8
 74
     1
 91
        4
 64
     7
 65
   257
 75
     1
175
     1
 42
1.0
 92
        8
 66
     8
 43
1.0
 76
     1
 77
     6
 78
     2
 67
     7
 79
     5
170
     0
171
     0
290
     0
174
     0
 93
        1
 44
0.0
173
     0
291
     1
 45
0.0
1001
ACAD
1000
AcDbSavedByObjectVersion
1070
     0
  0
VISUALSTYLE
  5
B0FA
102
{ACAD_REACTORS
330
B0F1
102
}
330
B0F1
100
AcDbVisualStyle
  2
Conceptual
 70
     9
 71
     3
 72
     2
 73
     0
 90
        0
 40
-0.6
 41
-30.0
 62
     5
 63
     7
 74
     2
 91
        2
 64
     7
 65
   257
 75
     1
175
     1
 42
40.0
 92
        8
 66
     7
 43
1.0
 76
     1
 77
     6
 78
     2
 67
     7
 79
     3
170
     0
171
     0
290
     0
174
     0
 93
        1
 44
0.0
173
     0
291
     0
 45
0.0
1001
ACAD
1000
AcDbSavedByObjectVersion
1070
     0
  0
VISUALSTYLE
  5
B0FC
102
{ACAD_REACTORS
330
B0F1
102
}
330
B0F1
100
AcDbVisualStyle
  2
Dim
 70
    11
 71
     2
 72
     2
 73
     0
 90
        0
 40
-0.6
 41
-30.0
 62
     5
 63
     7
 74
     1
 91
        4
 64
     7
 65
   257
 75
     1
175
     1
 42
1.0
 92
        8
 66
     7
 43
1.0
 76
     1
 77
     6
 78
     2
 67
     7
 79
     5
170
     0
171
     0
290
     0
174
     0
 93
        1
 44
-50.0
173
     0
291
     1
 45
0.0
1001
ACAD
1000
AcDbSavedByObjectVersion
1070
     0
  0
VISUALSTYLE
  5
B100
102
{ACAD_REACTORS
330
B0F1
102
}
330
B0F1
100
AcDbVisualStyle
  2
Facepattern
 70
    15
 71
     2
 72
     2
 73
     0
 90
        0
 40
-0.6
 41
-30.0
 62
     5
 63
     7
 74
     1
 91
        4
 64
     7
 65
   257
 75
     1
175
     1
 42
1.0
 92
        8
 66
     7
 43
1.0
 76
     1
 77
     6
 78
     2
 67
     7
 79
     5
170
     0
171
     0
290
     0
174
     0
 93
        1
 44
0.0
173
     0
291
     1
 45
0.0
1001
ACAD
1000
AcDbSavedByObjectVersion
1070
     0
  0
VISUALSTYLE
  5
B0F2
102
{ACAD_REACTORS
330
B0F1
102
}
330
B0F1
100
AcDbVisualStyle
  2
Flat
 70
     0
 71
     2
 72
     1
 73
     1
 90
        2
 40
-0.6
 41
30.0
 62
     5
 63
     7
 74
     0
 91
        4
 64
     7
 65
   257
 75
     1
175
     1
 42
1.0
 92
        8
 66
     7
 43
1.0
 76
     1
 77
     6
 78
     2
 67
     7
 79
     5
170
     0
171
     0
290
     0
174
     0
 93
       13
 44
0.0
173
     0
291
     1
 45
0.0
1001
ACAD
1000
AcDbSavedByObjectVersion
1070
     0
  0
VISUALSTYLE
  5
B0F3
102
{ACAD_REACTORS
330
B0F1
102
}
330
B0F1
100
AcDbVisualStyle
  2
FlatWithEdges
 70
     1
 71
     2
 72
     1
 73
     1
 90
        2
 40
-0.6
 41
30.0
 62
     5
 63
     7
 74
     1
 91
        4
 64
     7
 65
   257
 75
     1
175
     1
 42
1.0
 92
        0
 66
   257
 43
1.0
 76
     1
 77
     6
 78
     2
 67
     7
 79
     5
170
     0
171
     0
290
     0
174
     0
 93
       13
 44
0.0
173
     0
291
     1
 45
0.0
1001
ACAD
1000
AcDbSavedByObjectVersion
1070
     0
  0
VISUALSTYLE
  5
B0F4
102
{ACAD_REACTORS
330
B0F1
102
}
330
B0F1
100
AcDbVisualStyle
  2
Gouraud
 70
     2
 71
     2
 72
     2
 73
     1
 90
        2
 40
-0.6
 41
30.0
 62
     5
 63
     7
 74
     0
 91
        4
 64
     7
 65
   257
 75
     1
175
     1
 42
1.0
 92
        0
 66
     7
 43
1.0
 76
     1
 77
     6
 78
     2
 67
     7
 79
     5
170
     0
171
     0
290
     0
174
     0
 93
       13
 44
0.0
173
     0
291
     1
 45
0.0
1001
ACAD
1000
AcDbSavedByObjectVersion
1070
     0
  0
VISUALSTYLE
  5
B0F5
102
{ACAD_REACTORS
330
B0F1
102
}
330
B0F1
100
AcDbVisualStyle
  2
GouraudWithEdges
 70
     3
 71
     2
 72
     2
 73
     1
 90
        2
 40
-0.6
 41
30.0
 62
     5
 63
     7
 74
     1
 91
        4
 64
     7
 65
   257
 75
     1
175
     1
 42
1.0
 92
        0
 66
   257
 43
1.0
 76
     1
 77
     6
 78
     2
 67
     7
 79
     5
170
     0
171
     0
290
     0
174
     0
 93
       13
 44
0.0
173
     0
291
     1
 45
0.0
1001
ACAD
1000
AcDbSavedByObjectVersion
1070
     0
  0
VISUALSTYLE
  5
B0FF
102
{ACAD_REACTORS
330
B0F1
102
}
330
B0F1
100
AcDbVisualStyle
  2
Linepattern
 70
    14
 71
     2
 72
     2
 73
     0
 90
        0
 40
-0.6
 41
-30.0
 62
     5
 63
     7
 74
     1
 91
        4
 64
     7
 65
   257
 75
     7
175
     7
 42
1.0
 92
        8
 66
     7
 43
1.0
 76
     1
 77
     6
 78
     2
 67
     7
 79
     5
170
     0
171
     0
290
     0
174
     0
 93
        1
 44
0.0
173
     0
291
     1
 45
0.0
1001
ACAD
1000
AcDbSavedByObjectVersion
1070
     0
  0
VISUALSTYLE
  5
B0FB
102
{ACAD_REACTORS
330
B0F1
102
}
330
B0F1
100
AcDbVisualStyle
  2
Realistic
 70
     8
 71
     2
 72
     2
 73
     0
 90
        0
 40
-0.6
 41
-30.0
 62
     5
 63
     7
 74
     1
 91
        0
 64
     7
 65
   257
 75
     1
175
     1
 42
1.0
 92
        8
 66
     8
 43
1.0
 76
     1
 77
     6
 78
     2
 67
     7
 79
     5
170
     0
171
     0
290
     0
174
     0
 93
       13
 44
0.0
173
     0
291
     0
 45
0.0
1001
ACAD
1000
AcDbSavedByObjectVersion
1070
     0
  0
VISUALSTYLE
  5
B0FE
102
{ACAD_REACTORS
330
B0F1
102
}
330
B0F1
100
AcDbVisualStyle
  2
Thicken
 70
    13
 71
     2
 72
     2
 73
     0
 90
        0
 40
-0.6
 41
-30.0
 62
     5
 63
     7
 74
     1
 91
        4
 64
     7
 65
   257
 75
     1
175
     1
 42
1.0
 92
       12
 66
     7
 43
1.0
 76
     1
 77
     6
 78
     2
 67
     7
 79
     5
170
     0
171
     0
290
     0
174
     0
 93
        1
 44
0.0
173
     0
291
     1
 45
0.0
1001
ACAD
1000
AcDbSavedByObjectVersion
1070
     0
  0
DICTIONARYVAR
  5
AAF3
102
{ACAD_REACTORS
330
34
102
}
330
34
100
DictionaryVariables
280
     0
  1
STANDARD
  0
DICTIONARYVAR
  5
A10C
102
{ACAD_REACTORS
330
34
102
}
330
34
100
DictionaryVariables
280
     0
  1
1
  0
DICTIONARYVAR
  5
AB07
102
{ACAD_REACTORS
330
34
102
}
330
34
100
DictionaryVariables
280
     0
  1
4
  0
DICTIONARYVAR
  5
EB56
102
{ACAD_REACTORS
330
34
102
}
330
34
100
DictionaryVariables
280
     0
  1
0.000000;0.000000
  0
DICTIONARYVAR
  5
35
102
{ACAD_REACTORS
330
34
102
}
330
34
100
DictionaryVariables
280
     0
  1
0
  0
DICTIONARYVAR
  5
194C
102
{ACAD_REACTORS
330
34
102
}
330
34
100
DictionaryVariables
280
     0
  1
127
  0
DICTIONARY
  5
7E8
102
{ACAD_REACTORS
330
47
102
}
330
47
100
AcDbDictionary
281
     1
  0
DICTIONARY
  5
4C
102
{ACAD_REACTORS
330
47
102
}
330
47
100
AcDbDictionary
281
     1
  0
XRECORD
  5
A929
102
{ACAD_REACTORS
330
47
102
}
330
47
100
AcDbXrecord
280
     1
 90
-1023410169
  0
XRECORD
  5
B332
102
{ACAD_REACTORS
330
B331
102
}
330
B331
100
AcDbXrecord
280
     1
  0
XRECORD
  5
3FB7
102
{ACAD_REACTORS
330
3F96
102
}
330
3F96
100
AcDbXrecord
280
     1
 91
        3
330
0
 90
        8
 62
     7
370
    40
331
16
  1
Color_7
330
0
 90
        0
 62
    14
370
    -3
331
16
  1
Color_14
330
0
 90
        8
 62
     7
370
    20
331
16
  1
Color_7
330
6D1
 90
        0
 62
     7
370
    -3
331
16
  1
Color_7
330
0
 90
        8
 62
     7
370
    50
331
16
  1
Color_7
330
0
 90
        8
 62
     2
370
    35
331
16
  1
Color_2
330
0
 90
        8
 62
     7
370
    -3
331
16
  1
Color_7
330
10
 90
        8
 62
     7
370
    -3
331
16
  1
Color_7
  0
DICTIONARY
  5
53B63
330
22
100
AcDbDictionary
280
     1
281
     1
  3
ACAD_XREC_ROUNDTRIP
360
53B64
  0
DICTIONARY
  5
53B61
330
1E
100
AcDbDictionary
280
     1
281
     1
  3
ACAD_XREC_ROUNDTRIP
360
53B62
  0
DICTIONARY
  5
53B65
330
26
100
AcDbDictionary
280
     1
281
     1
  3
ACAD_XREC_ROUNDTRIP
360
53B66
  0
DICTIONARY
  5
53B6B
330
B0EF
100
AcDbDictionary
280
     1
281
     1
  3
ACAD_XREC_ROUNDTRIP
360
53B6C
  0
DICTIONARY
  5
53B69
330
B0EE
100
AcDbDictionary
280
     1
281
     1
  3
ACAD_XREC_ROUNDTRIP
360
53B6A
  0
DICTIONARY
  5
53B6D
330
B0F0
100
AcDbDictionary
280
     1
281
     1
  3
ACAD_XREC_ROUNDTRIP
360
53B6E
  0
DICTIONARY
  5
53B67
330
AABA
100
AcDbDictionary
280
     1
281
     1
  3
ACAD_XREC_ROUNDTRIP
360
53B68
  0
XRECORD
  5
53B64
102
{ACAD_REACTORS
330
53B63
102
}
330
53B63
100
AcDbXrecord
280
     1
102
SHADEPLOT
 70
     1
102
SHADEPLOTRESLEVEL
 70
     2
102
SHADEPLOTCUSTOMDPI
 70
   300
  0
XRECORD
  5
53B62
102
{ACAD_REACTORS
330
53B61
102
}
330
53B61
100
AcDbXrecord
280
     1
102
SHADEPLOT
 70
     0
102
SHADEPLOTRESLEVEL
 70
     2
102
SHADEPLOTCUSTOMDPI
 70
   300
  0
XRECORD
  5
53B66
102
{ACAD_REACTORS
330
53B65
102
}
330
53B65
100
AcDbXrecord
280
     1
102
SHADEPLOT
 70
     0
102
SHADEPLOTRESLEVEL
 70
     2
102
SHADEPLOTCUSTOMDPI
 70
   300
  0
XRECORD
  5
53B6C
102
{ACAD_REACTORS
330
53B6B
102
}
330
53B6B
100
AcDbXrecord
280
     1
102
MATERIAL
148
0.0
149
0.0
149
0.0
 93
        0
 94
       63
282
     0
 72
     1
 77
     1
171
     1
175
     1
179
     1
273
     0
  0
XRECORD
  5
53B6A
102
{ACAD_REACTORS
330
53B69
102
}
330
53B69
100
AcDbXrecord
280
     1
102
MATERIAL
148
0.0
149
0.0
149
0.0
 93
        0
 94
       63
282
     0
 72
     1
 77
     1
171
     1
175
     1
179
     1
273
     0
  0
XRECORD
  5
53B6E
102
{ACAD_REACTORS
330
53B6D
102
}
330
53B6D
100
AcDbXrecord
280
     1
102
MATERIAL
148
0.0
149
0.0
149
0.0
 93
        0
 94
       63
282
     0
 72
     1
 77
     1
171
     1
175
     1
179
     1
273
     0
  0
XRECORD
  5
53B68
102
{ACAD_REACTORS
330
53B67
102
}
330
53B67
100
AcDbXrecord
280
     1
102
ACAD_ROUNDTRIP_PRE2007_TABLESTYLE
 90
        4
 91
        0
  1

 92
        4
 93
        0
  2

 94
        4
 95
        0
  3

  0
ENDSEC
  0
EOF
