  0
SECTION
  2
HEADER
  9
$ACADVER
  1
AC1015
  9
$ACADMAINTVER
 70
    20
  9
$DWGCODEPAGE
  3
ANSI_932
  9
$INSBASE
 10
0.0
 20
0.0
 30
0.0
  9
$EXTMIN
 10
1943.240360974719
 20
1748.4749251082
 30
-0.0015258207003583
  9
$EXTMAX
 10
2363.265995740374
 20
2045.493052549628
 30
0.0000000349246037
  9
$LIMMIN
 10
1943.253177379657
 20
1748.483988137406
  9
$LIMMAX
 10
2363.253177379658
 20
2045.483988137407
  9
$ORTHOMODE
 70
     0
  9
$REGENMODE
 70
     1
  9
$FILLMODE
 70
     1
  9
$QTEXTMODE
 70
     0
  9
$MIRRTEXT
 70
     0
  9
$LTSCALE
 40
1.0
  9
$ATTMODE
 70
     1
  9
$TEXTSIZE
 40
3.2
  9
$TRACEWID
 40
1.0
  9
$TEXTSTYLE
  7
STANDARD
  9
$CLAYER
  8
AM_0
  9
$CELTYPE
  6
ByLayer
  9
$CECOLOR
 62
   256
  9
$CELTSCALE
 40
1.0
  9
$DISPSILH
 70
     0
  9
$DIMSCALE
 40
1.0
  9
$DIMASZ
 40
1.0
  9
$DIMEXO
 40
1.0
  9
$DIMDLI
 40
10.0
  9
$DIMRND
 40
0.0
  9
$DIMDLE
 40
0.0
  9
$DIMEXE
 40
1.0
  9
$DIMTP
 40
0.1
  9
$DIMTM
 40
0.1
  9
$DIMTXT
 40
3.5
  9
$DIMCEN
 40
0.0
  9
$DIMTSZ
 40
0.0
  9
$DIMTOL
 70
     0
  9
$DIMLIM
 70
     0
  9
$DIMTIH
 70
     0
  9
$DIMTOH
 70
     0
  9
$DIMSE1
 70
     0
  9
$DIMSE2
 70
     0
  9
$DIMTAD
 70
     1
  9
$DIMZIN
 70
     8
  9
$DIMBLK
  1

  9
$DIMASO
 70
     1
  9
$DIMSHO
 70
     1
  9
$DIMPOST
  1

  9
$DIMAPOST
  1
"
  9
$DIMALT
 70
     0
  9
$DIMALTD
 70
     2
  9
$DIMALTF
 40
0.0393701
  9
$DIMLFAC
 40
1.0
  9
$DIMTOFL
 70
     1
  9
$DIMTVP
 40
0.0
  9
$DIMTIX
 70
     0
  9
$DIMSOXD
 70
     0
  9
$DIMSAH
 70
     0
  9
$DIMBLK1
  1

  9
$DIMBLK2
  1

  9
$DIMSTYLE
  2
SYS
  9
$DIMCLRD
 70
   256
  9
$DIMCLRE
 70
   256
  9
$DIMCLRT
 70
     7
  9
$DIMTFAC
 40
0.71
  9
$DIMGAP
 40
1.5
  9
$DIMJUST
 70
     0
  9
$DIMSD1
 70
     0
  9
$DIMSD2
 70
     0
  9
$DIMTOLJ
 70
     0
  9
$DIMTZIN
 70
     8
  9
$DIMALTZ
 70
     0
  9
$DIMALTTZ
 70
     0
  9
$DIMUPT
 70
     0
  9
$DIMDEC
 70
     2
  9
$DIMTDEC
 70
     2
  9
$DIMALTU
 70
     2
  9
$DIMALTTD
 70
     2
  9
$DIMTXSTY
  7
STANDARD
  9
$DIMAUNIT
 70
     0
  9
$DIMADEC
 70
     0
  9
$DIMALTRND
 40
0.0
  9
$DIMAZIN
 70
     2
  9
$DIMDSEP
 70
    46
  9
$DIMATFIT
 70
     3
  9
$DIMFRAC
 70
     0
  9
$DIMLDRBLK
  1

  9
$DIMLUNIT
 70
     2
  9
$DIMLWD
 70
    -1
  9
$DIMLWE
 70
    -1
  9
$DIMTMOVE
 70
     0
  9
$LUNITS
 70
     2
  9
$LUPREC
 70
     2
  9
$SKETCHINC
 40
1.0
  9
$FILLETRAD
 40
0.0
  9
$AUNITS
 70
     0
  9
$AUPREC
 70
     0
  9
$MENU
  1
.
  9
$ELEVATION
 40
0.0
  9
$PELEVATION
 40
0.0
  9
$THICKNESS
 40
0.0
  9
$LIMCHECK
 70
     0
  9
$CHAMFERA
 40
0.0
  9
$CHAMFERB
 40
0.0
  9
$CHAMFERC
 40
20.0
  9
$CHAMFERD
 40
0.0
  9
$SKPOLY
 70
     0
  9
$TDCREATE
 40
2455700.661109294
  9
$TDUCREATE
 40
2455700.286109294
  9
$TDUPDATE
 40
2456743.556689271
  9
$TDUUPDATE
 40
2456743.181689271
  9
$TDINDWG
 40
0.1508984144
  9
$TDUSRTIMER
 40
0.1508982407
  9
$USRTIMER
 70
     1
  9
$ANGBASE
 50
0.0
  9
$ANGDIR
 70
     0
  9
$PDMODE
 70
     0
  9
$PDSIZE
 40
-3.0
  9
$PLINEWID
 40
0.0
  9
$SPLFRAME
 70
     0
  9
$SPLINETYPE
 70
     6
  9
$SPLINESEGS
 70
     8
  9
$HANDSEED
  5
CDFB
  9
$SURFTAB1
 70
     6
  9
$SURFTAB2
 70
     6
  9
$SURFTYPE
 70
     6
  9
$SURFU
 70
     6
  9
$SURFV
 70
     6
  9
$UCSBASE
  2

  9
$UCSNAME
  2

  9
$UCSORG
 10
0.0
 20
0.0
 30
0.0
  9
$UCSXDIR
 10
1.0
 20
0.0
 30
0.0
  9
$UCSYDIR
 10
0.0
 20
1.0
 30
0.0
  9
$UCSORTHOREF
  2

  9
$UCSORTHOVIEW
 70
     0
  9
$UCSORGTOP
 10
0.0
 20
0.0
 30
0.0
  9
$UCSORGBOTTOM
 10
0.0
 20
0.0
 30
0.0
  9
$UCSORGLEFT
 10
0.0
 20
0.0
 30
0.0
  9
$UCSORGRIGHT
 10
0.0
 20
0.0
 30
0.0
  9
$UCSORGFRONT
 10
0.0
 20
0.0
 30
0.0
  9
$UCSORGBACK
 10
0.0
 20
0.0
 30
0.0
  9
$PUCSBASE
  2

  9
$PUCSNAME
  2

  9
$PUCSORG
 10
0.0
 20
0.0
 30
0.0
  9
$PUCSXDIR
 10
1.0
 20
0.0
 30
0.0
  9
$PUCSYDIR
 10
0.0
 20
1.0
 30
0.0
  9
$PUCSORTHOREF
  2

  9
$PUCSORTHOVIEW
 70
     0
  9
$PUCSORGTOP
 10
0.0
 20
0.0
 30
0.0
  9
$PUCSORGBOTTOM
 10
0.0
 20
0.0
 30
0.0
  9
$PUCSORGLEFT
 10
0.0
 20
0.0
 30
0.0
  9
$PUCSORGRIGHT
 10
0.0
 20
0.0
 30
0.0
  9
$PUCSORGFRONT
 10
0.0
 20
0.0
 30
0.0
  9
$PUCSORGBACK
 10
0.0
 20
0.0
 30
0.0
  9
$USERI1
 70
     0
  9
$USERI2
 70
     0
  9
$USERI3
 70
     0
  9
$USERI4
 70
     0
  9
$USERI5
 70
     0
  9
$USERR1
 40
0.0
  9
$USERR2
 40
0.0
  9
$USERR3
 40
0.0
  9
$USERR4
 40
0.0
  9
$USERR5
 40
0.0
  9
$WORLDVIEW
 70
     1
  9
$SHADEDGE
 70
     3
  9
$SHADEDIF
 70
    70
  9
$TILEMODE
 70
     1
  9
$MAXACTVP
 70
    64
  9
$PINSBASE
 10
0.0
 20
0.0
 30
0.0
  9
$PLIMCHECK
 70
     0
  9
$PEXTMIN
 10
1.000000000000000E+20
 20
1.000000000000000E+20
 30
1.000000000000000E+20
  9
$PEXTMAX
 10
-1.000000000000000E+20
 20
-1.000000000000000E+20
 30
-1.000000000000000E+20
  9
$PLIMMIN
 10
-3.17498779296875
 20
-3.174999952316284
  9
$PLIMMAX
 10
293.4970092773438
 20
206.692492723465
  9
$UNITMODE
 70
     0
  9
$VISRETAIN
 70
     1
  9
$PLINEGEN
 70
     0
  9
$PSLTSCALE
 70
     1
  9
$TREEDEPTH
 70
  3020
  9
$CMLSTYLE
  2
Standard
  9
$CMLJUST
 70
     0
  9
$CMLSCALE
 40
20.0
  9
$PROXYGRAPHICS
 70
     1
  9
$MEASUREMENT
 70
     1
  9
$CELWEIGHT
370
    -1
  9
$ENDCAPS
280
     0
  9
$JOINSTYLE
280
     0
  9
$LWDISPLAY
290
     1
  9
$INSUNITS
 70
     4
  9
$HYPERLINKBASE
  1

  9
$STYLESHEET
  1
monochrome.ctb
  9
$XEDIT
290
     1
  9
$CEPSNTYPE
380
     0
  9
$PSTYLEMODE
290
     1
  9
$FINGERPRINTGUID
  2
{0EBC5CFD-C0FD-4ABC-98B2-92B8FF9F19A7}
  9
$VERSIONGUID
  2
{B01AEB8C-4D43-4A3A-8B40-1E547E7A9E31}
  9
$EXTNAMES
290
     1
  9
$PSVPSCALE
 40
0.0
  9
$OLESTARTUP
290
     0
  0
ENDSEC
  0
SECTION
  2
CLASSES
  0
CLASS
  1
ACDBDICTIONARYWDFLT
  2
AcDbDictionaryWithDefault
  3
ObjectDBX Classes
 90
        0
280
     0
281
     0
  0
CLASS
  1
ACDBPLACEHOLDER
  2
AcDbPlaceHolder
  3
ObjectDBX Classes
 90
        0
280
     0
281
     0
  0
CLASS
  1
LAYOUT
  2
AcDbLayout
  3
ObjectDBX Classes
 90
        0
280
     0
281
     0
  0
CLASS
  1
AMGSETTINGSOBJ
  2
AmgSettingsObj
  3
"AcadM|Product Description: AutoCAD Mechanical|Company: Autodesk"
 90
        0
280
     0
281
     0
  0
CLASS
  1
ACME_DOCUMENT
  2
AcMeDbDoc
  3
AcMeServices
 90
        0
280
     0
281
     0
  0
CLASS
  1
ACMESCOPE
  2
AcMeScope
  3
AcMeServices
 90
        0
280
     0
281
     0
  0
CLASS
  1
ACMECOMMANDHISTORY
  2
AcMeCommandHistory
  3
AcMeServices
 90
        0
280
     0
281
     0
  0
CLASS
  1
DICTIONARYVAR
  2
AcDbDictionaryVar
  3
ObjectDBX Classes
 90
        0
280
     0
281
     0
  0
CLASS
  1
ACIMSYSVARMAN
  2
AcImSysVarManager
  3
AcMeServices
 90
        0
280
     0
281
     0
  0
CLASS
  1
ACIMREALSYSVAR
  2
AcImRealSysVar
  3
AcMeServices
 90
        0
280
     0
281
     0
  0
CLASS
  1
ACIMINTSYSVAR
  2
AcImIntSysVar
  3
AcMeServices
 90
        0
280
     0
281
     0
  0
CLASS
  1
ACMEDRAWINGMAN
  2
AcMeDrawingMan
  3
AcMeServices
 90
        0
280
     0
281
     0
  0
CLASS
  1
ACMEVIEW
  2
AcMeView
  3
AcMeServices
 90
        0
280
     0
281
     0
  0
CLASS
  1
ACDBENTITYCACHE
  2
AcMeEntityCache
  3
AcMeServices
 90
        0
280
     0
281
     0
  0
CLASS
  1
GSMANAGER
  2
AcMeGSManager
  3
AcMeServices
 90
        0
280
     0
281
     0
  0
CLASS
  1
AMDTINTERNALREACTOR
  2
AmdtInternalReactor
  3
AcMeServices
 90
        0
280
     0
281
     0
  0
CLASS
  1
ACMESTATEMGR
  2
AcMeStateMgr
  3
AcMeServices
 90
        0
280
     0
281
     0
  0
CLASS
  1
ACGREFMASTER
  2
AcGrefMaster
  3
AcAttribServices
 90
        0
280
     0
281
     0
  0
CLASS
  1
ACME_DATABASE
  2
AcMeDbDatabase
  3
AcMeServices
 90
        0
280
     0
281
     0
  0
CLASS
  1
ACRFINSADJUSTERMGR
  2
AcRfInsAdjusterMgr
  3
AcMeServices
 90
        0
280
     0
281
     0
  0
CLASS
  1
ACGREFACADMASTER
  2
AcGrefacadMaster
  3
AcGrefServices
 90
        0
280
     0
281
     0
  0
CLASS
  1
AMIMASTER
  2
AmiMaster
  3
AmiServices
 90
        0
280
     0
281
     0
  0
CLASS
  1
ACMDATADICTIONARY
  2
AcmDataDictionary
  3
"AcmSymBB|Product Description: AutoCAD Mechanical|Company: Autodesk"
 90
        0
280
     0
281
     0
  0
CLASS
  1
ACMDATAENTRYBLOCK
  2
AcmDataEntryBlock
  3
"AcmSymBB|Product Description: AutoCAD Mechanical|Company: Autodesk"
 90
        0
280
     0
281
     0
  0
CLASS
  1
ACIMSTRSYSVAR
  2
AcImStrSysVar
  3
AcMeServices
 90
        0
280
     0
281
     0
  0
CLASS
  1
ACMSTANDARDISO
  2
AcmStandardISO
  3
"Amdt_StdImp|Product Description: AutoCAD Mechanical|Company: Autodesk"
 90
        0
280
     0
281
     0
  0
CLASS
  1
AMGOBJPROPCFG
  2
AmgObjPropCfg
  3
"AmgLay|Product Description: AutoCAD Mechanical|Company: Autodesk"
 90
        1
280
     0
281
     0
  0
CLASS
  1
AMDTEDGESTANDARDISO
  2
AmdtEdgeStdISO
  3
"Amdt_StdImp|Product Description: AutoCAD Mechanical|Company: Autodesk"
 90
        0
280
     0
281
     0
  0
CLASS
  1
ACMSURFSTANDARDISO
  2
AcmSurfTextStdISO
  3
"Amdt_StdImp|Product Description: AutoCAD Mechanical|Company: Autodesk"
 90
        0
280
     0
281
     0
  0
CLASS
  1
ACMFCFSTANDARDISO
  2
AcmFCFStdISO
  3
"Amdt_StdImp|Product Description: AutoCAD Mechanical|Company: Autodesk"
 90
        0
280
     0
281
     0
  0
CLASS
  1
ACMWELDSTANDARDISO
  2
AcmWeldingStdISO
  3
"Amdt_StdImp|Product Description: AutoCAD Mechanical|Company: Autodesk"
 90
        0
280
     0
281
     0
  0
CLASS
  1
ACMIDSTANDARDISO
  2
AcmIdStdISO
  3
"Amdt_StdImp|Product Description: AutoCAD Mechanical|Company: Autodesk"
 90
        0
280
     0
281
     0
  0
CLASS
  1
ACMDATUMSTANDARDISO
  2
AcmDatumStdISO
  3
"Amdt_StdImp|Product Description: AutoCAD Mechanical|Company: Autodesk"
 90
        0
280
     0
281
     0
  0
CLASS
  1
ACMBOMSTANDARDISO
  2
AcmBOMStdISO
  3
"Amdt_StdImp|Product Description: AutoCAD Mechanical|Company: Autodesk"
 90
        0
280
     0
281
     0
  0
CLASS
  1
ACMDETAILSTANDARDISO
  2
AmdtDetailSymStdISO
  3
"Amdt_StdImp|Product Description: AutoCAD Mechanical|Company: Autodesk"
 90
        0
280
     0
281
     0
  0
CLASS
  1
ACMSECTIONSTANDARDISO
  2
AmdtSectionSymStdISO
  3
"Amdt_StdImp|Product Description: AutoCAD Mechanical|Company: Autodesk"
 90
        0
280
     0
281
     0
  0
CLASS
  1
ACMCENTERLINESTANDARDISO
  2
AmdtCenterLineStdISO
  3
"Amdt_StdImp|Product Description: AutoCAD Mechanical|Company: Autodesk"
 90
        0
280
     0
281
     0
  0
CLASS
  1
ACAMGLAYSTD
  2
AcAmgLayStd
  3
"AmgLay|Product Description: AutoCAD Mechanical|Company: Autodesk"
 90
        0
280
     0
281
     0
  0
CLASS
  1
ACAMGDIMSTD
  2
AcAmgDimStd
  3
"AmgDim|Product Description: AutoCAD Mechanical|Company: Autodesk"
 90
        0
280
     0
281
     0
  0
CLASS
  1
ACAMGTITLESTD
  2
AcAmgTitleStd
  3
"AmgTitle|Product Description: AutoCAD Mechanical|Company: Autodesk"
 90
        0
280
     0
281
     0
  0
CLASS
  1
ACAMGFILTERDAT
  2
AcAmgFilterDat
  3
"AcadM|Product Description: AutoCAD Mechanical|Company: Autodesk"
 90
        0
280
     0
281
     0
  0
CLASS
  1
LAYER_INDEX
  2
AcDbLayerIndex
  3
ObjectDBX Classes
 90
    32768
280
     0
281
     0
  0
CLASS
  1
IDBUFFER
  2
AcDbIdBuffer
  3
ObjectDBX Classes
 90
    32768
280
     0
281
     0
  0
CLASS
  1
PLOTSETTINGS
  2
AcDbPlotSettings
  3
ObjectDBX Classes
 90
    32768
280
     0
281
     0
  0
CLASS
  1
AMDTFORMULAUPDATEDISPATCHER
  2
AmdtFormulaUpdateDispatcher
  3
AcMeServices
 90
        0
280
     0
281
     0
  0
CLASS
  1
ACMSTANDARDANSI
  2
AcmStandardANSI
  3
"Amdt_StdImp|Product Description: AutoCAD Mechanical|Company: Autodesk"
 90
    32768
280
     0
281
     0
  0
CLASS
  1
ACMSURFSTANDARDANSI
  2
AcmSurfTextStdANSI
  3
"Amdt_StdImp|Product Description: AutoCAD Mechanical|Company: Autodesk"
 90
    32768
280
     0
281
     0
  0
CLASS
  1
ACMFCFSTANDARDANSI
  2
AcmFCFStdANSI
  3
"Amdt_StdImp|Product Description: AutoCAD Mechanical|Company: Autodesk"
 90
    32768
280
     0
281
     0
  0
CLASS
  1
ACMWELDSTANDARDANSI
  2
AcmWeldingStdANSI
  3
"Amdt_StdImp|Product Description: AutoCAD Mechanical|Company: Autodesk"
 90
    32768
280
     0
281
     0
  0
CLASS
  1
ACMIDSTANDARDANSI
  2
AcmIdStdANSI
  3
"Amdt_StdImp|Product Description: AutoCAD Mechanical|Company: Autodesk"
 90
    32768
280
     0
281
     0
  0
CLASS
  1
ACMDATUMSTANDARDANSI
  2
AcmDatumStdANSI
  3
"Amdt_StdImp|Product Description: AutoCAD Mechanical|Company: Autodesk"
 90
    32768
280
     0
281
     0
  0
CLASS
  1
ACMBOMSTANDARDANSI
  2
AcmBOMStdANSI
  3
"Amdt_StdImp|Product Description: AutoCAD Mechanical|Company: Autodesk"
 90
    32768
280
     0
281
     0
  0
CLASS
  1
ACMDETAILSTANDARDANSI
  2
AmdtDetailSymStdANSI
  3
"Amdt_StdImp|Product Description: AutoCAD Mechanical|Company: Autodesk"
 90
    32768
280
     0
281
     0
  0
CLASS
  1
ACMSECTIONSTANDARDANSI
  2
AmdtSectionSymStdANSI
  3
"Amdt_StdImp|Product Description: AutoCAD Mechanical|Company: Autodesk"
 90
    32768
280
     0
281
     0
  0
CLASS
  1
ACMCENTERLINESTANDARDANSI
  2
AmdtCenterLineStdANSI
  3
"Amdt_StdImp|Product Description: AutoCAD Mechanical|Company: Autodesk"
 90
    32768
280
     0
281
     0
  0
CLASS
  1
ACMBOM
  2
AcmBom
  3
"AcmSymBB|Product Description: AutoCAD Mechanical|Company: Autodesk"
 90
        0
280
     0
281
     0
  0
CLASS
  1
ACMDATAENTRYPART
  2
AcmDataEntryPart
  3
"AcmSymBB|Product Description: AutoCAD Mechanical|Company: Autodesk"
 90
    32768
280
     0
281
     0
  0
CLASS
  1
ACMPARTREF
  2
AcmPartRef
  3
"AcmSymBB|Product Description: AutoCAD Mechanical|Company: Autodesk"
 90
    35839
280
     0
281
     1
  0
CLASS
  1
ACDBCIRCARCRES
  2
AcDbCircArcRes
  3
AcGrefServices
 90
    32768
280
     0
281
     0
  0
CLASS
  1
ACMBOMROW
  2
AcmBomRow
  3
"AcmSymBB|Product Description: AutoCAD Mechanical|Company: Autodesk"
 90
    32768
280
     0
281
     0
  0
CLASS
  1
ACMBALLOON
  2
AcmBalloon
  3
"AcmSymBB|Product Description: AutoCAD Mechanical|Company: Autodesk"
 90
    35839
280
     0
281
     1
  0
CLASS
  1
AMDTNOTE
  2
AmdtNote
  3
"AcmSymBB|Product Description: AutoCAD Mechanical|Company: Autodesk"
 90
    35839
280
     0
281
     1
  0
CLASS
  1
STDPART2D
  2
AmgStdPart
  3
"g3vace|Class: AmgStdPart|Product Description: AutoCAD Mechanical|Company: Autodesk"
 90
    35839
280
     0
281
     1
  0
CLASS
  1
ACDBSTDPARTRES_LINE
  2
AcDbStdPartRes_Line
  3
"g3vace|Class: AcDbStdPartRes_Line|Product Description: AutoCAD Mechanical|Company: Autodesk"
 90
    32768
280
     0
281
     0
  0
CLASS
  1
ACMDATAENTRY
  2
AcmDataEntry
  3
"AcmSymBB|Product Description: AutoCAD Mechanical|Company: Autodesk"
 90
        0
280
     0
281
     0
  0
CLASS
  1
ACDBOPPOLYLINERES
  2
AcDbOpPolylineRes
  3
AcGrefServices
 90
    32768
280
     0
281
     0
  0
CLASS
  1
ACMPARTLIST
  2
AcmPartList
  3
"AcmSymBB|Product Description: AutoCAD Mechanical|Company: Autodesk"
 90
    35839
280
     0
281
     1
  0
CLASS
  1
ACDBLINERES
  2
AcDbLineRes
  3
AcGrefServices
 90
    32768
280
     0
281
     0
  0
CLASS
  1
ACRFINSADJ
  2
AcRfInsAdjuster
  3
AcMeServices
 90
    32768
280
     0
281
     0
  0
CLASS
  1
AM_DRAWING_MGR
  2
AcDmDwgMgr
  3
AcMechDwgViewMgmt
 90
        0
280
     0
281
     0
  0
CLASS
  1
AM_DWG_DOCUMENT
  2
AcDmDwgDocument
  3
AcMechDwgViewMgmt
 90
        0
280
     0
281
     0
  0
CLASS
  1
AM_DWG_SHEET
  2
AcDmSheet
  3
AcMechDwgViewMgmt
 90
        0
280
     0
281
     0
  0
CLASS
  1
AM_VIEWDIMPARMAP
  2
AcDmViewDimParMap
  3
AcMechDwgViewMgmt
 90
        0
280
     0
281
     0
  0
CLASS
  1
AM_DWGMGR_NAME
  2
AcDmDwgMgrName
  3
AcMechDwgViewMgmt
 90
        0
280
     0
281
     0
  0
CLASS
  1
AMDTMENUSTATEMGR
  2
AmdtMenuStateMgr
  3
McadcomServices
 90
        0
280
     0
281
     0
  0
CLASS
  1
AMDTMCOMMENUSTATE
  2
AmdtMcomMenuState
  3
McadcomServices
 90
        0
280
     0
281
     0
  0
CLASS
  1
ASAPP
  2
AcAsAppObject
  3
AutoSurfServices
 90
        0
280
     0
281
     0
  0
CLASS
  1
IM_STATIC_MAN
  2
AcImStaticVarManager
  3
AcMeServices
 90
        0
280
     0
281
     0
  0
CLASS
  1
ACIMDBLSTATICVAR
  2
AcImDblStaticVar
  3
AcMeServices
 90
        0
280
     0
281
     0
  0
CLASS
  1
ACIMSTRSTATICVAR
  2
AcImStrStaticVar
  3
AcMeServices
 90
        0
280
     0
281
     0
  0
CLASS
  1
ACIMINTSTATICVAR
  2
AcImIntStaticVar
  3
AcMeServices
 90
        0
280
     0
281
     0
  0
CLASS
  1
ACASGREFMASTER
  2
AcAsGrefMaster
  3
AutoSurfResolverServices
 90
        0
280
     0
281
     0
  0
CLASS
  1
ACADGREFMODULE
  2
AcAdGrefModule
  3
AdGrefServices
 90
        0
280
     0
281
     0
  0
CLASS
  1
AMDTMAPISURFMOUDULE
  2
AmdtMApiSurfModule
  3
MApiSurfServices
 90
        0
280
     0
281
     0
  0
CLASS
  1
MAPIAMMOUDLE
  2
MApiAmModule
  3
MApiAmServices
 90
        0
280
     0
281
     0
  0
CLASS
  1
AMDTADMENUSTATE
  2
AmdtAdMenuState
  3
DesignerServices
 90
        0
280
     0
281
     0
  0
CLASS
  1
ADAPPL
  2
AcAdAppl
  3
DesignerServices
 90
        0
280
     0
281
     0
  0
CLASS
  1
DEPMGR
  2
AcAdDepMgr
  3
DesignerServices
 90
        0
280
     0
281
     0
  0
CLASS
  1
PARAMMGR
  2
AcAdParamMgr
  3
DesignerServices
 90
        0
280
     0
281
     0
  0
CLASS
  1
PARAMSCOPE
  2
AcAdParamScope
  3
DesignerServices
 90
        0
280
     0
281
     0
  0
CLASS
  1
NAMEDAPPL
  2
AcAdNamedAppl
  3
DesignerServices
 90
        0
280
     0
281
     0
  0
CLASS
  1
ADHNTMPLT
  2
AdHoleNoteTemplateMgr
  3
DesignerServices
 90
    32768
280
     0
281
     0
  0
CLASS
  1
AM_HNTEMPLATE_MGR_NAME
  2
AdHoleNoteTemplateMgrName
  3
DesignerServices
 90
    32768
280
     0
281
     0
  0
CLASS
  1
AMDTDMMENUSTATE
  2
AmdtDmMenuState
  3
AcMechDwgViewMgmt
 90
        0
280
     0
281
     0
  0
CLASS
  1
MAPIADMODULE
  2
MApiAdModule
  3
MApiAdServices
 90
        0
280
     0
281
     0
  0
CLASS
  1
AMDTAMMENUSTATE
  2
AmdtAmMenuState
  3
DesignerAssemblies
 90
        0
280
     0
281
     0
  0
CLASS
  1
ACAMPROJECT
  2
AcAmProject
  3
DesignerAssemblies
 90
        0
280
     0
281
     0
  0
CLASS
  1
ACAMGRCOMPDEF
  2
AcAmGrCompDef
  3
DesignerAssemblies
 90
        0
280
     0
281
     0
  0
CLASS
  1
ACCMCONTEXT
  2
AcCmContext
  3
DesignerAssemblies
 90
        0
280
     0
281
     0
  0
CLASS
  1
ACAMCOMPDEF
  2
AcAmCompDef
  3
DesignerAssemblies
 90
        0
280
     0
281
     0
  0
CLASS
  1
ACAMCOMPDEFMGR
  2
AcAmCompDefMgr
  3
DesignerAssemblies
 90
        0
280
     0
281
     0
  0
CLASS
  1
AMCONTEXTMGR
  2
AcAmContextMgr
  3
DesignerAssemblies
 90
        0
280
     0
281
     0
  0
CLASS
  1
ACAMCONTEXTMODELER
  2
AcAmContextModeler
  3
DesignerAssemblies
 90
        0
280
     0
281
     0
  0
CLASS
  1
CATALOGSTATE
  2
AcAmCatalogState
  3
DesignerAssemblies
 90
        0
280
     0
281
     0
  0
CLASS
  1
ACAMGRCOMPDEFSET
  2
AcAmGrCompDefSet
  3
DesignerAssemblies
 90
        0
280
     0
281
     0
  0
CLASS
  1
AMDTBROWSERDBTAB
  2
AmdtBrowserDbTab
  3
McadcomServices
 90
        0
280
     0
281
     0
  0
CLASS
  1
CBROWSERAPPOBJECT
  2
CBrowserAppObject
  3
McadcomServices
 90
        0
280
     0
281
     0
  0
CLASS
  1
DM_PLACEHOLDER
  2
AcDmSelsetPlaceholder
  3
AcMechDwgViewMgmt
 90
        0
280
     0
281
     0
  0
CLASS
  1
ACMPICKOBJ
  2
AcmPickEnt
  3
"AcmSymBB|Product Description: AutoCAD Mechanical|Company: Autodesk"
 90
    32768
280
     0
281
     1
  0
CLASS
  1
ACMNOTESTANDARDISO
  2
AmdtNoteStdISO
  3
"Amdt_StdImp|Product Description: AutoCAD Mechanical|Company: Autodesk"
 90
        0
280
     0
281
     0
  0
CLASS
  1
ACMNOTESTANDARDANSI
  2
AmdtNoteStdANSI
  3
"Amdt_StdImp|Product Description: AutoCAD Mechanical|Company: Autodesk"
 90
    32768
280
     0
281
     0
  0
CLASS
  1
ACMTHREADLINESTANDARDISO
  2
AmdtThreadLineStdISO
  3
"Amdt_StdImp|Product Description: AutoCAD Mechanical|Company: Autodesk"
 90
        0
280
     0
281
     0
  0
CLASS
  1
ACMTHREADLINESTANDARDANSI
  2
AmdtThreadLineStdANSI
  3
"Amdt_StdImp|Product Description: AutoCAD Mechanical|Company: Autodesk"
 90
    32768
280
     0
281
     0
  0
CLASS
  1
TABLESTYLE
  2
AcDbTableStyle
  3
ObjectDBX Classes
 90
     4095
280
     0
281
     0
  0
CLASS
  1
SORTENTSTABLE
  2
AcDbSortentsTable
  3
ObjectDBX Classes
 90
        0
280
     0
281
     0
  0
CLASS
  1
MATERIAL
  2
AcDbMaterial
  3
ObjectDBX Classes
 90
     1024
280
     0
281
     0
  0
CLASS
  1
VISUALSTYLE
  2
AcDbVisualStyle
  3
ObjectDBX Classes
 90
     4095
280
     0
281
     0
  0
CLASS
  1
ACRFATTGENMGR
  2
AcRfAttGeneralMgr
  3
AcAttribServices
 90
        0
280
     0
281
     0
  0
CLASS
  1
ACRFOBJATTMGR
  2
AcRfObjAttGroupMgr
  3
AcAttribServices
 90
        0
280
     0
281
     0
  0
CLASS
  1
ACRFMCADAPIATTHOLDER
  2
AcRfMCADAPIAttHolder
  3
AcAttribServices
 90
        0
280
     0
281
     0
  0
CLASS
  1
AMDTSYSATTR
  2
AmdtSystemAttribute
  3
AcAttribServices
 90
        0
280
     0
281
     0
  0
CLASS
  1
ACMTAPERSTANDARDISO
  2
AcmTaperStdISO
  3
"Amdt_StdImp|Product Description: AutoCAD Mechanical|Company: Autodesk"
 90
        0
280
     0
281
     0
  0
CLASS
  1
CAMSSTRUCTBTNSTATE
  2
StructBtnState
  3
L"DesignerAssemblies"
 90
        0
280
     0
281
     0
  0
CLASS
  1
DIMASSOC
  2
AcDbDimAssoc
  3
"AcDbDimAssoc|Product Desc:     AcDim ARX App For Dimension|Company:          Autodesk, Inc.|WEB Address:      www.autodesk.com"
 90
    32768
280
     0
281
     0
  0
ENDSEC
  0
SECTION
  2
TABLES
  0
TABLE
  2
VPORT
  5
8
330
0
100
AcDbSymbolTable
 70
     1
  0
VPORT
  5
B0EC
330
8
100
AcDbSymbolTableRecord
100
AcDbViewportTableRecord
  2
*Active
 70
     0
 10
0.0
 20
0.0
 11
1.0
 21
1.0
 12
2153.253178357546
 22
1896.983988828914
 13
0.0
 23
0.0
 14
2.5
 24
2.5
 15
10.0
 25
10.0
 16
0.0
 26
0.0
 36
1.0
 17
0.0
 27
0.0
 37
0.0
 40
299.2047639624684
 41
1.648648648648648
 42
50.0
 43
-1370.695619172058
 44
-1370.695619172058
 50
0.0
 51
0.0
 71
     0
 72
   100
 73
     1
 74
     3
 75
     0
 76
     0
 77
     0
 78
     0
281
     0
 65
     0
110
0.0
120
0.0
130
0.0
111
1.0
121
0.0
131
0.0
112
0.0
122
1.0
132
0.0
 79
     0
146
0.0
  0
ENDTAB
  0
TABLE
  2
LTYPE
  5
5
330
0
100
AcDbSymbolTable
 70
    28
  0
LTYPE
  5
14
330
5
100
AcDbSymbolTableRecord
100
AcDbLinetypeTableRecord
  2
ByBlock
 70
     0
  3

 72
    65
 73
     0
 40
0.0
  0
LTYPE
  5
15
330
5
100
AcDbSymbolTableRecord
100
AcDbLinetypeTableRecord
  2
ByLayer
 70
     0
  3

 72
    65
 73
     0
 40
0.0
  0
LTYPE
  5
16
330
5
100
AcDbSymbolTableRecord
100
AcDbLinetypeTableRecord
  2
Continuous
 70
     0
  3
Solid line
 72
    65
 73
     0
 40
0.0
  0
LTYPE
  5
4F
330
5
100
AcDbSymbolTableRecord
100
AcDbLinetypeTableRecord
  2
AM_ISO02W050
 70
     0
  3
__ __ __ __ __ __ __ __ __ __ __ __ __ __ __
 72
    65
 73
     2
 40
7.5
 49
6.0
 74
     0
 49
-1.5
 74
     0
  0
LTYPE
  5
52
330
5
100
AcDbSymbolTableRecord
100
AcDbLinetypeTableRecord
  2
Amconstr
 70
     0
  3
_______________________
 72
    65
 73
     2
 40
9999.0
 49
9999.0
 74
     0
 49
0.0
 74
     0
  0
LTYPE
  5
64
330
5
100
AcDbSymbolTableRecord
100
AcDbLinetypeTableRecord
  2
ACISOWELD
 70
     0
  3
_ _ _ _ _
 72
    65
 73
     2
 40
2.0
 49
2.0
 74
     0
 49
-1.0
 74
     0
  0
LTYPE
  5
65
330
5
100
AcDbSymbolTableRecord
100
AcDbLinetypeTableRecord
  2
ACISOTGB
 70
     0
  3
__ . . __ . .
 72
    65
 73
     6
 40
9.0
 49
4.0
 74
     0
 49
-1.0
 74
     0
 49
1.0
 74
     0
 49
-1.0
 74
     0
 49
1.0
 74
     0
 49
-1.0
 74
     0
  0
LTYPE
  5
66
330
5
100
AcDbSymbolTableRecord
100
AcDbLinetypeTableRecord
  2
ACISOTGL
 70
     0
  3
_ _ _ _ _
 72
    65
 73
     2
 40
3.0
 49
2.0
 74
     0
 49
-1.0
 74
     0
  0
LTYPE
  5
69
330
5
100
AcDbSymbolTableRecord
100
AcDbLinetypeTableRecord
  2
CENTER
 70
     0
  3
__ . __
 72
    65
 73
     4
 40
7.0
 49
4.0
 74
     0
 49
-1.0
 74
     0
 49
1.0
 74
     0
 49
-1.0
 74
     0
  0
LTYPE
  5
A6E
330
5
100
AcDbSymbolTableRecord
100
AcDbLinetypeTableRecord
  2
PHANTOM2
 70
     0
  3
Phantom (.5x) ___ _ _ ___ _ _ ___ _ _ ___ _ _
 72
    65
 73
     6
 40
31.75
 49
15.875
 74
     0
 49
-3.174999999999999
 74
     0
 49
3.174999999999999
 74
     0
 49
-3.174999999999999
 74
     0
 49
3.174999999999999
 74
     0
 49
-3.174999999999999
 74
     0
  0
LTYPE
  5
4DED
330
5
100
AcDbSymbolTableRecord
100
AcDbLinetypeTableRecord
  2
中線
 70
     0
  3
___________________
 72
    65
 73
     2
 40
2.0
 49
1.0
 74
     0
 49
1.0
 74
     0
  0
LTYPE
  5
4DF6
330
5
100
AcDbSymbolTableRecord
100
AcDbLinetypeTableRecord
  2
細線
 70
     0
  3
___________________
 72
    65
 73
     2
 40
2.0
 49
1.0
 74
     0
 49
1.0
 74
     0
  0
LTYPE
  5
4DF7
330
5
100
AcDbSymbolTableRecord
100
AcDbLinetypeTableRecord
  2
太線
 70
     0
  3
___________________
 72
    65
 73
     2
 40
2.0
 49
1.0
 74
     0
 49
1.0
 74
     0
  0
LTYPE
  5
4EA7
330
5
100
AcDbSymbolTableRecord
100
AcDbLinetypeTableRecord
  2
文字
 70
     0
  3
_________________
 72
    65
 73
     2
 40
2.0
 49
1.0
 74
     0
 49
1.0
 74
     0
  0
LTYPE
  5
4EA9
330
5
100
AcDbSymbolTableRecord
100
AcDbLinetypeTableRecord
  2
寸法線
 70
     0
  3
________________
 72
    65
 73
     2
 40
2.0
 49
1.0
 74
     0
 49
1.0
 74
     0
  0
LTYPE
  5
4F12
330
5
100
AcDbSymbolTableRecord
100
AcDbLinetypeTableRecord
  2
ハッチング
 70
     0
  3
_________________
 72
    65
 73
     2
 40
2.0
 49
1.0
 74
     0
 49
1.0
 74
     0
  0
LTYPE
  5
5180
330
5
100
AcDbSymbolTableRecord
100
AcDbLinetypeTableRecord
  2
陰線1
 70
     0
  3
__ __ __ __
 72
    65
 73
     2
 40
4.0
 49
2.2
 74
     0
 49
-1.8
 74
     0
  0
LTYPE
  5
5182
330
5
100
AcDbSymbolTableRecord
100
AcDbLinetypeTableRecord
  2
切断線
 70
     0
  3
/\/-/\/-/\/-/\/-/\/-/\/
 72
    65
 73
     2
 40
11.0001
 49
0.0001
 74
     4
 75
   135
340
56
 46
0.04
 50
0.0
 44
0.0
 45
0.0
 49
-11.0
 74
     0
  0
LTYPE
  5
5183
330
5
100
AcDbSymbolTableRecord
100
AcDbLinetypeTableRecord
  2
想像線1
 70
     0
  3
__ __ __ _____ __ __ ____
 72
    65
 73
     6
 40
14.5
 49
6.0
 74
     0
 49
-1.5
 74
     0
 49
2.0
 74
     0
 49
-1.5
 74
     0
 49
2.0
 74
     0
 49
-1.5
 74
     0
  0
LTYPE
  5
5185
330
5
100
AcDbSymbolTableRecord
100
AcDbLinetypeTableRecord
  2
中心線1
 70
     0
  3
___ _ ___ _ ___
 72
    65
 73
     4
 40
18.0
 49
12.0
 74
     0
 49
-2.0
 74
     0
 49
2.0
 74
     0
 49
-2.0
 74
     0
  0
LTYPE
  5
5188
330
5
100
AcDbSymbolTableRecord
100
AcDbLinetypeTableRecord
  2
補助線
 70
     0
  3
______________
 72
    65
 73
     2
 40
2.0
 49
1.0
 74
     0
 49
1.0
 74
     0
  0
LTYPE
  5
6427
330
5
100
AcDbSymbolTableRecord
100
AcDbLinetypeTableRecord
  2
HIDDEN
 70
     0
  3
Hidden __ __ __ __ __ __ __ __ __ __ __ __ __ _
 72
    65
 73
     2
 40
0.375
 49
0.25
 74
     0
 49
-0.125
 74
     0
  0
LTYPE
  5
AC81
330
5
100
AcDbSymbolTableRecord
100
AcDbLinetypeTableRecord
  2
破断線
 70
     0
  3
/\/-/\/-/\/-/\/-/\/-/\/
 72
    65
 73
     2
 40
0.4401
 49
0.0001
 74
     4
 75
   136
340
AC80
 46
0.0016
 50
0.0
 44
0.0
 45
0.0
 49
-0.4400000000000001
 74
     0
  0
LTYPE
  5
AC9E
330
5
100
AcDbSymbolTableRecord
100
AcDbLinetypeTableRecord
  2
Amzigzag
 70
     0
  3
/\/-/\/-/\/-/\/-/\/-/\/
 72
    65
 73
     2
 40
11.0001
 49
0.0001
 74
     4
 75
   135
340
56
 46
0.04
 50
0.0
 44
0.0
 45
0.0
 49
-11.0
 74
     0
  0
LTYPE
  5
AF0F
330
5
100
AcDbSymbolTableRecord
100
AcDbLinetypeTableRecord
  2
genzigzag
 70
     0
  3
/\/-/\/-/\/-/\/-/\/-/\/
 72
    65
 73
     2
 40
12.0001
 49
0.0001
 74
     4
 75
   135
340
AC80
 46
2.0
 50
0.0
 44
0.0
 45
0.0
 49
-12.0
 74
     0
  0
LTYPE
  5
AF95
330
5
100
AcDbSymbolTableRecord
100
AcDbLinetypeTableRecord
  2
AM_ISO08W050
 70
     0
  3
____ . ____ . ____ . ____ . ____ . ____ . ____
 72
    65
 73
     4
 40
18.0
 49
12.0
 74
     0
 49
-1.5
 74
     0
 49
3.0
 74
     0
 49
-1.5
 74
     0
  0
LTYPE
  5
AF96
330
5
100
AcDbSymbolTableRecord
100
AcDbLinetypeTableRecord
  2
AM_ISO09W050
 70
     0
  3
_____ . . _____ . . _____ . . ____ .. ____
 72
    65
 73
     6
 40
22.5
 49
12.0
 74
     0
 49
-1.5
 74
     0
 49
3.0
 74
     0
 49
-1.5
 74
     0
 49
3.0
 74
     0
 49
-1.5
 74
     0
  0
LTYPE
  5
AF97
330
5
100
AcDbSymbolTableRecord
100
AcDbLinetypeTableRecord
  2
AM_ISO08W050x2
 70
     0
  3
__ . __ . __ . __ . __ . __
 72
    65
 73
     4
 40
9.0
 49
6.0
 74
     0
 49
-0.75
 74
     0
 49
1.5
 74
     0
 49
-0.75
 74
     0
  0
LTYPE
  5
AF98
330
5
100
AcDbSymbolTableRecord
100
AcDbLinetypeTableRecord
  2
AM_ISO02W050x2
 70
     0
  3
 _ _ _ _ _ _ _ _ _ _ _ _
 72
    65
 73
     2
 40
3.75
 49
3.0
 74
     0
 49
-0.75
 74
     0
  0
LTYPE
  5
B77C
330
5
100
AcDbSymbolTableRecord
100
AcDbLinetypeTableRecord
  2
GEN3
 70
     0
  3
-- -- -- -- -- -- -- -- -- -- -- -- -- -- --
 72
    65
 73
     2
 40
6.25
 49
4.75
 74
     0
 49
-1.5
 74
     0
  0
ENDTAB
  0
TABLE
  2
LAYER
  5
2
102
{ACAD_XDICTIONARY
360
3F95
102
}
330
0
100
AcDbSymbolTable
 70
    22
  0
LAYER
  5
10
330
2
100
AcDbSymbolTableRecord
100
AcDbLayerTableRecord
  2
0
 70
     0
 62
     7
  6
Continuous
370
    -3
390
F
  0
LAYER
  5
6D1
330
2
100
AcDbSymbolTableRecord
100
AcDbLayerTableRecord
  2
Defpoints
 70
     0
 62
     7
  6
Continuous
290
     0
370
    -3
390
F
  0
LAYER
  5
5F85
330
2
100
AcDbSymbolTableRecord
100
AcDbLayerTableRecord
  2
AM_0
 70
     0
 62
     7
  6
中線
370
    30
390
F
1001
AcAecLayerStandard
1000

1000

  0
LAYER
  5
AC9F
330
2
100
AcDbSymbolTableRecord
100
AcDbLayerTableRecord
  2
size
 70
     0
 62
     5
  6
Continuous
290
     0
370
    25
390
F
  0
LAYER
  5
ACA0
330
2
100
AcDbSymbolTableRecord
100
AcDbLayerTableRecord
  2
waku
 70
     0
 62
     7
  6
Continuous
370
    35
390
F
  0
LAYER
  5
ACA1
330
2
100
AcDbSymbolTableRecord
100
AcDbLayerTableRecord
  2
AM_6
 70
     0
 62
     2
  6
文字
370
    13
390
F
1001
AcAecLayerStandard
1000

1000

  0
LAYER
  5
ACC8
330
2
100
AcDbSymbolTableRecord
100
AcDbLayerTableRecord
  2
hyomoji
 70
     0
 62
     2
  6
Continuous
370
    13
390
F
  0
LAYER
  5
ACC9
330
2
100
AcDbSymbolTableRecord
100
AcDbLayerTableRecord
  2
hyosen1
 70
     0
 62
     1
  6
Continuous
370
    25
390
F
  0
LAYER
  5
ACCA
330
2
100
AcDbSymbolTableRecord
100
AcDbLayerTableRecord
  2
hyosen2
 70
     0
 62
     1
  6
Continuous
370
    13
390
F
  0
LAYER
  5
AD60
330
2
100
AcDbSymbolTableRecord
100
AcDbLayerTableRecord
  2
AM_1
 70
     0
 62
    30
  6
太線
370
    40
390
F
1001
AcAecLayerStandard
1000

1000

  0
LAYER
  5
AD64
330
2
100
AcDbSymbolTableRecord
100
AcDbLayerTableRecord
  2
AM_2
 70
     0
 62
     1
  6
細線
370
    13
390
F
1001
AcAecLayerStandard
1000

1000

  0
LAYER
  5
AD67
330
2
100
AcDbSymbolTableRecord
100
AcDbLayerTableRecord
  2
AM_3
 70
     0
 62
     6
  6
陰線1
370
    13
390
F
1001
AcAecLayerStandard
1000

1000

  0
LAYER
  5
AD68
330
2
100
AcDbSymbolTableRecord
100
AcDbLayerTableRecord
  2
AM_5
 70
     0
 62
     3
  6
寸法線
370
    13
390
F
1001
AcAecLayerStandard
1000

1000

  0
LAYER
  5
AD69
330
2
100
AcDbSymbolTableRecord
100
AcDbLayerTableRecord
  2
AM_7
 70
     0
 62
     4
  6
中心線1
370
    13
390
F
1001
AcAecLayerStandard
1000

1000

  0
LAYER
  5
AD6A
330
2
100
AcDbSymbolTableRecord
100
AcDbLayerTableRecord
  2
AM_8
 70
     0
 62
     1
  6
ハッチング
370
    13
390
F
1001
AcAecLayerStandard
1000

1000

  0
LAYER
  5
AD6E
330
2
100
AcDbSymbolTableRecord
100
AcDbLayerTableRecord
  2
AM_10
 70
     0
 62
     7
  6
切断線
370
    13
390
F
1001
AcAecLayerStandard
1000

1000

  0
LAYER
  5
AD6F
330
2
100
AcDbSymbolTableRecord
100
AcDbLayerTableRecord
  2
AM_11
 70
     0
 62
     2
  6
想像線1
370
    13
390
F
1001
AcAecLayerStandard
1000

1000

  0
LAYER
  5
B1B6
330
2
100
AcDbSymbolTableRecord
100
AcDbLayerTableRecord
  2
AM_CL
 70
     1
 62
    -1
  6
Amconstr
370
    15
390
F
1001
AcAecLayerStandard
1000

1000

  0
LAYER
  5
B2EB
330
2
100
AcDbSymbolTableRecord
100
AcDbLayerTableRecord
  2
AM_14
 70
     0
 62
     5
  6
細線
370
     9
390
F
1001
AcAecLayerStandard
1000

1000

  0
LAYER
  5
B2EC
330
2
100
AcDbSymbolTableRecord
100
AcDbLayerTableRecord
  2
AM_15
 70
     0
 62
     6
  6
陰線1
370
     9
390
F
1001
AcAecLayerStandard
1000

1000

  0
LAYER
  5
B77D
102
{ACAD_XDICTIONARY
360
B77E
102
}
330
2
100
AcDbSymbolTableRecord
100
AcDbLayerTableRecord
  2
3
 70
     0
 62
     6
  6
GEN3
370
    -3
390
F
  0
LAYER
  5
CA1A
102
{ACAD_XDICTIONARY
360
CA1B
102
}
330
2
100
AcDbSymbolTableRecord
100
AcDbLayerTableRecord
  2
AM_4
 70
     0
 62
     3
  6
補助線
370
    15
390
F
  0
ENDTAB
  0
TABLE
  2
STYLE
  5
3
330
0
100
AcDbSymbolTable
 70
     6
  0
STYLE
  5
11
330
3
100
AcDbSymbolTableRecord
100
AcDbTextStyleTableRecord
  2
STANDARD
 70
     0
 40
0.0
 41
0.7
 50
0.0
 71
     0
 42
3.2
  3
romans.shx
  4
extfont.shx
  0
STYLE
  5
56
330
3
100
AcDbSymbolTableRecord
100
AcDbTextStyleTableRecord
  2

 70
     1
 40
0.0
 41
1.0
 50
0.0
 71
     0
 42
2.5
  3
ltypeshp.shx
  4

  0
STYLE
  5
58
330
3
100
AcDbSymbolTableRecord
100
AcDbTextStyleTableRecord
  2
ACISOTS
 70
     0
 40
1.0
 41
1.0
 50
0.0
 71
     0
 42
2.5
  3
isocp.shx
  4
extfont.shx
  0
STYLE
  5
63
330
3
100
AcDbSymbolTableRecord
100
AcDbTextStyleTableRecord
  2
ACISOGDT
 70
     0
 40
0.0
 41
1.0
 50
0.0
 71
     0
 42
2.5
  3
amgdt.shx
  4

  0
STYLE
  5
A74
330
3
100
AcDbSymbolTableRecord
100
AcDbTextStyleTableRecord
  2
DIM
 70
     0
 40
0.0
 41
1.0
 50
0.0
 71
     0
 42
2.5
  3
monotxt.shx
  4
extfont.shx
  0
STYLE
  5
AC80
330
3
100
AcDbSymbolTableRecord
100
AcDbTextStyleTableRecord
  2

 70
     1
 40
0.0
 41
1.0
 50
0.0
 71
     0
 42
3.2
  3
genltshp.shx
  4

  0
ENDTAB
  0
TABLE
  2
VIEW
  5
6
330
0
100
AcDbSymbolTable
 70
     6
  0
VIEW
  5
AE1
330
6
100
AcDbSymbolTableRecord
100
AcDbViewTableRecord
  2
AM_VIEW1
 70
     0
 40
159.8664440734558
 10
2048.253177379658
 20
1965.550766100679
 41
210.0
 11
0.0
 21
0.0
 31
1.0
 12
0.0
 22
0.0
 32
0.0
 42
50.0
 43
-1370.695619172058
 44
-1370.695619172058
 50
0.0
 71
     0
281
     0
 72
     0
  0
VIEW
  5
AE2
330
6
100
AcDbSymbolTableRecord
100
AcDbViewTableRecord
  2
AM_VIEW2
 70
     0
 40
159.8664440734558
 10
2258.253177379658
 20
1965.550766100679
 41
210.0
 11
0.0
 21
0.0
 31
1.0
 12
0.0
 22
0.0
 32
0.0
 42
50.0
 43
-1370.695619172058
 44
-1370.695619172058
 50
0.0
 71
     0
281
     0
 72
     0
  0
VIEW
  5
AE3
330
6
100
AcDbSymbolTableRecord
100
AcDbViewTableRecord
  2
AM_VIEW3
 70
     0
 40
159.8664440734558
 10
2048.253177379658
 20
1828.417210174135
 41
210.0
 11
0.0
 21
0.0
 31
1.0
 12
0.0
 22
0.0
 32
0.0
 42
50.0
 43
-1370.695619172058
 44
-1370.695619172058
 50
0.0
 71
     0
281
     0
 72
     0
  0
VIEW
  5
AE4
330
6
100
AcDbSymbolTableRecord
100
AcDbViewTableRecord
  2
AM_VIEW4
 70
     0
 40
159.8664440734558
 10
2258.253177379658
 20
1828.417210174135
 41
210.0
 11
0.0
 21
0.0
 31
1.0
 12
0.0
 22
0.0
 32
0.0
 42
50.0
 43
-1370.695619172058
 44
-1370.695619172058
 50
0.0
 71
     0
281
     0
 72
     0
  0
VIEW
  5
AE5
330
6
100
AcDbSymbolTableRecord
100
AcDbViewTableRecord
  2
AM_VIEW5
 70
     0
 40
159.8664440734556
 10
2153.253177379658
 20
1896.983988137407
 41
210.0
 11
0.0
 21
0.0
 31
1.0
 12
0.0
 22
0.0
 32
0.0
 42
50.0
 43
-1370.695619172058
 44
-1370.695619172058
 50
0.0
 71
     0
281
     0
 72
     0
  0
VIEW
  5
AE6
330
6
100
AcDbSymbolTableRecord
100
AcDbViewTableRecord
  2
AM_VIEW6
 70
     0
 40
319.7296908180299
 10
2153.253177379658
 20
1896.983988137407
 41
419.9957999999999
 11
0.0
 21
0.0
 31
1.0
 12
0.0
 22
0.0
 32
0.0
 42
50.0
 43
-1370.695619172058
 44
-1370.695619172058
 50
0.0
 71
     0
281
     0
 72
     0
  0
ENDTAB
  0
TABLE
  2
UCS
  5
7
330
0
100
AcDbSymbolTable
 70
     0
  0
ENDTAB
  0
TABLE
  2
APPID
  5
9
330
0
100
AcDbSymbolTable
 70
    58
  0
APPID
  5
12
330
9
100
AcDbSymbolTableRecord
100
AcDbRegAppTableRecord
  2
ACAD
 70
     0
  0
APPID
  5
30
330
9
100
AcDbSymbolTableRecord
100
AcDbRegAppTableRecord
  2
MCAD_NO_VIS
 70
     0
  0
APPID
  5
31
330
9
100
AcDbSymbolTableRecord
100
AcDbRegAppTableRecord
  2
ACAD_TEMP_GRAPHIC
 70
     0
  0
APPID
  5
44
330
9
100
AcDbSymbolTableRecord
100
AcDbRegAppTableRecord
  2
ACATTRIBSERVICES
 70
     0
  0
APPID
  5
7A1
330
9
100
AcDbSymbolTableRecord
100
AcDbRegAppTableRecord
  2
GENIUS_GENDIMSH_14
 70
     0
  0
APPID
  5
A49
330
9
100
AcDbSymbolTableRecord
100
AcDbRegAppTableRecord
  2
GENIUS_GENREC_14
 70
     0
  0
APPID
  5
A4A
330
9
100
AcDbSymbolTableRecord
100
AcDbRegAppTableRecord
  2
GENIUS_GENOBJ-N-REC_13
 70
     0
  0
APPID
  5
A4B
330
9
100
AcDbSymbolTableRecord
100
AcDbRegAppTableRecord
  2
GENIUS_GENODEF_13
 70
     0
  0
APPID
  5
A4C
330
9
100
AcDbSymbolTableRecord
100
AcDbRegAppTableRecord
  2
DCO15
 70
     0
  0
APPID
  5
ADC
330
9
100
AcDbSymbolTableRecord
100
AcDbRegAppTableRecord
  2
GENIUS_GENOLIS_13
 70
     0
  0
APPID
  5
ADD
330
9
100
AcDbSymbolTableRecord
100
AcDbRegAppTableRecord
  2
GENIUS_GENOENT_13
 70
     0
  0
APPID
  5
ADE
330
9
100
AcDbSymbolTableRecord
100
AcDbRegAppTableRecord
  2
GENIUS_GENOBJ-N-TIT_13
 70
     0
  0
APPID
  5
ADF
330
9
100
AcDbSymbolTableRecord
100
AcDbRegAppTableRecord
  2
GENIUS_GENTITLE_13
 70
     0
  0
APPID
  5
AE0
330
9
100
AcDbSymbolTableRecord
100
AcDbRegAppTableRecord
  2
GENIUS_GENOREF_13
 70
     0
  0
APPID
  5
AE7
330
9
100
AcDbSymbolTableRecord
100
AcDbRegAppTableRecord
  2
GENIUS_GENSCREG_15
 70
     0
  0
APPID
  5
AE8
330
9
100
AcDbSymbolTableRecord
100
AcDbRegAppTableRecord
  2
GENIUS_GENOBJ-N-SDF_13
 70
     0
  0
APPID
  5
FAF
330
9
100
AcDbSymbolTableRecord
100
AcDbRegAppTableRecord
  2
GENIUS_GENBLLY_14
 70
     0
  0
APPID
  5
FB0
330
9
100
AcDbSymbolTableRecord
100
AcDbRegAppTableRecord
  2
GENIUS_GENTRA_14
 70
     0
  0
APPID
  5
1285
330
9
100
AcDbSymbolTableRecord
100
AcDbRegAppTableRecord
  2
GENIUS_GENDTOL_13
 70
     0
  0
APPID
  5
142D
330
9
100
AcDbSymbolTableRecord
100
AcDbRegAppTableRecord
  2
GENIUS_GENOBJ-N-CEN_13
 70
     0
  0
APPID
  5
1AB5
330
9
100
AcDbSymbolTableRecord
100
AcDbRegAppTableRecord
  2
GENIUS_GENOBJ-N-CRS_13
 70
     0
  0
APPID
  5
1B36
330
9
100
AcDbSymbolTableRecord
100
AcDbRegAppTableRecord
  2
GENIUS_GENOBJ-N-HTC_13
 70
     0
  0
APPID
  5
1B37
330
9
100
AcDbSymbolTableRecord
100
AcDbRegAppTableRecord
  2
GENIUS_GENHATCH_13
 70
     0
  0
APPID
  5
216D
330
9
100
AcDbSymbolTableRecord
100
AcDbRegAppTableRecord
  2
GENIUS_GENOBJ-N-FIL_13
 70
     0
  0
APPID
  5
2356
330
9
100
AcDbSymbolTableRecord
100
AcDbRegAppTableRecord
  2
GEVID990412420
 70
     0
  0
APPID
  5
2357
330
9
100
AcDbSymbolTableRecord
100
AcDbRegAppTableRecord
  2
GEVDC
 70
     0
  0
APPID
  5
2358
330
9
100
AcDbSymbolTableRecord
100
AcDbRegAppTableRecord
  2
GEVCON
 70
     0
  0
APPID
  5
235B
330
9
100
AcDbSymbolTableRecord
100
AcDbRegAppTableRecord
  2
GEVRADREF
 70
     0
  0
APPID
  5
2360
330
9
100
AcDbSymbolTableRecord
100
AcDbRegAppTableRecord
  2
GENIUS_GENBH_13
 70
     0
  0
APPID
  5
2362
330
9
100
AcDbSymbolTableRecord
100
AcDbRegAppTableRecord
  2
GENIUS_GENOBJ-NBEHI-BHF_13
 70
     0
  0
APPID
  5
2364
330
9
100
AcDbSymbolTableRecord
100
AcDbRegAppTableRecord
  2
GENIUS_GENOBJ-NBEHI-BHB_13
 70
     0
  0
APPID
  5
2379
330
9
100
AcDbSymbolTableRecord
100
AcDbRegAppTableRecord
  2
GENIUS_GENOBJ-F-SCPASSM_13
 70
     0
  0
APPID
  5
3D74
330
9
100
AcDbSymbolTableRecord
100
AcDbRegAppTableRecord
  2
GENIUS_GENDIM_13
 70
     0
  0
APPID
  5
3D76
330
9
100
AcDbSymbolTableRecord
100
AcDbRegAppTableRecord
  2
GENIUS_GE3DTOL_13
 70
     0
  0
APPID
  5
3D9C
330
9
100
AcDbSymbolTableRecord
100
AcDbRegAppTableRecord
  2
AD_DRAW
 70
     0
  0
APPID
  5
3DE8
330
9
100
AcDbSymbolTableRecord
100
AcDbRegAppTableRecord
  2
ASURF_PCURVE_APPNAME
 70
     0
  0
APPID
  5
3DED
330
9
100
AcDbSymbolTableRecord
100
AcDbRegAppTableRecord
  2
AMG_3D2D_5.0
 70
     0
  0
APPID
  5
3E1B
330
9
100
AcDbSymbolTableRecord
100
AcDbRegAppTableRecord
  2
DESIGNERASSEMBLIES
 70
     0
  0
APPID
  5
3E20
330
9
100
AcDbSymbolTableRecord
100
AcDbRegAppTableRecord
  2
ACADM_DIM_EDIT
 70
     0
  0
APPID
  5
3E21
330
9
100
AcDbSymbolTableRecord
100
AcDbRegAppTableRecord
  2
AMDT_DM_ADJ
 70
     0
  0
APPID
  5
4143
330
9
100
AcDbSymbolTableRecord
100
AcDbRegAppTableRecord
  2
GENIUS_GENFIL_13
 70
     0
  0
APPID
  5
4144
330
9
100
AcDbSymbolTableRecord
100
AcDbRegAppTableRecord
  2
GENIUS_GENOBJ-N-CHA_13
 70
     0
  0
APPID
  5
4E17
330
9
100
AcDbSymbolTableRecord
100
AcDbRegAppTableRecord
  2
GEVID1008153417
 70
     0
  0
APPID
  5
4E58
330
9
100
AcDbSymbolTableRecord
100
AcDbRegAppTableRecord
  2
GEVID1008153418
 70
     0
  0
APPID
  5
4E5E
330
9
100
AcDbSymbolTableRecord
100
AcDbRegAppTableRecord
  2
GEVID1008153419
 70
     0
  0
APPID
  5
4E64
330
9
100
AcDbSymbolTableRecord
100
AcDbRegAppTableRecord
  2
GEVID1008153420
 70
     0
  0
APPID
  5
4E75
330
9
100
AcDbSymbolTableRecord
100
AcDbRegAppTableRecord
  2
GEVID1008153421
 70
     0
  0
APPID
  5
4EB7
330
9
100
AcDbSymbolTableRecord
100
AcDbRegAppTableRecord
  2
GENIUS_AMGTXT_16
 70
     0
  0
APPID
  5
7645
330
9
100
AcDbSymbolTableRecord
100
AcDbRegAppTableRecord
  2
GENIUS_GENOBJ-N-DIM_13
 70
     0
  0
APPID
  5
AAD0
330
9
100
AcDbSymbolTableRecord
100
AcDbRegAppTableRecord
  2
ACAD_DSTYLE_DIMARC_LENGTH_SYMBOL
 70
     0
  0
APPID
  5
AAD1
330
9
100
AcDbSymbolTableRecord
100
AcDbRegAppTableRecord
  2
ACAD_DSTYLE_DIMJOGGED_JOGANGLE_SYMBOL
 70
     0
  0
APPID
  5
AAFD
330
9
100
AcDbSymbolTableRecord
100
AcDbRegAppTableRecord
  2
ACAD_PSEXT
 70
     0
  0
APPID
  5
AD61
330
9
100
AcDbSymbolTableRecord
100
AcDbRegAppTableRecord
  2
AcAecLayerStandard
 70
     0
  0
APPID
  5
AEE3
330
9
100
AcDbSymbolTableRecord
100
AcDbRegAppTableRecord
  2
ACAD_EXEMPT_FROM_CAD_STANDARDS
 70
     0
  0
APPID
  5
B1BE
330
9
100
AcDbSymbolTableRecord
100
AcDbRegAppTableRecord
  2
GENIUS_GENCEN_19
 70
     0
  0
APPID
  5
B505
330
9
100
AcDbSymbolTableRecord
100
AcDbRegAppTableRecord
  2
ACAD_MLEADERVER
 70
     0
  0
APPID
  5
B781
330
9
100
AcDbSymbolTableRecord
100
AcDbRegAppTableRecord
  2
ACAD_DSTYLE_DIMINSPECT
 70
     0
  0
APPID
  5
B782
330
9
100
AcDbSymbolTableRecord
100
AcDbRegAppTableRecord
  2
GENIUS_GEFSPRING_13
 70
     0
  0
ENDTAB
  0
TABLE
  2
DIMSTYLE
  5
A
330
0
100
AcDbSymbolTable
 70
    18
100
AcDbDimStyleTable
 71
     1
340
2515
  0
DIMSTYLE
105
A76
330
A
100
AcDbSymbolTableRecord
100
AcDbDimStyleTableRecord
  2
STANDARD
 70
     0
 41
3.0
 42
1.0
 43
7.0
 44
2.0
 73
     0
 74
     0
 77
     1
140
2.799999999999999
141
0.0
143
0.0394
147
0.7
171
     4
172
     1
173
     1
176
     3
177
     3
178
     2
271
     3
272
     3
273
     8
274
     4
289
     0
340
A74
341
A66
343
A66
344
A66
  0
DIMSTYLE
105
2515
330
A
100
AcDbSymbolTableRecord
100
AcDbDimStyleTableRecord
  2
SYS
 70
     0
  4
"
 41
1.0
 42
1.0
 43
10.0
 44
1.0
 47
0.1
 48
0.1
 73
     0
 74
     0
 77
     1
 78
     8
 79
     2
140
3.5
141
0.0
143
0.0393701
146
0.71
147
1.5
172
     1
176
   256
177
   256
178
     7
271
     2
272
     2
283
     0
284
     8
340
11
371
    -1
372
    -1
1001
ACAD_DSTYLE_DIMJOGGED_JOGANGLE_SYMBOL
1070
   384
1040
0.7853981633974483
1001
ACAD_DSTYLE_DIMARC_LENGTH_SYMBOL
1070
   379
1070
     1
  0
DIMSTYLE
105
2516
330
A
100
AcDbSymbolTableRecord
100
AcDbDimStyleTableRecord
  2
SYS$3
 70
     0
  4
"
 41
2.0
 42
1.0
 43
10.0
 44
1.0
 47
0.1
 48
0.1
 73
     0
 77
     1
 78
     8
 79
     2
140
3.5
141
0.0
143
0.0393701
146
0.71
147
1.5
176
   256
177
   256
178
     2
271
     2
272
     2
283
     0
284
     8
288
     1
340
11
342
A66
371
    -1
372
    -1
1001
ACAD_DSTYLE_DIMJOGGED_JOGANGLE_SYMBOL
1070
   384
1040
0.7853981633974483
1001
ACAD_DSTYLE_DIMARC_LENGTH_SYMBOL
1070
   379
1070
     1
  0
DIMSTYLE
105
2517
330
A
100
AcDbSymbolTableRecord
100
AcDbDimStyleTableRecord
  2
SYS$4
 70
     0
  4
"
 41
2.0
 42
1.0
 43
10.0
 44
1.0
 47
0.1
 48
0.1
 73
     0
 77
     1
 78
     8
 79
     2
140
3.5
141
0.0
143
0.0393701
146
0.71
147
1.5
173
     1
176
   256
177
   256
178
     2
271
     2
272
     2
283
     0
284
     8
288
     1
340
11
344
A66
371
    -1
372
    -1
1001
ACAD_DSTYLE_DIMJOGGED_JOGANGLE_SYMBOL
1070
   384
1040
0.7853981633974483
1001
ACAD_DSTYLE_DIMARC_LENGTH_SYMBOL
1070
   379
1070
     1
  0
DIMSTYLE
105
2518
330
A
100
AcDbSymbolTableRecord
100
AcDbDimStyleTableRecord
  2
SYS$6
 70
     0
  4
"
 41
2.0
 42
1.0
 43
10.0
 44
1.0
 47
0.1
 48
0.1
 73
     0
 74
     0
 78
     8
 79
     2
140
3.5
141
0.0
143
0.0393701
146
0.71
147
1.5
172
     1
176
   256
177
   256
178
     2
271
     2
272
     2
283
     0
284
     8
340
11
341
A66
371
    -1
372
    -1
1001
ACAD_DSTYLE_DIMJOGGED_JOGANGLE_SYMBOL
1070
   384
1040
0.7853981633974483
1001
ACAD_DSTYLE_DIMARC_LENGTH_SYMBOL
1070
   379
1070
     1
  0
DIMSTYLE
105
2519
330
A
100
AcDbSymbolTableRecord
100
AcDbDimStyleTableRecord
  2
SYS$7
 70
     0
  4
"
 41
2.0
 42
1.0
 43
10.0
 44
1.0
 47
0.1
 48
0.1
 73
     0
 74
     0
 77
     1
 78
     8
 79
     2
140
5.0
141
0.0
143
0.0393701
146
0.71
147
1.5
172
     1
176
   256
177
   256
178
     2
271
     2
272
     2
283
     0
284
     8
340
11
341
A66
342
A66
371
    -1
372
    -1
1001
ACAD_DSTYLE_DIMJOGGED_JOGANGLE_SYMBOL
1070
   384
1040
0.7853981633974483
1001
ACAD_DSTYLE_DIMARC_LENGTH_SYMBOL
1070
   379
1070
     1
  0
DIMSTYLE
105
251A
330
A
100
AcDbSymbolTableRecord
100
AcDbDimStyleTableRecord
  2
SYS$SF
 70
     0
  4
"
 41
2.5
 42
1.0
 43
10.0
 44
1.0
 47
0.1
 48
0.1
 73
     0
 74
     0
 75
     1
 76
     1
 77
     1
 78
     8
 79
     2
140
3.5
141
0.0
143
0.0393701
146
0.71
147
1.5
172
     1
176
   256
177
   256
178
     2
271
     2
272
     3
283
     0
284
     8
340
11
341
6C4
342
6C4
371
    -1
372
    -1
1001
ACAD_DSTYLE_DIMJOGGED_JOGANGLE_SYMBOL
1070
   384
1040
0.7853981633974483
1001
ACAD_DSTYLE_DIMARC_LENGTH_SYMBOL
1070
   379
1070
     1
  0
DIMSTYLE
105
251B
330
A
100
AcDbSymbolTableRecord
100
AcDbDimStyleTableRecord
  2
SYS$SH
 70
     0
  4
"
 41
2.5
 42
1.0
 43
10.0
 44
1.0
 47
0.1
 48
0.1
 73
     0
 74
     0
 75
     1
 76
     1
 77
     1
 78
     8
 79
     2
140
3.5
141
0.0
143
0.0393701
144
2.0
146
0.71
147
1.5
172
     1
173
     1
176
   256
177
   256
178
     2
271
     2
272
     3
283
     0
284
     8
340
11
341
6C4
343
72
344
6C4
371
    -1
372
    -1
1001
ACAD_DSTYLE_DIMJOGGED_JOGANGLE_SYMBOL
1070
   384
1040
0.7853981633974483
1001
ACAD_DSTYLE_DIMARC_LENGTH_SYMBOL
1070
   379
1070
     1
  0
DIMSTYLE
105
2A59
330
A
100
AcDbSymbolTableRecord
100
AcDbDimStyleTableRecord
  2
SYS$2
 70
     0
  4
"
 41
1.0
 42
1.0
 43
10.0
 44
1.0
 47
0.1
 48
0.1
 73
     0
 74
     0
 77
     1
 78
     8
 79
     2
140
3.5
141
0.0
143
0.0393701
146
0.71
147
1.5
172
     1
176
   256
177
   256
178
     2
271
     2
272
     2
283
     0
284
     8
340
11
342
6C4
371
    -1
372
    -1
1001
ACAD_DSTYLE_DIMJOGGED_JOGANGLE_SYMBOL
1070
   384
1040
0.7853981633974483
1001
ACAD_DSTYLE_DIMARC_LENGTH_SYMBOL
1070
   379
1070
     1
  0
DIMSTYLE
105
2AAB
102
{ACAD_REACTORS
330
C61B
330
C61C
330
C61D
330
C61E
330
C61F
330
C620
330
C621
330
C622
330
C623
330
C624
330
C629
330
C62A
330
C62B
330
C62C
330
C632
330
C640
330
C642
330
C643
102
}
330
A
100
AcDbSymbolTableRecord
100
AcDbDimStyleTableRecord
  2
SYS$0
 70
     0
  4
"
 41
1.0
 42
1.0
 43
10.0
 44
1.0
 47
0.1
 48
0.1
 73
     0
 74
     0
 77
     1
 78
     8
 79
     2
140
3.200000000000001
141
0.0
143
0.0393701
146
0.71
147
1.5
172
     1
176
   256
177
   256
178
     2
271
     2
272
     2
283
     0
284
     8
340
11
341
A66
342
6C4
371
    -1
372
    -1
1001
ACAD_DSTYLE_DIMJOGGED_JOGANGLE_SYMBOL
1070
   384
1040
0.7853981633974483
1001
ACAD_DSTYLE_DIMARC_LENGTH_SYMBOL
1070
   379
1070
     1
  0
DIMSTYLE
105
AF99
330
A
100
AcDbSymbolTableRecord
100
AcDbDimStyleTableRecord
  2
AM_ISO
 70
     0
  4
"
 41
2.5
 42
1.0
 43
10.0
 44
1.0
 47
0.1
 48
0.1
 73
     0
 74
     0
 77
     1
 78
     8
 79
     2
140
3.5
141
0.0
143
0.0393701
146
0.71
147
1.5
172
     1
176
   256
177
   256
178
     2
271
     2
272
     3
274
     4
283
     0
284
     8
340
11
371
    -1
372
    -1
  0
DIMSTYLE
105
AF9A
330
A
100
AcDbSymbolTableRecord
100
AcDbDimStyleTableRecord
  2
AM_ISO$3
 70
     0
  4
"
 41
2.5
 42
1.0
 43
10.0
 44
1.0
 47
0.1
 48
0.1
 73
     0
 77
     1
 78
     8
 79
     2
140
3.5
141
0.0
143
0.0393701
146
0.71
147
1.5
176
   256
177
   256
178
     2
271
     2
272
     3
274
     4
283
     0
284
     8
288
     1
289
     0
340
11
371
    -1
372
    -1
  0
DIMSTYLE
105
AF9B
330
A
100
AcDbSymbolTableRecord
100
AcDbDimStyleTableRecord
  2
AM_ISO$4
 70
     0
  4
"
 41
2.5
 42
1.0
 43
10.0
 44
1.0
 47
0.1
 48
0.1
 73
     0
 77
     1
 78
     8
 79
     2
140
3.5
141
0.0
143
0.0393701
146
0.71
147
1.5
176
   256
177
   256
178
     2
271
     2
272
     3
274
     4
283
     0
284
     8
288
     1
289
     0
340
11
371
    -1
372
    -1
  0
DIMSTYLE
105
AF9C
330
A
100
AcDbSymbolTableRecord
100
AcDbDimStyleTableRecord
  2
AM_ISO$6
 70
     0
  4
"
 41
2.5
 42
1.0
 43
10.0
 44
1.0
 47
0.1
 48
0.1
 73
     0
 74
     0
 78
     8
 79
     2
140
3.5
141
0.0
143
0.0393701
146
0.71
147
1.5
172
     1
176
   256
177
   256
178
     2
271
     2
272
     3
274
     4
283
     0
284
     8
340
11
371
    -1
372
    -1
  0
DIMSTYLE
105
AF9D
330
A
100
AcDbSymbolTableRecord
100
AcDbDimStyleTableRecord
  2
AM_ISO$7
 70
     0
  4
"
 41
2.5
 42
1.0
 43
10.0
 44
1.0
 47
0.1
 48
0.1
 73
     0
 74
     0
 77
     1
 78
     8
 79
     2
140
5.0
141
0.0
143
0.0393701
146
0.71
147
1.5
172
     1
176
   256
177
   256
178
     2
271
     2
272
     3
274
     4
283
     0
284
     8
340
11
371
    -1
372
    -1
  0
DIMSTYLE
105
AF9E
330
A
100
AcDbSymbolTableRecord
100
AcDbDimStyleTableRecord
  2
AM_ISO$SF
 70
     0
  4
"
 41
2.5
 42
1.0
 43
10.0
 44
1.0
 47
0.1
 48
0.1
 73
     0
 74
     0
 75
     1
 76
     1
 77
     1
 78
     8
 79
     2
140
3.5
141
0.0
143
0.0393701
146
0.71
147
1.5
172
     1
176
   256
177
   256
178
     2
271
     2
272
     3
274
     4
283
     0
284
     8
340
11
371
    -1
372
    -1
  0
DIMSTYLE
105
AF9F
330
A
100
AcDbSymbolTableRecord
100
AcDbDimStyleTableRecord
  2
AM_ISO$SH
 70
     0
  4
"
 41
2.5
 42
1.0
 43
10.0
 44
1.0
 47
0.1
 48
0.1
 73
     0
 74
     0
 75
     1
 76
     1
 77
     1
 78
     8
 79
     2
140
3.5
141
0.0
143
0.0393701
144
2.0
146
0.71
147
1.5
172
     1
173
     1
176
   256
177
   256
178
     2
271
     2
272
     3
274
     4
283
     0
284
     8
340
11
343
72
371
    -1
372
    -1
  0
DIMSTYLE
105
B780
330
A
100
AcDbSymbolTableRecord
100
AcDbDimStyleTableRecord
  2
AM_ANSI
 70
     0
  4
mm
 41
0.1
 42
0.05
 43
0.5
 44
0.1
 47
0.1
 48
0.1
 78
     7
 79
     2
140
0.12
141
0.0
146
0.71
147
0.06
176
   256
177
   256
178
     2
274
     4
284
     7
340
11
371
    -1
372
    -1
  0
ENDTAB
  0
TABLE
  2
BLOCK_RECORD
  5
1
330
0
100
AcDbSymbolTable
 70
    26
  0
BLOCK_RECORD
  5
1F
102
{ACAD_XDICTIONARY
360
8A
102
}
330
1
100
AcDbSymbolTableRecord
100
AcDbBlockTableRecord
  2
*Model_Space
340
22
  0
BLOCK_RECORD
  5
1B
330
1
100
AcDbSymbolTableRecord
100
AcDbBlockTableRecord
  2
*Paper_Space
340
1E
  0
BLOCK_RECORD
  5
23
330
1
100
AcDbSymbolTableRecord
100
AcDbBlockTableRecord
  2
*Paper_Space0
340
26
  0
BLOCK_RECORD
  5
72
330
1
100
AcDbSymbolTableRecord
100
AcDbBlockTableRecord
  2
GENAXEH
340
0
  0
BLOCK_RECORD
  5
6C4
330
1
100
AcDbSymbolTableRecord
100
AcDbBlockTableRecord
  2
_Dot
340
0
102
{BLKREFS
331
CA4D
331
CA4E
331
CA56
331
CA57
331
CA5F
331
CA60
331
CA68
331
CA69
331
CA71
331
CA72
331
CA7A
331
CA7B
331
CA83
331
CA84
331
CA8C
331
CA8D
331
CA95
331
CA96
331
CA9E
331
CA9F
331
CAA7
331
CAA8
331
CAB0
331
CAB1
331
CABB
331
CABC
331
CAC4
331
CAC5
331
CACD
331
CACE
331
CAD7
331
CAD8
331
CAE1
331
CAE2
331
CAEA
331
CAEB
102
}
  0
BLOCK_RECORD
  5
A66
330
1
100
AcDbSymbolTableRecord
100
AcDbBlockTableRecord
  2
_OPEN30
340
0
102
{BLKREFS
331
CD8D
102
}
  0
BLOCK_RECORD
  5
C7E7
330
1
100
AcDbSymbolTableRecord
100
AcDbBlockTableRecord
  2
*D5
340
0
  0
BLOCK_RECORD
  5
C7F5
330
1
100
AcDbSymbolTableRecord
100
AcDbBlockTableRecord
  2
*D6
340
0
  0
BLOCK_RECORD
  5
C801
330
1
100
AcDbSymbolTableRecord
100
AcDbBlockTableRecord
  2
*D7
340
0
  0
BLOCK_RECORD
  5
C80D
330
1
100
AcDbSymbolTableRecord
100
AcDbBlockTableRecord
  2
*D8
340
0
  0
BLOCK_RECORD
  5
C819
330
1
100
AcDbSymbolTableRecord
100
AcDbBlockTableRecord
  2
*D9
340
0
  0
BLOCK_RECORD
  5
C825
330
1
100
AcDbSymbolTableRecord
100
AcDbBlockTableRecord
  2
*D10
340
0
  0
BLOCK_RECORD
  5
C831
330
1
100
AcDbSymbolTableRecord
100
AcDbBlockTableRecord
  2
*D11
340
0
  0
BLOCK_RECORD
  5
C83D
330
1
100
AcDbSymbolTableRecord
100
AcDbBlockTableRecord
  2
*D12
340
0
  0
BLOCK_RECORD
  5
C849
330
1
100
AcDbSymbolTableRecord
100
AcDbBlockTableRecord
  2
*D13
340
0
  0
BLOCK_RECORD
  5
C855
330
1
100
AcDbSymbolTableRecord
100
AcDbBlockTableRecord
  2
*D14
340
0
  0
BLOCK_RECORD
  5
C894
330
1
100
AcDbSymbolTableRecord
100
AcDbBlockTableRecord
  2
*D15
340
0
  0
BLOCK_RECORD
  5
C8A0
330
1
100
AcDbSymbolTableRecord
100
AcDbBlockTableRecord
  2
*D16
340
0
  0
BLOCK_RECORD
  5
C8AC
330
1
100
AcDbSymbolTableRecord
100
AcDbBlockTableRecord
  2
*D17
340
0
  0
BLOCK_RECORD
  5
C8BA
330
1
100
AcDbSymbolTableRecord
100
AcDbBlockTableRecord
  2
*D18
340
0
  0
BLOCK_RECORD
  5
C8C6
330
1
100
AcDbSymbolTableRecord
100
AcDbBlockTableRecord
  2
*D19
340
0
  0
BLOCK_RECORD
  5
C8D2
330
1
100
AcDbSymbolTableRecord
100
AcDbBlockTableRecord
  2
*D20
340
0
  0
BLOCK_RECORD
  5
C8EC
330
1
100
AcDbSymbolTableRecord
100
AcDbBlockTableRecord
  2
*D21
340
0
  0
BLOCK_RECORD
  5
C8F9
330
1
100
AcDbSymbolTableRecord
100
AcDbBlockTableRecord
  2
*D22
340
0
  0
BLOCK_RECORD
  5
CC03
330
1
100
AcDbSymbolTableRecord
100
AcDbBlockTableRecord
  2
GENDOT
340
0
102
{BLKREFS
331
CC1F
331
CC20
331
CDDC
331
CDDD
331
CDE6
102
}
  0
BLOCK_RECORD
  5
CD7F
330
1
100
AcDbSymbolTableRecord
100
AcDbBlockTableRecord
  2
*D24
340
0
  0
BLOCK_RECORD
  5
CD91
330
1
100
AcDbSymbolTableRecord
100
AcDbBlockTableRecord
  2
*D25
340
0
  0
ENDTAB
  0
ENDSEC
  0
SECTION
  2
BLOCKS
  0
BLOCK
  5
20
330
1F
100
AcDbEntity
  8
0
100
AcDbBlockBegin
  2
*Model_Space
 70
     0
 10
0.0
 20
0.0
 30
0.0
  3
*Model_Space
  1

  0
ENDBLK
  5
21
330
1F
100
AcDbEntity
  8
0
100
AcDbBlockEnd
  0
BLOCK
  5
1C
330
1B
100
AcDbEntity
 67
     1
  8
0
100
AcDbBlockBegin
  2
*Paper_Space
 70
     0
 10
0.0
 20
0.0
 30
0.0
  3
*Paper_Space
  1

  0
ENDBLK
  5
1D
330
1B
100
AcDbEntity
 67
     1
  8
0
100
AcDbBlockEnd
  0
BLOCK
  5
24
330
23
100
AcDbEntity
 67
     1
  8
0
100
AcDbBlockBegin
  2
*Paper_Space0
 70
     0
 10
0.0
 20
0.0
 30
0.0
  3
*Paper_Space0
  1

  0
ENDBLK
  5
25
330
23
100
AcDbEntity
 67
     1
  8
0
100
AcDbBlockEnd
  0
BLOCK
  5
74
330
72
100
AcDbEntity
  8
0
100
AcDbBlockBegin
  2
GENAXEH
 70
     0
 10
0.0
 20
0.0
 30
0.0
  3
GENAXEH
  1

  0
LINE
  5
73
330
72
100
AcDbEntity
  8
0
100
AcDbLine
 10
-1.0
 20
0.0
 30
0.0
 11
1.0
 21
0.0
 31
0.0
  0
ENDBLK
  5
75
330
72
100
AcDbEntity
  8
0
100
AcDbBlockEnd
  0
BLOCK
  5
6C7
330
6C4
100
AcDbEntity
  8
0
100
AcDbBlockBegin
  2
_Dot
 70
     0
 10
0.0
 20
0.0
 30
0.0
  3
_Dot
  1

  0
LWPOLYLINE
  5
6C5
330
6C4
100
AcDbEntity
  8
0
  6
ByBlock
 62
     0
100
AcDbPolyline
 90
        2
 70
     1
 43
0.5
 10
-0.25
 20
0.0
 42
1.0
 10
0.25
 20
0.0
 42
1.0
  0
LINE
  5
6C6
330
6C4
100
AcDbEntity
  8
0
  6
ByBlock
 62
     0
370
    -2
100
AcDbLine
 10
-0.5
 20
0.0
 30
0.0
 11
-1.0
 21
0.0
 31
0.0
  0
ENDBLK
  5
6C8
330
6C4
100
AcDbEntity
  8
0
100
AcDbBlockEnd
  0
BLOCK
  5
A6A
330
A66
100
AcDbEntity
  8
0
100
AcDbBlockBegin
  2
_OPEN30
 70
     0
 10
0.0
 20
0.0
 30
0.0
  3
_OPEN30
  1

  0
LINE
  5
A67
330
A66
100
AcDbEntity
  8
0
  6
ByBlock
 62
     0
100
AcDbLine
 10
-1.0
 20
0.26794919
 30
0.0
 11
0.0
 21
0.0
 31
0.0
  0
LINE
  5
A68
330
A66
100
AcDbEntity
  8
0
  6
ByBlock
 62
     0
100
AcDbLine
 10
0.0
 20
0.0
 30
0.0
 11
-1.0
 21
-0.26794919
 31
0.0
  0
LINE
  5
A69
330
A66
100
AcDbEntity
  8
0
  6
ByBlock
 62
     0
100
AcDbLine
 10
0.0
 20
0.0
 30
0.0
 11
-1.0
 21
0.0
 31
0.0
  0
ENDBLK
  5
A6B
330
A66
100
AcDbEntity
  8
0
100
AcDbBlockEnd
  0
BLOCK
  5
C7F3
330
C7E7
100
AcDbEntity
  8
0
100
AcDbBlockBegin
  2
*D5
 70
     1
 10
0.0
 20
0.0
 30
0.0
  3
*D5
  1

  0
LINE
  5
CA48
330
C7E7
100
AcDbEntity
  8
AM_5
100
AcDbLine
 10
2311.492283505242
 20
1925.294123158699
 30
0.0
 11
2311.492283505242
 21
1935.294123158699
 31
0.0
  0
LINE
  5
CA49
330
C7E7
100
AcDbEntity
  8
AM_5
100
AcDbLine
 10
2313.892283505244
 20
1925.294123158699
 30
0.0
 11
2313.892283505244
 21
1935.294123158699
 31
0.0
  0
LINE
  5
CA4A
330
C7E7
100
AcDbEntity
  8
AM_5
100
AcDbLine
 10
2310.492283505242
 20
1934.294123158699
 30
0.0
 11
2309.492283505242
 21
1934.294123158699
 31
0.0
  0
LINE
  5
CA4B
330
C7E7
100
AcDbEntity
  8
AM_5
100
AcDbLine
 10
2314.892283505244
 20
1934.294123158699
 30
0.0
 11
2323.692283505244
 21
1934.294123158699
 31
0.0
  0
LINE
  5
CA4C
330
C7E7
100
AcDbEntity
  8
AM_5
100
AcDbLine
 10
2311.492283505242
 20
1934.294123158699
 30
0.0
 11
2313.892283505244
 21
1934.294123158699
 31
0.0
  0
INSERT
  5
CA4D
330
C7E7
100
AcDbEntity
  8
AM_5
100
AcDbBlockReference
  2
_Dot
 10
2311.492283505242
 20
1934.294123158699
 30
0.0
  0
INSERT
  5
CA4E
330
C7E7
100
AcDbEntity
  8
AM_5
100
AcDbBlockReference
  2
_Dot
 10
2313.892283505244
 20
1934.294123158699
 30
0.0
 50
180.0
  0
MTEXT
  5
CA4F
330
C7E7
100
AcDbEntity
  8
AM_5
 62
     2
100
AcDbMText
 10
2319.792283505244
 20
1937.394123158699
 30
0.0
 40
3.200000000000001
 41
0.0
 71
     5
 72
     1
  1
2.4
 73
     1
 44
1.0
1001
ACAD
1000
MTEXTBEGIN
1070
    73
1070
     1
1070
    44
1040
1.0
1070
    74
1070
     0
1000
MTEXTEND
  0
POINT
  5
CA50
330
C7E7
100
AcDbEntity
  8
Defpoints
 62
     0
100
AcDbPoint
 10
2311.492283505242
 20
1924.294123158699
 30
0.0
  0
POINT
  5
CA51
330
C7E7
100
AcDbEntity
  8
Defpoints
 62
     0
100
AcDbPoint
 10
2313.892283505244
 20
1924.294123158699
 30
0.0
  0
POINT
  5
CA52
330
C7E7
100
AcDbEntity
  8
Defpoints
 62
     0
100
AcDbPoint
 10
2313.892283505244
 20
1934.294123158699
 30
0.0
  0
ENDBLK
  5
C7F4
330
C7E7
100
AcDbEntity
  8
0
100
AcDbBlockEnd
  0
BLOCK
  5
C7FF
330
C7F5
100
AcDbEntity
  8
0
100
AcDbBlockBegin
  2
*D6
 70
     1
 10
0.0
 20
0.0
 30
0.0
  3
*D6
  1

  0
LINE
  5
CA53
330
C7F5
100
AcDbEntity
  8
AM_5
100
AcDbLine
 10
2313.892283505244
 20
1925.294123158699
 30
0.0
 11
2313.892283505244
 21
1955.464397566472
 31
0.0
  0
LINE
  5
CA54
330
C7F5
100
AcDbEntity
  8
AM_5
100
AcDbLine
 10
2302.092283505244
 20
1905.294123158699
 30
0.0
 11
2302.092283505244
 21
1955.464397566472
 31
0.0
  0
LINE
  5
CA55
330
C7F5
100
AcDbEntity
  8
AM_5
100
AcDbLine
 10
2312.892283505243
 20
1954.464397566472
 30
0.0
 11
2303.092283505244
 21
1954.464397566472
 31
0.0
  0
INSERT
  5
CA56
330
C7F5
100
AcDbEntity
  8
AM_5
100
AcDbBlockReference
  2
_Dot
 10
2313.892283505244
 20
1954.464397566472
 30
0.0
  0
INSERT
  5
CA57
330
C7F5
100
AcDbEntity
  8
AM_5
100
AcDbBlockReference
  2
_Dot
 10
2302.092283505244
 20
1954.464397566472
 30
0.0
 50
180.0
  0
MTEXT
  5
CA58
330
C7F5
100
AcDbEntity
  8
AM_5
 62
     2
100
AcDbMText
 10
2308.092283505244
 20
1957.564397566472
 30
0.0
 40
3.200000000000001
 41
0.0
 71
     5
 72
     1
  1
（12）
 73
     1
 44
1.0
1001
ACAD
1000
MTEXTBEGIN
1070
    73
1070
     1
1070
    44
1040
1.0
1070
    74
1070
     0
1000
MTEXTEND
  0
POINT
  5
CA59
330
C7F5
100
AcDbEntity
  8
Defpoints
 62
     0
100
AcDbPoint
 10
2313.892283505244
 20
1924.294123158699
 30
0.0
  0
POINT
  5
CA5A
330
C7F5
100
AcDbEntity
  8
Defpoints
 62
     0
100
AcDbPoint
 10
2302.092283505244
 20
1904.294123158699
 30
0.0
  0
POINT
  5
CA5B
330
C7F5
100
AcDbEntity
  8
Defpoints
 62
     0
100
AcDbPoint
 10
2302.092283505244
 20
1954.464397566472
 30
0.0
  0
ENDBLK
  5
C800
330
C7F5
100
AcDbEntity
  8
0
100
AcDbBlockEnd
  0
BLOCK
  5
C80B
330
C801
100
AcDbEntity
  8
0
100
AcDbBlockBegin
  2
*D7
 70
     1
 10
0.0
 20
0.0
 30
0.0
  3
*D7
  1

  0
LINE
  5
CA5C
330
C801
100
AcDbEntity
  8
AM_5
100
AcDbLine
 10
2241.364468222204
 20
1918.294123158699
 30
0.0
 11
2261.864468222205
 21
1918.294123158699
 31
0.0
  0
LINE
  5
CA5D
330
C801
100
AcDbEntity
  8
AM_5
100
AcDbLine
 10
2241.364468222204
 20
1890.294123158699
 30
0.0
 11
2261.864468222205
 21
1890.294123158699
 31
0.0
  0
LINE
  5
CA5E
330
C801
100
AcDbEntity
  8
AM_5
100
AcDbLine
 10
2260.864468222204
 20
1917.294123158699
 30
0.0
 11
2260.864468222204
 21
1891.294123158699
 31
0.0
  0
INSERT
  5
CA5F
330
C801
100
AcDbEntity
  8
AM_5
100
AcDbBlockReference
  2
_Dot
 10
2260.864468222204
 20
1918.294123158699
 30
0.0
 50
90.0
  0
INSERT
  5
CA60
330
C801
100
AcDbEntity
  8
AM_5
100
AcDbBlockReference
  2
_Dot
 10
2260.864468222204
 20
1890.294123158699
 30
0.0
 50
270.0
  0
MTEXT
  5
CA61
330
C801
100
AcDbEntity
  8
AM_5
 62
     2
100
AcDbMText
 10
2257.764468222204
 20
1904.294123158699
 30
0.0
 40
3.200000000000001
 41
0.0
 71
     5
 72
     1
  1
28
 11
0.0000000000000001
 21
1.0
 31
0.0
 73
     1
 44
1.0
1001
ACAD
1000
MTEXTBEGIN
1070
    73
1070
     1
1070
    44
1040
1.0
1070
    74
1070
     0
1000
MTEXTEND
  0
POINT
  5
CA62
330
C801
100
AcDbEntity
  8
Defpoints
 62
     0
100
AcDbPoint
 10
2240.364468222204
 20
1918.294123158699
 30
0.0
  0
POINT
  5
CA63
330
C801
100
AcDbEntity
  8
Defpoints
 62
     0
100
AcDbPoint
 10
2240.364468222204
 20
1890.294123158699
 30
0.0
  0
POINT
  5
CA64
330
C801
100
AcDbEntity
  8
Defpoints
 62
     0
100
AcDbPoint
 10
2260.864468222204
 20
1890.294123158699
 30
0.0
  0
ENDBLK
  5
C80C
330
C801
100
AcDbEntity
  8
0
100
AcDbBlockEnd
  0
BLOCK
  5
C817
330
C80D
100
AcDbEntity
  8
0
100
AcDbBlockBegin
  2
*D8
 70
     1
 10
0.0
 20
0.0
 30
0.0
  3
*D8
  1

  0
LINE
  5
CA65
330
C80D
100
AcDbEntity
  8
AM_5
100
AcDbLine
 10
2248.864468222204
 20
1924.294123158699
 30
0.0
 11
2271.911377338195
 21
1924.294123158699
 31
0.0
  0
LINE
  5
CA66
330
C80D
100
AcDbEntity
  8
AM_5
100
AcDbLine
 10
2248.864468222204
 20
1884.294123158699
 30
0.0
 11
2271.911377338195
 21
1884.294123158699
 31
0.0
  0
LINE
  5
CA67
330
C80D
100
AcDbEntity
  8
AM_5
100
AcDbLine
 10
2270.911377338195
 20
1923.294123158699
 30
0.0
 11
2270.911377338195
 21
1885.294123158699
 31
0.0
  0
INSERT
  5
CA68
330
C80D
100
AcDbEntity
  8
AM_5
100
AcDbBlockReference
  2
_Dot
 10
2270.911377338195
 20
1924.294123158699
 30
0.0
 50
90.0
  0
INSERT
  5
CA69
330
C80D
100
AcDbEntity
  8
AM_5
100
AcDbBlockReference
  2
_Dot
 10
2270.911377338195
 20
1884.294123158699
 30
0.0
 50
270.0
  0
MTEXT
  5
CA6A
330
C80D
100
AcDbEntity
  8
AM_5
 62
     2
100
AcDbMText
 10
2267.811377338194
 20
1904.294123158702
 30
0.0
 40
3.200000000000001
 41
0.0
 71
     5
 72
     1
  1
40
 11
0.0000000000000001
 21
1.0
 31
0.0
 73
     1
 44
1.0
1001
ACAD
1000
MTEXTBEGIN
1070
    73
1070
     1
1070
    44
1040
1.0
1070
    74
1070
     0
1000
MTEXTEND
  0
POINT
  5
CA6B
330
C80D
100
AcDbEntity
  8
Defpoints
 62
     0
100
AcDbPoint
 10
2247.864468222204
 20
1924.294123158699
 30
0.0
  0
POINT
  5
CA6C
330
C80D
100
AcDbEntity
  8
Defpoints
 62
     0
100
AcDbPoint
 10
2247.864468222204
 20
1884.294123158699
 30
0.0
  0
POINT
  5
CA6D
330
C80D
100
AcDbEntity
  8
Defpoints
 62
     0
100
AcDbPoint
 10
2270.911377338195
 20
1884.294123158699
 30
0.0
  0
ENDBLK
  5
C818
330
C80D
100
AcDbEntity
  8
0
100
AcDbBlockEnd
  0
BLOCK
  5
C823
330
C819
100
AcDbEntity
  8
0
100
AcDbBlockBegin
  2
*D9
 70
     1
 10
0.0
 20
0.0
 30
0.0
  3
*D9
  1

  0
LINE
  5
CA6E
330
C819
100
AcDbEntity
  8
AM_5
100
AcDbLine
 10
2160.864468222204
 20
1886.294123158699
 30
0.0
 11
2160.864468222204
 21
1868.269512305687
 31
0.0
  0
LINE
  5
CA6F
330
C819
100
AcDbEntity
  8
AM_5
100
AcDbLine
 10
2183.614468222204
 20
1874.565315158699
 30
0.0
 11
2183.614468222204
 21
1868.269512305687
 31
0.0
  0
LINE
  5
CA70
330
C819
100
AcDbEntity
  8
AM_5
100
AcDbLine
 10
2161.864468222204
 20
1869.269512305686
 30
0.0
 11
2182.614468222204
 21
1869.269512305686
 31
0.0
  0
INSERT
  5
CA71
330
C819
100
AcDbEntity
  8
AM_5
100
AcDbBlockReference
  2
_Dot
 10
2160.864468222204
 20
1869.269512305686
 30
0.0
 50
180.0
  0
INSERT
  5
CA72
330
C819
100
AcDbEntity
  8
AM_5
100
AcDbBlockReference
  2
_Dot
 10
2183.614468222204
 20
1869.269512305686
 30
0.0
  0
MTEXT
  5
CA73
330
C819
100
AcDbEntity
  8
AM_5
 62
     2
100
AcDbMText
 10
2172.364468222204
 20
1872.369512305686
 30
0.0
 40
3.200000000000001
 41
0.0
 71
     5
 72
     1
  1
（23）
 73
     1
 44
1.0
1001
ACAD
1000
MTEXTBEGIN
1070
    73
1070
     1
1070
    44
1040
1.0
1070
    74
1070
     0
1000
MTEXTEND
  0
POINT
  5
CA74
330
C819
100
AcDbEntity
  8
Defpoints
 62
     0
100
AcDbPoint
 10
2160.864468222204
 20
1887.294123158699
 30
0.0
  0
POINT
  5
CA75
330
C819
100
AcDbEntity
  8
Defpoints
 62
     0
100
AcDbPoint
 10
2183.614468222204
 20
1875.565315158699
 30
0.0
  0
POINT
  5
CA76
330
C819
100
AcDbEntity
  8
Defpoints
 62
     0
100
AcDbPoint
 10
2183.614468222204
 20
1869.269512305686
 30
0.0
  0
ENDBLK
  5
C824
330
C819
100
AcDbEntity
  8
0
100
AcDbBlockEnd
  0
BLOCK
  5
C82F
330
C825
100
AcDbEntity
  8
0
100
AcDbBlockBegin
  2
*D10
 70
     1
 10
0.0
 20
0.0
 30
0.0
  3
*D10
  1

  0
LINE
  5
CA77
330
C825
100
AcDbEntity
  8
AM_5
100
AcDbLine
 10
2175.864468222204
 20
1923.794123158699
 30
0.0
 11
2175.864468222204
 21
1935.294123158699
 31
0.0
  0
LINE
  5
CA78
330
C825
100
AcDbEntity
  8
AM_5
100
AcDbLine
 10
2235.864468222204
 20
1923.794123158699
 30
0.0
 11
2235.864468222204
 21
1935.294123158699
 31
0.0
  0
LINE
  5
CA79
330
C825
100
AcDbEntity
  8
AM_5
100
AcDbLine
 10
2176.864468222204
 20
1934.294123158699
 30
0.0
 11
2234.864468222204
 21
1934.294123158699
 31
0.0
  0
INSERT
  5
CA7A
330
C825
100
AcDbEntity
  8
AM_5
100
AcDbBlockReference
  2
_Dot
 10
2175.864468222204
 20
1934.294123158699
 30
0.0
 50
180.0
  0
INSERT
  5
CA7B
330
C825
100
AcDbEntity
  8
AM_5
100
AcDbBlockReference
  2
_Dot
 10
2235.864468222204
 20
1934.294123158699
 30
0.0
  0
MTEXT
  5
CA7C
330
C825
100
AcDbEntity
  8
AM_5
 62
     2
100
AcDbMText
 10
2205.864468222204
 20
1937.394123158699
 30
0.0
 40
3.200000000000001
 41
0.0
 71
     5
 72
     1
  1
60
 73
     1
 44
1.0
1001
ACAD
1000
MTEXTBEGIN
1070
    73
1070
     1
1070
    44
1040
1.0
1070
    74
1070
     0
1000
MTEXTEND
  0
POINT
  5
CA7D
330
C825
100
AcDbEntity
  8
Defpoints
 62
     0
100
AcDbPoint
 10
2175.864468222204
 20
1922.794123158699
 30
0.0
  0
POINT
  5
CA7E
330
C825
100
AcDbEntity
  8
Defpoints
 62
     0
100
AcDbPoint
 10
2235.864468222204
 20
1922.794123158699
 30
0.0
  0
POINT
  5
CA7F
330
C825
100
AcDbEntity
  8
Defpoints
 62
     0
100
AcDbPoint
 10
2235.864468222204
 20
1934.294123158699
 30
0.0
  0
ENDBLK
  5
C830
330
C825
100
AcDbEntity
  8
0
100
AcDbBlockEnd
  0
BLOCK
  5
C83B
330
C831
100
AcDbEntity
  8
0
100
AcDbBlockBegin
  2
*D11
 70
     1
 10
0.0
 20
0.0
 30
0.0
  3
*D11
  1

  0
LINE
  5
CA80
330
C831
100
AcDbEntity
  8
AM_5
100
AcDbLine
 10
2160.864468222204
 20
1922.294123158699
 30
0.0
 11
2160.864468222204
 21
1945.30746114724
 31
0.0
  0
LINE
  5
CA81
330
C831
100
AcDbEntity
  8
AM_5
100
AcDbLine
 10
2250.864468222204
 20
1922.294123158699
 30
0.0
 11
2250.864468222204
 21
1945.30746114724
 31
0.0
  0
LINE
  5
CA82
330
C831
100
AcDbEntity
  8
AM_5
100
AcDbLine
 10
2161.864468222204
 20
1944.30746114724
 30
0.0
 11
2249.864468222204
 21
1944.30746114724
 31
0.0
  0
INSERT
  5
CA83
330
C831
100
AcDbEntity
  8
AM_5
100
AcDbBlockReference
  2
_Dot
 10
2160.864468222204
 20
1944.30746114724
 30
0.0
 50
180.0
  0
INSERT
  5
CA84
330
C831
100
AcDbEntity
  8
AM_5
100
AcDbBlockReference
  2
_Dot
 10
2250.864468222204
 20
1944.30746114724
 30
0.0
  0
MTEXT
  5
CA85
330
C831
100
AcDbEntity
  8
AM_5
 62
     2
100
AcDbMText
 10
2205.864468222204
 20
1947.40746114724
 30
0.0
 40
3.200000000000001
 41
0.0
 71
     5
 72
     1
  1
90
 73
     1
 44
1.0
1001
ACAD
1000
MTEXTBEGIN
1070
    73
1070
     1
1070
    44
1040
1.0
1070
    74
1070
     0
1000
MTEXTEND
  0
POINT
  5
CA86
330
C831
100
AcDbEntity
  8
Defpoints
 62
     0
100
AcDbPoint
 10
2160.864468222204
 20
1921.294123158699
 30
0.0
  0
POINT
  5
CA87
330
C831
100
AcDbEntity
  8
Defpoints
 62
     0
100
AcDbPoint
 10
2250.864468222204
 20
1921.294123158699
 30
0.0
  0
POINT
  5
CA88
330
C831
100
AcDbEntity
  8
Defpoints
 62
     0
100
AcDbPoint
 10
2250.864468222204
 20
1944.30746114724
 30
0.0
  0
ENDBLK
  5
C83C
330
C831
100
AcDbEntity
  8
0
100
AcDbBlockEnd
  0
BLOCK
  5
C847
330
C83D
100
AcDbEntity
  8
0
100
AcDbBlockBegin
  2
*D12
 70
     1
 10
0.0
 20
0.0
 30
0.0
  3
*D12
  1

  0
LINE
  5
CA89
330
C83D
100
AcDbEntity
  8
AM_5
100
AcDbLine
 10
2160.864468222204
 20
1922.294123158699
 30
0.0
 11
2160.864468222204
 21
1945.30746114724
 31
0.0
  0
LINE
  5
CA8A
330
C83D
100
AcDbEntity
  8
AM_5
100
AcDbLine
 10
2140.814468222204
 20
1907.794123158699
 30
0.0
 11
2140.814468222204
 21
1945.30746114724
 31
0.0
  0
LINE
  5
CA8B
330
C83D
100
AcDbEntity
  8
AM_5
100
AcDbLine
 10
2159.864468222204
 20
1944.30746114724
 30
0.0
 11
2141.814468222204
 21
1944.30746114724
 31
0.0
  0
INSERT
  5
CA8C
330
C83D
100
AcDbEntity
  8
AM_5
100
AcDbBlockReference
  2
_Dot
 10
2160.864468222204
 20
1944.30746114724
 30
0.0
  0
INSERT
  5
CA8D
330
C83D
100
AcDbEntity
  8
AM_5
100
AcDbBlockReference
  2
_Dot
 10
2140.814468222204
 20
1944.30746114724
 30
0.0
 50
180.0
  0
MTEXT
  5
CA8E
330
C83D
100
AcDbEntity
  8
AM_5
 62
     2
100
AcDbMText
 10
2150.839468222204
 20
1947.40746114724
 30
0.0
 40
3.200000000000001
 41
0.0
 71
     5
 72
     1
  1
ストローク：20
 73
     1
 44
1.0
1001
ACAD
1000
MTEXTBEGIN
1070
    73
1070
     1
1070
    44
1040
1.0
1070
    74
1070
     0
1000
MTEXTEND
  0
POINT
  5
CA8F
330
C83D
100
AcDbEntity
  8
Defpoints
 62
     0
100
AcDbPoint
 10
2160.864468222204
 20
1921.294123158699
 30
0.0
  0
POINT
  5
CA90
330
C83D
100
AcDbEntity
  8
Defpoints
 62
     0
100
AcDbPoint
 10
2140.814468222204
 20
1906.794123158699
 30
0.0
  0
POINT
  5
CA91
330
C83D
100
AcDbEntity
  8
Defpoints
 62
     0
100
AcDbPoint
 10
2140.814468222204
 20
1944.30746114724
 30
0.0
  0
ENDBLK
  5
C848
330
C83D
100
AcDbEntity
  8
0
100
AcDbBlockEnd
  0
BLOCK
  5
C853
330
C849
100
AcDbEntity
  8
0
100
AcDbBlockBegin
  2
*D13
 70
     1
 10
0.0
 20
0.0
 30
0.0
  3
*D13
  1

  0
LINE
  5
CA92
330
C849
100
AcDbEntity
  8
AM_5
100
AcDbLine
 10
2179.614468222204
 20
1877.794123158699
 30
0.0
 11
2129.935080881899
 21
1877.794123158699
 31
0.0
  0
LINE
  5
CA93
330
C849
100
AcDbEntity
  8
AM_5
100
AcDbLine
 10
2137.119542222204
 20
1904.294123158699
 30
0.0
 11
2129.935080881899
 21
1904.294123158699
 31
0.0
  0
LINE
  5
CA94
330
C849
100
AcDbEntity
  8
AM_5
100
AcDbLine
 10
2130.935080881899
 20
1878.794123158699
 30
0.0
 11
2130.935080881899
 21
1903.294123158699
 31
0.0
  0
INSERT
  5
CA95
330
C849
100
AcDbEntity
  8
AM_5
100
AcDbBlockReference
  2
_Dot
 10
2130.935080881899
 20
1877.794123158699
 30
0.0
 50
270.0
  0
INSERT
  5
CA96
330
C849
100
AcDbEntity
  8
AM_5
100
AcDbBlockReference
  2
_Dot
 10
2130.935080881899
 20
1904.294123158699
 30
0.0
 50
90.0
  0
MTEXT
  5
CA97
330
C849
100
AcDbEntity
  8
AM_5
 62
     2
100
AcDbMText
 10
2127.835080881899
 20
1891.044123158699
 30
0.0
 40
3.200000000000001
 41
0.0
 71
     5
 72
     1
  1
（25.5）
 11
0.0000000000000001
 21
1.0
 31
0.0
 73
     1
 44
1.0
1001
ACAD
1000
MTEXTBEGIN
1070
    73
1070
     1
1070
    44
1040
1.0
1070
    74
1070
     0
1000
MTEXTEND
  0
POINT
  5
CA98
330
C849
100
AcDbEntity
  8
Defpoints
 62
     0
100
AcDbPoint
 10
2180.614468222204
 20
1877.794123158699
 30
0.0
  0
POINT
  5
CA99
330
C849
100
AcDbEntity
  8
Defpoints
 62
     0
100
AcDbPoint
 10
2138.119542222204
 20
1904.294123158699
 30
0.0
  0
POINT
  5
CA9A
330
C849
100
AcDbEntity
  8
Defpoints
 62
     0
100
AcDbPoint
 10
2130.935080881899
 20
1904.294123158699
 30
0.0
  0
ENDBLK
  5
C854
330
C849
100
AcDbEntity
  8
0
100
AcDbBlockEnd
  0
BLOCK
  5
C85F
330
C855
100
AcDbEntity
  8
0
100
AcDbBlockBegin
  2
*D14
 70
     1
 10
0.0
 20
0.0
 30
0.0
  3
*D14
  1

  0
LINE
  5
CA9B
330
C855
100
AcDbEntity
  8
AM_5
100
AcDbLine
 10
2144.814468222204
 20
1830.303859280314
 30
0.0
 11
2129.814468222205
 21
1830.303859280314
 31
0.0
  0
LINE
  5
CA9C
330
C855
100
AcDbEntity
  8
AM_5
100
AcDbLine
 10
2144.814468222204
 20
1821.303859280314
 30
0.0
 11
2129.814468222205
 21
1821.303859280314
 31
0.0
  0
LINE
  5
CA9D
330
C855
100
AcDbEntity
  8
AM_5
100
AcDbLine
 10
2130.814468222204
 20
1829.303859280314
 30
0.0
 11
2130.814468222204
 21
1822.303859280314
 31
0.0
  0
INSERT
  5
CA9E
330
C855
100
AcDbEntity
  8
AM_5
100
AcDbBlockReference
  2
_Dot
 10
2130.814468222204
 20
1830.303859280314
 30
0.0
 50
90.0
  0
INSERT
  5
CA9F
330
C855
100
AcDbEntity
  8
AM_5
100
AcDbBlockReference
  2
_Dot
 10
2130.814468222204
 20
1821.303859280314
 30
0.0
 50
270.0
  0
MTEXT
  5
CAA0
330
C855
100
AcDbEntity
  8
AM_5
 62
     2
100
AcDbMText
 10
2127.714468222205
 20
1825.803859280314
 30
0.0
 40
3.200000000000001
 41
0.0
 71
     5
 72
     1
  1
%%c9
 11
0.0000000000000001
 21
1.0
 31
0.0
 73
     1
 44
1.0
1001
ACAD
1000
MTEXTBEGIN
1070
    73
1070
     1
1070
    44
1040
1.0
1070
    74
1070
     0
1000
MTEXTEND
  0
POINT
  5
CAA1
330
C855
100
AcDbEntity
  8
Defpoints
 62
     0
100
AcDbPoint
 10
2145.814468222204
 20
1830.303859280314
 30
0.0
  0
POINT
  5
CAA2
330
C855
100
AcDbEntity
  8
Defpoints
 62
     0
100
AcDbPoint
 10
2145.814468222204
 20
1821.303859280314
 30
0.0
  0
POINT
  5
CAA3
330
C855
100
AcDbEntity
  8
Defpoints
 62
     0
100
AcDbPoint
 10
2130.814468222204
 20
1821.303859280314
 30
0.0
  0
ENDBLK
  5
C860
330
C855
100
AcDbEntity
  8
0
100
AcDbBlockEnd
  0
BLOCK
  5
C89E
330
C894
100
AcDbEntity
  8
0
100
AcDbBlockBegin
  2
*D15
 70
     1
 10
0.0
 20
0.0
 30
0.0
  3
*D15
  1

  0
LINE
  5
CAA4
330
C894
100
AcDbEntity
  8
AM_5
100
AcDbLine
 10
2062.138631226968
 20
1918.294123158699
 30
0.0
 11
2046.133226226968
 21
1918.294123158699
 31
0.0
  0
LINE
  5
CAA5
330
C894
100
AcDbEntity
  8
AM_5
100
AcDbLine
 10
2062.138631226968
 20
1890.294123158699
 30
0.0
 11
2046.133226226968
 21
1890.294123158699
 31
0.0
  0
LINE
  5
CAA6
330
C894
100
AcDbEntity
  8
AM_5
100
AcDbLine
 10
2047.133226226968
 20
1917.294123158699
 30
0.0
 11
2047.133226226968
 21
1891.294123158699
 31
0.0
  0
INSERT
  5
CAA7
330
C894
100
AcDbEntity
  8
AM_5
100
AcDbBlockReference
  2
_Dot
 10
2047.133226226968
 20
1918.294123158699
 30
0.0
 50
90.0
  0
INSERT
  5
CAA8
330
C894
100
AcDbEntity
  8
AM_5
100
AcDbBlockReference
  2
_Dot
 10
2047.133226226968
 20
1890.294123158699
 30
0.0
 50
270.0
  0
MTEXT
  5
CAA9
330
C894
100
AcDbEntity
  8
AM_5
 62
     2
100
AcDbMText
 10
2044.033226226968
 20
1904.294123158699
 30
0.0
 40
3.200000000000001
 41
0.0
 71
     5
 72
     1
  1
28
 11
0.0000000000000001
 21
1.0
 31
0.0
 73
     1
 44
1.0
1001
ACAD
1000
MTEXTBEGIN
1070
    73
1070
     1
1070
    44
1040
1.0
1070
    74
1070
     0
1000
MTEXTEND
  0
POINT
  5
CAAA
330
C894
100
AcDbEntity
  8
Defpoints
 62
     0
100
AcDbPoint
 10
2063.138631226968
 20
1918.294123158699
 30
0.0
  0
POINT
  5
CAAB
330
C894
100
AcDbEntity
  8
Defpoints
 62
     0
100
AcDbPoint
 10
2063.138631226968
 20
1890.294123158699
 30
0.0
  0
POINT
  5
CAAC
330
C894
100
AcDbEntity
  8
Defpoints
 62
     0
100
AcDbPoint
 10
2047.133226226968
 20
1890.294123158699
 30
0.0
  0
ENDBLK
  5
C89F
330
C894
100
AcDbEntity
  8
0
100
AcDbBlockEnd
  0
BLOCK
  5
C8AA
330
C8A0
100
AcDbEntity
  8
0
100
AcDbBlockBegin
  2
*D16
 70
     1
 10
0.0
 20
0.0
 30
0.0
  3
*D16
  1

  0
LINE
  5
CAAD
330
C8A0
100
AcDbEntity
  8
AM_5
100
AcDbLine
 10
2057.133226226968
 20
1922.294123158699
 30
0.0
 11
2057.133226226968
 21
1935.294123158699
 31
0.0
  0
LINE
  5
CAAE
330
C8A0
100
AcDbEntity
  8
AM_5
100
AcDbLine
 10
2077.133226226968
 20
1922.294123158699
 30
0.0
 11
2077.133226226968
 21
1935.294123158699
 31
0.0
  0
LINE
  5
CAAF
330
C8A0
100
AcDbEntity
  8
AM_5
100
AcDbLine
 10
2058.133226226968
 20
1934.294123158699
 30
0.0
 11
2076.133226226968
 21
1934.294123158699
 31
0.0
  0
INSERT
  5
CAB0
330
C8A0
100
AcDbEntity
  8
AM_5
100
AcDbBlockReference
  2
_Dot
 10
2057.133226226968
 20
1934.294123158699
 30
0.0
 50
180.0
  0
INSERT
  5
CAB1
330
C8A0
100
AcDbEntity
  8
AM_5
100
AcDbBlockReference
  2
_Dot
 10
2077.133226226968
 20
1934.294123158699
 30
0.0
  0
MTEXT
  5
CAB2
330
C8A0
100
AcDbEntity
  8
AM_5
 62
     2
100
AcDbMText
 10
2067.133226226968
 20
1937.394123158699
 30
0.0
 40
3.200000000000001
 41
0.0
 71
     5
 72
     1
  1
20
 73
     1
 44
1.0
1001
ACAD
1000
MTEXTBEGIN
1070
    73
1070
     1
1070
    44
1040
1.0
1070
    74
1070
     0
1000
MTEXTEND
  0
POINT
  5
CAB3
330
C8A0
100
AcDbEntity
  8
Defpoints
 62
     0
100
AcDbPoint
 10
2057.133226226968
 20
1921.294123158699
 30
0.0
  0
POINT
  5
CAB4
330
C8A0
100
AcDbEntity
  8
Defpoints
 62
     0
100
AcDbPoint
 10
2077.133226226968
 20
1921.294123158699
 30
0.0
  0
POINT
  5
CAB5
330
C8A0
100
AcDbEntity
  8
Defpoints
 62
     0
100
AcDbPoint
 10
2077.133226226968
 20
1934.294123158699
 30
0.0
  0
ENDBLK
  5
C8AB
330
C8A0
100
AcDbEntity
  8
0
100
AcDbBlockEnd
  0
BLOCK
  5
C8B8
330
C8AC
100
AcDbEntity
  8
0
100
AcDbBlockBegin
  2
*D17
 70
     1
 10
0.0
 20
0.0
 30
0.0
  3
*D17
  1

  0
LINE
  5
CAB6
330
C8AC
100
AcDbEntity
  8
AM_5
100
AcDbLine
 10
2002.283515331102
 20
1925.294123158699
 30
0.0
 11
2002.283515331102
 21
1935.294123158699
 31
0.0
  0
LINE
  5
CAB7
330
C8AC
100
AcDbEntity
  8
AM_5
100
AcDbLine
 10
1999.883515331101
 20
1925.294123158699
 30
0.0
 11
1999.883515331101
 21
1935.294123158699
 31
0.0
  0
LINE
  5
CAB8
330
C8AC
100
AcDbEntity
  8
AM_5
100
AcDbLine
 10
2003.283515331103
 20
1934.294123158699
 30
0.0
 11
2004.283515331103
 21
1934.294123158699
 31
0.0
  0
LINE
  5
CAB9
330
C8AC
100
AcDbEntity
  8
AM_5
100
AcDbLine
 10
1998.883515331101
 20
1934.294123158699
 30
0.0
 11
1990.083515331101
 21
1934.294123158699
 31
0.0
  0
LINE
  5
CABA
330
C8AC
100
AcDbEntity
  8
AM_5
100
AcDbLine
 10
2002.283515331102
 20
1934.294123158699
 30
0.0
 11
1999.883515331101
 21
1934.294123158699
 31
0.0
  0
INSERT
  5
CABB
330
C8AC
100
AcDbEntity
  8
AM_5
100
AcDbBlockReference
  2
_Dot
 10
2002.283515331102
 20
1934.294123158699
 30
0.0
 50
180.0
  0
INSERT
  5
CABC
330
C8AC
100
AcDbEntity
  8
AM_5
100
AcDbBlockReference
  2
_Dot
 10
1999.883515331101
 20
1934.294123158699
 30
0.0
  0
MTEXT
  5
CABD
330
C8AC
100
AcDbEntity
  8
AM_5
 62
     2
100
AcDbMText
 10
1993.983515331101
 20
1937.394123158699
 30
0.0
 40
3.200000000000001
 41
0.0
 71
     5
 72
     1
  1
2.4
 73
     1
 44
1.0
1001
ACAD
1000
MTEXTBEGIN
1070
    73
1070
     1
1070
    44
1040
1.0
1070
    74
1070
     0
1000
MTEXTEND
  0
POINT
  5
CABE
330
C8AC
100
AcDbEntity
  8
Defpoints
 62
     0
100
AcDbPoint
 10
2002.283515331102
 20
1924.294123158699
 30
0.0
  0
POINT
  5
CABF
330
C8AC
100
AcDbEntity
  8
Defpoints
 62
     0
100
AcDbPoint
 10
1999.883515331101
 20
1924.294123158699
 30
0.0
  0
POINT
  5
CAC0
330
C8AC
100
AcDbEntity
  8
Defpoints
 62
     0
100
AcDbPoint
 10
1999.883515331101
 20
1934.294123158699
 30
0.0
  0
ENDBLK
  5
C8B9
330
C8AC
100
AcDbEntity
  8
0
100
AcDbBlockEnd
  0
BLOCK
  5
C8C4
330
C8BA
100
AcDbEntity
  8
0
100
AcDbBlockBegin
  2
*D18
 70
     1
 10
0.0
 20
0.0
 30
0.0
  3
*D18
  1

  0
LINE
  5
CAC1
330
C8BA
100
AcDbEntity
  8
AM_5
100
AcDbLine
 10
2012.383515331105
 20
1905.294123158699
 30
0.0
 11
2012.383515331105
 21
1945.294123158699
 31
0.0
  0
LINE
  5
CAC2
330
C8BA
100
AcDbEntity
  8
AM_5
100
AcDbLine
 10
1999.883515331101
 20
1925.294123158699
 30
0.0
 11
1999.883515331101
 21
1945.294123158699
 31
0.0
  0
LINE
  5
CAC3
330
C8BA
100
AcDbEntity
  8
AM_5
100
AcDbLine
 10
2011.383515331105
 20
1944.294123158699
 30
0.0
 11
2000.883515331101
 21
1944.294123158699
 31
0.0
  0
INSERT
  5
CAC4
330
C8BA
100
AcDbEntity
  8
AM_5
100
AcDbBlockReference
  2
_Dot
 10
2012.383515331105
 20
1944.294123158699
 30
0.0
  0
INSERT
  5
CAC5
330
C8BA
100
AcDbEntity
  8
AM_5
100
AcDbBlockReference
  2
_Dot
 10
1999.883515331101
 20
1944.294123158699
 30
0.0
 50
180.0
  0
MTEXT
  5
CAC6
330
C8BA
100
AcDbEntity
  8
AM_5
 62
     2
100
AcDbMText
 10
2006.133515331103
 20
1947.394123158699
 30
0.0
 40
3.200000000000001
 41
0.0
 71
     5
 72
     1
  1
12.5
 73
     1
 44
1.0
1001
ACAD
1000
MTEXTBEGIN
1070
    73
1070
     1
1070
    44
1040
1.0
1070
    74
1070
     0
1000
MTEXTEND
  0
POINT
  5
CAC7
330
C8BA
100
AcDbEntity
  8
Defpoints
 62
     0
100
AcDbPoint
 10
2012.383515331105
 20
1904.294123158699
 30
0.0
  0
POINT
  5
CAC8
330
C8BA
100
AcDbEntity
  8
Defpoints
 62
     0
100
AcDbPoint
 10
1999.883515331101
 20
1924.294123158699
 30
0.0
  0
POINT
  5
CAC9
330
C8BA
100
AcDbEntity
  8
Defpoints
 62
     0
100
AcDbPoint
 10
1999.883515331101
 20
1944.294123158699
 30
0.0
  0
ENDBLK
  5
C8C5
330
C8BA
100
AcDbEntity
  8
0
100
AcDbBlockEnd
  0
BLOCK
  5
C8D0
330
C8C6
100
AcDbEntity
  8
0
100
AcDbBlockBegin
  2
*D19
 70
     1
 10
0.0
 20
0.0
 30
0.0
  3
*D19
  1

  0
LINE
  5
CACA
330
C8C6
100
AcDbEntity
  8
AM_5
100
AcDbLine
 10
2175.864468222204
 20
1923.794123158699
 30
0.0
 11
2175.864468222204
 21
1935.294123158679
 31
0.0
  0
LINE
  5
CACB
330
C8C6
100
AcDbEntity
  8
AM_5
100
AcDbLine
 10
2160.864468222204
 20
1922.294123158699
 30
0.0
 11
2160.864468222204
 21
1935.294123158679
 31
0.0
  0
LINE
  5
CACC
330
C8C6
100
AcDbEntity
  8
AM_5
100
AcDbLine
 10
2174.864468222204
 20
1934.294123158679
 30
0.0
 11
2161.864468222204
 21
1934.294123158679
 31
0.0
  0
INSERT
  5
CACD
330
C8C6
100
AcDbEntity
  8
AM_5
100
AcDbBlockReference
  2
_Dot
 10
2175.864468222204
 20
1934.294123158679
 30
0.0
  0
INSERT
  5
CACE
330
C8C6
100
AcDbEntity
  8
AM_5
100
AcDbBlockReference
  2
_Dot
 10
2160.864468222204
 20
1934.294123158679
 30
0.0
 50
180.0
  0
MTEXT
  5
CACF
330
C8C6
100
AcDbEntity
  8
AM_5
 62
     2
100
AcDbMText
 10
2168.364468222204
 20
1937.394123158679
 30
0.0
 40
3.200000000000001
 41
0.0
 71
     5
 72
     1
  1
15
 73
     1
 44
1.0
1001
ACAD
1000
MTEXTBEGIN
1070
    73
1070
     1
1070
    44
1040
1.0
1070
    74
1070
     0
1000
MTEXTEND
  0
POINT
  5
CAD0
330
C8C6
100
AcDbEntity
  8
Defpoints
 62
     0
100
AcDbPoint
 10
2175.864468222204
 20
1922.794123158699
 30
0.0
  0
POINT
  5
CAD1
330
C8C6
100
AcDbEntity
  8
Defpoints
 62
     0
100
AcDbPoint
 10
2160.864468222204
 20
1921.294123158699
 30
0.0
  0
POINT
  5
CAD2
330
C8C6
100
AcDbEntity
  8
Defpoints
 62
     0
100
AcDbPoint
 10
2160.864468222204
 20
1934.294123158679
 30
0.0
  0
ENDBLK
  5
C8D1
330
C8C6
100
AcDbEntity
  8
0
100
AcDbBlockEnd
  0
BLOCK
  5
C8DD
330
C8D2
100
AcDbEntity
  8
0
100
AcDbBlockBegin
  2
*D20
 70
     1
 10
0.0
 20
0.0
 30
0.0
  3
*D20
  1

  0
LINE
  5
CAD3
330
C8D2
100
AcDbEntity
  8
AM_5
100
AcDbLine
 10
2308.192283505243
 20
1911.812655158699
 30
0.0
 11
2308.192283505243
 21
1945.464397566462
 31
0.0
  0
LINE
  5
CAD4
330
C8D2
100
AcDbEntity
  8
AM_5
100
AcDbLine
 10
2313.892283505244
 20
1925.294123158699
 30
0.0
 11
2313.892283505244
 21
1945.464397566462
 31
0.0
  0
LINE
  5
CAD5
330
C8D2
100
AcDbEntity
  8
AM_5
100
AcDbLine
 10
2309.192283505243
 20
1944.464397566462
 30
0.0
 11
2312.892283505243
 21
1944.464397566462
 31
0.0
  0
LINE
  5
CAD6
330
C8D2
100
AcDbEntity
  8
AM_5
100
AcDbLine
 10
2313.892283505244
 20
1944.464397566462
 30
0.0
 11
2322.585616838577
 21
1944.464397566462
 31
0.0
  0
INSERT
  5
CAD7
330
C8D2
100
AcDbEntity
  8
AM_5
100
AcDbBlockReference
  2
_Dot
 10
2308.192283505243
 20
1944.464397566462
 30
0.0
 50
180.0
  0
INSERT
  5
CAD8
330
C8D2
100
AcDbEntity
  8
AM_5
100
AcDbBlockReference
  2
_Dot
 10
2313.892283505244
 20
1944.464397566462
 30
0.0
  0
MTEXT
  5
CAD9
330
C8D2
100
AcDbEntity
  8
AM_5
 62
     2
100
AcDbMText
 10
2318.73895017191
 20
1947.564397566462
 30
0.0
 40
3.200000000000001
 41
0.0
 71
     5
 72
     1
  1
5.7
 73
     1
 44
1.0
1001
ACAD
1000
MTEXTBEGIN
1070
    73
1070
     1
1070
    44
1040
1.0
1070
    74
1070
     0
1000
MTEXTEND
  0
POINT
  5
CADA
330
C8D2
100
AcDbEntity
  8
Defpoints
 62
     0
100
AcDbPoint
 10
2308.192283505243
 20
1910.812655158699
 30
0.0
  0
POINT
  5
CADB
330
C8D2
100
AcDbEntity
  8
Defpoints
 62
     0
100
AcDbPoint
 10
2313.892283505244
 20
1924.294123158699
 30
0.0
  0
POINT
  5
CADC
330
C8D2
100
AcDbEntity
  8
Defpoints
 62
     0
100
AcDbPoint
 10
2313.892283505244
 20
1944.464397566462
 30
0.0
  0
ENDBLK
  5
C8DE
330
C8D2
100
AcDbEntity
  8
0
100
AcDbBlockEnd
  0
BLOCK
  5
C8F7
330
C8EC
100
AcDbEntity
  8
0
100
AcDbBlockBegin
  2
*D21
 70
     1
 10
0.0
 20
0.0
 30
0.0
  3
*D21
  1

  0
LINE
  5
CADD
330
C8EC
100
AcDbEntity
  8
AM_5
100
AcDbLine
 10
2304.436127005705
 20
1878.300279658239
 30
0.0
 11
2304.436127005705
 21
1868.118687296525
 31
0.0
  0
LINE
  5
CADE
330
C8EC
100
AcDbEntity
  8
AM_5
100
AcDbLine
 10
2311.942283505243
 20
1878.300279658239
 30
0.0
 11
2311.942283505243
 21
1868.118687296525
 31
0.0
  0
LINE
  5
CADF
330
C8EC
100
AcDbEntity
  8
AM_5
100
AcDbLine
 10
2305.436127005705
 20
1869.118687296525
 30
0.0
 11
2310.942283505243
 21
1869.118687296525
 31
0.0
  0
LINE
  5
CAE0
330
C8EC
100
AcDbEntity
  8
AM_5
100
AcDbLine
 10
2311.942283505243
 20
1869.118687296525
 30
0.0
 11
2322.662283505243
 21
1869.118687296525
 31
0.0
  0
INSERT
  5
CAE1
330
C8EC
100
AcDbEntity
  8
AM_5
100
AcDbBlockReference
  2
_Dot
 10
2304.436127005705
 20
1869.118687296525
 30
0.0
 50
180.0
  0
INSERT
  5
CAE2
330
C8EC
100
AcDbEntity
  8
AM_5
100
AcDbBlockReference
  2
_Dot
 10
2311.942283505243
 20
1869.118687296525
 30
0.0
  0
MTEXT
  5
CAE3
330
C8EC
100
AcDbEntity
  8
AM_5
 62
     2
100
AcDbMText
 10
2317.802283505244
 20
1872.218687296525
 30
0.0
 40
3.200000000000001
 41
0.0
 71
     5
 72
     1
  1
%%c7.5
 73
     1
 44
1.0
1001
ACAD
1000
MTEXTBEGIN
1070
    73
1070
     1
1070
    44
1040
1.0
1070
    74
1070
     0
1000
MTEXTEND
  0
POINT
  5
CAE4
330
C8EC
100
AcDbEntity
  8
Defpoints
 62
     0
100
AcDbPoint
 10
2304.436127005705
 20
1879.300279658238
 30
0.0
  0
POINT
  5
CAE5
330
C8EC
100
AcDbEntity
  8
Defpoints
 62
     0
100
AcDbPoint
 10
2311.942283505243
 20
1879.300279658238
 30
0.0
  0
POINT
  5
CAE6
330
C8EC
100
AcDbEntity
  8
Defpoints
 62
     0
100
AcDbPoint
 10
2311.942283505243
 20
1869.118687296525
 30
0.0
  0
ENDBLK
  5
C8F8
330
C8EC
100
AcDbEntity
  8
0
100
AcDbBlockEnd
  0
BLOCK
  5
C903
330
C8F9
100
AcDbEntity
  8
0
100
AcDbBlockBegin
  2
*D22
 70
     1
 10
0.0
 20
0.0
 30
0.0
  3
*D22
  1

  0
LINE
  5
CAE7
330
C8F9
100
AcDbEntity
  8
AM_5
100
AcDbLine
 10
2059.133226226968
 20
1924.294123158699
 30
0.0
 11
2036.133226226968
 21
1924.294123158699
 31
0.0
  0
LINE
  5
CAE8
330
C8F9
100
AcDbEntity
  8
AM_5
100
AcDbLine
 10
2059.133226226968
 20
1884.294123158699
 30
0.0
 11
2036.133226226968
 21
1884.294123158699
 31
0.0
  0
LINE
  5
CAE9
330
C8F9
100
AcDbEntity
  8
AM_5
100
AcDbLine
 10
2037.133226226968
 20
1923.294123158699
 30
0.0
 11
2037.133226226968
 21
1885.294123158699
 31
0.0
  0
INSERT
  5
CAEA
330
C8F9
100
AcDbEntity
  8
AM_5
100
AcDbBlockReference
  2
_Dot
 10
2037.133226226968
 20
1924.294123158699
 30
0.0
 50
90.0
  0
INSERT
  5
CAEB
330
C8F9
100
AcDbEntity
  8
AM_5
100
AcDbBlockReference
  2
_Dot
 10
2037.133226226968
 20
1884.294123158699
 30
0.0
 50
270.0
  0
MTEXT
  5
CAEC
330
C8F9
100
AcDbEntity
  8
AM_5
 62
     2
100
AcDbMText
 10
2034.033226226968
 20
1904.294123158699
 30
0.0
 40
3.200000000000001
 41
0.0
 71
     5
 72
     1
  1
40
 11
0.0000000000000001
 21
1.0
 31
0.0
 73
     1
 44
1.0
1001
ACAD
1000
MTEXTBEGIN
1070
    73
1070
     1
1070
    44
1040
1.0
1070
    74
1070
     0
1000
MTEXTEND
  0
POINT
  5
CAED
330
C8F9
100
AcDbEntity
  8
Defpoints
 62
     0
100
AcDbPoint
 10
2060.133226226968
 20
1924.294123158699
 30
0.0
  0
POINT
  5
CAEE
330
C8F9
100
AcDbEntity
  8
Defpoints
 62
     0
100
AcDbPoint
 10
2060.133226226968
 20
1884.294123158699
 30
0.0
  0
POINT
  5
CAEF
330
C8F9
100
AcDbEntity
  8
Defpoints
 62
     0
100
AcDbPoint
 10
2037.133226226968
 20
1884.294123158699
 30
0.0
  0
ENDBLK
  5
C904
330
C8F9
100
AcDbEntity
  8
0
100
AcDbBlockEnd
  0
BLOCK
  5
CC06
330
CC03
100
AcDbEntity
  8
0
100
AcDbBlockBegin
  2
GENDOT
 70
     0
 10
0.0
 20
0.0
 30
0.0
  3
GENDOT
  1

  0
LINE
  5
CC04
330
CC03
100
AcDbEntity
  8
0
100
AcDbLine
 10
0.0
 20
0.0
 30
0.0
 11
-1.0
 21
0.0
 31
0.0
  0
LWPOLYLINE
  5
CC05
330
CC03
100
AcDbEntity
  8
0
100
AcDbPolyline
 90
        2
 70
     1
 43
0.25
 10
-0.125
 20
0.0
 42
1.0
 10
0.125
 20
0.0
 42
1.0
  0
ENDBLK
  5
CC07
330
CC03
100
AcDbEntity
  8
0
100
AcDbBlockEnd
  0
BLOCK
  5
CD88
330
CD7F
100
AcDbEntity
  8
0
100
AcDbBlockBegin
  2
*D24
 70
     1
 10
0.0
 20
0.0
 30
0.0
  3
*D24
  1

  0
LINE
  5
CD8A
330
CD7F
100
AcDbEntity
  8
AM_5
100
AcDbLine
 10
2082.912473384446
 20
1882.945957820972
 30
0.0
 11
2074.062473384446
 21
1882.945957820972
 31
0.0
  0
LINE
  5
CD8B
330
CD7F
100
AcDbEntity
  8
AM_5
100
AcDbLine
 10
2074.062473384446
 20
1882.945957820972
 30
0.0
 11
2070.289120971958
 21
1886.947433994981
 31
0.0
  0
MTEXT
  5
CD8C
330
CD7F
100
AcDbEntity
  8
AM_5
 62
     2
100
AcDbMText
 10
2079.237473384447
 20
1886.195957820971
 30
0.0
 40
3.5
 41
0.0
 71
     5
 72
     1
  1
\U+22055.2
 73
     1
 44
1.0
1001
ACAD
1000
MTEXTBEGIN
1070
    73
1070
     1
1070
    44
1040
1.0
1070
    74
1070
     0
1000
MTEXTEND
  0
INSERT
  5
CD8D
330
CD7F
100
AcDbEntity
  8
AM_5
100
AcDbBlockReference
  2
_OPEN30
 10
2068.916992821963
 20
1888.402516240076
 30
0.0
 41
2.0
 42
2.0
 43
2.0
 50
133.319348179978
  0
POINT
  5
CD8E
330
CD7F
100
AcDbEntity
  8
Defpoints
 62
     0
100
AcDbPoint
 10
2068.916992821963
 20
1888.402516240076
 30
0.0
  0
POINT
  5
CD8F
330
CD7F
100
AcDbEntity
  8
Defpoints
 62
     0
100
AcDbPoint
 10
2065.349459631973
 20
1892.185730077322
 30
0.0
  0
ENDBLK
  5
CD89
330
CD7F
100
AcDbEntity
  8
0
100
AcDbBlockEnd
  0
BLOCK
  5
CD9A
330
CD91
100
AcDbEntity
  8
0
100
AcDbBlockBegin
  2
*D25
 70
     1
 10
0.0
 20
0.0
 30
0.0
  3
*D25
  1

  0
LINE
  5
CDD8
330
CD91
100
AcDbEntity
  8
AM_5
100
AcDbLine
 10
2065.236465895383
 20
1894.484862979365
 30
0.0
 11
2064.411787490346
 21
1896.30692377096
 31
0.0
  0
LINE
  5
CDD9
330
CD91
100
AcDbEntity
  8
AM_5
100
AcDbLine
 10
2069.029986558551
 20
1886.10338333803
 30
0.0
 11
2075.030180108339
 21
1872.846436942586
 31
0.0
  0
LINE
  5
CDDA
330
CD91
100
AcDbEntity
  8
AM_5
100
AcDbLine
 10
2075.030180108339
 20
1872.846436942586
 30
0.0
 11
2091.883513441673
 21
1872.846436942586
 31
0.0
  0
LINE
  5
CDDB
330
CD91
100
AcDbEntity
  8
AM_5
100
AcDbLine
 10
2066.061144300419
 20
1892.662802187771
 30
0.0
 11
2068.205308153515
 21
1887.925444129624
 31
0.0
  0
INSERT
  5
CDDC
330
CD91
100
AcDbEntity
  8
AM_5
100
AcDbBlockReference
  2
GENDOT
 10
2066.061144300419
 20
1892.662802187771
 30
0.0
 41
2.0
 42
2.0
 43
2.0
 50
294.3518647920821
  0
INSERT
  5
CDDD
330
CD91
100
AcDbEntity
  8
AM_5
100
AcDbBlockReference
  2
GENDOT
 10
2068.205308153515
 20
1887.925444129624
 30
0.0
 41
2.0
 42
2.0
 43
2.0
 50
114.3518647920821
  0
MTEXT
  5
CDDE
330
CD91
100
AcDbEntity
  8
AM_5
 62
     2
100
AcDbMText
 10
2084.206846775007
 20
1876.096436942587
 30
0.0
 40
3.5
 41
0.0
 71
     5
 72
     1
  1
2-\U+22055.2孔
 73
     1
 44
1.0
1001
ACAD
1000
MTEXTBEGIN
1070
    73
1070
     1
1070
    44
1040
1.0
1070
    74
1070
     0
1000
MTEXTEND
  0
POINT
  5
CDDF
330
CD91
100
AcDbEntity
  8
Defpoints
 62
     0
100
AcDbPoint
 10
2068.205308153515
 20
1887.925444129624
 30
0.0
  0
POINT
  5
CDE0
330
CD91
100
AcDbEntity
  8
Defpoints
 62
     0
100
AcDbPoint
 10
2066.061144300419
 20
1892.662802187771
 30
0.0
  0
ENDBLK
  5
CD9B
330
CD91
100
AcDbEntity
  8
0
100
AcDbBlockEnd
  0
ENDSEC
  0
SECTION
  2
ENTITIES
  0
LINE
  5
C52E
330
1F
100
AcDbEntity
  8
AM_0
100
AcDbLine
 10
2311.492283505242
 20
1911.6441231587
 30
0.0
 11
2311.492283505242
 21
1924.294123158699
 31
0.0
  0
ARC
  5
C52F
330
1F
100
AcDbEntity
  8
AM_0
100
AcDbCircle
 10
2307.942283505243
 20
1904.294123158699
 30
0.0
 40
5.849999999999999
100
AcDbArc
 50
90.0
 51
270.0
  0
LINE
  5
C530
330
1F
100
AcDbEntity
  8
AM_0
100
AcDbLine
 10
2307.942283505246
 20
1910.144123158699
 30
0.0
 11
2309.992283505242
 21
1910.144123158699
 31
0.0
  0
LINE
  5
C531
330
1F
100
AcDbEntity
  8
AM_0
100
AcDbLine
 10
2309.992283505242
 20
1898.444123158698
 30
0.0
 11
2307.942283505243
 21
1898.444123158698
 31
0.0
  0
LINE
  5
C532
330
1F
100
AcDbEntity
  8
AM_7
 48
0.3
100
AcDbLine
 10
2063.138631226968
 20
1890.294123158699
 30
0.0
 11
2071.103164226967
 21
1890.294123158699
 31
0.0
  0
LINE
  5
C533
330
1F
100
AcDbEntity
  8
AM_7
 48
0.3
100
AcDbLine
 10
2063.138631226968
 20
1918.294123158699
 30
0.0
 11
2071.103164226967
 21
1918.294123158699
 31
0.0
  0
ARC
  5
C534
330
1F
100
AcDbEntity
  8
AM_0
100
AcDbCircle
 10
2060.133226226968
 20
1887.294123158699
 30
0.0
 40
3.0
100
AcDbArc
 50
180.0
 51
270.0
  0
ARC
  5
C535
330
1F
100
AcDbEntity
  8
AM_0
100
AcDbCircle
 10
2060.133226226968
 20
1921.294123158699
 30
0.0
 40
3.0
100
AcDbArc
 50
90.0
 51
180.0
  0
ARC
  5
C536
330
1F
100
AcDbEntity
  8
AM_0
100
AcDbCircle
 10
2074.133226226968
 20
1921.294123158699
 30
0.0
 40
3.0
100
AcDbArc
 50
0.0
 51
90.0
  0
ARC
  5
C537
330
1F
100
AcDbEntity
  8
AM_0
100
AcDbCircle
 10
2074.133226226968
 20
1887.294123158699
 30
0.0
 40
3.0
100
AcDbArc
 50
270.0
 51
0.0
  0
ARC
  5
C538
330
1F
100
AcDbEntity
  8
AM_0
100
AcDbCircle
 10
2309.992283505242
 20
1911.6441231587
 30
0.0
 40
1.5
100
AcDbArc
 50
270.0
 51
0.0
  0
ARC
  5
C539
330
1F
100
AcDbEntity
  8
AM_0
100
AcDbCircle
 10
2309.992283505242
 20
1896.944123158698
 30
0.0
 40
1.5
100
AcDbArc
 50
0.0
 51
90.0
  0
ARC
  5
C53A
330
1F
100
AcDbEntity
  8
AM_0
100
AcDbCircle
 10
2309.992283505242
 20
1896.944123158698
 30
0.0
 40
2.7
100
AcDbArc
 50
0.0
 51
90.0
  0
LINE
  5
C53B
330
1F
100
AcDbEntity
  8
AM_0
100
AcDbLine
 10
2163.864468222204
 20
1924.294123158699
 30
0.0
 11
2247.864468222204
 21
1924.294123158699
 31
0.0
  0
LINE
  5
C53C
330
1F
100
AcDbEntity
  8
AM_0
100
AcDbLine
 10
2250.864468222204
 20
1921.294123158699
 30
0.0
 11
2250.864468222204
 21
1887.294123158699
 31
0.0
  0
LINE
  5
C53D
330
1F
100
AcDbEntity
  8
AM_0
100
AcDbLine
 10
2247.864468222204
 20
1884.294123158699
 30
0.0
 11
2186.364468222204
 21
1884.294123158699
 31
0.0
  0
LINE
  5
C53E
330
1F
100
AcDbEntity
  8
AM_0
100
AcDbLine
 10
2160.864468222204
 20
1887.294123158699
 30
0.0
 11
2160.864468222204
 21
1921.294123158699
 31
0.0
  0
LINE
  5
C53F
330
1F
100
AcDbEntity
  8
AM_7
100
AcDbLine
 10
2138.119542222204
 20
1904.294123158699
 30
0.0
 11
2255.584283222205
 21
1904.294123158699
 31
0.0
  0
ARC
  5
C540
330
1F
100
AcDbEntity
  8
AM_0
100
AcDbCircle
 10
2247.864468222204
 20
1921.294123158699
 30
0.0
 40
3.0
100
AcDbArc
 50
0.0
 51
90.0
  0
ARC
  5
C541
330
1F
100
AcDbEntity
  8
AM_0
100
AcDbCircle
 10
2247.864468222204
 20
1887.294123158699
 30
0.0
 40
3.0
100
AcDbArc
 50
270.0
 51
0.0
  0
ARC
  5
C542
330
1F
100
AcDbEntity
  8
AM_0
100
AcDbCircle
 10
2163.864468222204
 20
1887.294123158699
 30
0.0
 40
3.0
100
AcDbArc
 50
180.0
 51
270.0
  0
ARC
  5
C543
330
1F
100
AcDbEntity
  8
AM_0
100
AcDbCircle
 10
2163.864468222204
 20
1921.294123158699
 30
0.0
 40
3.0
100
AcDbArc
 50
90.0
 51
180.0
  0
CIRCLE
  5
C544
330
1F
100
AcDbEntity
  8
AM_0
100
AcDbCircle
 10
2175.864468222204
 20
1918.294123158699
 30
0.0
 40
2.6
  0
CIRCLE
  5
C545
330
1F
100
AcDbEntity
  8
AM_0
100
AcDbCircle
 10
2175.864468222204
 20
1890.294123158699
 30
0.0
 40
2.6
  0
CIRCLE
  5
C546
330
1F
100
AcDbEntity
  8
AM_0
100
AcDbCircle
 10
2235.864468222204
 20
1890.294123158699
 30
0.0
 40
2.6
  0
CIRCLE
  5
C547
330
1F
100
AcDbEntity
  8
AM_0
100
AcDbCircle
 10
2235.864468222204
 20
1918.294123158699
 30
0.0
 40
2.6
  0
LINE
  5
C548
330
1F
100
AcDbEntity
  8
AM_0
100
AcDbLine
 10
2250.864468222204
 20
1898.444123158698
 30
0.0
 11
2206.614468222204
 21
1898.444123158698
 31
0.0
  0
LINE
  5
C549
330
1F
100
AcDbEntity
  8
AM_0
100
AcDbLine
 10
2160.864468222204
 20
1910.144123158699
 30
0.0
 11
2181.114468222204
 21
1910.144123158699
 31
0.0
  0
LINE
  5
C54A
330
1F
100
AcDbEntity
  8
AM_7
 48
0.5
100
AcDbLine
 10
2171.364468222204
 20
1918.294123158699
 30
0.0
 11
2180.364468222204
 21
1918.294123158699
 31
0.0
  0
LINE
  5
C54B
330
1F
100
AcDbEntity
  8
AM_7
 48
0.5
100
AcDbLine
 10
2175.864468222204
 20
1922.794123158699
 30
0.0
 11
2175.864468222204
 21
1913.794123158699
 31
0.0
  0
CIRCLE
  5
C54C
330
1F
100
AcDbEntity
  8
AM_0
100
AcDbCircle
 10
2067.133226226968
 20
1890.294123158699
 30
0.0
 40
2.6
  0
LINE
  5
C54D
330
1F
100
AcDbEntity
  8
AM_7
100
AcDbLine
 10
2054.376586226968
 20
1904.294123158699
 30
0.0
 11
2079.687546226967
 21
1904.294123158699
 31
0.0
  0
LINE
  5
C54E
330
1F
100
AcDbEntity
  8
AM_0
100
AcDbLine
 10
2057.133226226968
 20
1921.294123158699
 30
0.0
 11
2057.133226226968
 21
1887.294123158699
 31
0.0
  0
CIRCLE
  5
C54F
330
1F
100
AcDbEntity
  8
AM_0
100
AcDbCircle
 10
2067.133226226968
 20
1918.294123158699
 30
0.0
 40
2.6
  0
ARC
  5
C550
330
1F
100
AcDbEntity
  8
AM_0
100
AcDbCircle
 10
2309.992283505242
 20
1911.6441231587
 30
0.0
 40
2.7
100
AcDbArc
 50
270.0
 51
0.0
  0
LINE
  5
C551
330
1F
100
AcDbEntity
  8
AM_0
100
AcDbLine
 10
2060.133226226968
 20
1884.294123158699
 30
0.0
 11
2074.133226226968
 21
1884.294123158699
 31
0.0
  0
LINE
  5
C552
330
1F
100
AcDbEntity
  8
AM_0
100
AcDbLine
 10
2077.133226226968
 20
1887.294123158699
 30
0.0
 11
2077.133226226968
 21
1921.294123158699
 31
0.0
  0
LINE
  5
C553
330
1F
100
AcDbEntity
  8
AM_0
100
AcDbLine
 10
2307.94228350525
 20
1908.944123158699
 30
0.0
 11
2309.992283505242
 21
1908.944123158699
 31
0.0
  0
LINE
  5
C554
330
1F
100
AcDbEntity
  8
AM_0
100
AcDbLine
 10
2074.133226226968
 20
1924.294123158699
 30
0.0
 11
2060.133226226968
 21
1924.294123158699
 31
0.0
  0
ARC
  5
C555
330
1F
100
AcDbEntity
  8
AM_0
100
AcDbCircle
 10
2307.942283505243
 20
1904.294123158699
 30
0.0
 40
4.65
100
AcDbArc
 50
90.0
 51
270.0
  0
LINE
  5
C556
330
1F
100
AcDbEntity
  8
AM_0
100
AcDbLine
 10
2309.992283505242
 20
1899.644123158699
 30
0.0
 11
2307.859190560044
 21
1899.644865630614
 31
0.0
  0
LINE
  5
C557
330
1F
100
AcDbEntity
  8
AM_0
100
AcDbLine
 10
2057.133226226968
 20
1910.694123158699
 30
0.0
 11
2077.133226226968
 21
1910.694123158699
 31
0.0
  0
LINE
  5
C558
330
1F
100
AcDbEntity
  8
AM_0
100
AcDbLine
 10
2077.133226226968
 20
1897.8941231587
 30
0.0
 11
2057.133226226968
 21
1897.8941231587
 31
0.0
  0
LINE
  5
C55B
330
1F
100
AcDbEntity
  8
AM_0
100
AcDbLine
 10
2311.492283505242
 20
1884.294123158699
 30
0.0
 11
2311.492283505242
 21
1896.944123158698
 31
0.0
  0
LINE
  5
C55C
330
1F
100
AcDbEntity
  8
AM_0
100
AcDbLine
 10
2312.692283505243
 20
1924.294123158699
 30
0.0
 11
2312.692283505243
 21
1884.294123158699
 31
0.0
  0
LINE
  5
C55D
330
1F
100
AcDbEntity
  8
AM_0
100
AcDbLine
 10
2311.492283505242
 20
1924.294123158699
 30
0.0
 11
2313.892283505244
 21
1924.294123158699
 31
0.0
  0
LINE
  5
C55E
330
1F
100
AcDbEntity
  8
AM_0
100
AcDbLine
 10
2313.892283505244
 20
1884.294123158699
 30
0.0
 11
2311.492283505242
 21
1884.294123158699
 31
0.0
  0
LINE
  5
C55F
330
1F
100
AcDbEntity
  8
AM_0
100
AcDbLine
 10
1999.883515331101
 20
1924.294123158699
 30
0.0
 11
1999.883515331101
 21
1884.294123158699
 31
0.0
  0
LINE
  5
C560
330
1F
100
AcDbEntity
  8
AM_0
100
AcDbLine
 10
1999.883515331101
 20
1884.294123158699
 30
0.0
 11
2002.283515331102
 21
1884.294123158699
 31
0.0
  0
LINE
  5
C561
330
1F
100
AcDbEntity
  8
AM_0
100
AcDbLine
 10
2001.083515331102
 20
1884.294123158699
 30
0.0
 11
2001.083515331102
 21
1924.294123158699
 31
0.0
  0
LINE
  5
C562
330
1F
100
AcDbEntity
  8
AM_0
100
AcDbLine
 10
1999.883515331101
 20
1924.294123158699
 30
0.0
 11
2002.283515331102
 21
1924.294123158699
 31
0.0
  0
LINE
  5
C563
330
1F
100
AcDbEntity
  8
AM_0
100
AcDbLine
 10
2002.283515331102
 20
1884.294123158699
 30
0.0
 11
2002.283515331102
 21
1896.3941231587
 31
0.0
  0
LINE
  5
C564
330
1F
100
AcDbEntity
  8
AM_0
100
AcDbLine
 10
2002.283515331102
 20
1912.194123158698
 30
0.0
 11
2002.283515331102
 21
1924.294123158699
 31
0.0
  0
ARC
  5
C565
330
1F
100
AcDbEntity
  8
AM_0
100
AcDbCircle
 10
2005.983515331104
 20
1904.294123158699
 30
0.0
 40
6.4
100
AcDbArc
 50
270.0
 51
90.0
  0
LINE
  5
C566
330
1F
100
AcDbEntity
  8
AM_0
100
AcDbLine
 10
2005.983515331104
 20
1910.694123158699
 30
0.0
 11
2003.783515331102
 21
1910.694123158699
 31
0.0
  0
LINE
  5
C567
330
1F
100
AcDbEntity
  8
AM_0
100
AcDbLine
 10
2005.983515331104
 20
1897.8941231587
 30
0.0
 11
2003.783515331102
 21
1897.8941231587
 31
0.0
  0
LINE
  5
C568
330
1F
100
AcDbEntity
  8
AM_0
100
AcDbLine
 10
2005.983515331104
 20
1899.094123158699
 30
0.0
 11
2003.783515331102
 21
1899.094123158699
 31
0.0
  0
ARC
  5
C569
330
1F
100
AcDbEntity
  8
AM_0
100
AcDbCircle
 10
2005.983515331104
 20
1904.294123158699
 30
0.0
 40
5.2
100
AcDbArc
 50
270.0
 51
90.0
  0
LINE
  5
C56A
330
1F
100
AcDbEntity
  8
AM_0
100
AcDbLine
 10
2005.983515331104
 20
1909.494123158699
 30
0.0
 11
2003.783515331102
 21
1909.494123158699
 31
0.0
  0
ARC
  5
C56B
330
1F
100
AcDbEntity
  8
AM_0
100
AcDbCircle
 10
2003.783515331102
 20
1912.194123158698
 30
0.0
 40
1.5
100
AcDbArc
 50
180.0
 51
270.0
  0
ARC
  5
C56C
330
1F
100
AcDbEntity
  8
AM_0
100
AcDbCircle
 10
2003.783515331102
 20
1896.3941231587
 30
0.0
 40
1.5
100
AcDbArc
 50
90.0
 51
180.0
  0
ARC
  5
C56D
330
1F
100
AcDbEntity
  8
AM_0
100
AcDbCircle
 10
2003.783515331102
 20
1896.3941231587
 30
0.0
 40
2.7
100
AcDbArc
 50
90.0
 51
180.0
  0
ARC
  5
C56E
330
1F
100
AcDbEntity
  8
AM_0
100
AcDbCircle
 10
2003.783515331102
 20
1912.194123158698
 30
0.0
 40
2.7
100
AcDbArc
 50
180.0
 51
270.0
  0
LINE
  5
C571
330
1F
100
AcDbEntity
  8
AM_0
100
AcDbLine
 10
2313.892283505244
 20
1924.294123158699
 30
0.0
 11
2313.892283505244
 21
1884.294123158699
 31
0.0
  0
LINE
  5
C574
330
1F
100
AcDbEntity
  8
AM_7
 48
0.5
100
AcDbLine
 10
1997.202734331102
 20
1904.294123158699
 30
0.0
 11
2014.744983331104
 21
1904.294123158699
 31
0.0
  0
LINE
  5
C575
330
1F
100
AcDbEntity
  8
AM_7
 48
0.5
100
AcDbLine
 10
2231.364468222204
 20
1918.294123158699
 30
0.0
 11
2240.364468222204
 21
1918.294123158699
 31
0.0
  0
LINE
  5
C576
330
1F
100
AcDbEntity
  8
AM_7
 48
0.5
100
AcDbLine
 10
2235.864468222204
 20
1922.794123158699
 30
0.0
 11
2235.864468222204
 21
1913.794123158699
 31
0.0
  0
LINE
  5
C577
330
1F
100
AcDbEntity
  8
AM_7
 48
0.5
100
AcDbLine
 10
2231.364468222204
 20
1890.294123158699
 30
0.0
 11
2240.364468222204
 21
1890.294123158699
 31
0.0
  0
LINE
  5
C578
330
1F
100
AcDbEntity
  8
AM_7
 48
0.5
100
AcDbLine
 10
2235.864468222204
 20
1894.794123158699
 30
0.0
 11
2235.864468222204
 21
1885.794123158699
 31
0.0
  0
LINE
  5
C579
330
1F
100
AcDbEntity
  8
AM_7
 48
0.5
100
AcDbLine
 10
2171.364468222204
 20
1890.294123158699
 30
0.0
 11
2180.364468222204
 21
1890.294123158699
 31
0.0
  0
LINE
  5
C57A
330
1F
100
AcDbEntity
  8
AM_7
 48
0.5
100
AcDbLine
 10
2175.864468222204
 20
1894.794123158699
 30
0.0
 11
2175.864468222204
 21
1885.794123158699
 31
0.0
  0
LINE
  5
C582
330
1F
100
AcDbEntity
  8
AM_0
100
AcDbLine
 10
2181.114468222204
 20
1910.294123158699
 30
0.0
 11
2181.114468222204
 21
1898.294123158699
 31
0.0
  0
LINE
  5
C583
330
1F
100
AcDbEntity
  8
AM_0
100
AcDbLine
 10
2186.614468222204
 20
1898.294123158699
 30
0.0
 11
2186.614468222204
 21
1900.394123158699
 31
0.0
  0
LINE
  5
C584
330
1F
100
AcDbEntity
  8
AM_0
100
AcDbLine
 10
2187.114468222204
 20
1900.894123158699
 30
0.0
 11
2200.614468222204
 21
1900.894123158699
 31
0.0
  0
LINE
  5
C585
330
1F
100
AcDbEntity
  8
AM_0
100
AcDbLine
 10
2201.114468222204
 20
1900.394123158699
 30
0.0
 11
2201.114468222204
 21
1898.294123158699
 31
0.0
  0
LINE
  5
C586
330
1F
100
AcDbEntity
  8
AM_0
100
AcDbLine
 10
2201.614468222204
 20
1897.794123158699
 30
0.0
 11
2206.114468222204
 21
1897.794123158699
 31
0.0
  0
LINE
  5
C587
330
1F
100
AcDbEntity
  8
AM_0
100
AcDbLine
 10
2206.614468222204
 20
1898.294123158699
 30
0.0
 11
2206.614468222204
 21
1910.294123158699
 31
0.0
  0
LINE
  5
C588
330
1F
100
AcDbEntity
  8
AM_0
100
AcDbLine
 10
2206.114468222204
 20
1910.794123158699
 30
0.0
 11
2201.614468222204
 21
1910.794123158699
 31
0.0
  0
LINE
  5
C589
330
1F
100
AcDbEntity
  8
AM_0
100
AcDbLine
 10
2201.114468222204
 20
1910.294123158699
 30
0.0
 11
2201.114468222204
 21
1908.194123158699
 31
0.0
  0
LINE
  5
C58A
330
1F
100
AcDbEntity
  8
AM_0
100
AcDbLine
 10
2200.614468222204
 20
1907.694123158699
 30
0.0
 11
2187.114468222204
 21
1907.694123158699
 31
0.0
  0
LINE
  5
C58B
330
1F
100
AcDbEntity
  8
AM_0
100
AcDbLine
 10
2186.614468222204
 20
1908.194123158699
 30
0.0
 11
2186.614468222204
 21
1910.294123158699
 31
0.0
  0
LINE
  5
C58C
330
1F
100
AcDbEntity
  8
AM_0
100
AcDbLine
 10
2186.114468222204
 20
1910.794123158699
 30
0.0
 11
2181.614468222204
 21
1910.794123158699
 31
0.0
  0
ARC
  5
C58D
330
1F
100
AcDbEntity
  8
AM_0
100
AcDbCircle
 10
2181.614468222204
 20
1910.294123158699
 30
0.0
 40
0.5
100
AcDbArc
 50
90.0
 51
180.0
  0
ARC
  5
C58E
330
1F
100
AcDbEntity
  8
AM_0
100
AcDbCircle
 10
2186.114468222204
 20
1910.294123158699
 30
0.0
 40
0.5
100
AcDbArc
 50
0.0
 51
90.0
  0
ARC
  5
C58F
330
1F
100
AcDbEntity
  8
AM_0
100
AcDbCircle
 10
2201.614468222204
 20
1910.294123158699
 30
0.0
 40
0.5
100
AcDbArc
 50
90.0
 51
180.0
  0
ARC
  5
C590
330
1F
100
AcDbEntity
  8
AM_0
100
AcDbCircle
 10
2206.114468222204
 20
1910.294123158699
 30
0.0
 40
0.5
100
AcDbArc
 50
0.0
 51
90.0
  0
ARC
  5
C591
330
1F
100
AcDbEntity
  8
AM_0
100
AcDbCircle
 10
2206.114468222204
 20
1898.294123158699
 30
0.0
 40
0.5
100
AcDbArc
 50
270.0
 51
0.0
  0
ARC
  5
C592
330
1F
100
AcDbEntity
  8
AM_0
100
AcDbCircle
 10
2201.614468222204
 20
1898.294123158699
 30
0.0
 40
0.5
100
AcDbArc
 50
180.0
 51
270.0
  0
ARC
  5
C593
330
1F
100
AcDbEntity
  8
AM_0
100
AcDbCircle
 10
2200.614468222204
 20
1900.394123158699
 30
0.0
 40
0.5
100
AcDbArc
 50
0.0
 51
90.0
  0
ARC
  5
C594
330
1F
100
AcDbEntity
  8
AM_0
100
AcDbCircle
 10
2187.114468222204
 20
1900.394123158699
 30
0.0
 40
0.5
100
AcDbArc
 50
90.0
 51
180.0
  0
ARC
  5
C595
330
1F
100
AcDbEntity
  8
AM_0
100
AcDbCircle
 10
2187.114468222204
 20
1908.194123158699
 30
0.0
 40
0.5
100
AcDbArc
 50
180.0
 51
270.0
  0
ARC
  5
C596
330
1F
100
AcDbEntity
  8
AM_0
100
AcDbCircle
 10
2200.614468222204
 20
1908.194123158699
 30
0.0
 40
0.5
100
AcDbArc
 50
270.0
 51
0.0
  0
ARC
  5
C597
330
1F
100
AcDbEntity
  8
AM_0
100
AcDbCircle
 10
2186.114468222204
 20
1898.294123158699
 30
0.0
 40
0.5
100
AcDbArc
 50
270.000000000026
 51
0.0
  0
LINE
  5
C598
330
1F
100
AcDbEntity
  8
AM_0
100
AcDbLine
 10
2186.614468222204
 20
1910.144123158699
 30
0.0
 11
2201.114468222204
 21
1910.144123158699
 31
0.0
  0
LINE
  5
C599
330
1F
100
AcDbEntity
  8
AM_0
100
AcDbLine
 10
2206.614468222204
 20
1910.144123158699
 30
0.0
 11
2247.964468222202
 21
1910.144123158699
 31
0.0
  0
LINE
  5
C59A
330
1F
100
AcDbEntity
  8
AM_0
100
AcDbLine
 10
2181.114468222204
 20
1898.444123158698
 30
0.0
 11
2160.864468222204
 21
1898.444123158698
 31
0.0
  0
LINE
  5
C59B
330
1F
100
AcDbEntity
  8
AM_0
100
AcDbLine
 10
2201.114468222204
 20
1898.444123158698
 30
0.0
 11
2186.614468222204
 21
1898.444123158698
 31
0.0
  0
LINE
  5
C59C
330
1F
100
AcDbEntity
  8
AM_0
100
AcDbLine
 10
2200.614468222204
 20
1908.314123158699
 30
0.0
 11
2187.114468222204
 21
1908.314123158699
 31
0.0
  0
ARC
  5
C59D
330
1F
100
AcDbEntity
  8
AM_0
100
AcDbCircle
 10
2187.114468222204
 20
1908.8141231587
 30
0.0
 40
0.5
100
AcDbArc
 50
180.0
 51
270.0
  0
ARC
  5
C59E
330
1F
100
AcDbEntity
  8
AM_0
100
AcDbCircle
 10
2200.614468222204
 20
1908.8141231587
 30
0.0
 40
0.5
100
AcDbArc
 50
270.0
 51
0.0
  0
LINE
  5
C59F
330
1F
100
AcDbEntity
  8
AM_0
100
AcDbLine
 10
2200.614468222204
 20
1900.274123158698
 30
0.0
 11
2187.114468222204
 21
1900.274123158698
 31
0.0
  0
ARC
  5
C5A0
330
1F
100
AcDbEntity
  8
AM_0
100
AcDbCircle
 10
2187.114468222204
 20
1899.774123158699
 30
0.0
 40
0.5
100
AcDbArc
 50
90.0
 51
180.0
  0
ARC
  5
C5A1
330
1F
100
AcDbEntity
  8
AM_0
100
AcDbCircle
 10
2200.614468222204
 20
1899.774123158699
 30
0.0
 40
0.5
100
AcDbArc
 50
0.0
 51
90.0
  0
LINE
  5
C5A2
330
1F
100
AcDbEntity
  8
AM_0
100
AcDbLine
 10
2250.864468222204
 20
1820.103859280314
 30
0.0
 11
2160.864468222204
 21
1820.103859280314
 31
0.0
  0
LINE
  5
C5A3
330
1F
100
AcDbEntity
  8
AM_0
100
AcDbLine
 10
2160.864468222204
 20
1820.103859280314
 30
0.0
 11
2160.864468222204
 21
1831.703859280313
 31
0.0
  0
LINE
  5
C5A4
330
1F
100
AcDbEntity
  8
AM_0
100
AcDbLine
 10
2250.864468222204
 20
1820.103859280314
 30
0.0
 11
2250.864468222204
 21
1831.703859280313
 31
0.0
  0
LINE
  5
C5A5
330
1F
100
AcDbEntity
  8
AM_0
100
AcDbLine
 10
2250.864468222204
 20
1831.703859280313
 30
0.0
 11
2249.464468222202
 21
1831.703859280313
 31
0.0
  0
LINE
  5
C5A6
330
1F
100
AcDbEntity
  8
AM_0
100
AcDbLine
 10
2160.864468222204
 20
1822.503859280315
 30
0.0
 11
2181.833316909147
 21
1822.503859280315
 31
0.0
  0
LINE
  5
C5A7
330
1F
100
AcDbEntity
  8
AM_0
100
AcDbLine
 10
2250.864468222204
 20
1821.303859280314
 30
0.0
 11
2145.814468222204
 21
1821.303859280314
 31
0.0
  0
LINE
  5
C5A8
330
1F
100
AcDbEntity
  8
AM_7
100
AcDbLine
 10
2298.998244505245
 20
1904.294123158699
 30
0.0
 11
2317.476930505243
 21
1904.294123158699
 31
0.0
  0
LINE
  5
C5AB
330
1F
100
AcDbEntity
  8
AM_0
100
AcDbLine
 10
2181.114468222204
 20
1831.703859280313
 30
0.0
 11
2181.114468222204
 21
1828.598944252189
 31
0.0
  0
LINE
  5
C5AC
330
1F
100
AcDbEntity
  8
AM_0
100
AcDbLine
 10
2186.614468222204
 20
1829.603859280314
 30
0.0
 11
2186.614468222204
 21
1828.053859280314
 31
0.0
  0
LINE
  5
C5AD
330
1F
100
AcDbEntity
  8
AM_0
100
AcDbLine
 10
2201.114468222204
 20
1829.603859280314
 30
0.0
 11
2201.114468222204
 21
1822.503859280315
 31
0.0
  0
LINE
  5
C5AE
330
1F
100
AcDbEntity
  8
AM_0
100
AcDbLine
 10
2206.614468222204
 20
1822.503859280315
 30
0.0
 11
2206.614468222204
 21
1831.703859280313
 31
0.0
  0
LINE
  5
C5AF
330
1F
100
AcDbEntity
  8
AM_0
100
AcDbLine
 10
2181.114468222204
 20
1831.703859280313
 30
0.0
 11
2160.864468222204
 21
1831.703859280313
 31
0.0
  0
LINE
  5
C5B2
330
1F
100
AcDbEntity
  8
AM_0
100
AcDbLine
 10
2160.864468222204
 20
1908.794123158699
 30
0.0
 11
2145.814468222204
 21
1908.794123158699
 31
0.0
  0
LINE
  5
C5B3
330
1F
100
AcDbEntity
  8
AM_0
100
AcDbLine
 10
2145.814468222204
 20
1908.794123158699
 30
0.0
 11
2140.814468222204
 21
1906.794123158699
 31
0.0
  0
LINE
  5
C5B4
330
1F
100
AcDbEntity
  8
AM_0
100
AcDbLine
 10
2140.814468222204
 20
1906.794123158699
 30
0.0
 11
2140.814468222204
 21
1901.794123158699
 31
0.0
  0
LINE
  5
C5B5
330
1F
100
AcDbEntity
  8
AM_0
100
AcDbLine
 10
2140.814468222204
 20
1901.794123158699
 30
0.0
 11
2145.814468222204
 21
1899.794123158699
 31
0.0
  0
LINE
  5
C5B6
330
1F
100
AcDbEntity
  8
AM_0
100
AcDbLine
 10
2145.814468222204
 20
1899.794123158699
 30
0.0
 11
2160.864468222204
 21
1899.794123158699
 31
0.0
  0
LINE
  5
C5B7
330
1F
100
AcDbEntity
  8
AM_2
100
AcDbLine
 10
2145.814468222204
 20
1908.794123158699
 30
0.0
 11
2145.814468222204
 21
1899.794123158699
 31
0.0
  0
LINE
  5
C5B8
330
1F
100
AcDbEntity
  8
AM_0
100
AcDbLine
 10
2160.864468222204
 20
1830.303859280314
 30
0.0
 11
2145.814468222204
 21
1830.303859280314
 31
0.0
  0
LINE
  5
C5B9
330
1F
100
AcDbEntity
  8
AM_0
100
AcDbLine
 10
2145.814468222204
 20
1830.303859280314
 30
0.0
 11
2140.814468222204
 21
1828.303859280314
 31
0.0
  0
LINE
  5
C5BA
330
1F
100
AcDbEntity
  8
AM_0
100
AcDbLine
 10
2140.814468222204
 20
1828.303859280314
 30
0.0
 11
2140.814468222204
 21
1823.303859280314
 31
0.0
  0
LINE
  5
C5BB
330
1F
100
AcDbEntity
  8
AM_0
100
AcDbLine
 10
2140.814468222204
 20
1823.303859280314
 30
0.0
 11
2145.814468222204
 21
1821.303859280314
 31
0.0
  0
LINE
  5
C5BC
330
1F
100
AcDbEntity
  8
AM_2
100
AcDbLine
 10
2145.814468222204
 20
1830.303859280314
 30
0.0
 11
2145.814468222204
 21
1821.303859280314
 31
0.0
  0
LINE
  5
C5BD
330
1F
100
AcDbEntity
  8
AM_7
100
AcDbLine
 10
2138.511198222204
 20
1825.803859280314
 30
0.0
 11
2255.220943222204
 21
1825.803859280314
 31
0.0
  0
LINE
  5
C5BE
330
1F
100
AcDbEntity
  8
AM_0
100
AcDbLine
 10
2186.864468222204
 20
1877.794123158699
 30
0.0
 11
2180.364468222204
 21
1877.794123158699
 31
0.0
  0
LINE
  5
C5BF
330
1F
100
AcDbEntity
  8
AM_0
100
AcDbLine
 10
2179.864468222204
 20
1878.294123158699
 30
0.0
 11
2179.864468222204
 21
1882.294123158699
 31
0.0
  0
LINE
  5
C5C0
330
1F
100
AcDbEntity
  8
AM_0
100
AcDbLine
 10
2179.864468222204
 20
1882.294123158699
 30
0.0
 11
2181.114468222204
 21
1884.294123158699
 31
0.0
  0
LINE
  5
C5C1
330
1F
100
AcDbEntity
  8
AM_2
100
AcDbLine
 10
2181.114468222204
 20
1884.294123158699
 30
0.0
 11
2186.114468222204
 21
1884.294123158699
 31
0.0
  0
LINE
  5
C5C2
330
1F
100
AcDbEntity
  8
AM_0
100
AcDbLine
 10
2186.114468222204
 20
1884.294123158699
 30
0.0
 11
2187.364468222204
 21
1882.294123158699
 31
0.0
  0
LINE
  5
C5C3
330
1F
100
AcDbEntity
  8
AM_0
100
AcDbLine
 10
2187.364468222204
 20
1882.294123158699
 30
0.0
 11
2187.364468222204
 21
1878.294123158699
 31
0.0
  0
LINE
  5
C5C4
330
1F
100
AcDbEntity
  8
AM_2
100
AcDbLine
 10
2187.364468222204
 20
1882.294123158699
 30
0.0
 11
2179.864468222204
 21
1882.294123158699
 31
0.0
  0
LINE
  5
C5C5
330
1F
100
AcDbEntity
  8
AM_0
100
AcDbLine
 10
2181.114468222204
 20
1884.294123158699
 30
0.0
 11
2181.114468222204
 21
1899.794123158699
 31
0.0
  0
LINE
  5
C5C6
330
1F
100
AcDbEntity
  8
AM_0
100
AcDbLine
 10
2186.114468222204
 20
1899.794123158699
 30
0.0
 11
2186.114468222204
 21
1884.294123158699
 31
0.0
  0
LINE
  5
C5C8
330
1F
100
AcDbEntity
  8
AM_0
100
AcDbLine
 10
2311.442283505243
 20
1878.794123158699
 30
0.0
 11
2304.942283505243
 21
1878.794123158699
 31
0.0
  0
LINE
  5
C5C9
330
1F
100
AcDbEntity
  8
AM_0
100
AcDbLine
 10
2181.364468222204
 20
1884.294123158699
 30
0.0
 11
2163.864468222204
 21
1884.294123158699
 31
0.0
  0
LINE
  5
C5CA
330
1F
100
AcDbEntity
  8
AM_7
100
AcDbLine
 10
2183.614468222204
 20
1916.300489292437
 30
0.0
 11
2183.614468222204
 21
1875.565315158699
 31
0.0
  0
LINE
  5
C5CB
330
1F
100
AcDbEntity
  8
AM_0
100
AcDbLine
 10
2187.364468222204
 20
1878.294123158699
 30
0.0
 11
2186.864468222204
 21
1877.794123158699
 31
0.0
  0
LINE
  5
C5CC
330
1F
100
AcDbEntity
  8
AM_0
100
AcDbLine
 10
2180.364468222204
 20
1877.794123158699
 30
0.0
 11
2179.864468222204
 21
1878.294123158699
 31
0.0
  0
LINE
  5
C5CD
330
1F
100
AcDbEntity
  8
AM_2
100
AcDbLine
 10
2179.864468222204
 20
1878.294123158699
 30
0.0
 11
2187.364468222204
 21
1878.294123158699
 31
0.0
  0
LINE
  5
C5CE
330
1F
100
AcDbEntity
  8
AM_0
100
AcDbLine
 10
2304.442283505243
 20
1879.294123158699
 30
0.0
 11
2304.442283505243
 21
1883.294123158699
 31
0.0
  0
LINE
  5
C5CF
330
1F
100
AcDbEntity
  8
AM_0
100
AcDbLine
 10
2304.442283505243
 20
1883.294123158699
 30
0.0
 11
2305.692283505243
 21
1885.294123158699
 31
0.0
  0
LINE
  5
C5D0
330
1F
100
AcDbEntity
  8
AM_2
100
AcDbLine
 10
2305.692283505243
 20
1885.294123158699
 30
0.0
 11
2310.692283505243
 21
1885.294123158699
 31
0.0
  0
LINE
  5
C5D1
330
1F
100
AcDbEntity
  8
AM_0
100
AcDbLine
 10
2310.692283505243
 20
1885.294123158699
 30
0.0
 11
2311.629783505243
 21
1883.794123158699
 31
0.0
  0
LINE
  5
C5D2
330
1F
100
AcDbEntity
  8
AM_0
100
AcDbLine
 10
2311.629783505243
 20
1883.794123158699
 30
0.0
 11
2311.942283505243
 21
1883.294123158699
 31
0.0
  0
LINE
  5
C5D3
330
1F
100
AcDbEntity
  8
AM_0
100
AcDbLine
 10
2311.942283505243
 20
1883.294123158699
 30
0.0
 11
2311.942283505243
 21
1879.294123158699
 31
0.0
  0
LINE
  5
C5D4
330
1F
100
AcDbEntity
  8
AM_2
100
AcDbLine
 10
2311.942283505243
 20
1883.294123158699
 30
0.0
 11
2304.442283505243
 21
1883.294123158699
 31
0.0
  0
LINE
  5
C5D5
330
1F
100
AcDbEntity
  8
AM_0
100
AcDbLine
 10
2305.692283505243
 20
1885.294123158699
 30
0.0
 11
2305.692283505243
 21
1898.981873158699
 31
0.0
  0
LINE
  5
C5D6
330
1F
100
AcDbEntity
  8
AM_0
100
AcDbLine
 10
2310.692283505243
 20
1898.2707731587
 30
0.0
 11
2310.692283505243
 21
1885.294123158699
 31
0.0
  0
LINE
  5
C5D7
330
1F
100
AcDbEntity
  8
AM_7
100
AcDbLine
 10
2308.192283505243
 20
1910.812655158699
 30
0.0
 11
2308.192283505243
 21
1876.565315158699
 31
0.0
  0
LINE
  5
C5D8
330
1F
100
AcDbEntity
  8
AM_0
100
AcDbLine
 10
2311.942283505243
 20
1879.294123158699
 30
0.0
 11
2311.442283505243
 21
1878.794123158699
 31
0.0
  0
LINE
  5
C5D9
330
1F
100
AcDbEntity
  8
AM_0
100
AcDbLine
 10
2304.942283505243
 20
1878.794123158699
 30
0.0
 11
2304.442283505243
 21
1879.294123158699
 31
0.0
  0
LINE
  5
C5DA
330
1F
100
AcDbEntity
  8
AM_2
100
AcDbLine
 10
2304.442283505243
 20
1879.294123158699
 30
0.0
 11
2311.942283505243
 21
1879.294123158699
 31
0.0
  0
LINE
  5
C5DE
330
1F
100
AcDbEntity
  8
AM_0
100
AcDbLine
 10
2312.692283505243
 20
1901.794123158699
 30
0.0
 11
2312.692283505243
 21
1899.794123158699
 31
0.0
  0
LINE
  5
C5DF
330
1F
100
AcDbEntity
  8
AM_0
100
AcDbLine
 10
2312.692283505243
 20
1908.794123158699
 30
0.0
 11
2312.692283505243
 21
1906.794123158699
 31
0.0
  0
LINE
  5
C5E0
330
1F
100
AcDbEntity
  8
AM_0
100
AcDbLine
 10
2186.714468222203
 20
1830.303859280314
 30
0.0
 11
2206.614468222204
 21
1830.303859280314
 31
0.0
  0
LINE
  5
C5E1
330
1F
100
AcDbEntity
  8
AM_0
100
AcDbLine
 10
2181.114468222204
 20
1830.303859280314
 30
0.0
 11
2186.714468222203
 21
1830.303859280314
 31
0.0
  0
CIRCLE
  5
C5E2
330
1F
100
AcDbEntity
  8
AM_0
100
AcDbCircle
 10
2183.614468222204
 20
1825.803859280314
 30
0.0
 40
3.75
  0
CIRCLE
  5
C5E3
330
1F
100
AcDbEntity
  8
AM_2
100
AcDbCircle
 10
2183.614468222204
 20
1825.803859280314
 30
0.0
 40
3.25
  0
LINE
  5
C5E4
330
1F
100
AcDbEntity
  8
AM_0
100
AcDbLine
 10
2186.614468222204
 20
1823.553859280314
 30
0.0
 11
2186.614468222204
 21
1822.503859280315
 31
0.0
  0
LINE
  5
C5E5
330
1F
100
AcDbEntity
  8
AM_0
100
AcDbLine
 10
2181.114468222204
 20
1823.00877430844
 30
0.0
 11
2181.114468222204
 21
1822.503859280315
 31
0.0
  0
LINE
  5
C5E6
330
1F
100
AcDbEntity
  8
AM_0
100
AcDbLine
 10
2185.395619535261
 20
1822.503859280315
 30
0.0
 11
2250.864468222204
 21
1822.503859280315
 31
0.0
  0
LINE
  5
C5E7
330
1F
100
AcDbEntity
  8
AM_0
100
AcDbLine
 10
2248.064468222201
 20
1831.703859280313
 30
0.0
 11
2248.064468222201
 21
1831.142762280314
 31
0.0
  0
LINE
  5
C5E8
330
1F
100
AcDbEntity
  8
AM_0
100
AcDbLine
 10
2248.064468222201
 20
1831.142762280314
 30
0.0
 11
2249.464468222202
 21
1831.142762280314
 31
0.0
  0
LINE
  5
C5E9
330
1F
100
AcDbEntity
  8
AM_0
100
AcDbLine
 10
2249.464468222202
 20
1831.142762280314
 30
0.0
 11
2249.464468222202
 21
1831.703859280313
 31
0.0
  0
LINE
  5
C5F0
330
1F
100
AcDbEntity
  8
AM_0
100
AcDbLine
 10
2249.364468222204
 20
1906.794123158699
 30
0.0
 11
2248.164468222203
 21
1906.794123158699
 31
0.0
  0
LINE
  5
C5F1
330
1F
100
AcDbEntity
  8
AM_0
100
AcDbLine
 10
2248.164468222203
 20
1907.044123158699
 30
0.0
 11
2248.164468222203
 21
1901.544123158699
 31
0.0
  0
LINE
  5
C5F2
330
1F
100
AcDbEntity
  8
AM_0
100
AcDbLine
 10
2248.164468222203
 20
1901.794123158699
 30
0.0
 11
2249.364468222204
 21
1901.794123158699
 31
0.0
  0
LINE
  5
C5F3
330
1F
100
AcDbEntity
  8
AM_0
100
AcDbLine
 10
2249.364468222204
 20
1901.544123158699
 30
0.0
 11
2249.364468222204
 21
1907.044123158699
 31
0.0
  0
LINE
  5
C5F6
330
1F
100
AcDbEntity
  8
AM_0
100
AcDbLine
 10
2201.114468222204
 20
1908.794123158699
 30
0.0
 11
2206.614468222204
 21
1908.794123158699
 31
0.0
  0
LINE
  5
C5F9
330
1F
100
AcDbEntity
  8
AM_0
100
AcDbLine
 10
2206.614468222204
 20
1899.794123158699
 30
0.0
 11
2201.114468222204
 21
1899.794123158699
 31
0.0
  0
LINE
  5
C5FF
330
1F
100
AcDbEntity
  8
AM_0
100
AcDbLine
 10
2248.064468222201
 20
1831.703859280313
 30
0.0
 11
2206.614468222204
 21
1831.703859280313
 31
0.0
  0
LINE
  5
C600
330
1F
100
AcDbEntity
  8
AM_0
100
AcDbLine
 10
2248.164468222203
 20
1831.142762280314
 30
0.0
 11
2248.164468222203
 21
1831.403859280314
 31
0.0
  0
LINE
  5
C601
330
1F
100
AcDbEntity
  8
AM_0
100
AcDbLine
 10
2248.164468222203
 20
1831.403859280314
 30
0.0
 11
2249.364468222204
 21
1831.403859280314
 31
0.0
  0
LINE
  5
C602
330
1F
100
AcDbEntity
  8
AM_0
100
AcDbLine
 10
2249.364468222204
 20
1831.403859280314
 30
0.0
 11
2249.364468222204
 21
1831.142762280314
 31
0.0
  0
LINE
  5
C60D
330
1F
100
AcDbEntity
  8
AM_7
 48
0.5
100
AcDbLine
 10
2183.614468222204
 20
1830.856362280315
 30
0.0
 11
2183.614468222204
 21
1820.785560280314
 31
0.0
  0
LINE
  5
C60F
330
1F
100
AcDbEntity
  8
AM_0
100
AcDbLine
 10
2247.964468222202
 20
1910.144123158699
 30
0.0
 11
2250.864468222204
 21
1910.144123158699
 31
0.0
  0
LINE
  5
C610
330
1F
100
AcDbEntity
  8
AM_0
100
AcDbLine
 10
2249.464468222202
 20
1907.544123158699
 30
0.0
 11
2249.464468222202
 21
1901.044123158699
 31
0.0
  0
LINE
  5
C611
330
1F
100
AcDbEntity
  8
AM_0
100
AcDbLine
 10
2248.064468222201
 20
1901.044123158699
 30
0.0
 11
2248.064468222201
 21
1904.294123158699
 31
0.0
  0
LINE
  5
C612
330
1F
100
AcDbEntity
  8
AM_0
100
AcDbLine
 10
2248.064468222201
 20
1901.044123158699
 30
0.0
 11
2249.464468222202
 21
1901.044123158699
 31
0.0
  0
LINE
  5
C613
330
1F
100
AcDbEntity
  8
AM_0
100
AcDbLine
 10
2248.064468222201
 20
1901.544123158699
 30
0.0
 11
2249.464468222202
 21
1901.544123158699
 31
0.0
  0
LINE
  5
C614
330
1F
100
AcDbEntity
  8
AM_0
100
AcDbLine
 10
2187.114468222204
 20
1830.103859280314
 30
0.0
 11
2200.614468222204
 21
1830.103859280314
 31
0.0
  0
ARC
  5
C615
330
1F
100
AcDbEntity
  8
AM_0
100
AcDbCircle
 10
2187.114468222204
 20
1829.603859280314
 30
0.0
 40
0.5
100
AcDbArc
 50
90.0
 51
180.0
  0
ARC
  5
C616
330
1F
100
AcDbEntity
  8
AM_0
100
AcDbCircle
 10
2200.614468222204
 20
1829.603859280314
 30
0.0
 40
0.5
100
AcDbArc
 50
0.0
 51
90.0
  0
LINE
  5
C61A
330
1F
100
AcDbEntity
  8
AM_7
100
AcDbLine
 10
2067.133226226968
 20
1928.294123158699
 30
0.0
 11
2067.133226226968
 21
1880.294123158699
 31
0.0
1001
GENIUS_GENOBJ-N-CEN_13
1002
{
1000
OWNER
1000
GEN
1002
}
1001
GENIUS_GENODEF_13
1002
{
1000
HIER
1070
     0
1002
}
1002
{
1000
MANEDIT
1070
     0
1002
}
1002
{
1000
NOSEL
1070
     0
1002
}
1002
{
1000
BEHIND
1070
     0
1002
}
1002
{
1000
OTHER
1070
     0
1002
}
1002
{
1000
REACTOR
1002
}
1001
GENIUS_GENCEN_19
1002
{
1040
4.0
1002
}
  0
DIMENSION
  5
C61B
330
1F
100
AcDbEntity
  8
AM_5
100
AcDbDimension
  2
*D5
 10
2313.892283505244
 20
1934.294123158699
 30
0.0
 11
2319.792283505244
 21
1937.394123158699
 31
0.0
 70
    32
 71
     5
 42
2.400000000001455
  3
SYS$0
100
AcDbAlignedDimension
 13
2311.492283505242
 23
1924.294123158699
 33
0.0
 14
2313.892283505244
 24
1924.294123158699
 34
0.0
100
AcDbRotatedDimension
1001
ACAD
1000
DSTYLE
1002
{
1070
    47
1040
0.2
1070
    48
1040
0.2
1070
   271
1070
     1
1002
}
1001
ACAD_DSTYLE_DIMINSPECT
1070
   396
1000
100%
1070
   395
1000

1070
   394
1070
    33
1070
   393
1070
     0
  0
DIMENSION
  5
C61C
330
1F
100
AcDbEntity
  8
AM_5
100
AcDbDimension
  2
*D6
 10
2302.092283505244
 20
1954.464397566472
 30
0.0
 11
2308.092283505244
 21
1954.464397566472
 31
0.0
 70
   160
  1
（<>）
 71
     5
 42
11.79999999999927
  3
SYS$0
100
AcDbAlignedDimension
 13
2313.892283505244
 23
1924.294123158699
 33
0.0
 14
2302.092283505244
 24
1904.294123158699
 34
0.0
100
AcDbRotatedDimension
1001
ACAD_DSTYLE_DIMINSPECT
1070
   396
1000
100%
1070
   395
1000

1070
   394
1070
    33
1070
   393
1070
     0
1001
ACAD
1000
DSTYLE
1002
{
1070
    47
1040
0.2
1070
    48
1040
0.2
1070
   271
1070
     0
1002
}
  0
DIMENSION
  5
C61D
330
1F
100
AcDbEntity
  8
AM_5
100
AcDbDimension
  2
*D7
 10
2260.864468222204
 20
1890.294123158699
 30
0.0
 11
2260.864468222204
 21
1904.294123158699
 31
0.0
 70
   160
  1
<>
 71
     5
 42
28.0
  3
SYS$0
100
AcDbAlignedDimension
 13
2240.364468222204
 23
1918.294123158699
 33
0.0
 14
2240.364468222204
 24
1890.294123158699
 34
0.0
 50
90.0
100
AcDbRotatedDimension
1001
ACAD
1000
DSTYLE
1002
{
1070
   286
1070
     0
1070
   284
1070
     8
1070
   274
1070
     2
1070
   272
1070
     1
1070
    47
1040
0.2
1070
    48
1040
0.2
1002
}
1001
ACAD_DSTYLE_DIMINSPECT
1070
   396
1000
100%
1070
   395
1000

1070
   394
1070
    33
1070
   393
1070
     0
  0
DIMENSION
  5
C61E
330
1F
100
AcDbEntity
  8
AM_5
100
AcDbDimension
  2
*D8
 10
2270.911377338195
 20
1884.294123158699
 30
0.0
 11
2270.911377338194
 21
1904.294123158702
 31
0.0
 70
   160
 71
     5
 42
40.0
  3
SYS$0
100
AcDbAlignedDimension
 13
2247.864468222204
 23
1924.294123158699
 33
0.0
 14
2247.864468222204
 24
1884.294123158699
 34
0.0
 50
90.0
100
AcDbRotatedDimension
1001
ACAD
1000
DSTYLE
1002
{
1070
    47
1040
0.2
1070
    48
1040
0.2
1070
   271
1070
     1
1002
}
1001
ACAD_DSTYLE_DIMINSPECT
1070
   396
1000
100%
1070
   395
1000

1070
   394
1070
    33
1070
   393
1070
     0
  0
DIMENSION
  5
C61F
330
1F
100
AcDbEntity
  8
AM_5
100
AcDbDimension
  2
*D9
 10
2183.614468222204
 20
1869.269512305686
 30
0.0
 11
2172.364468222204
 21
1869.269512305686
 31
0.0
 70
   160
  1
（<>）
 71
     5
 42
22.75
  3
SYS$0
100
AcDbAlignedDimension
 13
2160.864468222204
 23
1887.294123158699
 33
0.0
 14
2183.614468222204
 24
1875.565315158699
 34
0.0
100
AcDbRotatedDimension
1001
ACAD_DSTYLE_DIMINSPECT
1070
   396
1000
100%
1070
   395
1000

1070
   394
1070
    33
1070
   393
1070
     0
1001
ACAD
1000
DSTYLE
1002
{
1070
    47
1040
0.2
1070
    48
1040
0.2
1070
   271
1070
     0
1002
}
  0
DIMENSION
  5
C620
330
1F
100
AcDbEntity
  8
AM_5
100
AcDbDimension
  2
*D10
 10
2235.864468222204
 20
1934.294123158699
 30
0.0
 11
2205.864468222204
 21
1934.294123158699
 31
0.0
 70
   160
  1
<>
 71
     5
 42
60.0
  3
SYS$0
100
AcDbAlignedDimension
 13
2175.864468222204
 23
1922.794123158699
 33
0.0
 14
2235.864468222204
 24
1922.794123158699
 34
0.0
100
AcDbRotatedDimension
1001
ACAD
1000
DSTYLE
1002
{
1070
   286
1070
     0
1070
   284
1070
     8
1070
   274
1070
     2
1070
   272
1070
     1
1070
    47
1040
0.2
1070
    48
1040
0.2
1002
}
1001
ACAD_DSTYLE_DIMINSPECT
1070
   396
1000
100%
1070
   395
1000

1070
   394
1070
    33
1070
   393
1070
     0
  0
DIMENSION
  5
C621
330
1F
100
AcDbEntity
  8
AM_5
100
AcDbDimension
  2
*D11
 10
2250.864468222204
 20
1944.30746114724
 30
0.0
 11
2205.864468222204
 21
1944.30746114724
 31
0.0
 70
   160
 71
     5
 42
90.0
  3
SYS$0
100
AcDbAlignedDimension
 13
2160.864468222204
 23
1921.294123158699
 33
0.0
 14
2250.864468222204
 24
1921.294123158699
 34
0.0
100
AcDbRotatedDimension
1001
ACAD
1000
DSTYLE
1002
{
1070
    47
1040
0.2
1070
    48
1040
0.2
1070
   271
1070
     1
1002
}
1001
ACAD_DSTYLE_DIMINSPECT
1070
   396
1000
100%
1070
   395
1000

1070
   394
1070
    33
1070
   393
1070
     0
  0
DIMENSION
  5
C622
330
1F
100
AcDbEntity
  8
AM_5
100
AcDbDimension
  2
*D12
 10
2140.814468222204
 20
1944.30746114724
 30
0.0
 11
2150.839468222204
 21
1944.30746114724
 31
0.0
 70
   160
  1
ストローク：<>
 71
     5
 42
20.04999999999973
  3
SYS$0
100
AcDbAlignedDimension
 13
2160.864468222204
 23
1921.294123158699
 33
0.0
 14
2140.814468222204
 24
1906.794123158699
 34
0.0
100
AcDbRotatedDimension
1001
ACAD_DSTYLE_DIMINSPECT
1070
   396
1000
100%
1070
   395
1000

1070
   394
1070
    33
1070
   393
1070
     0
1001
ACAD
1000
DSTYLE
1002
{
1070
    47
1040
0.2
1070
    48
1040
0.2
1070
   271
1070
     0
1002
}
  0
DIMENSION
  5
C623
330
1F
100
AcDbEntity
  8
AM_5
100
AcDbDimension
  2
*D13
 10
2130.935080881899
 20
1904.294123158699
 30
0.0
 11
2127.835080881899
 21
1891.044123158699
 31
0.0
 70
    32
  1
（25.5）
 71
     5
 42
26.5
  3
SYS$0
100
AcDbAlignedDimension
 13
2180.614468222204
 23
1877.794123158699
 33
0.0
 14
2138.119542222204
 24
1904.294123158699
 34
0.0
 50
90.0
100
AcDbRotatedDimension
1001
ACAD
1000
DSTYLE
1002
{
1070
    47
1040
0.2
1070
    48
1040
0.2
1070
   271
1070
     1
1002
}
1001
ACAD_DSTYLE_DIMINSPECT
1070
   396
1000
100%
1070
   395
1000

1070
   394
1070
    33
1070
   393
1070
     0
  0
DIMENSION
  5
C624
330
1F
100
AcDbEntity
  8
AM_5
100
AcDbDimension
  2
*D14
 10
2130.814468222204
 20
1821.303859280314
 30
0.0
 11
2130.814468222204
 21
1825.803859280314
 31
0.0
 70
   160
  1
%%c<>
 71
     5
 42
9.0
  3
SYS$0
100
AcDbAlignedDimension
 13
2145.814468222204
 23
1830.303859280314
 33
0.0
 14
2145.814468222204
 24
1821.303859280314
 34
0.0
 50
90.0
100
AcDbRotatedDimension
1001
ACAD
1000
DSTYLE
1002
{
1070
    47
1040
0.2
1070
    48
1040
0.2
1070
   271
1070
     1
1002
}
1001
ACAD_DSTYLE_DIMINSPECT
1070
   396
1000
100%
1070
   395
1000

1070
   394
1070
    33
1070
   393
1070
     0
  0
DIMENSION
  5
C629
330
1F
100
AcDbEntity
  8
AM_5
100
AcDbDimension
  2
*D15
 10
2047.133226226968
 20
1890.294123158699
 30
0.0
 11
2047.133226226968
 21
1904.294123158699
 31
0.0
 70
   160
  1
<>
 71
     5
 42
28.0
  3
SYS$0
100
AcDbAlignedDimension
 13
2063.138631226968
 23
1918.294123158699
 33
0.0
 14
2063.138631226968
 24
1890.294123158699
 34
0.0
 50
90.0
100
AcDbRotatedDimension
1001
ACAD
1000
DSTYLE
1002
{
1070
   286
1070
     0
1070
   284
1070
     8
1070
   274
1070
     2
1070
   272
1070
     1
1070
    47
1040
0.2
1070
    48
1040
0.2
1002
}
1001
ACAD_DSTYLE_DIMINSPECT
1070
   396
1000
100%
1070
   395
1000

1070
   394
1070
    33
1070
   393
1070
     0
  0
DIMENSION
  5
C62A
330
1F
100
AcDbEntity
  8
AM_5
100
AcDbDimension
  2
*D16
 10
2077.133226226968
 20
1934.294123158699
 30
0.0
 11
2067.133226226968
 21
1934.294123158699
 31
0.0
 70
   160
 71
     5
 42
20.0
  3
SYS$0
100
AcDbAlignedDimension
 13
2057.133226226968
 23
1921.294123158699
 33
0.0
 14
2077.133226226968
 24
1921.294123158699
 34
0.0
100
AcDbRotatedDimension
1001
ACAD
1000
DSTYLE
1002
{
1070
    47
1040
0.2
1070
    48
1040
0.2
1070
   271
1070
     1
1002
}
1001
ACAD_DSTYLE_DIMINSPECT
1070
   396
1000
100%
1070
   395
1000

1070
   394
1070
    33
1070
   393
1070
     0
  0
DIMENSION
  5
C62B
330
1F
100
AcDbEntity
  8
AM_5
100
AcDbDimension
  2
*D17
 10
1999.883515331101
 20
1934.294123158699
 30
0.0
 11
1993.983515331101
 21
1937.394123158699
 31
0.0
 70
    32
 71
     5
 42
2.400000000001455
  3
SYS$0
100
AcDbAlignedDimension
 13
2002.283515331102
 23
1924.294123158699
 33
0.0
 14
1999.883515331101
 24
1924.294123158699
 34
0.0
100
AcDbRotatedDimension
1001
ACAD
1000
DSTYLE
1002
{
1070
    47
1040
0.2
1070
    48
1040
0.2
1070
   271
1070
     1
1002
}
1001
ACAD_DSTYLE_DIMINSPECT
1070
   396
1000
100%
1070
   395
1000

1070
   394
1070
    33
1070
   393
1070
     0
  0
DIMENSION
  5
C62C
330
1F
100
AcDbEntity
  8
AM_5
100
AcDbDimension
  2
*D18
 10
1999.883515331101
 20
1944.294123158699
 30
0.0
 11
2006.133515331103
 21
1944.294123158699
 31
0.0
 70
   160
  1
<>
 71
     5
 42
12.50000000000364
  3
SYS$0
100
AcDbAlignedDimension
 13
2012.383515331105
 23
1904.294123158699
 33
0.0
 14
1999.883515331101
 24
1924.294123158699
 34
0.0
100
AcDbRotatedDimension
1001
ACAD
1000
DSTYLE
1002
{
1070
    47
1040
0.2
1070
    48
1040
0.2
1070
   271
1070
     1
1002
}
1001
ACAD_DSTYLE_DIMINSPECT
1070
   396
1000
100%
1070
   395
1000

1070
   394
1070
    33
1070
   393
1070
     0
  0
DIMENSION
  5
C632
330
1F
100
AcDbEntity
  8
AM_5
100
AcDbDimension
  2
*D19
 10
2160.864468222204
 20
1934.294123158679
 30
0.0
 11
2168.364468222204
 21
1937.394123158679
 31
0.0
 70
    32
 71
     5
 42
15.0
  3
SYS$0
100
AcDbAlignedDimension
 13
2175.864468222204
 23
1922.794123158699
 33
0.0
 14
2160.864468222204
 24
1921.294123158699
 34
0.0
100
AcDbRotatedDimension
1001
ACAD
1000
DSTYLE
1002
{
1070
    47
1040
0.2
1070
    48
1040
0.2
1070
   271
1070
     1
1002
}
1001
ACAD_DSTYLE_DIMINSPECT
1070
   396
1000
100%
1070
   395
1000

1070
   394
1070
    33
1070
   393
1070
     0
  0
DIMENSION
  5
C640
330
1F
100
AcDbEntity
  8
AM_5
100
AcDbDimension
  2
*D20
 10
2313.892283505244
 20
1944.464397566462
 30
0.0
 11
2318.73895017191
 21
1947.564397566462
 31
0.0
 70
    32
 71
     5
 42
5.700000000000727
  3
SYS$0
100
AcDbAlignedDimension
 13
2308.192283505243
 23
1910.812655158699
 33
0.0
 14
2313.892283505244
 24
1924.294123158699
 34
0.0
100
AcDbRotatedDimension
1001
ACAD
1000
DSTYLE
1002
{
1070
    47
1040
0.2
1070
    48
1040
0.2
1070
   271
1070
     1
1002
}
1001
ACAD_DSTYLE_DIMINSPECT
1070
   396
1000
100%
1070
   395
1000

1070
   394
1070
    33
1070
   393
1070
     0
  0
DIMENSION
  5
C642
330
1F
100
AcDbEntity
  8
AM_5
100
AcDbDimension
  2
*D21
 10
2311.942283505243
 20
1869.118687296525
 30
0.0
 11
2317.802283505244
 21
1869.118687296525
 31
0.0
 70
   160
  1
%%c<>
 71
     5
 42
7.50615649953761
  3
SYS$0
100
AcDbAlignedDimension
 13
2304.436127005705
 23
1879.300279658238
 33
0.0
 14
2311.942283505243
 24
1879.300279658238
 34
0.0
100
AcDbRotatedDimension
1001
ACAD
1000
DSTYLE
1002
{
1070
    47
1040
0.2
1070
    48
1040
0.2
1070
   271
1070
     1
1002
}
1001
ACAD_DSTYLE_DIMINSPECT
1070
   396
1000
100%
1070
   395
1000

1070
   394
1070
    33
1070
   393
1070
     0
  0
DIMENSION
  5
C643
330
1F
100
AcDbEntity
  8
AM_5
100
AcDbDimension
  2
*D22
 10
2037.133226226968
 20
1884.294123158699
 30
0.0
 11
2037.133226226968
 21
1904.294123158699
 31
0.0
 70
   160
 71
     5
 42
40.0
  3
SYS$0
100
AcDbAlignedDimension
 13
2060.133226226968
 23
1924.294123158699
 33
0.0
 14
2060.133226226968
 24
1884.294123158699
 34
0.0
 50
90.0
100
AcDbRotatedDimension
1001
ACAD
1000
DSTYLE
1002
{
1070
    47
1040
0.2
1070
    48
1040
0.2
1070
   271
1070
     1
1002
}
1001
ACAD_DSTYLE_DIMINSPECT
1070
   396
1000
100%
1070
   395
1000

1070
   394
1070
    33
1070
   393
1070
     0
  0
LINE
  5
C66C
330
1F
100
AcDbEntity
  8
AM_0
100
AcDbLine
 10
2186.614468222204
 20
1908.794123158699
 30
0.0
 11
2186.364468101245
 21
1908.794123037755
 31
0.0
  0
LINE
  5
C66D
330
1F
100
AcDbEntity
  8
AM_0
100
AcDbLine
 10
2181.114468222204
 20
1908.794123158699
 30
0.0
 11
2181.364468222207
 21
1908.794123037752
 31
0.0
  0
ARC
  5
C66E
330
1F
100
AcDbEntity
  8
AM_0
100
AcDbCircle
 10
2183.864468222211
 20
1895.569494828958
 30
0.0
 40
4.499998047883135
100
AcDbArc
 50
69.85210457993209
 51
110.1478954200679
  0
ARC
  5
C66F
330
1F
100
AcDbEntity
  8
AM_0
100
AcDbCircle
 10
2183.864468161722
 20
1915.075265533027
 30
0.0
 40
6.76038096141946
100
AcDbArc
 50
248.296615815205
 51
291.7033841847949
  0
LINE
  5
C670
330
1F
100
AcDbEntity
  8
AM_0
100
AcDbLine
 10
2186.614468222204
 20
1899.7941231587
 30
0.0
 11
2182.31446822119
 21
1899.794122910558
 31
0.0
  0
LINE
  5
C671
330
1F
100
AcDbEntity
  8
AM_0
100
AcDbLine
 10
2181.114468222204
 20
1899.794123158701
 30
0.0
 11
2182.31446822119
 21
1899.794122910558
 31
0.0
  0
LINE
  5
C673
330
1F
100
AcDbEntity
  8
AM_0
100
AcDbLine
 10
2304.021505521218
 20
1906.794123158699
 30
0.0
 11
2304.260911478403
 21
1906.794123158699
 31
0.0
  0
LINE
  5
C674
330
1F
100
AcDbEntity
  8
AM_0
100
AcDbLine
 10
2312.692283505243
 20
1899.844123158699
 30
0.0
 11
2307.942283505243
 21
1899.844123158699
 31
0.0
  0
LINE
  5
C675
330
1F
100
AcDbEntity
  8
AM_0
100
AcDbLine
 10
2307.942283505243
 20
1908.7441231587
 30
0.0
 11
2312.692283505243
 21
1908.7441231587
 31
0.0
  0
LINE
  5
C676
330
1F
100
AcDbEntity
  8
AM_0
100
AcDbLine
 10
2304.021505521218
 20
1901.794123158699
 30
0.0
 11
2304.260911478403
 21
1901.794123158699
 31
0.0
  0
ARC
  5
C67A
330
1F
100
AcDbEntity
  8
AM_0
100
AcDbCircle
 10
2307.942283505243
 20
1904.2941231587
 30
0.0
 40
4.45
100
AcDbArc
 50
86.77944036086801
 51
145.8197842754437
  0
ARC
  5
C67B
330
1F
100
AcDbEntity
  8
AM_0
100
AcDbCircle
 10
2307.942283505243
 20
1904.2941231587
 30
0.0
 40
4.45
100
AcDbArc
 50
214.180215724585
 51
273.220559639132
  0
LINE
  5
C6F9
330
1F
100
AcDbEntity
  8
AM_0
100
AcDbLine
 10
2248.164468222203
 20
1907.544123158699
 30
0.0
 11
2249.464468222202
 21
1907.544123158699
 31
0.0
  0
LINE
  5
C6FA
330
1F
100
AcDbEntity
  8
AM_0
100
AcDbLine
 10
2248.164468222203
 20
1907.044123158699
 30
0.0
 11
2249.464468222202
 21
1907.044123158699
 31
0.0
  0
LINE
  5
CA36
330
1F
100
AcDbEntity
  8
AM_0
100
AcDbLine
 10
1974.753177379658
 20
2036.983988137407
 30
0.0
 11
1974.753177379658
 21
1996.983988137406
 31
0.0
  0
LINE
  5
CA37
330
1F
100
AcDbEntity
  8
AM_4
100
AcDbLine
 10
1954.753177379657
 20
2028.983988137407
 30
0.0
 11
2052.753177379658
 21
2028.983988137407
 31
0.0
  0
LINE
  5
CA38
330
1F
100
AcDbEntity
  8
AM_4
100
AcDbLine
 10
1954.753177379657
 20
2020.983988137407
 30
0.0
 11
2052.753177379658
 21
2020.983988137407
 31
0.0
  0
LINE
  5
CA39
330
1F
100
AcDbEntity
  8
AM_4
100
AcDbLine
 10
1954.753177379657
 20
2012.983988137407
 30
0.0
 11
2052.753177379658
 21
2012.983988137407
 31
0.0
  0
LINE
  5
CA3A
330
1F
100
AcDbEntity
  8
AM_4
100
AcDbLine
 10
1954.753177379657
 20
2004.983988137407
 30
0.0
 11
2052.753177379658
 21
2004.983988137407
 31
0.0
  0
LINE
  5
CA3B
330
1F
100
AcDbEntity
  8
AM_0
100
AcDbLine
 10
1954.753177379657
 20
2036.983988137407
 30
0.0
 11
2052.753177379658
 21
2036.983988137407
 31
0.0
  0
LINE
  5
CA3C
330
1F
100
AcDbEntity
  8
AM_0
100
AcDbLine
 10
2052.753177379658
 20
2036.983988137407
 30
0.0
 11
2052.753177379658
 21
1996.983988137406
 31
0.0
  0
TEXT
  5
CA3D
330
1F
100
AcDbEntity
  8
AM_6
100
AcDbText
 10
1960.410177379658
 20
2031.383988137406
 30
0.0
 40
3.2
  1
品　名
 41
0.85537027
100
AcDbText
  0
TEXT
  5
CA3E
330
1F
100
AcDbEntity
  8
AM_6
100
AcDbText
 10
1960.410177379658
 20
2023.383988137407
 30
0.0
 40
3.2
  1
品　番
 41
0.85537027
100
AcDbText
  0
TEXT
  5
CA3F
330
1F
100
AcDbEntity
  8
AM_6
100
AcDbText
 10
1960.410177379658
 20
2015.383988137406
 30
0.0
 40
3.2
  1
材　質
 41
0.85537027
100
AcDbText
  0
TEXT
  5
CA40
330
1F
100
AcDbEntity
  8
AM_6
100
AcDbText
 10
1960.410177379658
 20
2007.383988137407
 30
0.0
 40
3.2
  1
仕上げ
 41
0.85537027
100
AcDbText
  0
TEXT
  5
CA41
330
1F
100
AcDbEntity
  8
AM_6
100
AcDbText
 10
1977.610177379657
 20
2031.383988137406
 30
0.0
 40
3.2
  1
丸落し
 41
0.84306961
100
AcDbText
  0
TEXT
  5
CA42
330
1F
100
AcDbEntity
  8
AM_6
100
AcDbText
 10
1977.610177379657
 20
2023.383988137407
 30
0.0
 40
3.2
  1
DL-153S-1
 41
0.84741102
100
AcDbText
  0
TEXT
  5
CA43
330
1F
100
AcDbEntity
  8
AM_6
100
AcDbText
 10
1977.610177379657
 20
2015.383988137406
 30
0.0
 40
3.2
  1
ステンレス
 41
0.84634979
100
AcDbText
  0
TEXT
  5
CA44
330
1F
100
AcDbEntity
  8
AM_6
100
AcDbText
 10
1977.610177379657
 20
2007.383988137407
 30
0.0
 40
3.2
  1
電解研磨
 41
0.84350122
100
AcDbText
  0
LINE
  5
CA45
330
1F
100
AcDbEntity
  8
AM_0
100
AcDbLine
 10
1954.753177379657
 20
1996.983988137406
 30
0.0
 11
2052.753177379658
 21
1996.983988137406
 31
0.0
  0
MTEXT
  5
CA46
330
1F
100
AcDbEntity
  8
AM_6
100
AcDbMText
 10
1964.753177379657
 20
2000.983988137407
 30
0.0
 40
3.2
 41
20.0
 71
     5
 72
     5
  1
セット部品
 73
     1
 44
1.0
1001
ACAD
1000
MTEXTBEGIN
1070
    73
1070
     1
1070
    44
1040
1.0
1070
    74
1070
     0
1000
MTEXTEND
  0
MTEXT
  5
CA47
330
1F
100
AcDbEntity
  8
AM_6
100
AcDbMText
 10
1974.753177379658
 20
2000.983988137407
 30
0.0
 40
3.2
 41
78.0
 71
     4
 72
     5
  1
　受け
 73
     1
 44
1.0
1001
ACAD
1000
MTEXTBEGIN
1070
    73
1070
     1
1070
    44
1040
1.0
1070
    74
1070
     0
1000
MTEXTEND
  0
TEXT
  5
CBE7
330
1F
100
AcDbEntity
  8
AM_6
 60
     1
100
AcDbText
 10
2351.753177379658
 20
1756.983988137407
 30
0.0
 40
2.5
  1
!GENTITLE-INSERT
100
AcDbText
  0
TEXT
  5
CBE8
330
1F
100
AcDbEntity
  8
AM_6
 60
     1
100
AcDbText
 10
1943.253177379657
 20
1748.483988137406
 30
0.0
 40
2.5
  1
!GENTITLE-LL
100
AcDbText
  0
TEXT
  5
CBE9
330
1F
100
AcDbEntity
  8
AM_6
 60
     1
100
AcDbText
 10
2363.253177379658
 20
2045.483988137407
 30
0.0
 40
2.5
  1
!GENTITLE-RU
100
AcDbText
  0
TEXT
  5
CBEA
330
1F
100
AcDbEntity
  8
AM_6
 60
     1
100
AcDbText
 10
2363.253177379658
 20
2045.483988137407
 30
0.0
 40
2.5
  1
!GENTITLE-MAX
100
AcDbText
  0
LINE
  5
CBEB
330
1F
100
AcDbEntity
  8
size
100
AcDbLine
 10
1943.253177379657
 20
1748.483988137406
 30
0.0
 11
2363.253177379658
 21
1748.483988137406
 31
0.0
1001
GENIUS_GENREC_14
1002
{
1000
PYDIR
1011
1943.253177379657
1021
2045.483988137407
1031
0.0
1002
}
1002
{
1000
PXDIR
1011
2363.253177379658
1021
1748.483988137406
1031
0.0
1002
}
1002
{
1000
PORI
1011
1943.253177379657
1021
1748.483988137406
1031
0.0
1002
}
1002
{
1000
PINS
1011
2153.253177379658
1021
1896.983988137407
1031
0.0
1002
}
1002
{
1000
HVAL
1000
297
1002
}
1002
{
1000
H
1070
     2
1002
}
1002
{
1000
WVAL
1000
420
1002
}
1002
{
1000
W
1070
     2
1002
}
1002
{
1000
C
1070
     4
1002
}
1001
GENIUS_GENOBJ-N-REC_13
1002
{
1000
OWNER
1000
GEN
1002
}
1001
GENIUS_GENODEF_13
1002
{
1000
HIER
1070
     0
1002
}
1002
{
1000
MANEDIT
1070
     0
1002
}
1002
{
1000
NOSEL
1070
     0
1002
}
1002
{
1000
BEHIND
1070
     0
1002
}
1002
{
1000
OTHER
1070
     0
1002
}
1002
{
1000
REACTOR
1002
}
  0
LINE
  5
CBEC
330
1F
100
AcDbEntity
  8
size
100
AcDbLine
 10
2363.253177379658
 20
1748.483988137406
 30
0.0
 11
2363.253177379658
 21
2045.483988137407
 31
0.0
1001
GENIUS_GENREC_14
1002
{
1000
PYDIR
1011
1943.253177379657
1021
2045.483988137407
1031
0.0
1002
}
1002
{
1000
PXDIR
1011
2363.253177379658
1021
1748.483988137406
1031
0.0
1002
}
1002
{
1000
PORI
1011
1943.253177379657
1021
1748.483988137406
1031
0.0
1002
}
1002
{
1000
PINS
1011
2153.253177379658
1021
1896.983988137407
1031
0.0
1002
}
1002
{
1000
HVAL
1000
297
1002
}
1002
{
1000
H
1070
     2
1002
}
1002
{
1000
WVAL
1000
420
1002
}
1002
{
1000
W
1070
     2
1002
}
1002
{
1000
C
1070
     4
1002
}
1001
GENIUS_GENOBJ-N-REC_13
1002
{
1000
OWNER
1000
GEN
1002
}
1001
GENIUS_GENODEF_13
1002
{
1000
HIER
1070
     0
1002
}
1002
{
1000
MANEDIT
1070
     0
1002
}
1002
{
1000
NOSEL
1070
     0
1002
}
1002
{
1000
BEHIND
1070
     0
1002
}
1002
{
1000
OTHER
1070
     0
1002
}
1002
{
1000
REACTOR
1002
}
  0
LINE
  5
CBED
330
1F
100
AcDbEntity
  8
size
100
AcDbLine
 10
2363.253177379658
 20
2045.483988137407
 30
0.0
 11
1943.253177379657
 21
2045.483988137407
 31
0.0
1001
GENIUS_GENREC_14
1002
{
1000
PYDIR
1011
1943.253177379657
1021
2045.483988137407
1031
0.0
1002
}
1002
{
1000
PXDIR
1011
2363.253177379658
1021
1748.483988137406
1031
0.0
1002
}
1002
{
1000
PORI
1011
1943.253177379657
1021
1748.483988137406
1031
0.0
1002
}
1002
{
1000
PINS
1011
2153.253177379658
1021
1896.983988137407
1031
0.0
1002
}
1002
{
1000
HVAL
1000
297
1002
}
1002
{
1000
H
1070
     2
1002
}
1002
{
1000
WVAL
1000
420
1002
}
1002
{
1000
W
1070
     2
1002
}
1002
{
1000
C
1070
     4
1002
}
1001
GENIUS_GENOBJ-N-REC_13
1002
{
1000
OWNER
1000
GEN
1002
}
1001
GENIUS_GENODEF_13
1002
{
1000
HIER
1070
     0
1002
}
1002
{
1000
MANEDIT
1070
     0
1002
}
1002
{
1000
NOSEL
1070
     0
1002
}
1002
{
1000
BEHIND
1070
     0
1002
}
1002
{
1000
OTHER
1070
     0
1002
}
1002
{
1000
REACTOR
1002
}
  0
LINE
  5
CBEE
330
1F
100
AcDbEntity
  8
size
100
AcDbLine
 10
1943.253177379657
 20
2045.483988137407
 30
0.0
 11
1943.253177379657
 21
1748.483988137406
 31
0.0
1001
GENIUS_GENREC_14
1002
{
1000
PYDIR
1011
1943.253177379657
1021
2045.483988137407
1031
0.0
1002
}
1002
{
1000
PXDIR
1011
2363.253177379658
1021
1748.483988137406
1031
0.0
1002
}
1002
{
1000
PORI
1011
1943.253177379657
1021
1748.483988137406
1031
0.0
1002
}
1002
{
1000
PINS
1011
2153.253177379658
1021
1896.983988137407
1031
0.0
1002
}
1002
{
1000
HVAL
1000
297
1002
}
1002
{
1000
H
1070
     2
1002
}
1002
{
1000
WVAL
1000
420
1002
}
1002
{
1000
W
1070
     2
1002
}
1002
{
1000
C
1070
     4
1002
}
1001
GENIUS_GENOBJ-N-REC_13
1002
{
1000
OWNER
1000
GEN
1002
}
1001
GENIUS_GENODEF_13
1002
{
1000
HIER
1070
     0
1002
}
1002
{
1000
MANEDIT
1070
     0
1002
}
1002
{
1000
NOSEL
1070
     0
1002
}
1002
{
1000
BEHIND
1070
     0
1002
}
1002
{
1000
OTHER
1070
     0
1002
}
1002
{
1000
REACTOR
1002
}
  0
LINE
  5
CBEF
330
1F
100
AcDbEntity
  8
waku
100
AcDbLine
 10
2351.753177379658
 20
1756.983988137407
 30
0.0
 11
2351.753177379658
 21
2036.983988137407
 31
0.0
1001
GENIUS_GENREC_14
1002
{
1000
PYDIR
1011
1943.253177379657
1021
2045.483988137407
1031
0.0
1002
}
1002
{
1000
PXDIR
1011
2363.253177379658
1021
1748.483988137406
1031
0.0
1002
}
1002
{
1000
PORI
1011
1943.253177379657
1021
1748.483988137406
1031
0.0
1002
}
1002
{
1000
PINS
1011
2153.253177379658
1021
1896.983988137407
1031
0.0
1002
}
1002
{
1000
HVAL
1000
297
1002
}
1002
{
1000
H
1070
     2
1002
}
1002
{
1000
WVAL
1000
420
1002
}
1002
{
1000
W
1070
     2
1002
}
1002
{
1000
C
1070
     4
1002
}
1001
GENIUS_GENOBJ-N-REC_13
1002
{
1000
OWNER
1000
GEN
1002
}
1001
GENIUS_GENODEF_13
1002
{
1000
HIER
1070
     0
1002
}
1002
{
1000
MANEDIT
1070
     0
1002
}
1002
{
1000
NOSEL
1070
     0
1002
}
1002
{
1000
BEHIND
1070
     0
1002
}
1002
{
1000
OTHER
1070
     0
1002
}
1002
{
1000
REACTOR
1002
}
  0
LINE
  5
CBF0
330
1F
100
AcDbEntity
  8
waku
100
AcDbLine
 10
1954.753177379657
 20
2036.983988137407
 30
0.0
 11
1954.753177379657
 21
1756.983988137407
 31
0.0
1001
GENIUS_GENREC_14
1002
{
1000
PYDIR
1011
1943.253177379657
1021
2045.483988137407
1031
0.0
1002
}
1002
{
1000
PXDIR
1011
2363.253177379658
1021
1748.483988137406
1031
0.0
1002
}
1002
{
1000
PORI
1011
1943.253177379657
1021
1748.483988137406
1031
0.0
1002
}
1002
{
1000
PINS
1011
2153.253177379658
1021
1896.983988137407
1031
0.0
1002
}
1002
{
1000
HVAL
1000
297
1002
}
1002
{
1000
H
1070
     2
1002
}
1002
{
1000
WVAL
1000
420
1002
}
1002
{
1000
W
1070
     2
1002
}
1002
{
1000
C
1070
     4
1002
}
1001
GENIUS_GENOBJ-N-REC_13
1002
{
1000
OWNER
1000
GEN
1002
}
1001
GENIUS_GENODEF_13
1002
{
1000
HIER
1070
     0
1002
}
1002
{
1000
MANEDIT
1070
     0
1002
}
1002
{
1000
NOSEL
1070
     0
1002
}
1002
{
1000
BEHIND
1070
     0
1002
}
1002
{
1000
OTHER
1070
     0
1002
}
1002
{
1000
REACTOR
1002
}
  0
LINE
  5
CBF1
330
1F
100
AcDbEntity
  8
waku
100
AcDbLine
 10
2351.753177379658
 20
2036.983988137407
 30
0.0
 11
1954.753177379657
 21
2036.983988137407
 31
0.0
1001
GENIUS_GENREC_14
1002
{
1000
PYDIR
1011
1943.253177379657
1021
2045.483988137407
1031
0.0
1002
}
1002
{
1000
PXDIR
1011
2363.253177379658
1021
1748.483988137406
1031
0.0
1002
}
1002
{
1000
PORI
1011
1943.253177379657
1021
1748.483988137406
1031
0.0
1002
}
1002
{
1000
PINS
1011
2153.253177379658
1021
1896.983988137407
1031
0.0
1002
}
1002
{
1000
HVAL
1000
297
1002
}
1002
{
1000
H
1070
     2
1002
}
1002
{
1000
WVAL
1000
420
1002
}
1002
{
1000
W
1070
     2
1002
}
1002
{
1000
C
1070
     4
1002
}
1001
GENIUS_GENOBJ-N-REC_13
1002
{
1000
OWNER
1000
GEN
1002
}
1001
GENIUS_GENODEF_13
1002
{
1000
HIER
1070
     0
1002
}
1002
{
1000
MANEDIT
1070
     0
1002
}
1002
{
1000
NOSEL
1070
     0
1002
}
1002
{
1000
BEHIND
1070
     0
1002
}
1002
{
1000
OTHER
1070
     0
1002
}
1002
{
1000
REACTOR
1002
}
  0
TEXT
  5
CBF2
330
1F
100
AcDbEntity
  8
AM_6
 60
     1
100
AcDbText
 10
1943.253177379657
 20
1748.483988137406
 30
0.0
 40
2.5
  1
!GENTITLE-LL
100
AcDbText
  0
TEXT
  5
CBF3
330
1F
100
AcDbEntity
  8
AM_6
 60
     1
100
AcDbText
 10
2351.753177379658
 20
2036.983988137407
 30
0.0
 40
2.5
  1
!GENTITLE-RU
100
AcDbText
  0
TEXT
  5
CBF4
330
1F
100
AcDbEntity
  8
AM_6
 60
     1
100
AcDbText
 10
2363.253177379658
 20
2045.483988137407
 30
0.0
 40
2.5
  1
!GENTITLE-MAX
100
AcDbText
  0
TEXT
  5
CBF5
330
1F
100
AcDbEntity
  8
AM_6
 60
     1
100
AcDbText
 10
2351.753177379658
 20
1756.983988137407
 30
0.0
 40
2.5
  1
!GENTITLE-INSERT
100
AcDbText
  0
LINE
  5
CBF6
330
1F
100
AcDbEntity
  8
waku
100
AcDbLine
 10
1954.753177379657
 20
1756.983988137407
 30
0.0
 11
2351.753177379658
 21
1756.983988137407
 31
0.0
  0
LINE
  5
CC1A
330
1F
100
AcDbEntity
  8
AM_5
100
AcDbLine
 10
2262.199642782105
 20
1869.269512305685
 30
0.0
 11
2245.346309448768
 21
1869.269512305685
 31
0.0
  0
LINE
  5
CC1B
330
1F
100
AcDbEntity
  8
AM_5
100
AcDbLine
 10
2245.346309448768
 20
1869.269512305685
 30
0.0
 11
2237.755589406688
 21
1886.100835586209
 31
0.0
  0
MTEXT
  5
CC1D
330
1F
100
AcDbEntity
  8
AM_5
 62
     2
100
AcDbMText
 10
2254.522976115437
 20
1872.519512305686
 30
0.0
 40
3.5
 41
0.0
 71
     5
 72
     1
  1
4-\U+22055.2孔
 73
     1
 44
1.0
1001
ACAD
1000
MTEXTBEGIN
1070
    73
1070
     1
1070
    44
1040
1.0
1070
    74
1070
     0
1000
MTEXTEND
  0
LINE
  5
CC1E
330
1F
100
AcDbEntity
  8
AM_5
100
AcDbLine
 10
2234.795573639669
 20
1892.664242221409
 30
0.0
 11
2236.933362804738
 21
1887.924004095987
 31
0.0
  0
INSERT
  5
CC1F
330
1F
100
AcDbEntity
  8
AM_5
100
AcDbBlockReference
  2
GENDOT
 10
2234.795573639669
 20
1892.664242221409
 30
0.0
 41
1.999999999999999
 42
2.0
 43
2.0
 50
294.2747898339551
  0
INSERT
  5
CC20
330
1F
100
AcDbEntity
  8
AM_5
100
AcDbBlockReference
  2
GENDOT
 10
2236.933362804738
 20
1887.924004095987
 30
0.0
 41
2.0
 42
2.0
 43
2.0
 50
114.274789833955
  0
MTEXT
  5
CC51
330
1F
100
AcDbEntity
  8
AM_6
100
AcDbMText
 10
2028.971352189976
 20
1858.809349444243
 30
0.0
 40
3.2
 41
16.05446024718776
 71
     5
 72
     5
  1
{\L受け}
 73
     1
 44
1.0
1001
ACAD
1000
MTEXTBEGIN
1070
    73
1070
     1
1070
    44
1040
1.0
1070
    74
1070
     0
1000
MTEXTEND
1000
ACAD_MTEXT_DEFINED_HEIGHT_BEGIN
1070
    46
1040
7.270356101909213
1000
ACAD_MTEXT_DEFINED_HEIGHT_END
  0
LINE
  5
CDE2
330
1F
100
AcDbEntity
  8
AM_5
100
AcDbLine
 10
2069.029986558551
 20
1886.10338333803
 30
0.0
 11
2075.030180108339
 21
1872.846436942586
 31
0.0
  0
LINE
  5
CDE3
330
1F
100
AcDbEntity
  8
AM_5
100
AcDbLine
 10
2075.030180108339
 20
1872.846436942586
 30
0.0
 11
2091.883513441673
 21
1872.846436942586
 31
0.0
  0
LINE
  5
CDE4
330
1F
100
AcDbEntity
  8
AM_5
100
AcDbLine
 10
2066.061144300419
 20
1892.662802187771
 30
0.0
 11
2068.205308153515
 21
1887.925444129624
 31
0.0
  0
INSERT
  5
CDE6
330
1F
100
AcDbEntity
  8
AM_5
100
AcDbBlockReference
  2
GENDOT
 10
2068.205308153515
 20
1887.925444129624
 30
0.0
 41
2.0
 42
2.0
 43
2.0
 50
114.3518647920821
  0
MTEXT
  5
CDE7
330
1F
100
AcDbEntity
  8
AM_5
 62
     2
100
AcDbMText
 10
2084.206846775007
 20
1876.096436942587
 30
0.0
 40
3.5
 41
0.0
 71
     5
 72
     1
  1
2-\U+22055.2孔
 73
     1
 44
1.0
1001
ACAD
1000
MTEXTBEGIN
1070
    73
1070
     1
1070
    44
1040
1.0
1070
    74
1070
     0
1000
MTEXTEND
  0
LWPOLYLINE
  5
CDE9
330
1F
100
AcDbEntity
  8
AM_5
100
AcDbPolyline
 90
        2
 70
     1
 43
0.5
 10
2065.95805949979
 20
1892.89055978672
 42
1.0
 10
2066.164229101049
 20
1892.435044588821
 42
1.0
  0
ENDSEC
  0
SECTION
  2
OBJECTS
  0
DICTIONARY
  5
C
330
0
100
AcDbDictionary
281
     1
  3
ACAD_2007HEADERVARS_RT
350
CDEB
  3
ACAD_BGPLOT_KEY
350
AB06
  3
ACAD_COLOR
350
A91D
  3
ACAD_GROUP
350
D
  3
ACAD_LAYOUT
350
1A
  3
ACAD_MATERIAL
350
A91C
  3
ACAD_MLINESTYLE
350
17
  3
ACAD_PLOTSETTINGS
350
19
  3
ACAD_PLOTSTYLENAME
350
E
  3
ACAD_TABLESTYLE
350
AAB9
  3
ACAD_VISUALSTYLE
350
B0F1
  3
AcAsAppObject
350
3DA1
  3
ACASGREF_MASTER
350
3DE9
  3
AcDbVariableDictionary
350
34
  3
AcmDictionary
350
47
  3
AD_GREF_MODULE
350
3DEA
  3
AD_MAPI_MODULE
350
3E06
  3
AMG
350
2B
  3
AMGSNAPSETTINGS
350
7D
  3
ASE_INDEX_DICTIONARY
350
B331
  3
DWGPROPS
350
CDEA
  3
MAPISURF_MODULE
350
3DEB
  0
DICTIONARY
  5
3F95
330
2
100
AcDbDictionary
280
     1
281
     1
  3
ACAD_LAYERFILTERS
360
B466
  3
ACAD_LAYERSTATES
360
3F96
  3
ACLYDICTIONARY
360
B465
  3
AMLAYER_GROUPCOLORS
360
AAB4
  0
DICTIONARY
  5
B77E
330
B77D
100
AcDbDictionary
280
     1
281
     1
  3
ADSK_XREC_LAYER_RECONCILED
360
B77F
  0
DICTIONARY
  5
CA1B
330
CA1A
100
AcDbDictionary
280
     1
281
     1
  3
ADSK_XREC_LAYER_RECONCILED
360
CA1C
  0
DICTIONARY
  5
8A
330
1F
100
AcDbDictionary
280
     1
281
     1
  3
ACAD_SORTENTS
360
B1BA
  0
DICTIONARY
  5
CDEB
102
{ACAD_REACTORS
330
C
102
}
330
C
100
AcDbDictionary
281
     1
  3
DIMARCSYM
350
CDEC
  0
DICTIONARY
  5
AB06
102
{ACAD_REACTORS
330
C
102
}
330
C
100
AcDbDictionary
280
     1
281
     1
  0
DICTIONARY
  5
A91D
102
{ACAD_REACTORS
330
C
102
}
330
C
100
AcDbDictionary
281
     1
  0
DICTIONARY
  5
D
102
{ACAD_REACTORS
330
C
102
}
330
C
100
AcDbDictionary
281
     1
  0
DICTIONARY
  5
1A
102
{ACAD_REACTORS
330
C
102
}
330
C
100
AcDbDictionary
281
     1
  3
Model
350
22
  3
ﾚｲｱｳﾄ1
350
1E
  3
ﾚｲｱｳﾄ2
350
26
  0
DICTIONARY
  5
A91C
102
{ACAD_REACTORS
330
C
102
}
330
C
100
AcDbDictionary
281
     1
  3
ByBlock
350
B0EF
  3
ByLayer
350
B0EE
  3
Global
350
B0F0
  0
DICTIONARY
  5
17
102
{ACAD_REACTORS
330
C
102
}
330
C
100
AcDbDictionary
281
     1
  3
Standard
350
18
  0
DICTIONARY
  5
19
102
{ACAD_REACTORS
330
C
102
}
330
C
100
AcDbDictionary
281
     1
  0
ACDBDICTIONARYWDFLT
  5
E
102
{ACAD_REACTORS
330
C
102
}
330
C
100
AcDbDictionary
281
     1
  3
Normal
350
F
100
AcDbDictionaryWithDefault
340
F
  0
DICTIONARY
  5
AAB9
102
{ACAD_REACTORS
330
C
102
}
330
C
100
AcDbDictionary
281
     1
  3
Standard
350
AABA
  0
DICTIONARY
  5
B0F1
102
{ACAD_REACTORS
330
C
102
}
330
C
100
AcDbDictionary
281
     1
  3
2dWireframe
350
B0F7
  3
3D Hidden
350
B0F9
  3
3dWireframe
350
B0F8
  3
Basic
350
B0F6
  3
Brighten
350
B0FD
  3
ColorChange
350
B101
  3
Conceptual
350
B0FA
  3
Dim
350
B0FC
  3
Facepattern
350
B100
  3
Flat
350
B0F2
  3
FlatWithEdges
350
B0F3
  3
Gouraud
350
B0F4
  3
GouraudWithEdges
350
B0F5
  3
Linepattern
350
B0FF
  3
Realistic
350
B0FB
  3
Thicken
350
B0FE
  0
ACAD_PROXY_OBJECT
  5
3DA1
102
{ACAD_REACTORS
330
C
102
}
330
C
100
AcDbProxyObject
 90
      499
 91
      576
 95
   917527
 70
     0
 93
       10
310
407F
 94
        0
1001
ACAD
1000
AcRTDxfName
1000
ASAPP
  0
ACAD_PROXY_OBJECT
  5
3DE9
102
{ACAD_REACTORS
330
C
102
}
330
C
100
AcDbProxyObject
 90
      499
 91
      581
 95
   917527
 70
     0
 93
       34
310
010000407F
 94
        0
1001
ACAD
1000
AcRTDxfName
1000
ACASGREFMASTER
  0
DICTIONARY
  5
34
102
{ACAD_REACTORS
330
C
102
}
330
C
100
AcDbDictionary
281
     1
  3
CTABLESTYLE
350
AAF3
  3
DIMASSOC
350
A10C
  3
FIELDEVAL
350
AB07
  3
INDEXCTL
350
35
  3
SORTENTS
350
194C
  0
DICTIONARY
  5
47
102
{ACAD_REACTORS
330
C
102
}
330
C
100
AcDbDictionary
281
     1
  3
AcmBOM
350
7E8
  3
AcmStdDictionary
350
4C
  3
AMDTSECTSYM_ARROWCOLOR
350
A929
  0
ACAD_PROXY_OBJECT
  5
3DEA
102
{ACAD_REACTORS
330
C
102
}
330
C
100
AcDbProxyObject
 90
      499
 91
      582
 95
   917527
 70
     0
 93
      114
310
00000043800000000000000000003F
 94
        0
1001
ACAD
1000
AcRTDxfName
1000
ACADGREFMODULE
  0
ACAD_PROXY_OBJECT
  5
3E06
102
{ACAD_REACTORS
330
C
102
}
330
C
100
AcDbProxyObject
 90
      499
 91
      594
 95
   917527
 70
     0
 93
       34
310
05000044FF
 94
        0
1001
ACAD
1000
AcRTDxfName
1000
MAPIADMODULE
  0
DICTIONARY
  5
2B
102
{ACAD_REACTORS
330
C
102
}
330
C
100
AcDbDictionary
281
     1
  0
DICTIONARY
  5
7D
102
{ACAD_REACTORS
330
C
102
}
330
C
100
AcDbDictionary
281
     1
  0
DICTIONARY
  5
B331
102
{ACAD_REACTORS
330
C
102
}
330
C
100
AcDbDictionary
281
     1
  3
ASEBlockHierarchyIndexRecord
350
B332
1001
DCO15
1040
1594111214.218
  0
XRECORD
  5
CDEA
102
{ACAD_REACTORS
330
C
102
}
330
C
100
AcDbXrecord
280
     1
  1
DWGPROPS COOKIE
  2

  3

  4

  6

  7

  8
Administrator
  9

300
AmdtFileType=84
301
=
302
=
303
=
304
=
305
=
306
=
307
=
308
=
309
=
 40
0.1508982407407407
 41
2455700.661109294
 42
2456743.556689271
  1

 90
        1
  0
ACAD_PROXY_OBJECT
  5
3DEB
102
{ACAD_REACTORS
330
C
102
}
330
C
100
AcDbProxyObject
 90
      499
 91
      583
 95
   917527
 70
     0
 93
        8
310
047E
 94
        0
1001
ACAD
1000
AcRTDxfName
1000
AMDTMAPISURFMOUDULE
  0
DICTIONARY
  5
B466
102
{ACAD_REACTORS
330
3F95
102
}
330
3F95
100
AcDbDictionary
281
     1
  0
DICTIONARY
  5
3F96
102
{ACAD_REACTORS
330
3F95
102
}
330
3F95
100
AcDbDictionary
281
     1
  3
20011210
350
3FB7
  0
DICTIONARY
  5
B465
102
{ACAD_REACTORS
330
3F95
102
}
330
3F95
100
AcDbDictionary
281
     1
1001
ACAD
1000
<All
  0
DICTIONARY
  5
AAB4
102
{ACAD_REACTORS
330
3F95
102
}
330
3F95
100
AcDbDictionary
280
     1
281
     1
  0
XRECORD
  5
B77F
102
{ACAD_REACTORS
330
B77E
102
}
330
B77E
100
AcDbXrecord
280
     1
290
     1
  0
XRECORD
  5
CA1C
102
{ACAD_REACTORS
330
CA1B
102
}
330
CA1B
100
AcDbXrecord
280
     1
290
     1
  0
SORTENTSTABLE
  5
B1BA
102
{ACAD_REACTORS
330
8A
102
}
330
8A
100
AcDbSortentsTable
330
1F
331
C557
  5
C56D
331
C58E
  5
C5A2
331
C5CD
  5
C5E3
331
C5D5
  5
C5F1
331
C55F
  5
C573
331
C596
  5
C5AA
331
C673
  5
CA41
331
C67B
  5
CA46
331
C567
  5
C57B
331
C59E
  5
C5B2
331
C614
  5
C640
331
C5A6
  5
C5BA
331
C61C
  5
C66E
331
CC1B
  5
CC1B
331
C530
  5
C544
331
C538
  5
C54C
331
C5AE
  5
C5C2
331
C5E5
  5
C612
331
C624
  5
C67A
331
C540
  5
C554
331
C577
  5
C58B
331
C5B6
  5
C5CB
331
C62C
  5
CA36
331
C548
  5
C55E
331
C5BE
  5
C5D3
331
C587
  5
C59B
331
C5C6
  5
C5DE
331
CA37
  5
CBE8
331
CA3F
  5
CBF0
331
CA47
  5
CBF8
331
CBEC
  5
C534
331
CBF4
  5
C53C
331
C550
  5
C566
331
C558
  5
C56E
331
C58F
  5
C5A3
331
C5CE
  5
C5E4
331
C66C
  5
CA3B
331
C674
  5
CA42
331
C5D6
  5
C5F2
331
C560
  5
C574
331
C597
  5
C5AB
331
C60D
  5
C624
331
C5DE
  5
C600
331
C59F
  5
C5B3
331
C615
  5
C642
331
C5A7
  5
C5BB
331
C61D
  5
C66F
331
CDE9
  5
CDE7
331
C531
  5
C545
331
C568
  5
C57C
331
C539
  5
C54D
331
C5AF
  5
C5C3
331
C5E6
  5
C613
331
C541
  5
C555
331
C578
  5
C58C
331
C5B7
  5
C5CC
331
C5BF
  5
C5D4
331
C549
  5
C55F
331
C5F6
  5
C61E
331
CA38
  5
CBE9
331
CA40
  5
CBF1
331
CBED
  5
C535
331
CBF5
  5
C53D
331
C551
  5
C567
331
C588
  5
C59C
331
C590
  5
C5A4
331
C5CF
  5
C5E5
331
C66D
  5
CA3C
331
C5D7
  5
C5F3
331
C561
  5
C575
331
C598
  5
C5AC
331
C675
  5
CA43
331
C5DF
  5
C601
331
C5A0
  5
C5B4
331
C616
  5
C643
331
C61E
  5
C670
331
CC1D
  5
CC1D
331
CDE2
  5
CDE2
331
C569
  5
C57D
331
C532
  5
C546
331
C5A8
  5
C5BC
331
C53A
  5
C54E
331
C571
  5
C585
331
C5E7
  5
C614
331
C542
  5
C556
331
C579
  5
C58D
331
C5B8
  5
C5CD
331
C54A
  5
C560
331
C5C0
  5
C5D5
331
C5FF
  5
C620
331
CA39
  5
CBEA
331
CA41
  5
CBF2
331
CBEE
  5
C536
331
CBF6
  5
C53E
331
C552
  5
C568
331
C589
  5
C59D
331
C5C8
  5
C5DF
331
C5D0
  5
C5E6
331
C591
  5
C5A5
331
C66E
  5
CA3D
331
C676
  5
CA44
331
C5D8
  5
C5F6
331
C562
  5
C576
331
C599
  5
C5AD
331
C60F
  5
C629
331
C5A1
  5
C5B5
331
C61F
  5
C671
331
CC1E
  5
CC1E
331
CDE3
  5
CDE3
331
C533
  5
C547
331
C56A
  5
C57E
331
C5E0
  5
C602
331
C53B
  5
C54F
331
C5E8
  5
C615
331
C543
  5
C557
331
C57A
  5
C58E
331
C5B9
  5
C5CE
331
C5F0
  5
C61A
331
C54B
  5
C561
331
C582
  5
C596
331
C5C1
  5
C5D6
331
CA3A
  5
CBEB
331
CBE7
  5
C52F
331
CA42
  5
CBF3
331
CBEF
  5
C537
331
C553
  5
C569
331
C58A
  5
C59E
331
C5C9
  5
C5E0
331
C600
  5
C621
331
C5D1
  5
C5E7
331
C55B
  5
C56F
331
C592
  5
C5A6
331
C66F
  5
CA3E
331
C5D9
  5
C5F9
331
C563
  5
C577
331
C59A
  5
C5AE
331
C610
  5
C62A
331
C5A2
  5
C5B6
331
CC1F
  5
CC1F
331
CDE4
  5
CDE4
331
C56B
  5
C57F
331
C534
  5
C548
331
C5E1
  5
C60D
331
C620
  5
C673
331
C53C
  5
C550
331
C5B2
  5
C5C6
331
C5E9
  5
C616
331
C544
  5
C558
331
C5BA
  5
C5CF
331
C5F1
  5
C61B
331
C5C2
  5
C5D7
331
C54C
  5
C562
331
C583
  5
C597
331
C5F9
  5
C61F
331
C640
  5
CA38
331
CA3B
  5
CBEC
331
CBE8
  5
C530
331
CA43
  5
CBF4
331
CBF0
  5
C538
331
C5CA
  5
B52B
331
C554
  5
C56A
331
C58B
  5
C59F
331
C601
  5
C622
331
C5D2
  5
C5E8
331
C55C
  5
C570
331
C593
  5
C5A7
331
C670
  5
CA3F
331
C5DA
  5
C5FF
331
C564
  5
C578
331
C59B
  5
C5AF
331
C611
  5
C62B
331
C5A3
  5
C5B7
331
CC20
  5
CC20
331
C535
  5
C549
331
C56C
  5
C580
331
C5AB
  5
C5BF
331
C5E2
  5
C60F
331
C621
  5
C674
331
C53D
  5
C551
331
C574
  5
C588
331
C5B3
  5
C5C8
331
C629
  5
C67B
331
C545
  5
C55B
331
C5BB
  5
C5D0
331
C5F2
  5
C61C
331
C54D
  5
C563
331
C584
  5
C598
331
C5C3
  5
C5D8
331
CA3C
  5
CBED
331
CBE9
  5
C531
331
CA44
  5
CBF5
331
CBF1
  5
C539
331
C555
  5
C56B
331
C58C
  5
C5A0
331
C5CB
  5
C5E1
331
C602
  5
C623
331
C5D3
  5
C5E9
331
C55D
  5
C571
331
C594
  5
C5A8
331
C671
  5
CA40
331
C565
  5
C579
331
C59C
  5
C5B0
331
C612
  5
C62C
331
C52E
  5
C542
331
C5A4
  5
C5B8
331
C61A
  5
C66C
331
CDE6
  5
CDE8
331
C5E3
  5
C610
331
C56D
  5
C581
331
C536
  5
C54A
331
C5AC
  5
C5C0
331
C622
  5
C675
331
C6F9
  5
CA47
331
C53E
  5
C552
331
C575
  5
C589
331
C5B4
  5
C5C9
331
C62A
  5
C6F9
331
C546
  5
C55C
331
C5BC
  5
C5D1
331
C5F3
  5
C61D
331
C632
  5
CA37
331
C54E
  5
C564
331
C585
  5
C599
331
C5C4
  5
C5D9
331
C642
  5
CA39
331
CC51
  5
CC51
331
CA3D
  5
CBEE
331
CBEA
  5
C532
331
CA45
  5
CBF6
331
CBF2
  5
C53A
331
C556
  5
C56C
331
C58D
  5
C5A1
331
C5CC
  5
C5E2
331
C5D4
  5
C5F0
331
C55E
  5
C572
331
C595
  5
C5A9
331
C67A
  5
CA45
331
C566
  5
C57A
331
C59D
  5
C5B1
331
C613
  5
C632
331
C5A5
  5
C5B9
331
C52F
  5
C543
331
C61B
  5
C66D
331
CC1A
  5
CC1A
331
CDE7
  5
CDE9
331
C5E4
  5
C611
331
C56E
  5
C582
331
C537
  5
C54B
331
C5AD
  5
C5C1
331
C623
  5
C676
331
C6FA
  5
CAF0
331
C5B5
  5
C5CA
331
C53F
  5
C553
331
C576
  5
C58A
331
C62B
  5
C6FA
331
C547
  5
C55D
331
C5BD
  5
C5D2
331
C54F
  5
C565
331
C586
  5
C59A
331
C5C5
  5
C5DA
331
C643
  5
CA3A
331
CA36
  5
CBE7
331
CA3E
  5
CBEF
331
CA46
  5
CBF7
331
CBEB
  5
C533
331
CBF3
  5
C53B
  0
XRECORD
  5
CDEC
102
{ACAD_REACTORS
330
CDEB
102
}
330
CDEB
100
AcDbXrecord
280
     1
 70
     1
  0
LAYOUT
  5
22
102
{ACAD_XDICTIONARY
360
CDEF
102
}
102
{ACAD_REACTORS
330
1A
102
}
330
1A
100
AcDbPlotSettings
  1

  2
Adobe PDF
  4
A3
  6
AM_VIEW1
 40
3.174999952316284
 41
3.174999952316284
 42
3.17498779296875
 43
3.17498779296875
 44
297.0318298339844
 45
420.1583251953125
 46
-3.159078955650329
 47
-3.095831274986267
 48
214.3704939521119
 49
367.5855324241176
140
275.6727856380065
141
407.629191407817
142
1.0
143
1.0
 70
  3748
 72
     1
 73
     1
 74
     2
  7
monochrome.ctb
 75
     0
147
0.9787267410393917
148
-1943.253177379657
149
-1748.483988137406
100
AcDbLayout
  1
Model
 70
     1
 71
     0
 10
0.0
 20
0.0
 11
12.0
 21
9.0
 12
0.0
 22
0.0
 32
0.0
 14
0.0
 24
0.0
 34
0.0
 15
0.0
 25
0.0
 35
0.0
146
0.0
 13
0.0
 23
0.0
 33
0.0
 16
1.0
 26
0.0
 36
0.0
 17
0.0
 27
1.0
 37
0.0
 76
     0
330
1F
331
B0EC
1001
ACAD_PSEXT
1000
Adobe PDF
1000
Adobe PDF Converter
1000
My Documents\*.pdf
1000

1070
     0
  0
LAYOUT
  5
1E
102
{ACAD_XDICTIONARY
360
CDED
102
}
102
{ACAD_REACTORS
330
1A
102
}
330
1A
100
AcDbPlotSettings
  1

  2
\\ML370\XEROX
  4
A4
  6

 40
3.174999952316284
 41
3.174999952316284
 42
3.175003051757812
 43
3.17498779296875
 44
209.8674926757813
 45
296.6719970703125
 46
0.0
 47
0.0
 48
0.0
 49
0.0
140
0.0
141
0.0
142
1.0
143
1.0
 70
   688
 72
     1
 73
     1
 74
     5
  7
monochrome.ctb
 75
    16
147
1.0
148
0.0
149
0.0
100
AcDbLayout
  1
ﾚｲｱｳﾄ1
 70
     1
 71
     1
 10
-3.17498779296875
 20
-3.174999952316284
 11
293.4970092773438
 21
206.692492723465
 12
0.0
 22
0.0
 32
0.0
 14
1.000000000000000E+20
 24
1.000000000000000E+20
 34
1.000000000000000E+20
 15
-1.000000000000000E+20
 25
-1.000000000000000E+20
 35
-1.000000000000000E+20
146
0.0
 13
0.0
 23
0.0
 33
0.0
 16
1.0
 26
0.0
 36
0.0
 17
0.0
 27
1.0
 37
0.0
 76
     0
330
1B
  0
LAYOUT
  5
26
102
{ACAD_XDICTIONARY
360
CDF1
102
}
102
{ACAD_REACTORS
330
1A
102
}
330
1A
100
AcDbPlotSettings
  1

  2
\\ML370\XEROX
  4

  6

 40
0.0
 41
0.0
 42
0.0
 43
0.0
 44
0.0
 45
0.0
 46
0.0
 47
0.0
 48
0.0
 49
0.0
140
0.0
141
0.0
142
1.0
143
1.0
 70
   688
 72
     0
 73
     0
 74
     5
  7
monochrome.ctb
 75
    16
147
1.0
148
0.0
149
0.0
100
AcDbLayout
  1
ﾚｲｱｳﾄ2
 70
     1
 71
     2
 10
0.0
 20
0.0
 11
12.0
 21
9.0
 12
0.0
 22
0.0
 32
0.0
 14
0.0
 24
0.0
 34
0.0
 15
0.0
 25
0.0
 35
0.0
146
0.0
 13
0.0
 23
0.0
 33
0.0
 16
1.0
 26
0.0
 36
0.0
 17
0.0
 27
1.0
 37
0.0
 76
     0
330
23
  0
MATERIAL
  5
B0EF
102
{ACAD_XDICTIONARY
360
CDF7
102
}
102
{ACAD_REACTORS
330
A91C
102
}
330
A91C
100
AcDbMaterial
  1
ByBlock
  0
MATERIAL
  5
B0EE
102
{ACAD_XDICTIONARY
360
CDF5
102
}
102
{ACAD_REACTORS
330
A91C
102
}
330
A91C
100
AcDbMaterial
  1
ByLayer
  0
MATERIAL
  5
B0F0
102
{ACAD_XDICTIONARY
360
CDF9
102
}
102
{ACAD_REACTORS
330
A91C
102
}
330
A91C
100
AcDbMaterial
  1
Global
  0
MLINESTYLE
  5
18
102
{ACAD_REACTORS
330
17
102
}
330
17
100
AcDbMlineStyle
  2
STANDARD
 70
     0
  3

 62
   256
 51
90.0
 52
90.0
 71
     2
 49
0.5
 62
   256
  6
BYLAYER
 49
-0.5
 62
   256
  6
BYLAYER
  0
ACDBPLACEHOLDER
  5
F
102
{ACAD_REACTORS
330
E
102
}
330
E
  0
TABLESTYLE
  5
AABA
102
{ACAD_XDICTIONARY
360
CDF3
102
}
102
{ACAD_REACTORS
330
AAB9
102
}
330
AAB9
100
AcDbTableStyle
  3
Standard
 70
     0
 71
     0
 40
1.5
 41
1.5
280
     0
281
     0
  7
STANDARD
140
4.5
170
     2
 62
     0
 63
     7
283
     0
274
    -2
284
     1
 64
     0
275
    -2
285
     1
 65
     0
276
    -2
286
     1
 66
     0
277
    -2
287
     1
 67
     0
278
    -2
288
     1
 68
     0
279
    -2
289
     1
 69
     0
  7
STANDARD
140
6.0
170
     5
 62
     0
 63
     7
283
     0
274
    -2
284
     1
 64
     0
275
    -2
285
     1
 65
     0
276
    -2
286
     1
 66
     0
277
    -2
287
     1
 67
     0
278
    -2
288
     1
 68
     0
279
    -2
289
     1
 69
     0
  7
STANDARD
140
4.5
170
     5
 62
     0
 63
     7
283
     0
274
    -2
284
     1
 64
     0
275
    -2
285
     1
 65
     0
276
    -2
286
     1
 66
     0
277
    -2
287
     1
 67
     0
278
    -2
288
     1
 68
     0
279
    -2
289
     1
 69
     0
  0
VISUALSTYLE
  5
B0F7
102
{ACAD_REACTORS
330
B0F1
102
}
330
B0F1
100
AcDbVisualStyle
  2
2dWireframe
 70
     4
 71
     0
 72
     2
 73
     0
 90
        0
 40
-0.6
 41
-30.0
 62
     5
 63
     7
 74
     1
 91
        4
 64
     7
 65
   257
 75
     1
175
     1
 42
1.0
 92
        0
 66
   257
 43
1.0
 76
     1
 77
     6
 78
     2
 67
     7
 79
     5
170
     0
171
     0
290
     0
174
     0
 93
        1
 44
0.0
173
     0
291
     0
 45
0.0
1001
ACAD
1000
AcDbSavedByObjectVersion
1070
     0
  0
VISUALSTYLE
  5
B0F9
102
{ACAD_REACTORS
330
B0F1
102
}
330
B0F1
100
AcDbVisualStyle
  2
3D Hidden
 70
     6
 71
     1
 72
     2
 73
     2
 90
        0
 40
-0.6
 41
-30.0
 62
     5
 63
     7
 74
     2
 91
        2
 64
     7
 65
   257
 75
     2
175
     1
 42
40.0
 92
        0
 66
   257
 43
1.0
 76
     1
 77
     6
 78
     2
 67
     7
 79
     3
170
     0
171
     0
290
     0
174
     0
 93
        1
 44
0.0
173
     0
291
     0
 45
0.0
1001
ACAD
1000
AcDbSavedByObjectVersion
1070
     0
  0
VISUALSTYLE
  5
B0F8
102
{ACAD_REACTORS
330
B0F1
102
}
330
B0F1
100
AcDbVisualStyle
  2
3dWireframe
 70
     5
 71
     0
 72
     2
 73
     0
 90
        0
 40
-0.6
 41
-30.0
 62
     5
 63
     7
 74
     1
 91
        4
 64
     7
 65
   257
 75
     1
175
     1
 42
1.0
 92
        0
 66
   257
 43
1.0
 76
     1
 77
     6
 78
     2
 67
     7
 79
     5
170
     0
171
     0
290
     0
174
     0
 93
        1
 44
0.0
173
     0
291
     0
 45
0.0
1001
ACAD
1000
AcDbSavedByObjectVersion
1070
     0
  0
VISUALSTYLE
  5
B0F6
102
{ACAD_REACTORS
330
B0F1
102
}
330
B0F1
100
AcDbVisualStyle
  2
Basic
 70
     7
 71
     1
 72
     0
 73
     1
 90
        0
 40
-0.6
 41
-30.0
 62
     5
 63
     7
 74
     0
 91
        4
 64
     7
 65
   257
 75
     1
175
     1
 42
1.0
 92
        8
 66
     7
 43
1.0
 76
     1
 77
     6
 78
     2
 67
     7
 79
     5
170
     0
171
     0
290
     0
174
     0
 93
        1
 44
0.0
173
     0
291
     1
 45
0.0
1001
ACAD
1000
AcDbSavedByObjectVersion
1070
     0
  0
VISUALSTYLE
  5
B0FD
102
{ACAD_REACTORS
330
B0F1
102
}
330
B0F1
100
AcDbVisualStyle
  2
Brighten
 70
    12
 71
     2
 72
     2
 73
     0
 90
        0
 40
-0.6
 41
-30.0
 62
     5
 63
     7
 74
     1
 91
        4
 64
     7
 65
   257
 75
     1
175
     1
 42
1.0
 92
        8
 66
     7
 43
1.0
 76
     1
 77
     6
 78
     2
 67
     7
 79
     5
170
     0
171
     0
290
     0
174
     0
 93
        1
 44
50.0
173
     0
291
     1
 45
0.0
1001
ACAD
1000
AcDbSavedByObjectVersion
1070
     0
  0
VISUALSTYLE
  5
B101
102
{ACAD_REACTORS
330
B0F1
102
}
330
B0F1
100
AcDbVisualStyle
  2
ColorChange
 70
    16
 71
     2
 72
     2
 73
     3
 90
        0
 40
-0.6
 41
-30.0
 62
     5
 63
     8
 74
     1
 91
        4
 64
     7
 65
   257
 75
     1
175
     1
 42
1.0
 92
        8
 66
     8
 43
1.0
 76
     1
 77
     6
 78
     2
 67
     7
 79
     5
170
     0
171
     0
290
     0
174
     0
 93
        1
 44
0.0
173
     0
291
     1
 45
0.0
1001
ACAD
1000
AcDbSavedByObjectVersion
1070
     0
  0
VISUALSTYLE
  5
B0FA
102
{ACAD_REACTORS
330
B0F1
102
}
330
B0F1
100
AcDbVisualStyle
  2
Conceptual
 70
     9
 71
     3
 72
     2
 73
     0
 90
        0
 40
-0.6
 41
-30.0
 62
     5
 63
     7
 74
     2
 91
        2
 64
     7
 65
   257
 75
     1
175
     1
 42
40.0
 92
        8
 66
     7
 43
1.0
 76
     1
 77
     6
 78
     2
 67
     7
 79
     3
170
     0
171
     0
290
     0
174
     0
 93
        1
 44
0.0
173
     0
291
     0
 45
0.0
1001
ACAD
1000
AcDbSavedByObjectVersion
1070
     0
  0
VISUALSTYLE
  5
B0FC
102
{ACAD_REACTORS
330
B0F1
102
}
330
B0F1
100
AcDbVisualStyle
  2
Dim
 70
    11
 71
     2
 72
     2
 73
     0
 90
        0
 40
-0.6
 41
-30.0
 62
     5
 63
     7
 74
     1
 91
        4
 64
     7
 65
   257
 75
     1
175
     1
 42
1.0
 92
        8
 66
     7
 43
1.0
 76
     1
 77
     6
 78
     2
 67
     7
 79
     5
170
     0
171
     0
290
     0
174
     0
 93
        1
 44
-50.0
173
     0
291
     1
 45
0.0
1001
ACAD
1000
AcDbSavedByObjectVersion
1070
     0
  0
VISUALSTYLE
  5
B100
102
{ACAD_REACTORS
330
B0F1
102
}
330
B0F1
100
AcDbVisualStyle
  2
Facepattern
 70
    15
 71
     2
 72
     2
 73
     0
 90
        0
 40
-0.6
 41
-30.0
 62
     5
 63
     7
 74
     1
 91
        4
 64
     7
 65
   257
 75
     1
175
     1
 42
1.0
 92
        8
 66
     7
 43
1.0
 76
     1
 77
     6
 78
     2
 67
     7
 79
     5
170
     0
171
     0
290
     0
174
     0
 93
        1
 44
0.0
173
     0
291
     1
 45
0.0
1001
ACAD
1000
AcDbSavedByObjectVersion
1070
     0
  0
VISUALSTYLE
  5
B0F2
102
{ACAD_REACTORS
330
B0F1
102
}
330
B0F1
100
AcDbVisualStyle
  2
Flat
 70
     0
 71
     2
 72
     1
 73
     1
 90
        2
 40
-0.6
 41
30.0
 62
     5
 63
     7
 74
     0
 91
        4
 64
     7
 65
   257
 75
     1
175
     1
 42
1.0
 92
        8
 66
     7
 43
1.0
 76
     1
 77
     6
 78
     2
 67
     7
 79
     5
170
     0
171
     0
290
     0
174
     0
 93
       13
 44
0.0
173
     0
291
     1
 45
0.0
1001
ACAD
1000
AcDbSavedByObjectVersion
1070
     0
  0
VISUALSTYLE
  5
B0F3
102
{ACAD_REACTORS
330
B0F1
102
}
330
B0F1
100
AcDbVisualStyle
  2
FlatWithEdges
 70
     1
 71
     2
 72
     1
 73
     1
 90
        2
 40
-0.6
 41
30.0
 62
     5
 63
     7
 74
     1
 91
        4
 64
     7
 65
   257
 75
     1
175
     1
 42
1.0
 92
        0
 66
   257
 43
1.0
 76
     1
 77
     6
 78
     2
 67
     7
 79
     5
170
     0
171
     0
290
     0
174
     0
 93
       13
 44
0.0
173
     0
291
     1
 45
0.0
1001
ACAD
1000
AcDbSavedByObjectVersion
1070
     0
  0
VISUALSTYLE
  5
B0F4
102
{ACAD_REACTORS
330
B0F1
102
}
330
B0F1
100
AcDbVisualStyle
  2
Gouraud
 70
     2
 71
     2
 72
     2
 73
     1
 90
        2
 40
-0.6
 41
30.0
 62
     5
 63
     7
 74
     0
 91
        4
 64
     7
 65
   257
 75
     1
175
     1
 42
1.0
 92
        0
 66
     7
 43
1.0
 76
     1
 77
     6
 78
     2
 67
     7
 79
     5
170
     0
171
     0
290
     0
174
     0
 93
       13
 44
0.0
173
     0
291
     1
 45
0.0
1001
ACAD
1000
AcDbSavedByObjectVersion
1070
     0
  0
VISUALSTYLE
  5
B0F5
102
{ACAD_REACTORS
330
B0F1
102
}
330
B0F1
100
AcDbVisualStyle
  2
GouraudWithEdges
 70
     3
 71
     2
 72
     2
 73
     1
 90
        2
 40
-0.6
 41
30.0
 62
     5
 63
     7
 74
     1
 91
        4
 64
     7
 65
   257
 75
     1
175
     1
 42
1.0
 92
        0
 66
   257
 43
1.0
 76
     1
 77
     6
 78
     2
 67
     7
 79
     5
170
     0
171
     0
290
     0
174
     0
 93
       13
 44
0.0
173
     0
291
     1
 45
0.0
1001
ACAD
1000
AcDbSavedByObjectVersion
1070
     0
  0
VISUALSTYLE
  5
B0FF
102
{ACAD_REACTORS
330
B0F1
102
}
330
B0F1
100
AcDbVisualStyle
  2
Linepattern
 70
    14
 71
     2
 72
     2
 73
     0
 90
        0
 40
-0.6
 41
-30.0
 62
     5
 63
     7
 74
     1
 91
        4
 64
     7
 65
   257
 75
     7
175
     7
 42
1.0
 92
        8
 66
     7
 43
1.0
 76
     1
 77
     6
 78
     2
 67
     7
 79
     5
170
     0
171
     0
290
     0
174
     0
 93
        1
 44
0.0
173
     0
291
     1
 45
0.0
1001
ACAD
1000
AcDbSavedByObjectVersion
1070
     0
  0
VISUALSTYLE
  5
B0FB
102
{ACAD_REACTORS
330
B0F1
102
}
330
B0F1
100
AcDbVisualStyle
  2
Realistic
 70
     8
 71
     2
 72
     2
 73
     0
 90
        0
 40
-0.6
 41
-30.0
 62
     5
 63
     7
 74
     1
 91
        0
 64
     7
 65
   257
 75
     1
175
     1
 42
1.0
 92
        8
 66
     8
 43
1.0
 76
     1
 77
     6
 78
     2
 67
     7
 79
     5
170
     0
171
     0
290
     0
174
     0
 93
       13
 44
0.0
173
     0
291
     0
 45
0.0
1001
ACAD
1000
AcDbSavedByObjectVersion
1070
     0
  0
VISUALSTYLE
  5
B0FE
102
{ACAD_REACTORS
330
B0F1
102
}
330
B0F1
100
AcDbVisualStyle
  2
Thicken
 70
    13
 71
     2
 72
     2
 73
     0
 90
        0
 40
-0.6
 41
-30.0
 62
     5
 63
     7
 74
     1
 91
        4
 64
     7
 65
   257
 75
     1
175
     1
 42
1.0
 92
       12
 66
     7
 43
1.0
 76
     1
 77
     6
 78
     2
 67
     7
 79
     5
170
     0
171
     0
290
     0
174
     0
 93
        1
 44
0.0
173
     0
291
     1
 45
0.0
1001
ACAD
1000
AcDbSavedByObjectVersion
1070
     0
  0
DICTIONARYVAR
  5
AAF3
102
{ACAD_REACTORS
330
34
102
}
330
34
100
DictionaryVariables
280
     0
  1
STANDARD
  0
DICTIONARYVAR
  5
A10C
102
{ACAD_REACTORS
330
34
102
}
330
34
100
DictionaryVariables
280
     0
  1
1
  0
DICTIONARYVAR
  5
AB07
102
{ACAD_REACTORS
330
34
102
}
330
34
100
DictionaryVariables
280
     0
  1
4
  0
DICTIONARYVAR
  5
35
102
{ACAD_REACTORS
330
34
102
}
330
34
100
DictionaryVariables
280
     0
  1
0
  0
DICTIONARYVAR
  5
194C
102
{ACAD_REACTORS
330
34
102
}
330
34
100
DictionaryVariables
280
     0
  1
127
  0
DICTIONARY
  5
7E8
102
{ACAD_REACTORS
330
47
102
}
330
47
100
AcDbDictionary
281
     1
  0
DICTIONARY
  5
4C
102
{ACAD_REACTORS
330
47
102
}
330
47
100
AcDbDictionary
281
     1
  0
XRECORD
  5
A929
102
{ACAD_REACTORS
330
47
102
}
330
47
100
AcDbXrecord
280
     1
 90
-1023410169
  0
XRECORD
  5
B332
102
{ACAD_REACTORS
330
B331
102
}
330
B331
100
AcDbXrecord
280
     1
  0
XRECORD
  5
3FB7
102
{ACAD_REACTORS
330
3F96
102
}
330
3F96
100
AcDbXrecord
280
     1
 91
        3
330
0
 90
        8
 62
     7
370
    40
331
16
  1
Color_7
330
0
 90
        0
 62
    14
370
    -3
331
16
  1
Color_14
330
0
 90
        8
 62
     7
370
    20
331
16
  1
Color_7
330
6D1
 90
        0
 62
     7
370
    -3
331
16
  1
Color_7
330
0
 90
        8
 62
     7
370
    50
331
16
  1
Color_7
330
0
 90
        8
 62
     2
370
    35
331
16
  1
Color_2
330
0
 90
        8
 62
     7
370
    -3
331
16
  1
Color_7
330
10
 90
        8
 62
     7
370
    -3
331
16
  1
Color_7
  0
DICTIONARY
  5
CDEF
330
22
100
AcDbDictionary
280
     1
281
     1
  3
ACAD_XREC_ROUNDTRIP
360
CDF0
  0
DICTIONARY
  5
CDED
330
1E
100
AcDbDictionary
280
     1
281
     1
  3
ACAD_XREC_ROUNDTRIP
360
CDEE
  0
DICTIONARY
  5
CDF1
330
26
100
AcDbDictionary
280
     1
281
     1
  3
ACAD_XREC_ROUNDTRIP
360
CDF2
  0
DICTIONARY
  5
CDF7
330
B0EF
100
AcDbDictionary
280
     1
281
     1
  3
ACAD_XREC_ROUNDTRIP
360
CDF8
  0
DICTIONARY
  5
CDF5
330
B0EE
100
AcDbDictionary
280
     1
281
     1
  3
ACAD_XREC_ROUNDTRIP
360
CDF6
  0
DICTIONARY
  5
CDF9
330
B0F0
100
AcDbDictionary
280
     1
281
     1
  3
ACAD_XREC_ROUNDTRIP
360
CDFA
  0
DICTIONARY
  5
CDF3
330
AABA
100
AcDbDictionary
280
     1
281
     1
  3
ACAD_XREC_ROUNDTRIP
360
CDF4
  0
XRECORD
  5
CDF0
102
{ACAD_REACTORS
330
CDEF
102
}
330
CDEF
100
AcDbXrecord
280
     1
102
SHADEPLOT
 70
     0
102
SHADEPLOTRESLEVEL
 70
     2
102
SHADEPLOTCUSTOMDPI
 70
   200
  0
XRECORD
  5
CDEE
102
{ACAD_REACTORS
330
CDED
102
}
330
CDED
100
AcDbXrecord
280
     1
102
SHADEPLOT
 70
     0
102
SHADEPLOTRESLEVEL
 70
     2
102
SHADEPLOTCUSTOMDPI
 70
   300
  0
XRECORD
  5
CDF2
102
{ACAD_REACTORS
330
CDF1
102
}
330
CDF1
100
AcDbXrecord
280
     1
102
SHADEPLOT
 70
     0
102
SHADEPLOTRESLEVEL
 70
     2
102
SHADEPLOTCUSTOMDPI
 70
   300
  0
XRECORD
  5
CDF8
102
{ACAD_REACTORS
330
CDF7
102
}
330
CDF7
100
AcDbXrecord
280
     1
102
MATERIAL
148
0.0
149
0.0
149
0.0
 93
        0
 94
       63
282
     0
 72
     1
 77
     1
171
     1
175
     1
179
     1
273
     0
  0
XRECORD
  5
CDF6
102
{ACAD_REACTORS
330
CDF5
102
}
330
CDF5
100
AcDbXrecord
280
     1
102
MATERIAL
148
0.0
149
0.0
149
0.0
 93
        0
 94
       63
282
     0
 72
     1
 77
     1
171
     1
175
     1
179
     1
273
     0
  0
XRECORD
  5
CDFA
102
{ACAD_REACTORS
330
CDF9
102
}
330
CDF9
100
AcDbXrecord
280
     1
102
MATERIAL
148
0.0
149
0.0
149
0.0
 93
        0
 94
       63
282
     0
 72
     1
 77
     1
171
     1
175
     1
179
     1
273
     0
  0
XRECORD
  5
CDF4
102
{ACAD_REACTORS
330
CDF3
102
}
330
CDF3
100
AcDbXrecord
280
     1
102
ACAD_ROUNDTRIP_PRE2007_TABLESTYLE
 90
        4
 91
        0
  1

 92
        4
 93
        0
  2

 94
        4
 95
        0
  3

  0
ENDSEC
  0
EOF
