  0
SECTION
  2
HEADER
  9
$ACADVER
  1
AC1015
  9
$ACADMAINTVER
 70
    20
  9
$DWGCODEPAGE
  3
ANSI_932
  9
$INSBASE
 10
0.0
 20
0.0
 30
0.0
  9
$EXTMIN
 10
0.0000001795234539
 20
-0.0000000628811563
 30
0.0
  9
$EXTMAX
 10
381.0000001795236
 20
283.2791472133836
 30
0.0
  9
$LIMMIN
 10
1700.85588156276
 20
1647.985052086429
  9
$LIMMAX
 10
1997.85588156276
 20
1857.985052086429
  9
$ORTHOMODE
 70
     0
  9
$REGENMODE
 70
     1
  9
$FILLMODE
 70
     1
  9
$QTEXTMODE
 70
     0
  9
$MIRRTEXT
 70
     0
  9
$LTSCALE
 40
1.0
  9
$ATTMODE
 70
     1
  9
$TEXTSIZE
 40
3.2
  9
$TRACEWID
 40
1.0
  9
$TEXTSTYLE
  7
STANDARD
  9
$CLAYER
  8
AM_0
  9
$CELTYPE
  6
ByLayer
  9
$CECOLOR
 62
   256
  9
$CELTSCALE
 40
1.0
  9
$DISPSILH
 70
     0
  9
$DIMSCALE
 40
1.0
  9
$DIMASZ
 40
1.0
  9
$DIMEXO
 40
1.0
  9
$DIMDLI
 40
10.0
  9
$DIMRND
 40
0.0
  9
$DIMDLE
 40
0.0
  9
$DIMEXE
 40
1.0
  9
$DIMTP
 40
0.1
  9
$DIMTM
 40
0.1
  9
$DIMTXT
 40
3.5
  9
$DIMCEN
 40
0.0
  9
$DIMTSZ
 40
0.0
  9
$DIMTOL
 70
     0
  9
$DIMLIM
 70
     0
  9
$DIMTIH
 70
     0
  9
$DIMTOH
 70
     0
  9
$DIMSE1
 70
     0
  9
$DIMSE2
 70
     0
  9
$DIMTAD
 70
     1
  9
$DIMZIN
 70
     8
  9
$DIMBLK
  1

  9
$DIMASO
 70
     1
  9
$DIMSHO
 70
     1
  9
$DIMPOST
  1

  9
$DIMAPOST
  1
"
  9
$DIMALT
 70
     0
  9
$DIMALTD
 70
     2
  9
$DIMALTF
 40
0.0393701
  9
$DIMLFAC
 40
1.0
  9
$DIMTOFL
 70
     1
  9
$DIMTVP
 40
0.0
  9
$DIMTIX
 70
     0
  9
$DIMSOXD
 70
     0
  9
$DIMSAH
 70
     0
  9
$DIMBLK1
  1

  9
$DIMBLK2
  1

  9
$DIMSTYLE
  2
SYS
  9
$DIMCLRD
 70
   256
  9
$DIMCLRE
 70
   256
  9
$DIMCLRT
 70
     7
  9
$DIMTFAC
 40
0.71
  9
$DIMGAP
 40
1.5
  9
$DIMJUST
 70
     0
  9
$DIMSD1
 70
     0
  9
$DIMSD2
 70
     0
  9
$DIMTOLJ
 70
     0
  9
$DIMTZIN
 70
     8
  9
$DIMALTZ
 70
     0
  9
$DIMALTTZ
 70
     0
  9
$DIMUPT
 70
     0
  9
$DIMDEC
 70
     2
  9
$DIMTDEC
 70
     2
  9
$DIMALTU
 70
     2
  9
$DIMALTTD
 70
     2
  9
$DIMTXSTY
  7
STANDARD
  9
$DIMAUNIT
 70
     0
  9
$DIMADEC
 70
     0
  9
$DIMALTRND
 40
0.0
  9
$DIMAZIN
 70
     2
  9
$DIMDSEP
 70
    46
  9
$DIMATFIT
 70
     3
  9
$DIMFRAC
 70
     0
  9
$DIMLDRBLK
  1

  9
$DIMLUNIT
 70
     2
  9
$DIMLWD
 70
    -1
  9
$DIMLWE
 70
    -1
  9
$DIMTMOVE
 70
     0
  9
$LUNITS
 70
     2
  9
$LUPREC
 70
     2
  9
$SKETCHINC
 40
1.0
  9
$FILLETRAD
 40
0.0
  9
$AUNITS
 70
     0
  9
$AUPREC
 70
     0
  9
$MENU
  1
.
  9
$ELEVATION
 40
0.0
  9
$PELEVATION
 40
0.0
  9
$THICKNESS
 40
0.0
  9
$LIMCHECK
 70
     0
  9
$CHAMFERA
 40
0.0
  9
$CHAMFERB
 40
0.0
  9
$CHAMFERC
 40
20.0
  9
$CHAMFERD
 40
0.0
  9
$SKPOLY
 70
     0
  9
$TDCREATE
 40
2456533.563205834
  9
$TDUCREATE
 40
2456533.188205834
  9
$TDUPDATE
 40
2456533.583726123
  9
$TDUUPDATE
 40
2456533.208726122
  9
$TDINDWG
 40
0.0205233681
  9
$TDUSRTIMER
 40
0.0205231829
  9
$USRTIMER
 70
     1
  9
$ANGBASE
 50
0.0
  9
$ANGDIR
 70
     0
  9
$PDMODE
 70
     0
  9
$PDSIZE
 40
-3.0
  9
$PLINEWID
 40
0.0
  9
$SPLFRAME
 70
     0
  9
$SPLINETYPE
 70
     6
  9
$SPLINESEGS
 70
     8
  9
$HANDSEED
  5
BBD9
  9
$SURFTAB1
 70
     6
  9
$SURFTAB2
 70
     6
  9
$SURFTYPE
 70
     6
  9
$SURFU
 70
     6
  9
$SURFV
 70
     6
  9
$UCSBASE
  2

  9
$UCSNAME
  2

  9
$UCSORG
 10
0.0
 20
0.0
 30
0.0
  9
$UCSXDIR
 10
1.0
 20
0.0
 30
0.0
  9
$UCSYDIR
 10
0.0
 20
1.0
 30
0.0
  9
$UCSORTHOREF
  2

  9
$UCSORTHOVIEW
 70
     0
  9
$UCSORGTOP
 10
0.0
 20
0.0
 30
0.0
  9
$UCSORGBOTTOM
 10
0.0
 20
0.0
 30
0.0
  9
$UCSORGLEFT
 10
0.0
 20
0.0
 30
0.0
  9
$UCSORGRIGHT
 10
0.0
 20
0.0
 30
0.0
  9
$UCSORGFRONT
 10
0.0
 20
0.0
 30
0.0
  9
$UCSORGBACK
 10
0.0
 20
0.0
 30
0.0
  9
$PUCSBASE
  2

  9
$PUCSNAME
  2

  9
$PUCSORG
 10
0.0
 20
0.0
 30
0.0
  9
$PUCSXDIR
 10
1.0
 20
0.0
 30
0.0
  9
$PUCSYDIR
 10
0.0
 20
1.0
 30
0.0
  9
$PUCSORTHOREF
  2

  9
$PUCSORTHOVIEW
 70
     0
  9
$PUCSORGTOP
 10
0.0
 20
0.0
 30
0.0
  9
$PUCSORGBOTTOM
 10
0.0
 20
0.0
 30
0.0
  9
$PUCSORGLEFT
 10
0.0
 20
0.0
 30
0.0
  9
$PUCSORGRIGHT
 10
0.0
 20
0.0
 30
0.0
  9
$PUCSORGFRONT
 10
0.0
 20
0.0
 30
0.0
  9
$PUCSORGBACK
 10
0.0
 20
0.0
 30
0.0
  9
$USERI1
 70
     0
  9
$USERI2
 70
     0
  9
$USERI3
 70
     0
  9
$USERI4
 70
     0
  9
$USERI5
 70
     0
  9
$USERR1
 40
0.0
  9
$USERR2
 40
0.0
  9
$USERR3
 40
0.0
  9
$USERR4
 40
0.0
  9
$USERR5
 40
0.0
  9
$WORLDVIEW
 70
     1
  9
$SHADEDGE
 70
     3
  9
$SHADEDIF
 70
    70
  9
$TILEMODE
 70
     1
  9
$MAXACTVP
 70
    64
  9
$PINSBASE
 10
0.0
 20
0.0
 30
0.0
  9
$PLIMCHECK
 70
     0
  9
$PEXTMIN
 10
1.000000000000000E+20
 20
1.000000000000000E+20
 30
1.000000000000000E+20
  9
$PEXTMAX
 10
-1.000000000000000E+20
 20
-1.000000000000000E+20
 30
-1.000000000000000E+20
  9
$PLIMMIN
 10
-3.17498779296875
 20
-3.174999952316284
  9
$PLIMMAX
 10
293.4970092773438
 20
206.692492723465
  9
$UNITMODE
 70
     0
  9
$VISRETAIN
 70
     1
  9
$PLINEGEN
 70
     0
  9
$PSLTSCALE
 70
     1
  9
$TREEDEPTH
 70
  3020
  9
$CMLSTYLE
  2
Standard
  9
$CMLJUST
 70
     0
  9
$CMLSCALE
 40
20.0
  9
$PROXYGRAPHICS
 70
     1
  9
$MEASUREMENT
 70
     1
  9
$CELWEIGHT
370
    -1
  9
$ENDCAPS
280
     0
  9
$JOINSTYLE
280
     0
  9
$LWDISPLAY
290
     0
  9
$INSUNITS
 70
     4
  9
$HYPERLINKBASE
  1

  9
$STYLESHEET
  1
monochrome.ctb
  9
$XEDIT
290
     1
  9
$CEPSNTYPE
380
     0
  9
$PSTYLEMODE
290
     1
  9
$FINGERPRINTGUID
  2
{DD6AD4C0-1050-47E8-A8E9-E42A53D6B5DF}
  9
$VERSIONGUID
  2
{188969A4-0558-41F9-88C3-72945B4CA4C5}
  9
$EXTNAMES
290
     1
  9
$PSVPSCALE
 40
0.0
  9
$OLESTARTUP
290
     0
  0
ENDSEC
  0
SECTION
  2
CLASSES
  0
CLASS
  1
ACDBDICTIONARYWDFLT
  2
AcDbDictionaryWithDefault
  3
ObjectDBX Classes
 90
        0
280
     0
281
     0
  0
CLASS
  1
ACDBPLACEHOLDER
  2
AcDbPlaceHolder
  3
ObjectDBX Classes
 90
        0
280
     0
281
     0
  0
CLASS
  1
LAYOUT
  2
AcDbLayout
  3
ObjectDBX Classes
 90
        0
280
     0
281
     0
  0
CLASS
  1
AMGSETTINGSOBJ
  2
AmgSettingsObj
  3
"AcadM|Product Description: AutoCAD Mechanical|Company: Autodesk"
 90
        0
280
     0
281
     0
  0
CLASS
  1
ACME_DOCUMENT
  2
AcMeDbDoc
  3
AcMeServices
 90
        0
280
     0
281
     0
  0
CLASS
  1
ACMESCOPE
  2
AcMeScope
  3
AcMeServices
 90
        0
280
     0
281
     0
  0
CLASS
  1
ACMECOMMANDHISTORY
  2
AcMeCommandHistory
  3
AcMeServices
 90
        0
280
     0
281
     0
  0
CLASS
  1
DICTIONARYVAR
  2
AcDbDictionaryVar
  3
ObjectDBX Classes
 90
        0
280
     0
281
     0
  0
CLASS
  1
ACIMSYSVARMAN
  2
AcImSysVarManager
  3
AcMeServices
 90
        0
280
     0
281
     0
  0
CLASS
  1
ACIMREALSYSVAR
  2
AcImRealSysVar
  3
AcMeServices
 90
        0
280
     0
281
     0
  0
CLASS
  1
ACIMINTSYSVAR
  2
AcImIntSysVar
  3
AcMeServices
 90
        0
280
     0
281
     0
  0
CLASS
  1
ACMEDRAWINGMAN
  2
AcMeDrawingMan
  3
AcMeServices
 90
        0
280
     0
281
     0
  0
CLASS
  1
ACMEVIEW
  2
AcMeView
  3
AcMeServices
 90
        0
280
     0
281
     0
  0
CLASS
  1
ACDBENTITYCACHE
  2
AcMeEntityCache
  3
AcMeServices
 90
        0
280
     0
281
     0
  0
CLASS
  1
GSMANAGER
  2
AcMeGSManager
  3
AcMeServices
 90
        0
280
     0
281
     0
  0
CLASS
  1
AMDTINTERNALREACTOR
  2
AmdtInternalReactor
  3
AcMeServices
 90
        0
280
     0
281
     0
  0
CLASS
  1
ACMESTATEMGR
  2
AcMeStateMgr
  3
AcMeServices
 90
        0
280
     0
281
     0
  0
CLASS
  1
ACGREFMASTER
  2
AcGrefMaster
  3
AcAttribServices
 90
        0
280
     0
281
     0
  0
CLASS
  1
ACME_DATABASE
  2
AcMeDbDatabase
  3
AcMeServices
 90
        0
280
     0
281
     0
  0
CLASS
  1
ACRFINSADJUSTERMGR
  2
AcRfInsAdjusterMgr
  3
AcMeServices
 90
        0
280
     0
281
     0
  0
CLASS
  1
ACGREFACADMASTER
  2
AcGrefacadMaster
  3
AcGrefServices
 90
        0
280
     0
281
     0
  0
CLASS
  1
AMIMASTER
  2
AmiMaster
  3
AmiServices
 90
        0
280
     0
281
     0
  0
CLASS
  1
ACMDATADICTIONARY
  2
AcmDataDictionary
  3
"AcmSymBB|Product Description: AutoCAD Mechanical|Company: Autodesk"
 90
        0
280
     0
281
     0
  0
CLASS
  1
ACMDATAENTRYBLOCK
  2
AcmDataEntryBlock
  3
"AcmSymBB|Product Description: AutoCAD Mechanical|Company: Autodesk"
 90
        0
280
     0
281
     0
  0
CLASS
  1
ACIMSTRSYSVAR
  2
AcImStrSysVar
  3
AcMeServices
 90
        0
280
     0
281
     0
  0
CLASS
  1
ACMSTANDARDISO
  2
AcmStandardISO
  3
"Amdt_StdImp|Product Description: AutoCAD Mechanical|Company: Autodesk"
 90
        0
280
     0
281
     0
  0
CLASS
  1
AMGOBJPROPCFG
  2
AmgObjPropCfg
  3
"AmgLay|Product Description: AutoCAD Mechanical|Company: Autodesk"
 90
        1
280
     0
281
     0
  0
CLASS
  1
AMDTEDGESTANDARDISO
  2
AmdtEdgeStdISO
  3
"Amdt_StdImp|Product Description: AutoCAD Mechanical|Company: Autodesk"
 90
        0
280
     0
281
     0
  0
CLASS
  1
ACMSURFSTANDARDISO
  2
AcmSurfTextStdISO
  3
"Amdt_StdImp|Product Description: AutoCAD Mechanical|Company: Autodesk"
 90
        0
280
     0
281
     0
  0
CLASS
  1
ACMFCFSTANDARDISO
  2
AcmFCFStdISO
  3
"Amdt_StdImp|Product Description: AutoCAD Mechanical|Company: Autodesk"
 90
        0
280
     0
281
     0
  0
CLASS
  1
ACMWELDSTANDARDISO
  2
AcmWeldingStdISO
  3
"Amdt_StdImp|Product Description: AutoCAD Mechanical|Company: Autodesk"
 90
        0
280
     0
281
     0
  0
CLASS
  1
ACMIDSTANDARDISO
  2
AcmIdStdISO
  3
"Amdt_StdImp|Product Description: AutoCAD Mechanical|Company: Autodesk"
 90
        0
280
     0
281
     0
  0
CLASS
  1
ACMDATUMSTANDARDISO
  2
AcmDatumStdISO
  3
"Amdt_StdImp|Product Description: AutoCAD Mechanical|Company: Autodesk"
 90
        0
280
     0
281
     0
  0
CLASS
  1
ACMBOMSTANDARDISO
  2
AcmBOMStdISO
  3
"Amdt_StdImp|Product Description: AutoCAD Mechanical|Company: Autodesk"
 90
        0
280
     0
281
     0
  0
CLASS
  1
ACMDETAILSTANDARDISO
  2
AmdtDetailSymStdISO
  3
"Amdt_StdImp|Product Description: AutoCAD Mechanical|Company: Autodesk"
 90
        0
280
     0
281
     0
  0
CLASS
  1
ACMSECTIONSTANDARDISO
  2
AmdtSectionSymStdISO
  3
"Amdt_StdImp|Product Description: AutoCAD Mechanical|Company: Autodesk"
 90
        0
280
     0
281
     0
  0
CLASS
  1
ACMCENTERLINESTANDARDISO
  2
AmdtCenterLineStdISO
  3
"Amdt_StdImp|Product Description: AutoCAD Mechanical|Company: Autodesk"
 90
        0
280
     0
281
     0
  0
CLASS
  1
ACAMGLAYSTD
  2
AcAmgLayStd
  3
"AmgLay|Product Description: AutoCAD Mechanical|Company: Autodesk"
 90
        0
280
     0
281
     0
  0
CLASS
  1
ACAMGDIMSTD
  2
AcAmgDimStd
  3
"AmgDim|Product Description: AutoCAD Mechanical|Company: Autodesk"
 90
        0
280
     0
281
     0
  0
CLASS
  1
ACAMGTITLESTD
  2
AcAmgTitleStd
  3
"AmgTitle|Product Description: AutoCAD Mechanical|Company: Autodesk"
 90
        0
280
     0
281
     0
  0
CLASS
  1
ACAMGFILTERDAT
  2
AcAmgFilterDat
  3
"AcadM|Product Description: AutoCAD Mechanical|Company: Autodesk"
 90
        0
280
     0
281
     0
  0
CLASS
  1
LAYER_INDEX
  2
AcDbLayerIndex
  3
ObjectDBX Classes
 90
    32768
280
     0
281
     0
  0
CLASS
  1
IDBUFFER
  2
AcDbIdBuffer
  3
ObjectDBX Classes
 90
    32768
280
     0
281
     0
  0
CLASS
  1
PLOTSETTINGS
  2
AcDbPlotSettings
  3
ObjectDBX Classes
 90
    32768
280
     0
281
     0
  0
CLASS
  1
AMDTFORMULAUPDATEDISPATCHER
  2
AmdtFormulaUpdateDispatcher
  3
AcMeServices
 90
        0
280
     0
281
     0
  0
CLASS
  1
ACMSTANDARDANSI
  2
AcmStandardANSI
  3
"Amdt_StdImp|Product Description: AutoCAD Mechanical|Company: Autodesk"
 90
    32768
280
     0
281
     0
  0
CLASS
  1
ACMSURFSTANDARDANSI
  2
AcmSurfTextStdANSI
  3
"Amdt_StdImp|Product Description: AutoCAD Mechanical|Company: Autodesk"
 90
    32768
280
     0
281
     0
  0
CLASS
  1
ACMFCFSTANDARDANSI
  2
AcmFCFStdANSI
  3
"Amdt_StdImp|Product Description: AutoCAD Mechanical|Company: Autodesk"
 90
    32768
280
     0
281
     0
  0
CLASS
  1
ACMWELDSTANDARDANSI
  2
AcmWeldingStdANSI
  3
"Amdt_StdImp|Product Description: AutoCAD Mechanical|Company: Autodesk"
 90
    32768
280
     0
281
     0
  0
CLASS
  1
ACMIDSTANDARDANSI
  2
AcmIdStdANSI
  3
"Amdt_StdImp|Product Description: AutoCAD Mechanical|Company: Autodesk"
 90
    32768
280
     0
281
     0
  0
CLASS
  1
ACMDATUMSTANDARDANSI
  2
AcmDatumStdANSI
  3
"Amdt_StdImp|Product Description: AutoCAD Mechanical|Company: Autodesk"
 90
    32768
280
     0
281
     0
  0
CLASS
  1
ACMBOMSTANDARDANSI
  2
AcmBOMStdANSI
  3
"Amdt_StdImp|Product Description: AutoCAD Mechanical|Company: Autodesk"
 90
    32768
280
     0
281
     0
  0
CLASS
  1
ACMDETAILSTANDARDANSI
  2
AmdtDetailSymStdANSI
  3
"Amdt_StdImp|Product Description: AutoCAD Mechanical|Company: Autodesk"
 90
    32768
280
     0
281
     0
  0
CLASS
  1
ACMSECTIONSTANDARDANSI
  2
AmdtSectionSymStdANSI
  3
"Amdt_StdImp|Product Description: AutoCAD Mechanical|Company: Autodesk"
 90
    32768
280
     0
281
     0
  0
CLASS
  1
ACMCENTERLINESTANDARDANSI
  2
AmdtCenterLineStdANSI
  3
"Amdt_StdImp|Product Description: AutoCAD Mechanical|Company: Autodesk"
 90
    32768
280
     0
281
     0
  0
CLASS
  1
ACMBOM
  2
AcmBom
  3
"AcmSymBB|Product Description: AutoCAD Mechanical|Company: Autodesk"
 90
        0
280
     0
281
     0
  0
CLASS
  1
ACMDATAENTRYPART
  2
AcmDataEntryPart
  3
"AcmSymBB|Product Description: AutoCAD Mechanical|Company: Autodesk"
 90
    32768
280
     0
281
     0
  0
CLASS
  1
ACMPARTREF
  2
AcmPartRef
  3
"AcmSymBB|Product Description: AutoCAD Mechanical|Company: Autodesk"
 90
    35839
280
     0
281
     1
  0
CLASS
  1
ACDBCIRCARCRES
  2
AcDbCircArcRes
  3
AcGrefServices
 90
    32768
280
     0
281
     0
  0
CLASS
  1
ACMBOMROW
  2
AcmBomRow
  3
"AcmSymBB|Product Description: AutoCAD Mechanical|Company: Autodesk"
 90
    32768
280
     0
281
     0
  0
CLASS
  1
ACMBALLOON
  2
AcmBalloon
  3
"AcmSymBB|Product Description: AutoCAD Mechanical|Company: Autodesk"
 90
    35839
280
     0
281
     1
  0
CLASS
  1
AMDTNOTE
  2
AmdtNote
  3
"AcmSymBB|Product Description: AutoCAD Mechanical|Company: Autodesk"
 90
    35839
280
     0
281
     1
  0
CLASS
  1
STDPART2D
  2
AmgStdPart
  3
"g3vace|Class: AmgStdPart|Product Description: AutoCAD Mechanical|Company: Autodesk"
 90
    35839
280
     0
281
     1
  0
CLASS
  1
ACDBSTDPARTRES_LINE
  2
AcDbStdPartRes_Line
  3
"g3vace|Class: AcDbStdPartRes_Line|Product Description: AutoCAD Mechanical|Company: Autodesk"
 90
    32768
280
     0
281
     0
  0
CLASS
  1
ACMDATAENTRY
  2
AcmDataEntry
  3
"AcmSymBB|Product Description: AutoCAD Mechanical|Company: Autodesk"
 90
        0
280
     0
281
     0
  0
CLASS
  1
ACDBOPPOLYLINERES
  2
AcDbOpPolylineRes
  3
AcGrefServices
 90
    32768
280
     0
281
     0
  0
CLASS
  1
ACMPARTLIST
  2
AcmPartList
  3
"AcmSymBB|Product Description: AutoCAD Mechanical|Company: Autodesk"
 90
    35839
280
     0
281
     1
  0
CLASS
  1
ACDBLINERES
  2
AcDbLineRes
  3
AcGrefServices
 90
    32768
280
     0
281
     0
  0
CLASS
  1
ACRFINSADJ
  2
AcRfInsAdjuster
  3
AcMeServices
 90
    32768
280
     0
281
     0
  0
CLASS
  1
AM_DRAWING_MGR
  2
AcDmDwgMgr
  3
AcMechDwgViewMgmt
 90
        0
280
     0
281
     0
  0
CLASS
  1
AM_DWG_DOCUMENT
  2
AcDmDwgDocument
  3
AcMechDwgViewMgmt
 90
        0
280
     0
281
     0
  0
CLASS
  1
AM_DWG_SHEET
  2
AcDmSheet
  3
AcMechDwgViewMgmt
 90
        0
280
     0
281
     0
  0
CLASS
  1
AM_VIEWDIMPARMAP
  2
AcDmViewDimParMap
  3
AcMechDwgViewMgmt
 90
        0
280
     0
281
     0
  0
CLASS
  1
AM_DWGMGR_NAME
  2
AcDmDwgMgrName
  3
AcMechDwgViewMgmt
 90
        0
280
     0
281
     0
  0
CLASS
  1
AMDTMENUSTATEMGR
  2
AmdtMenuStateMgr
  3
McadcomServices
 90
        0
280
     0
281
     0
  0
CLASS
  1
AMDTMCOMMENUSTATE
  2
AmdtMcomMenuState
  3
McadcomServices
 90
        0
280
     0
281
     0
  0
CLASS
  1
ASAPP
  2
AcAsAppObject
  3
AutoSurfServices
 90
        0
280
     0
281
     0
  0
CLASS
  1
IM_STATIC_MAN
  2
AcImStaticVarManager
  3
AcMeServices
 90
        0
280
     0
281
     0
  0
CLASS
  1
ACIMDBLSTATICVAR
  2
AcImDblStaticVar
  3
AcMeServices
 90
        0
280
     0
281
     0
  0
CLASS
  1
ACIMSTRSTATICVAR
  2
AcImStrStaticVar
  3
AcMeServices
 90
        0
280
     0
281
     0
  0
CLASS
  1
ACIMINTSTATICVAR
  2
AcImIntStaticVar
  3
AcMeServices
 90
        0
280
     0
281
     0
  0
CLASS
  1
ACASGREFMASTER
  2
AcAsGrefMaster
  3
AutoSurfResolverServices
 90
        0
280
     0
281
     0
  0
CLASS
  1
ACADGREFMODULE
  2
AcAdGrefModule
  3
AdGrefServices
 90
        0
280
     0
281
     0
  0
CLASS
  1
AMDTMAPISURFMOUDULE
  2
AmdtMApiSurfModule
  3
MApiSurfServices
 90
        0
280
     0
281
     0
  0
CLASS
  1
MAPIAMMOUDLE
  2
MApiAmModule
  3
MApiAmServices
 90
        0
280
     0
281
     0
  0
CLASS
  1
AMDTADMENUSTATE
  2
AmdtAdMenuState
  3
DesignerServices
 90
        0
280
     0
281
     0
  0
CLASS
  1
ADAPPL
  2
AcAdAppl
  3
DesignerServices
 90
        0
280
     0
281
     0
  0
CLASS
  1
DEPMGR
  2
AcAdDepMgr
  3
DesignerServices
 90
        0
280
     0
281
     0
  0
CLASS
  1
PARAMMGR
  2
AcAdParamMgr
  3
DesignerServices
 90
        0
280
     0
281
     0
  0
CLASS
  1
PARAMSCOPE
  2
AcAdParamScope
  3
DesignerServices
 90
        0
280
     0
281
     0
  0
CLASS
  1
NAMEDAPPL
  2
AcAdNamedAppl
  3
DesignerServices
 90
        0
280
     0
281
     0
  0
CLASS
  1
ADHNTMPLT
  2
AdHoleNoteTemplateMgr
  3
DesignerServices
 90
    32768
280
     0
281
     0
  0
CLASS
  1
AM_HNTEMPLATE_MGR_NAME
  2
AdHoleNoteTemplateMgrName
  3
DesignerServices
 90
    32768
280
     0
281
     0
  0
CLASS
  1
AMDTDMMENUSTATE
  2
AmdtDmMenuState
  3
AcMechDwgViewMgmt
 90
        0
280
     0
281
     0
  0
CLASS
  1
MAPIADMODULE
  2
MApiAdModule
  3
MApiAdServices
 90
        0
280
     0
281
     0
  0
CLASS
  1
AMDTAMMENUSTATE
  2
AmdtAmMenuState
  3
DesignerAssemblies
 90
        0
280
     0
281
     0
  0
CLASS
  1
ACAMPROJECT
  2
AcAmProject
  3
DesignerAssemblies
 90
        0
280
     0
281
     0
  0
CLASS
  1
ACAMGRCOMPDEF
  2
AcAmGrCompDef
  3
DesignerAssemblies
 90
        0
280
     0
281
     0
  0
CLASS
  1
ACCMCONTEXT
  2
AcCmContext
  3
DesignerAssemblies
 90
        0
280
     0
281
     0
  0
CLASS
  1
ACAMCOMPDEF
  2
AcAmCompDef
  3
DesignerAssemblies
 90
        0
280
     0
281
     0
  0
CLASS
  1
ACAMCOMPDEFMGR
  2
AcAmCompDefMgr
  3
DesignerAssemblies
 90
        0
280
     0
281
     0
  0
CLASS
  1
AMCONTEXTMGR
  2
AcAmContextMgr
  3
DesignerAssemblies
 90
        0
280
     0
281
     0
  0
CLASS
  1
ACAMCONTEXTMODELER
  2
AcAmContextModeler
  3
DesignerAssemblies
 90
        0
280
     0
281
     0
  0
CLASS
  1
CATALOGSTATE
  2
AcAmCatalogState
  3
DesignerAssemblies
 90
        0
280
     0
281
     0
  0
CLASS
  1
ACAMGRCOMPDEFSET
  2
AcAmGrCompDefSet
  3
DesignerAssemblies
 90
        0
280
     0
281
     0
  0
CLASS
  1
AMDTBROWSERDBTAB
  2
AmdtBrowserDbTab
  3
McadcomServices
 90
        0
280
     0
281
     0
  0
CLASS
  1
CBROWSERAPPOBJECT
  2
CBrowserAppObject
  3
McadcomServices
 90
        0
280
     0
281
     0
  0
CLASS
  1
DM_PLACEHOLDER
  2
AcDmSelsetPlaceholder
  3
AcMechDwgViewMgmt
 90
        0
280
     0
281
     0
  0
CLASS
  1
ACMPICKOBJ
  2
AcmPickEnt
  3
"AcmSymBB|Product Description: AutoCAD Mechanical|Company: Autodesk"
 90
    32768
280
     0
281
     1
  0
CLASS
  1
ACMNOTESTANDARDISO
  2
AmdtNoteStdISO
  3
"Amdt_StdImp|Product Description: AutoCAD Mechanical|Company: Autodesk"
 90
        0
280
     0
281
     0
  0
CLASS
  1
ACMNOTESTANDARDANSI
  2
AmdtNoteStdANSI
  3
"Amdt_StdImp|Product Description: AutoCAD Mechanical|Company: Autodesk"
 90
    32768
280
     0
281
     0
  0
CLASS
  1
ACMTHREADLINESTANDARDISO
  2
AmdtThreadLineStdISO
  3
"Amdt_StdImp|Product Description: AutoCAD Mechanical|Company: Autodesk"
 90
        0
280
     0
281
     0
  0
CLASS
  1
ACMTHREADLINESTANDARDANSI
  2
AmdtThreadLineStdANSI
  3
"Amdt_StdImp|Product Description: AutoCAD Mechanical|Company: Autodesk"
 90
    32768
280
     0
281
     0
  0
CLASS
  1
TABLESTYLE
  2
AcDbTableStyle
  3
ObjectDBX Classes
 90
     4095
280
     0
281
     0
  0
CLASS
  1
SORTENTSTABLE
  2
AcDbSortentsTable
  3
ObjectDBX Classes
 90
        0
280
     0
281
     0
  0
CLASS
  1
MATERIAL
  2
AcDbMaterial
  3
ObjectDBX Classes
 90
     1024
280
     0
281
     0
  0
CLASS
  1
VISUALSTYLE
  2
AcDbVisualStyle
  3
ObjectDBX Classes
 90
     4095
280
     0
281
     0
  0
CLASS
  1
ACRFATTGENMGR
  2
AcRfAttGeneralMgr
  3
AcAttribServices
 90
        0
280
     0
281
     0
  0
CLASS
  1
ACRFOBJATTMGR
  2
AcRfObjAttGroupMgr
  3
AcAttribServices
 90
        0
280
     0
281
     0
  0
CLASS
  1
ACRFMCADAPIATTHOLDER
  2
AcRfMCADAPIAttHolder
  3
AcAttribServices
 90
        0
280
     0
281
     0
  0
CLASS
  1
AMDTSYSATTR
  2
AmdtSystemAttribute
  3
AcAttribServices
 90
        0
280
     0
281
     0
  0
CLASS
  1
ACMTAPERSTANDARDISO
  2
AcmTaperStdISO
  3
"Amdt_StdImp|Product Description: AutoCAD Mechanical|Company: Autodesk"
 90
        0
280
     0
281
     0
  0
CLASS
  1
CAMSSTRUCTBTNSTATE
  2
StructBtnState
  3
L"DesignerAssemblies"
 90
        0
280
     0
281
     0
  0
CLASS
  1
DIMASSOC
  2
AcDbDimAssoc
  3
"AcDbDimAssoc|Product Desc:     AcDim ARX App For Dimension|Company:          Autodesk, Inc.|WEB Address:      www.autodesk.com"
 90
    32768
280
     0
281
     0
  0
CLASS
  1
AMDTEDGESTANDARDISO13715
  2
AmdtEdgeStdISO13715
  3
"Amdt_StdImp|Product Description: AutoCAD Mechanical|Company: Autodesk"
 90
        0
280
     0
281
     0
  0
CLASS
  1
AMDTNOTETEMPLATEDB
  2
AmdtNoteTemplateDB
  3
AMDT_STDIMP_MODULE_NAME
 90
        0
280
     0
281
     0
  0
CLASS
  1
ACAMGHOLECHARTSTDISO
  2
AcAmgHoleChartStdISO
  3
ACMSYMBB_MODULE_NAME
 90
        0
280
     0
281
     0
  0
ENDSEC
  0
SECTION
  2
TABLES
  0
TABLE
  2
VPORT
  5
8
330
0
100
AcDbSymbolTable
 70
     1
  0
VPORT
  5
B0EC
330
8
100
AcDbSymbolTableRecord
100
AcDbViewportTableRecord
  2
*Active
 70
     0
 10
0.0
 20
0.0
 11
1.0
 21
1.0
 12
271.0114119167376
 22
162.7764076767243
 13
0.0
 23
0.0
 14
2.5
 24
2.5
 15
10.0
 25
10.0
 16
0.0
 26
0.0
 36
1.0
 17
0.0
 27
0.0
 37
0.0
 40
540.263342048456
 41
1.745547073791348
 42
50.0
 43
-1370.695619172058
 44
-1370.695619172058
 50
0.0
 51
0.0
 71
    16
 72
   100
 73
     1
 74
     3
 75
     0
 76
     0
 77
     0
 78
     0
281
     0
 65
     0
110
0.0
120
0.0
130
0.0
111
1.0
121
0.0
131
0.0
112
0.0
122
1.0
132
0.0
 79
     0
146
0.0
  0
ENDTAB
  0
TABLE
  2
LTYPE
  5
5
330
0
100
AcDbSymbolTable
 70
    27
  0
LTYPE
  5
14
330
5
100
AcDbSymbolTableRecord
100
AcDbLinetypeTableRecord
  2
ByBlock
 70
     0
  3

 72
    65
 73
     0
 40
0.0
  0
LTYPE
  5
15
330
5
100
AcDbSymbolTableRecord
100
AcDbLinetypeTableRecord
  2
ByLayer
 70
     0
  3

 72
    65
 73
     0
 40
0.0
  0
LTYPE
  5
16
330
5
100
AcDbSymbolTableRecord
100
AcDbLinetypeTableRecord
  2
Continuous
 70
     0
  3
Solid line
 72
    65
 73
     0
 40
0.0
  0
LTYPE
  5
4F
330
5
100
AcDbSymbolTableRecord
100
AcDbLinetypeTableRecord
  2
AM_ISO02W050
 70
     0
  3
__ __ __ __ __ __ __ __ __ __ __ __ __ __ __
 72
    65
 73
     2
 40
7.5
 49
6.0
 74
     0
 49
-1.5
 74
     0
  0
LTYPE
  5
52
330
5
100
AcDbSymbolTableRecord
100
AcDbLinetypeTableRecord
  2
Amconstr
 70
     0
  3
_______________________
 72
    65
 73
     2
 40
9999.0
 49
9999.0
 74
     0
 49
0.0
 74
     0
  0
LTYPE
  5
64
330
5
100
AcDbSymbolTableRecord
100
AcDbLinetypeTableRecord
  2
ACISOWELD
 70
     0
  3
_ _ _ _ _
 72
    65
 73
     2
 40
2.0
 49
2.0
 74
     0
 49
-1.0
 74
     0
  0
LTYPE
  5
65
330
5
100
AcDbSymbolTableRecord
100
AcDbLinetypeTableRecord
  2
ACISOTGB
 70
     0
  3
__ . . __ . .
 72
    65
 73
     6
 40
9.0
 49
4.0
 74
     0
 49
-1.0
 74
     0
 49
1.0
 74
     0
 49
-1.0
 74
     0
 49
1.0
 74
     0
 49
-1.0
 74
     0
  0
LTYPE
  5
66
330
5
100
AcDbSymbolTableRecord
100
AcDbLinetypeTableRecord
  2
ACISOTGL
 70
     0
  3
_ _ _ _ _
 72
    65
 73
     2
 40
3.0
 49
2.0
 74
     0
 49
-1.0
 74
     0
  0
LTYPE
  5
69
330
5
100
AcDbSymbolTableRecord
100
AcDbLinetypeTableRecord
  2
CENTER
 70
     0
  3
__ . __
 72
    65
 73
     4
 40
7.0
 49
4.0
 74
     0
 49
-1.0
 74
     0
 49
1.0
 74
     0
 49
-1.0
 74
     0
  0
LTYPE
  5
A6E
330
5
100
AcDbSymbolTableRecord
100
AcDbLinetypeTableRecord
  2
PHANTOM2
 70
     0
  3
Phantom (.5x) ___ _ _ ___ _ _ ___ _ _ ___ _ _
 72
    65
 73
     6
 40
31.75
 49
15.875
 74
     0
 49
-3.174999999999999
 74
     0
 49
3.174999999999999
 74
     0
 49
-3.174999999999999
 74
     0
 49
3.174999999999999
 74
     0
 49
-3.174999999999999
 74
     0
  0
LTYPE
  5
4DED
330
5
100
AcDbSymbolTableRecord
100
AcDbLinetypeTableRecord
  2
中線
 70
     0
  3
___________________
 72
    65
 73
     2
 40
2.0
 49
1.0
 74
     0
 49
1.0
 74
     0
  0
LTYPE
  5
4DF6
330
5
100
AcDbSymbolTableRecord
100
AcDbLinetypeTableRecord
  2
細線
 70
     0
  3
___________________
 72
    65
 73
     2
 40
2.0
 49
1.0
 74
     0
 49
1.0
 74
     0
  0
LTYPE
  5
4DF7
330
5
100
AcDbSymbolTableRecord
100
AcDbLinetypeTableRecord
  2
太線
 70
     0
  3
___________________
 72
    65
 73
     2
 40
2.0
 49
1.0
 74
     0
 49
1.0
 74
     0
  0
LTYPE
  5
4EA7
330
5
100
AcDbSymbolTableRecord
100
AcDbLinetypeTableRecord
  2
文字
 70
     0
  3
_________________
 72
    65
 73
     2
 40
2.0
 49
1.0
 74
     0
 49
1.0
 74
     0
  0
LTYPE
  5
4EA9
330
5
100
AcDbSymbolTableRecord
100
AcDbLinetypeTableRecord
  2
寸法線
 70
     0
  3
________________
 72
    65
 73
     2
 40
2.0
 49
1.0
 74
     0
 49
1.0
 74
     0
  0
LTYPE
  5
4F12
330
5
100
AcDbSymbolTableRecord
100
AcDbLinetypeTableRecord
  2
ハッチング
 70
     0
  3
_________________
 72
    65
 73
     2
 40
2.0
 49
1.0
 74
     0
 49
1.0
 74
     0
  0
LTYPE
  5
5180
330
5
100
AcDbSymbolTableRecord
100
AcDbLinetypeTableRecord
  2
陰線1
 70
     0
  3
__ __ __ __
 72
    65
 73
     2
 40
4.0
 49
2.2
 74
     0
 49
-1.8
 74
     0
  0
LTYPE
  5
5182
330
5
100
AcDbSymbolTableRecord
100
AcDbLinetypeTableRecord
  2
切断線
 70
     0
  3
/\/-/\/-/\/-/\/-/\/-/\/
 72
    65
 73
     2
 40
11.0001
 49
0.0001
 74
     4
 75
   135
340
56
 46
0.04
 50
0.0
 44
0.0
 45
0.0
 49
-11.0
 74
     0
  0
LTYPE
  5
5183
330
5
100
AcDbSymbolTableRecord
100
AcDbLinetypeTableRecord
  2
想像線1
 70
     0
  3
__ __ __ _____ __ __ ____
 72
    65
 73
     6
 40
14.5
 49
6.0
 74
     0
 49
-1.5
 74
     0
 49
2.0
 74
     0
 49
-1.5
 74
     0
 49
2.0
 74
     0
 49
-1.5
 74
     0
  0
LTYPE
  5
5185
330
5
100
AcDbSymbolTableRecord
100
AcDbLinetypeTableRecord
  2
中心線1
 70
     0
  3
___ _ ___ _ ___
 72
    65
 73
     4
 40
18.0
 49
12.0
 74
     0
 49
-2.0
 74
     0
 49
2.0
 74
     0
 49
-2.0
 74
     0
  0
LTYPE
  5
5188
330
5
100
AcDbSymbolTableRecord
100
AcDbLinetypeTableRecord
  2
補助線
 70
     0
  3
______________
 72
    65
 73
     2
 40
2.0
 49
1.0
 74
     0
 49
1.0
 74
     0
  0
LTYPE
  5
6427
330
5
100
AcDbSymbolTableRecord
100
AcDbLinetypeTableRecord
  2
HIDDEN
 70
     0
  3
Hidden __ __ __ __ __ __ __ __ __ __ __ __ __ _
 72
    65
 73
     2
 40
0.375
 49
0.25
 74
     0
 49
-0.125
 74
     0
  0
LTYPE
  5
AC81
330
5
100
AcDbSymbolTableRecord
100
AcDbLinetypeTableRecord
  2
破断線
 70
     0
  3
/\/-/\/-/\/-/\/-/\/-/\/
 72
    65
 73
     2
 40
0.4401
 49
0.0001
 74
     4
 75
   136
340
AC80
 46
0.0016
 50
0.0
 44
0.0
 45
0.0
 49
-0.4400000000000001
 74
     0
  0
LTYPE
  5
AC9E
330
5
100
AcDbSymbolTableRecord
100
AcDbLinetypeTableRecord
  2
Amzigzag
 70
     0
  3
/\/-/\/-/\/-/\/-/\/-/\/
 72
    65
 73
     2
 40
11.0001
 49
0.0001
 74
     4
 75
   135
340
56
 46
0.04
 50
0.0
 44
0.0
 45
0.0
 49
-11.0
 74
     0
  0
LTYPE
  5
AF0F
330
5
100
AcDbSymbolTableRecord
100
AcDbLinetypeTableRecord
  2
genzigzag
 70
     0
  3
/\/-/\/-/\/-/\/-/\/-/\/
 72
    65
 73
     2
 40
12.0001
 49
0.0001
 74
     4
 75
   135
340
AC80
 46
2.0
 50
0.0
 44
0.0
 45
0.0
 49
-12.0
 74
     0
  0
LTYPE
  5
AF95
330
5
100
AcDbSymbolTableRecord
100
AcDbLinetypeTableRecord
  2
AM_ISO08W050
 70
     0
  3
____ . ____ . ____ . ____ . ____ . ____ . ____
 72
    65
 73
     4
 40
18.0
 49
12.0
 74
     0
 49
-1.5
 74
     0
 49
3.0
 74
     0
 49
-1.5
 74
     0
  0
LTYPE
  5
AF96
330
5
100
AcDbSymbolTableRecord
100
AcDbLinetypeTableRecord
  2
AM_ISO09W050
 70
     0
  3
_____ . . _____ . . _____ . . ____ .. ____
 72
    65
 73
     6
 40
22.5
 49
12.0
 74
     0
 49
-1.5
 74
     0
 49
3.0
 74
     0
 49
-1.5
 74
     0
 49
3.0
 74
     0
 49
-1.5
 74
     0
  0
LTYPE
  5
AF97
330
5
100
AcDbSymbolTableRecord
100
AcDbLinetypeTableRecord
  2
AM_ISO08W050x2
 70
     0
  3
__ . __ . __ . __ . __ . __
 72
    65
 73
     4
 40
9.0
 49
6.0
 74
     0
 49
-0.75
 74
     0
 49
1.5
 74
     0
 49
-0.75
 74
     0
  0
LTYPE
  5
AF98
330
5
100
AcDbSymbolTableRecord
100
AcDbLinetypeTableRecord
  2
AM_ISO02W050x2
 70
     0
  3
 _ _ _ _ _ _ _ _ _ _ _ _
 72
    65
 73
     2
 40
3.75
 49
3.0
 74
     0
 49
-0.75
 74
     0
  0
ENDTAB
  0
TABLE
  2
LAYER
  5
2
102
{ACAD_XDICTIONARY
360
3F95
102
}
330
0
100
AcDbSymbolTable
 70
    19
  0
LAYER
  5
10
330
2
100
AcDbSymbolTableRecord
100
AcDbLayerTableRecord
  2
0
 70
     0
 62
     7
  6
Continuous
370
    -3
390
F
  0
LAYER
  5
6D1
330
2
100
AcDbSymbolTableRecord
100
AcDbLayerTableRecord
  2
Defpoints
 70
     0
 62
     7
  6
Continuous
290
     0
370
    -3
390
F
  0
LAYER
  5
5F85
330
2
100
AcDbSymbolTableRecord
100
AcDbLayerTableRecord
  2
AM_0
 70
     0
 62
     7
  6
中線
370
    30
390
F
1001
AcAecLayerStandard
1000

1000

  0
LAYER
  5
AC9F
330
2
100
AcDbSymbolTableRecord
100
AcDbLayerTableRecord
  2
size
 70
     0
 62
     5
  6
Continuous
290
     0
370
    25
390
F
  0
LAYER
  5
ACA0
330
2
100
AcDbSymbolTableRecord
100
AcDbLayerTableRecord
  2
waku
 70
     0
 62
     7
  6
Continuous
370
    35
390
F
  0
LAYER
  5
ACA1
330
2
100
AcDbSymbolTableRecord
100
AcDbLayerTableRecord
  2
AM_6
 70
     0
 62
     2
  6
文字
370
    13
390
F
1001
AcAecLayerStandard
1000

1000

  0
LAYER
  5
ACC8
330
2
100
AcDbSymbolTableRecord
100
AcDbLayerTableRecord
  2
hyomoji
 70
     0
 62
     2
  6
Continuous
370
    13
390
F
  0
LAYER
  5
ACC9
330
2
100
AcDbSymbolTableRecord
100
AcDbLayerTableRecord
  2
hyosen1
 70
     0
 62
     1
  6
Continuous
370
    30
390
F
  0
LAYER
  5
ACCA
330
2
100
AcDbSymbolTableRecord
100
AcDbLayerTableRecord
  2
hyosen2
 70
     0
 62
     1
  6
Continuous
370
    13
390
F
  0
LAYER
  5
AD60
330
2
100
AcDbSymbolTableRecord
100
AcDbLayerTableRecord
  2
AM_1
 70
     0
 62
    30
  6
太線
370
    40
390
F
1001
AcAecLayerStandard
1000

1000

  0
LAYER
  5
AD64
330
2
100
AcDbSymbolTableRecord
100
AcDbLayerTableRecord
  2
AM_2
 70
     0
 62
     1
  6
細線
370
    13
390
F
1001
AcAecLayerStandard
1000

1000

  0
LAYER
  5
AD67
330
2
100
AcDbSymbolTableRecord
100
AcDbLayerTableRecord
  2
AM_3
 70
     0
 62
     6
  6
陰線1
370
    13
390
F
1001
AcAecLayerStandard
1000

1000

  0
LAYER
  5
AD68
330
2
100
AcDbSymbolTableRecord
100
AcDbLayerTableRecord
  2
AM_5
 70
     0
 62
     3
  6
寸法線
370
    13
390
F
1001
AcAecLayerStandard
1000

1000

  0
LAYER
  5
AD69
330
2
100
AcDbSymbolTableRecord
100
AcDbLayerTableRecord
  2
AM_7
 70
     0
 62
     4
  6
中心線1
370
    13
390
F
1001
AcAecLayerStandard
1000

1000

  0
LAYER
  5
AD6A
330
2
100
AcDbSymbolTableRecord
100
AcDbLayerTableRecord
  2
AM_8
 70
     0
 62
     1
  6
ハッチング
370
    13
390
F
1001
AcAecLayerStandard
1000

1000

  0
LAYER
  5
AD6E
330
2
100
AcDbSymbolTableRecord
100
AcDbLayerTableRecord
  2
AM_10
 70
     0
 62
     7
  6
切断線
370
    30
390
F
1001
AcAecLayerStandard
1000

1000

  0
LAYER
  5
AD6F
330
2
100
AcDbSymbolTableRecord
100
AcDbLayerTableRecord
  2
AM_11
 70
     0
 62
     2
  6
想像線1
370
    13
390
F
1001
AcAecLayerStandard
1000

1000

  0
LAYER
  5
B1B6
330
2
100
AcDbSymbolTableRecord
100
AcDbLayerTableRecord
  2
AM_CL
 70
     1
 62
    -1
  6
Amconstr
370
    13
390
F
1001
AcAecLayerStandard
1000

1000

  0
LAYER
  5
B68F
330
2
100
AcDbSymbolTableRecord
100
AcDbLayerTableRecord
  2
AM_12
 70
     0
 62
     7
  6
Continuous
290
     0
370
    13
390
F
  0
ENDTAB
  0
TABLE
  2
STYLE
  5
3
330
0
100
AcDbSymbolTable
 70
     6
  0
STYLE
  5
11
330
3
100
AcDbSymbolTableRecord
100
AcDbTextStyleTableRecord
  2
STANDARD
 70
     0
 40
0.0
 41
0.7
 50
0.0
 71
     0
 42
3.2
  3
romans.shx
  4
extfont.shx
  0
STYLE
  5
56
330
3
100
AcDbSymbolTableRecord
100
AcDbTextStyleTableRecord
  2

 70
     1
 40
0.0
 41
1.0
 50
0.0
 71
     0
 42
2.5
  3
ltypeshp.shx
  4

  0
STYLE
  5
58
330
3
100
AcDbSymbolTableRecord
100
AcDbTextStyleTableRecord
  2
ACISOTS
 70
     0
 40
1.0
 41
1.0
 50
0.0
 71
     0
 42
2.5
  3
isocp.shx
  4
extfont.shx
  0
STYLE
  5
63
330
3
100
AcDbSymbolTableRecord
100
AcDbTextStyleTableRecord
  2
ACISOGDT
 70
     0
 40
0.0
 41
1.0
 50
0.0
 71
     0
 42
2.5
  3
amgdt.shx
  4

  0
STYLE
  5
A74
330
3
100
AcDbSymbolTableRecord
100
AcDbTextStyleTableRecord
  2
DIM
 70
     0
 40
0.0
 41
1.0
 50
0.0
 71
     0
 42
2.5
  3
monotxt.shx
  4
extfont.shx
  0
STYLE
  5
AC80
330
3
100
AcDbSymbolTableRecord
100
AcDbTextStyleTableRecord
  2

 70
     1
 40
0.0
 41
1.0
 50
0.0
 71
     0
 42
3.2
  3
genltshp.shx
  4

  0
ENDTAB
  0
TABLE
  2
VIEW
  5
6
330
0
100
AcDbSymbolTable
 70
     6
  0
VIEW
  5
AE1
330
6
100
AcDbSymbolTableRecord
100
AcDbViewTableRecord
  2
AM_VIEW1
 70
     0
 40
129.7276464542651
 10
1775.10588156276
 20
1793.121228859297
 41
148.5
 11
0.0
 21
0.0
 31
1.0
 12
0.0
 22
0.0
 32
0.0
 42
50.0
 43
-1370.695619172058
 44
-1370.695619172058
 50
0.0
 71
    16
281
     0
 72
     0
  0
VIEW
  5
AE2
330
6
100
AcDbSymbolTableRecord
100
AcDbViewTableRecord
  2
AM_VIEW2
 70
     0
 40
129.7276464542651
 10
1923.60588156276
 20
1793.121228859297
 41
148.5
 11
0.0
 21
0.0
 31
1.0
 12
0.0
 22
0.0
 32
0.0
 42
50.0
 43
-1370.695619172058
 44
-1370.695619172058
 50
0.0
 71
    16
281
     0
 72
     0
  0
VIEW
  5
AE3
330
6
100
AcDbSymbolTableRecord
100
AcDbViewTableRecord
  2
AM_VIEW3
 70
     0
 40
129.7276464542651
 10
1775.10588156276
 20
1712.848875313562
 41
148.5
 11
0.0
 21
0.0
 31
1.0
 12
0.0
 22
0.0
 32
0.0
 42
50.0
 43
-1370.695619172058
 44
-1370.695619172058
 50
0.0
 71
    16
281
     0
 72
     0
  0
VIEW
  5
AE4
330
6
100
AcDbSymbolTableRecord
100
AcDbViewTableRecord
  2
AM_VIEW4
 70
     0
 40
129.7276464542651
 10
1923.60588156276
 20
1712.848875313562
 41
148.5
 11
0.0
 21
0.0
 31
1.0
 12
0.0
 22
0.0
 32
0.0
 42
50.0
 43
-1370.695619172058
 44
-1370.695619172058
 50
0.0
 71
    16
281
     0
 72
     0
  0
VIEW
  5
AE5
330
6
100
AcDbSymbolTableRecord
100
AcDbViewTableRecord
  2
AM_VIEW5
 70
     0
 40
129.7276464542651
 10
1849.35588156276
 20
1752.985052086429
 41
148.5
 11
0.0
 21
0.0
 31
1.0
 12
0.0
 22
0.0
 32
0.0
 42
50.0
 43
-1370.695619172058
 44
-1370.695619172058
 50
0.0
 71
    16
281
     0
 72
     0
  0
VIEW
  5
AE6
330
6
100
AcDbSymbolTableRecord
100
AcDbViewTableRecord
  2
AM_VIEW6
 70
     0
 40
259.4526983556011
 10
1849.35588156276
 20
1752.985052086429
 41
296.99703
 11
0.0
 21
0.0
 31
1.0
 12
0.0
 22
0.0
 32
0.0
 42
50.0
 43
-1370.695619172058
 44
-1370.695619172058
 50
0.0
 71
    16
281
     0
 72
     0
  0
ENDTAB
  0
TABLE
  2
UCS
  5
7
330
0
100
AcDbSymbolTable
 70
     0
  0
ENDTAB
  0
TABLE
  2
APPID
  5
9
330
0
100
AcDbSymbolTable
 70
    55
  0
APPID
  5
12
330
9
100
AcDbSymbolTableRecord
100
AcDbRegAppTableRecord
  2
ACAD
 70
     0
  0
APPID
  5
30
330
9
100
AcDbSymbolTableRecord
100
AcDbRegAppTableRecord
  2
MCAD_NO_VIS
 70
     0
  0
APPID
  5
31
330
9
100
AcDbSymbolTableRecord
100
AcDbRegAppTableRecord
  2
ACAD_TEMP_GRAPHIC
 70
     0
  0
APPID
  5
44
330
9
100
AcDbSymbolTableRecord
100
AcDbRegAppTableRecord
  2
ACATTRIBSERVICES
 70
     0
  0
APPID
  5
7A1
330
9
100
AcDbSymbolTableRecord
100
AcDbRegAppTableRecord
  2
GENIUS_GENDIMSH_14
 70
     0
  0
APPID
  5
A49
330
9
100
AcDbSymbolTableRecord
100
AcDbRegAppTableRecord
  2
GENIUS_GENREC_14
 70
     0
  0
APPID
  5
A4A
330
9
100
AcDbSymbolTableRecord
100
AcDbRegAppTableRecord
  2
GENIUS_GENOBJ-N-REC_13
 70
     0
  0
APPID
  5
A4B
330
9
100
AcDbSymbolTableRecord
100
AcDbRegAppTableRecord
  2
GENIUS_GENODEF_13
 70
     0
  0
APPID
  5
A4C
330
9
100
AcDbSymbolTableRecord
100
AcDbRegAppTableRecord
  2
DCO15
 70
     0
  0
APPID
  5
ADC
330
9
100
AcDbSymbolTableRecord
100
AcDbRegAppTableRecord
  2
GENIUS_GENOLIS_13
 70
     0
  0
APPID
  5
ADD
330
9
100
AcDbSymbolTableRecord
100
AcDbRegAppTableRecord
  2
GENIUS_GENOENT_13
 70
     0
  0
APPID
  5
ADE
330
9
100
AcDbSymbolTableRecord
100
AcDbRegAppTableRecord
  2
GENIUS_GENOBJ-N-TIT_13
 70
     0
  0
APPID
  5
ADF
330
9
100
AcDbSymbolTableRecord
100
AcDbRegAppTableRecord
  2
GENIUS_GENTITLE_13
 70
     0
  0
APPID
  5
AE0
330
9
100
AcDbSymbolTableRecord
100
AcDbRegAppTableRecord
  2
GENIUS_GENOREF_13
 70
     0
  0
APPID
  5
AE7
330
9
100
AcDbSymbolTableRecord
100
AcDbRegAppTableRecord
  2
GENIUS_GENSCREG_15
 70
     0
  0
APPID
  5
AE8
330
9
100
AcDbSymbolTableRecord
100
AcDbRegAppTableRecord
  2
GENIUS_GENOBJ-N-SDF_13
 70
     0
  0
APPID
  5
FAF
330
9
100
AcDbSymbolTableRecord
100
AcDbRegAppTableRecord
  2
GENIUS_GENBLLY_14
 70
     0
  0
APPID
  5
FB0
330
9
100
AcDbSymbolTableRecord
100
AcDbRegAppTableRecord
  2
GENIUS_GENTRA_14
 70
     0
  0
APPID
  5
1285
330
9
100
AcDbSymbolTableRecord
100
AcDbRegAppTableRecord
  2
GENIUS_GENDTOL_13
 70
     0
  0
APPID
  5
142D
330
9
100
AcDbSymbolTableRecord
100
AcDbRegAppTableRecord
  2
GENIUS_GENOBJ-N-CEN_13
 70
     0
  0
APPID
  5
1AB5
330
9
100
AcDbSymbolTableRecord
100
AcDbRegAppTableRecord
  2
GENIUS_GENOBJ-N-CRS_13
 70
     0
  0
APPID
  5
1B36
330
9
100
AcDbSymbolTableRecord
100
AcDbRegAppTableRecord
  2
GENIUS_GENOBJ-N-HTC_13
 70
     0
  0
APPID
  5
1B37
330
9
100
AcDbSymbolTableRecord
100
AcDbRegAppTableRecord
  2
GENIUS_GENHATCH_13
 70
     0
  0
APPID
  5
216D
330
9
100
AcDbSymbolTableRecord
100
AcDbRegAppTableRecord
  2
GENIUS_GENOBJ-N-FIL_13
 70
     0
  0
APPID
  5
2356
330
9
100
AcDbSymbolTableRecord
100
AcDbRegAppTableRecord
  2
GEVID990412420
 70
     0
  0
APPID
  5
2357
330
9
100
AcDbSymbolTableRecord
100
AcDbRegAppTableRecord
  2
GEVDC
 70
     0
  0
APPID
  5
2358
330
9
100
AcDbSymbolTableRecord
100
AcDbRegAppTableRecord
  2
GEVCON
 70
     0
  0
APPID
  5
235B
330
9
100
AcDbSymbolTableRecord
100
AcDbRegAppTableRecord
  2
GEVRADREF
 70
     0
  0
APPID
  5
2360
330
9
100
AcDbSymbolTableRecord
100
AcDbRegAppTableRecord
  2
GENIUS_GENBH_13
 70
     0
  0
APPID
  5
2362
330
9
100
AcDbSymbolTableRecord
100
AcDbRegAppTableRecord
  2
GENIUS_GENOBJ-NBEHI-BHF_13
 70
     0
  0
APPID
  5
2364
330
9
100
AcDbSymbolTableRecord
100
AcDbRegAppTableRecord
  2
GENIUS_GENOBJ-NBEHI-BHB_13
 70
     0
  0
APPID
  5
2379
330
9
100
AcDbSymbolTableRecord
100
AcDbRegAppTableRecord
  2
GENIUS_GENOBJ-F-SCPASSM_13
 70
     0
  0
APPID
  5
3D74
330
9
100
AcDbSymbolTableRecord
100
AcDbRegAppTableRecord
  2
GENIUS_GENDIM_13
 70
     0
  0
APPID
  5
3D76
330
9
100
AcDbSymbolTableRecord
100
AcDbRegAppTableRecord
  2
GENIUS_GE3DTOL_13
 70
     0
  0
APPID
  5
3D9C
330
9
100
AcDbSymbolTableRecord
100
AcDbRegAppTableRecord
  2
AD_DRAW
 70
     0
  0
APPID
  5
3DE8
330
9
100
AcDbSymbolTableRecord
100
AcDbRegAppTableRecord
  2
ASURF_PCURVE_APPNAME
 70
     0
  0
APPID
  5
3DED
330
9
100
AcDbSymbolTableRecord
100
AcDbRegAppTableRecord
  2
AMG_3D2D_5.0
 70
     0
  0
APPID
  5
3E1B
330
9
100
AcDbSymbolTableRecord
100
AcDbRegAppTableRecord
  2
DESIGNERASSEMBLIES
 70
     0
  0
APPID
  5
3E20
330
9
100
AcDbSymbolTableRecord
100
AcDbRegAppTableRecord
  2
ACADM_DIM_EDIT
 70
     0
  0
APPID
  5
3E21
330
9
100
AcDbSymbolTableRecord
100
AcDbRegAppTableRecord
  2
AMDT_DM_ADJ
 70
     0
  0
APPID
  5
4143
330
9
100
AcDbSymbolTableRecord
100
AcDbRegAppTableRecord
  2
GENIUS_GENFIL_13
 70
     0
  0
APPID
  5
4144
330
9
100
AcDbSymbolTableRecord
100
AcDbRegAppTableRecord
  2
GENIUS_GENOBJ-N-CHA_13
 70
     0
  0
APPID
  5
4E17
330
9
100
AcDbSymbolTableRecord
100
AcDbRegAppTableRecord
  2
GEVID1008153417
 70
     0
  0
APPID
  5
4E58
330
9
100
AcDbSymbolTableRecord
100
AcDbRegAppTableRecord
  2
GEVID1008153418
 70
     0
  0
APPID
  5
4E5E
330
9
100
AcDbSymbolTableRecord
100
AcDbRegAppTableRecord
  2
GEVID1008153419
 70
     0
  0
APPID
  5
4E64
330
9
100
AcDbSymbolTableRecord
100
AcDbRegAppTableRecord
  2
GEVID1008153420
 70
     0
  0
APPID
  5
4E75
330
9
100
AcDbSymbolTableRecord
100
AcDbRegAppTableRecord
  2
GEVID1008153421
 70
     0
  0
APPID
  5
4EB7
330
9
100
AcDbSymbolTableRecord
100
AcDbRegAppTableRecord
  2
GENIUS_AMGTXT_16
 70
     0
  0
APPID
  5
7645
330
9
100
AcDbSymbolTableRecord
100
AcDbRegAppTableRecord
  2
GENIUS_GENOBJ-N-DIM_13
 70
     0
  0
APPID
  5
AAD0
330
9
100
AcDbSymbolTableRecord
100
AcDbRegAppTableRecord
  2
ACAD_DSTYLE_DIMARC_LENGTH_SYMBOL
 70
     0
  0
APPID
  5
AAD1
330
9
100
AcDbSymbolTableRecord
100
AcDbRegAppTableRecord
  2
ACAD_DSTYLE_DIMJOGGED_JOGANGLE_SYMBOL
 70
     0
  0
APPID
  5
AAFD
330
9
100
AcDbSymbolTableRecord
100
AcDbRegAppTableRecord
  2
ACAD_PSEXT
 70
     0
  0
APPID
  5
AD61
330
9
100
AcDbSymbolTableRecord
100
AcDbRegAppTableRecord
  2
AcAecLayerStandard
 70
     0
  0
APPID
  5
AEE3
330
9
100
AcDbSymbolTableRecord
100
AcDbRegAppTableRecord
  2
ACAD_EXEMPT_FROM_CAD_STANDARDS
 70
     0
  0
APPID
  5
B1BE
330
9
100
AcDbSymbolTableRecord
100
AcDbRegAppTableRecord
  2
GENIUS_GENCEN_19
 70
     0
  0
ENDTAB
  0
TABLE
  2
DIMSTYLE
  5
A
330
0
100
AcDbSymbolTable
 70
    21
100
AcDbDimStyleTable
 71
     1
340
2515
  0
DIMSTYLE
105
A76
330
A
100
AcDbSymbolTableRecord
100
AcDbDimStyleTableRecord
  2
STANDARD
 70
     0
 41
3.0
 42
1.0
 43
7.0
 44
2.0
 73
     0
 74
     0
 77
     1
140
2.799999999999999
141
0.0
143
0.0394
147
0.7
171
     4
172
     1
173
     1
176
     3
177
     3
178
     2
271
     3
272
     3
273
     8
274
     4
289
     0
340
A74
341
A66
343
A66
344
A66
  0
DIMSTYLE
105
2515
330
A
100
AcDbSymbolTableRecord
100
AcDbDimStyleTableRecord
  2
SYS
 70
     0
  4
"
 41
1.0
 42
1.0
 43
10.0
 44
1.0
 47
0.1
 48
0.1
 73
     0
 74
     0
 77
     1
 78
     8
 79
     2
140
3.5
141
0.0
143
0.0393701
146
0.71
147
1.5
172
     1
176
   256
177
   256
178
     7
271
     2
272
     2
283
     0
284
     8
340
11
371
    -1
372
    -1
1001
ACAD_DSTYLE_DIMJOGGED_JOGANGLE_SYMBOL
1070
   384
1040
0.7853981633974483
1001
ACAD_DSTYLE_DIMARC_LENGTH_SYMBOL
1070
   379
1070
     1
  0
DIMSTYLE
105
2516
102
{ACAD_REACTORS
330
B800
330
BB01
102
}
330
A
100
AcDbSymbolTableRecord
100
AcDbDimStyleTableRecord
  2
SYS$3
 70
     0
  4
"
 41
2.0
 42
1.0
 43
10.0
 44
1.0
 47
0.1
 48
0.1
 73
     0
 77
     1
 78
     8
 79
     2
140
3.5
141
0.0
143
0.0393701
146
0.71
147
1.5
176
   256
177
   256
178
     2
271
     2
272
     2
283
     0
284
     8
288
     1
340
11
342
A66
371
    -1
372
    -1
1001
ACAD_DSTYLE_DIMJOGGED_JOGANGLE_SYMBOL
1070
   384
1040
0.7853981633974483
1001
ACAD_DSTYLE_DIMARC_LENGTH_SYMBOL
1070
   379
1070
     1
  0
DIMSTYLE
105
2517
102
{ACAD_REACTORS
330
B80E
330
B80F
102
}
330
A
100
AcDbSymbolTableRecord
100
AcDbDimStyleTableRecord
  2
SYS$4
 70
     0
  4
"
 41
2.0
 42
1.0
 43
10.0
 44
1.0
 47
0.1
 48
0.1
 73
     0
 77
     1
 78
     8
 79
     2
140
3.5
141
0.0
143
0.0393701
146
0.71
147
1.5
173
     1
176
   256
177
   256
178
     2
271
     2
272
     2
283
     0
284
     8
288
     1
340
11
344
A66
371
    -1
372
    -1
1001
ACAD_DSTYLE_DIMJOGGED_JOGANGLE_SYMBOL
1070
   384
1040
0.7853981633974483
1001
ACAD_DSTYLE_DIMARC_LENGTH_SYMBOL
1070
   379
1070
     1
  0
DIMSTYLE
105
2518
330
A
100
AcDbSymbolTableRecord
100
AcDbDimStyleTableRecord
  2
SYS$6
 70
     0
  4
"
 41
2.0
 42
1.0
 43
10.0
 44
1.0
 47
0.1
 48
0.1
 73
     0
 74
     0
 78
     8
 79
     2
140
3.5
141
0.0
143
0.0393701
146
0.71
147
1.5
172
     1
176
   256
177
   256
178
     2
271
     2
272
     2
283
     0
284
     8
340
11
341
A66
371
    -1
372
    -1
1001
ACAD_DSTYLE_DIMJOGGED_JOGANGLE_SYMBOL
1070
   384
1040
0.7853981633974483
1001
ACAD_DSTYLE_DIMARC_LENGTH_SYMBOL
1070
   379
1070
     1
  0
DIMSTYLE
105
2519
330
A
100
AcDbSymbolTableRecord
100
AcDbDimStyleTableRecord
  2
SYS$7
 70
     0
  4
"
 41
2.0
 42
1.0
 43
10.0
 44
1.0
 47
0.1
 48
0.1
 73
     0
 74
     0
 77
     1
 78
     8
 79
     2
140
5.0
141
0.0
143
0.0393701
146
0.71
147
1.5
172
     1
176
   256
177
   256
178
     2
271
     2
272
     2
283
     0
284
     8
340
11
341
A66
342
A66
371
    -1
372
    -1
1001
ACAD_DSTYLE_DIMJOGGED_JOGANGLE_SYMBOL
1070
   384
1040
0.7853981633974483
1001
ACAD_DSTYLE_DIMARC_LENGTH_SYMBOL
1070
   379
1070
     1
  0
DIMSTYLE
105
251A
330
A
100
AcDbSymbolTableRecord
100
AcDbDimStyleTableRecord
  2
SYS$SF
 70
     0
  4
"
 41
2.5
 42
1.0
 43
10.0
 44
1.0
 47
0.1
 48
0.1
 73
     0
 74
     0
 75
     1
 76
     1
 77
     1
 78
     8
 79
     2
140
3.5
141
0.0
143
0.0393701
146
0.71
147
1.5
172
     1
176
   256
177
   256
178
     2
271
     2
272
     3
283
     0
284
     8
340
11
341
6C4
342
6C4
371
    -1
372
    -1
1001
ACAD_DSTYLE_DIMJOGGED_JOGANGLE_SYMBOL
1070
   384
1040
0.7853981633974483
1001
ACAD_DSTYLE_DIMARC_LENGTH_SYMBOL
1070
   379
1070
     1
  0
DIMSTYLE
105
251B
330
A
100
AcDbSymbolTableRecord
100
AcDbDimStyleTableRecord
  2
SYS$SH
 70
     0
  4
"
 41
2.5
 42
1.0
 43
10.0
 44
1.0
 47
0.1
 48
0.1
 73
     0
 74
     0
 75
     1
 76
     1
 77
     1
 78
     8
 79
     2
140
3.5
141
0.0
143
0.0393701
144
2.0
146
0.71
147
1.5
172
     1
173
     1
176
   256
177
   256
178
     2
271
     2
272
     3
283
     0
284
     8
340
11
341
6C4
343
72
344
6C4
371
    -1
372
    -1
1001
ACAD_DSTYLE_DIMJOGGED_JOGANGLE_SYMBOL
1070
   384
1040
0.7853981633974483
1001
ACAD_DSTYLE_DIMARC_LENGTH_SYMBOL
1070
   379
1070
     1
  0
DIMSTYLE
105
2A59
330
A
100
AcDbSymbolTableRecord
100
AcDbDimStyleTableRecord
  2
SYS$2
 70
     0
  4
"
 41
1.0
 42
1.0
 43
10.0
 44
1.0
 47
0.1
 48
0.1
 73
     0
 74
     0
 77
     1
 78
     8
 79
     2
140
3.5
141
0.0
143
0.0393701
146
0.71
147
1.5
172
     1
176
   256
177
   256
178
     2
271
     2
272
     2
283
     0
284
     8
340
11
342
6C4
371
    -1
372
    -1
1001
ACAD_DSTYLE_DIMJOGGED_JOGANGLE_SYMBOL
1070
   384
1040
0.7853981633974483
1001
ACAD_DSTYLE_DIMARC_LENGTH_SYMBOL
1070
   379
1070
     1
  0
DIMSTYLE
105
2AAB
102
{ACAD_REACTORS
330
B7E9
330
B7EA
330
B7EB
330
B7EC
330
B7ED
330
B7EE
330
B7EF
330
B7F0
330
B7F7
330
B7F8
330
B801
330
B802
330
B803
330
B804
330
B805
330
B806
330
B807
330
B808
330
B809
330
B80A
330
B80B
102
}
330
A
100
AcDbSymbolTableRecord
100
AcDbDimStyleTableRecord
  2
SYS$0
 70
     0
  4
"
 41
1.0
 42
1.0
 43
10.0
 44
1.0
 47
0.1
 48
0.1
 73
     0
 74
     0
 77
     1
 78
     8
 79
     2
140
3.200000000000001
141
0.0
143
0.0393701
146
0.71
147
1.5
172
     1
176
   256
177
   256
178
     2
271
     2
272
     2
283
     0
284
     8
340
11
341
A66
342
6C4
371
    -1
372
    -1
1001
ACAD_DSTYLE_DIMJOGGED_JOGANGLE_SYMBOL
1070
   384
1040
0.7853981633974483
1001
ACAD_DSTYLE_DIMARC_LENGTH_SYMBOL
1070
   379
1070
     1
  0
DIMSTYLE
105
AF99
330
A
100
AcDbSymbolTableRecord
100
AcDbDimStyleTableRecord
  2
AM_ISO
 70
     0
  4
"
 41
2.5
 42
1.0
 43
10.0
 44
1.0
 47
0.1
 48
0.1
 73
     0
 74
     0
 77
     1
 78
     8
 79
     2
140
3.5
141
0.0
143
0.0393701
146
0.71
147
1.5
172
     1
176
   256
177
   256
178
     2
271
     2
272
     3
274
     4
283
     0
284
     8
340
11
371
    -1
372
    -1
  0
DIMSTYLE
105
AF9A
330
A
100
AcDbSymbolTableRecord
100
AcDbDimStyleTableRecord
  2
AM_ISO$3
 70
     0
  4
"
 41
2.5
 42
1.0
 43
10.0
 44
1.0
 47
0.1
 48
0.1
 73
     0
 77
     1
 78
     8
 79
     2
140
3.5
141
0.0
143
0.0393701
146
0.71
147
1.5
176
   256
177
   256
178
     2
271
     2
272
     3
274
     4
283
     0
284
     8
288
     1
289
     0
340
11
371
    -1
372
    -1
  0
DIMSTYLE
105
AF9B
330
A
100
AcDbSymbolTableRecord
100
AcDbDimStyleTableRecord
  2
AM_ISO$4
 70
     0
  4
"
 41
2.5
 42
1.0
 43
10.0
 44
1.0
 47
0.1
 48
0.1
 73
     0
 77
     1
 78
     8
 79
     2
140
3.5
141
0.0
143
0.0393701
146
0.71
147
1.5
176
   256
177
   256
178
     2
271
     2
272
     3
274
     4
283
     0
284
     8
288
     1
289
     0
340
11
371
    -1
372
    -1
  0
DIMSTYLE
105
AF9C
330
A
100
AcDbSymbolTableRecord
100
AcDbDimStyleTableRecord
  2
AM_ISO$6
 70
     0
  4
"
 41
2.5
 42
1.0
 43
10.0
 44
1.0
 47
0.1
 48
0.1
 73
     0
 74
     0
 78
     8
 79
     2
140
3.5
141
0.0
143
0.0393701
146
0.71
147
1.5
172
     1
176
   256
177
   256
178
     2
271
     2
272
     3
274
     4
283
     0
284
     8
340
11
371
    -1
372
    -1
  0
DIMSTYLE
105
AF9D
330
A
100
AcDbSymbolTableRecord
100
AcDbDimStyleTableRecord
  2
AM_ISO$7
 70
     0
  4
"
 41
2.5
 42
1.0
 43
10.0
 44
1.0
 47
0.1
 48
0.1
 73
     0
 74
     0
 77
     1
 78
     8
 79
     2
140
5.0
141
0.0
143
0.0393701
146
0.71
147
1.5
172
     1
176
   256
177
   256
178
     2
271
     2
272
     3
274
     4
283
     0
284
     8
340
11
371
    -1
372
    -1
  0
DIMSTYLE
105
AF9E
330
A
100
AcDbSymbolTableRecord
100
AcDbDimStyleTableRecord
  2
AM_ISO$SF
 70
     0
  4
"
 41
2.5
 42
1.0
 43
10.0
 44
1.0
 47
0.1
 48
0.1
 73
     0
 74
     0
 75
     1
 76
     1
 77
     1
 78
     8
 79
     2
140
3.5
141
0.0
143
0.0393701
146
0.71
147
1.5
172
     1
176
   256
177
   256
178
     2
271
     2
272
     3
274
     4
283
     0
284
     8
340
11
371
    -1
372
    -1
  0
DIMSTYLE
105
AF9F
330
A
100
AcDbSymbolTableRecord
100
AcDbDimStyleTableRecord
  2
AM_ISO$SH
 70
     0
  4
"
 41
2.5
 42
1.0
 43
10.0
 44
1.0
 47
0.1
 48
0.1
 73
     0
 74
     0
 75
     1
 76
     1
 77
     1
 78
     8
 79
     2
140
3.5
141
0.0
143
0.0393701
144
2.0
146
0.71
147
1.5
172
     1
173
     1
176
   256
177
   256
178
     2
271
     2
272
     3
274
     4
283
     0
284
     8
340
11
343
72
371
    -1
372
    -1
  0
DIMSTYLE
105
B690
330
A
100
AcDbSymbolTableRecord
100
AcDbDimStyleTableRecord
  2
AM_ANSI
 70
     0
  4
mm
 41
0.1
 42
0.05
 43
0.5
 44
0.1
 47
0.1
 48
0.1
 78
     7
 79
     2
140
0.12
141
0.0
146
0.71
147
0.06
176
   256
177
   256
178
     2
274
     4
284
     7
340
11
371
    -1
372
    -1
1001
ACAD_DSTYLE_DIMJOGGED_JOGANGLE_SYMBOL
1070
   384
1040
0.7853981633974483
1001
ACAD_DSTYLE_DIMARC_LENGTH_SYMBOL
1070
   379
1070
     1
  0
DIMSTYLE
105
B691
330
A
100
AcDbSymbolTableRecord
100
AcDbDimStyleTableRecord
  2
SYSORG1P25
 70
     0
  4
"
 41
1.0
 42
1.0
 43
10.0
 44
1.0
 47
0.2
 48
0.2000000002
 71
     1
 73
     0
 74
     0
 77
     1
 78
     8
 79
     2
140
3.5
141
0.0
143
0.0393701
144
1.25000317891954
146
0.6
147
1.5
172
     1
176
   256
177
   256
178
     7
271
     2
272
     2
283
     0
284
     8
340
11
341
A66
342
6C4
371
    -1
372
    -1
  0
DIMSTYLE
105
B692
330
A
100
AcDbSymbolTableRecord
100
AcDbDimStyleTableRecord
  2
AM_ISO$0
 70
     0
  4
"
 41
0.8
 42
1.0
 43
10.0
 44
1.0
 47
0.1
 48
0.1
 73
     0
 74
     0
 77
     1
 78
     8
 79
     2
140
3.2
141
0.0
143
0.0393701
146
0.71
147
0.9999999999999996
172
     1
176
   256
177
   256
178
     2
271
     2
272
     2
283
     0
284
     8
340
11
341
6C4
342
6C4
371
    -1
372
    -1
1001
ACAD_DSTYLE_DIMJOGGED_JOGANGLE_SYMBOL
1070
   384
1040
0.7853981633974483
1001
ACAD_DSTYLE_DIMARC_LENGTH_SYMBOL
1070
   379
1070
     1
  0
DIMSTYLE
105
B693
330
A
100
AcDbSymbolTableRecord
100
AcDbDimStyleTableRecord
  2
AM_ISO$2
 70
     0
  4
"
 41
0.8
 42
1.0
 43
10.0
 44
1.0
 47
0.1
 48
0.1
 73
     0
 74
     0
 77
     3
 78
     8
 79
     2
140
3.200000000000001
141
0.0
143
0.0393701
146
0.71
147
0.9999999999999996
172
     1
176
   256
177
   256
178
     2
271
     2
272
     2
283
     0
284
     8
340
11
341
6C4
342
6C4
371
    -1
372
    -1
1001
ACAD_DSTYLE_DIMJOGGED_JOGANGLE_SYMBOL
1070
   384
1040
0.7853981633974483
1001
ACAD_DSTYLE_DIMARC_LENGTH_SYMBOL
1070
   379
1070
     1
  0
ENDTAB
  0
TABLE
  2
BLOCK_RECORD
  5
1
330
0
100
AcDbSymbolTable
 70
    75
  0
BLOCK_RECORD
  5
1F
102
{ACAD_XDICTIONARY
360
8A
102
}
330
1
100
AcDbSymbolTableRecord
100
AcDbBlockTableRecord
  2
*Model_Space
340
22
  0
BLOCK_RECORD
  5
1B
330
1
100
AcDbSymbolTableRecord
100
AcDbBlockTableRecord
  2
*Paper_Space
340
1E
  0
BLOCK_RECORD
  5
23
330
1
100
AcDbSymbolTableRecord
100
AcDbBlockTableRecord
  2
*Paper_Space0
340
26
  0
BLOCK_RECORD
  5
72
330
1
100
AcDbSymbolTableRecord
100
AcDbBlockTableRecord
  2
GENAXEH
340
0
  0
BLOCK_RECORD
  5
6C4
330
1
100
AcDbSymbolTableRecord
100
AcDbBlockTableRecord
  2
_Dot
340
0
102
{BLKREFS
331
B571
331
B572
331
B57D
331
B57E
331
B589
331
B58A
331
B595
331
B596
331
B5A1
331
B5A2
331
B5AD
331
B5AE
331
B5B9
331
B5BA
331
B5C5
331
B5C6
331
B728
331
B729
331
B5D1
331
B5D2
331
B5DD
331
B5DE
331
B5FB
331
B5FC
331
B60B
331
B60C
331
B616
331
B617
331
B622
331
B623
331
B62E
331
B62F
331
B63A
331
B63B
331
B646
331
B647
331
B652
331
B653
331
B65E
331
B65F
331
B66A
331
B66B
331
B676
331
B677
331
B7F4
331
B7F5
331
B931
331
B932
331
B93A
331
B93B
331
B943
331
B944
331
B94C
331
B94D
331
B955
331
B956
331
B95E
331
B95F
331
B967
331
B968
331
B970
331
B971
331
B979
331
B97A
331
B982
331
B983
331
B995
331
B996
331
B9A2
331
B9A3
331
B9AA
331
B9AB
331
B9B3
331
B9B4
331
B9BC
331
B9BD
331
B9C5
331
B9C6
331
B9CE
331
B9CF
331
B9D7
331
B9D8
331
B9E0
331
B9E1
331
B9E9
331
B9EA
331
B9F2
331
B9F3
331
BADC
331
BADD
331
BBBB
331
BBBC
102
}
  0
BLOCK_RECORD
  5
A66
330
1
100
AcDbSymbolTableRecord
100
AcDbBlockTableRecord
  2
_OPEN30
340
0
102
{BLKREFS
331
B682
331
B68B
331
B9FB
331
BA01
331
BA39
331
BA4D
331
BA5B
331
BAEB
331
BAF9
331
BB3C
331
BB4F
331
BB50
331
BB6B
331
BB6C
331
BB7B
331
BB89
102
}
  0
BLOCK_RECORD
  5
B542
330
1
100
AcDbSymbolTableRecord
100
AcDbBlockTableRecord
  2
*S52514242424242425
340
0
102
{BLKREFS
331
B710
331
B7DC
102
}
  0
BLOCK_RECORD
  5
B548
330
1
100
AcDbSymbolTableRecord
100
AcDbBlockTableRecord
  2
*S54534444444444446
340
0
102
{BLKREFS
331
B711
331
B7DD
102
}
  0
BLOCK_RECORD
  5
B54E
330
1
100
AcDbSymbolTableRecord
100
AcDbBlockTableRecord
  2
*S56554646464646467
340
0
102
{BLKREFS
331
B712
331
B7DE
102
}
  0
BLOCK_RECORD
  5
B554
330
1
100
AcDbSymbolTableRecord
100
AcDbBlockTableRecord
  2
*S60595050505050508
340
0
102
{BLKREFS
331
B713
331
B7DF
102
}
  0
BLOCK_RECORD
  5
B55A
330
1
100
AcDbSymbolTableRecord
100
AcDbBlockTableRecord
  2
*S62615252525252529
340
0
102
{BLKREFS
331
B714
331
B7E0
102
}
  0
BLOCK_RECORD
  5
B560
330
1
100
AcDbSymbolTableRecord
100
AcDbBlockTableRecord
  2
*S666556565656565610
340
0
102
{BLKREFS
331
B715
331
B7E1
102
}
  0
BLOCK_RECORD
  5
B566
330
1
100
AcDbSymbolTableRecord
100
AcDbBlockTableRecord
  2
*S706960606060606011
340
0
102
{BLKREFS
331
B716
331
B7E2
102
}
  0
BLOCK_RECORD
  5
B56C
330
1
100
AcDbSymbolTableRecord
100
AcDbBlockTableRecord
  2
*D12
340
0
  0
BLOCK_RECORD
  5
B578
330
1
100
AcDbSymbolTableRecord
100
AcDbBlockTableRecord
  2
*D13
340
0
  0
BLOCK_RECORD
  5
B584
330
1
100
AcDbSymbolTableRecord
100
AcDbBlockTableRecord
  2
*D14
340
0
  0
BLOCK_RECORD
  5
B590
330
1
100
AcDbSymbolTableRecord
100
AcDbBlockTableRecord
  2
*D15
340
0
  0
BLOCK_RECORD
  5
B59C
330
1
100
AcDbSymbolTableRecord
100
AcDbBlockTableRecord
  2
*D16
340
0
  0
BLOCK_RECORD
  5
B5A8
330
1
100
AcDbSymbolTableRecord
100
AcDbBlockTableRecord
  2
*D17
340
0
  0
BLOCK_RECORD
  5
B5B4
330
1
100
AcDbSymbolTableRecord
100
AcDbBlockTableRecord
  2
*D18
340
0
  0
BLOCK_RECORD
  5
B5C0
330
1
100
AcDbSymbolTableRecord
100
AcDbBlockTableRecord
  2
*D19
340
0
  0
BLOCK_RECORD
  5
B5CC
330
1
100
AcDbSymbolTableRecord
100
AcDbBlockTableRecord
  2
*D20
340
0
  0
BLOCK_RECORD
  5
B5D8
330
1
100
AcDbSymbolTableRecord
100
AcDbBlockTableRecord
  2
*D21
340
0
  0
BLOCK_RECORD
  5
B5E4
330
1
100
AcDbSymbolTableRecord
100
AcDbBlockTableRecord
  2
GENDOT
340
0
102
{BLKREFS
331
B731
331
B732
331
B5EE
331
B5EF
331
B98B
331
B98C
331
BBC3
331
BBC4
102
}
  0
BLOCK_RECORD
  5
B5E9
330
1
100
AcDbSymbolTableRecord
100
AcDbBlockTableRecord
  2
*D23
340
0
  0
BLOCK_RECORD
  5
B5F4
330
1
100
AcDbSymbolTableRecord
100
AcDbBlockTableRecord
  2
*D24
340
0
  0
BLOCK_RECORD
  5
B601
330
1
100
AcDbSymbolTableRecord
100
AcDbBlockTableRecord
  2
*D25
340
0
  0
BLOCK_RECORD
  5
B611
330
1
100
AcDbSymbolTableRecord
100
AcDbBlockTableRecord
  2
*D26
340
0
  0
BLOCK_RECORD
  5
B61D
330
1
100
AcDbSymbolTableRecord
100
AcDbBlockTableRecord
  2
*D27
340
0
  0
BLOCK_RECORD
  5
B629
330
1
100
AcDbSymbolTableRecord
100
AcDbBlockTableRecord
  2
*D28
340
0
  0
BLOCK_RECORD
  5
B635
330
1
100
AcDbSymbolTableRecord
100
AcDbBlockTableRecord
  2
*D29
340
0
  0
BLOCK_RECORD
  5
B641
330
1
100
AcDbSymbolTableRecord
100
AcDbBlockTableRecord
  2
*D30
340
0
  0
BLOCK_RECORD
  5
B64D
330
1
100
AcDbSymbolTableRecord
100
AcDbBlockTableRecord
  2
*D31
340
0
  0
BLOCK_RECORD
  5
B659
330
1
100
AcDbSymbolTableRecord
100
AcDbBlockTableRecord
  2
*D32
340
0
  0
BLOCK_RECORD
  5
B665
330
1
100
AcDbSymbolTableRecord
100
AcDbBlockTableRecord
  2
*D33
340
0
  0
BLOCK_RECORD
  5
B671
330
1
100
AcDbSymbolTableRecord
100
AcDbBlockTableRecord
  2
*D34
340
0
  0
BLOCK_RECORD
  5
B67D
330
1
100
AcDbSymbolTableRecord
100
AcDbBlockTableRecord
  2
*D35
340
0
  0
BLOCK_RECORD
  5
B686
330
1
100
AcDbSymbolTableRecord
100
AcDbBlockTableRecord
  2
*D36
340
0
  0
BLOCK_RECORD
  5
B810
330
1
100
AcDbSymbolTableRecord
100
AcDbBlockTableRecord
  2
*D38
340
0
  0
BLOCK_RECORD
  5
B81C
330
1
100
AcDbSymbolTableRecord
100
AcDbBlockTableRecord
  2
*D39
340
0
  0
BLOCK_RECORD
  5
B828
330
1
100
AcDbSymbolTableRecord
100
AcDbBlockTableRecord
  2
*D40
340
0
  0
BLOCK_RECORD
  5
B834
330
1
100
AcDbSymbolTableRecord
100
AcDbBlockTableRecord
  2
*D41
340
0
  0
BLOCK_RECORD
  5
B840
330
1
100
AcDbSymbolTableRecord
100
AcDbBlockTableRecord
  2
*D42
340
0
  0
BLOCK_RECORD
  5
B84C
330
1
100
AcDbSymbolTableRecord
100
AcDbBlockTableRecord
  2
*D43
340
0
  0
BLOCK_RECORD
  5
B858
330
1
100
AcDbSymbolTableRecord
100
AcDbBlockTableRecord
  2
*D44
340
0
  0
BLOCK_RECORD
  5
B864
330
1
100
AcDbSymbolTableRecord
100
AcDbBlockTableRecord
  2
*D45
340
0
  0
BLOCK_RECORD
  5
B870
330
1
100
AcDbSymbolTableRecord
100
AcDbBlockTableRecord
  2
*D46
340
0
  0
BLOCK_RECORD
  5
B87C
330
1
100
AcDbSymbolTableRecord
100
AcDbBlockTableRecord
  2
*D47
340
0
  0
BLOCK_RECORD
  5
B888
330
1
100
AcDbSymbolTableRecord
100
AcDbBlockTableRecord
  2
*D48
340
0
  0
BLOCK_RECORD
  5
B893
330
1
100
AcDbSymbolTableRecord
100
AcDbBlockTableRecord
  2
*D49
340
0
  0
BLOCK_RECORD
  5
B8A0
330
1
100
AcDbSymbolTableRecord
100
AcDbBlockTableRecord
  2
*D50
340
0
  0
BLOCK_RECORD
  5
B8B0
330
1
100
AcDbSymbolTableRecord
100
AcDbBlockTableRecord
  2
*D51
340
0
  0
BLOCK_RECORD
  5
B8BC
330
1
100
AcDbSymbolTableRecord
100
AcDbBlockTableRecord
  2
*D52
340
0
  0
BLOCK_RECORD
  5
B8C8
330
1
100
AcDbSymbolTableRecord
100
AcDbBlockTableRecord
  2
*D53
340
0
  0
BLOCK_RECORD
  5
B8D4
330
1
100
AcDbSymbolTableRecord
100
AcDbBlockTableRecord
  2
*D54
340
0
  0
BLOCK_RECORD
  5
B8E0
330
1
100
AcDbSymbolTableRecord
100
AcDbBlockTableRecord
  2
*D55
340
0
  0
BLOCK_RECORD
  5
B8EC
330
1
100
AcDbSymbolTableRecord
100
AcDbBlockTableRecord
  2
*D56
340
0
  0
BLOCK_RECORD
  5
B8F8
330
1
100
AcDbSymbolTableRecord
100
AcDbBlockTableRecord
  2
*D57
340
0
  0
BLOCK_RECORD
  5
B904
330
1
100
AcDbSymbolTableRecord
100
AcDbBlockTableRecord
  2
*D58
340
0
  0
BLOCK_RECORD
  5
B910
330
1
100
AcDbSymbolTableRecord
100
AcDbBlockTableRecord
  2
*D59
340
0
  0
BLOCK_RECORD
  5
B91C
330
1
100
AcDbSymbolTableRecord
100
AcDbBlockTableRecord
  2
*D60
340
0
  0
BLOCK_RECORD
  5
B925
330
1
100
AcDbSymbolTableRecord
100
AcDbBlockTableRecord
  2
*D61
340
0
  0
BLOCK_RECORD
  5
BA29
330
1
100
AcDbSymbolTableRecord
100
AcDbBlockTableRecord
  2
*D62
340
0
  0
BLOCK_RECORD
  5
BA43
330
1
100
AcDbSymbolTableRecord
100
AcDbBlockTableRecord
  2
*D63
340
0
  0
BLOCK_RECORD
  5
BA51
330
1
100
AcDbSymbolTableRecord
100
AcDbBlockTableRecord
  2
*D64
340
0
  0
BLOCK_RECORD
  5
BA5F
330
1
100
AcDbSymbolTableRecord
100
AcDbBlockTableRecord
  2
*D65
340
0
  0
BLOCK_RECORD
  5
BAE1
330
1
100
AcDbSymbolTableRecord
100
AcDbBlockTableRecord
  2
*D66
340
0
  0
BLOCK_RECORD
  5
BAEF
330
1
100
AcDbSymbolTableRecord
100
AcDbBlockTableRecord
  2
*D67
340
0
  0
BLOCK_RECORD
  5
BB02
330
1
100
AcDbSymbolTableRecord
100
AcDbBlockTableRecord
  2
*D68
340
0
  0
BLOCK_RECORD
  5
BB2E
330
1
100
AcDbSymbolTableRecord
100
AcDbBlockTableRecord
  2
*D69
340
0
  0
BLOCK_RECORD
  5
BB41
330
1
100
AcDbSymbolTableRecord
100
AcDbBlockTableRecord
  2
*D70
340
0
  0
BLOCK_RECORD
  5
BB55
330
1
100
AcDbSymbolTableRecord
100
AcDbBlockTableRecord
  2
*D71
340
0
  0
BLOCK_RECORD
  5
BB71
330
1
100
AcDbSymbolTableRecord
100
AcDbBlockTableRecord
  2
*D72
340
0
  0
BLOCK_RECORD
  5
BB7F
330
1
100
AcDbSymbolTableRecord
100
AcDbBlockTableRecord
  2
*D73
340
0
  0
BLOCK_RECORD
  5
BB8D
330
1
100
AcDbSymbolTableRecord
100
AcDbBlockTableRecord
  2
*D74
340
0
  0
ENDTAB
  0
ENDSEC
  0
SECTION
  2
BLOCKS
  0
BLOCK
  5
20
330
1F
100
AcDbEntity
  8
0
100
AcDbBlockBegin
  2
*Model_Space
 70
     0
 10
0.0
 20
0.0
 30
0.0
  3
*Model_Space
  1

  0
ENDBLK
  5
21
330
1F
100
AcDbEntity
  8
0
100
AcDbBlockEnd
  0
BLOCK
  5
1C
330
1B
100
AcDbEntity
 67
     1
  8
0
100
AcDbBlockBegin
  2
*Paper_Space
 70
     0
 10
0.0
 20
0.0
 30
0.0
  3
*Paper_Space
  1

  0
ENDBLK
  5
1D
330
1B
100
AcDbEntity
 67
     1
  8
0
100
AcDbBlockEnd
  0
BLOCK
  5
24
330
23
100
AcDbEntity
 67
     1
  8
0
100
AcDbBlockBegin
  2
*Paper_Space0
 70
     0
 10
0.0
 20
0.0
 30
0.0
  3
*Paper_Space0
  1

  0
ENDBLK
  5
25
330
23
100
AcDbEntity
 67
     1
  8
0
100
AcDbBlockEnd
  0
BLOCK
  5
74
330
72
100
AcDbEntity
  8
0
100
AcDbBlockBegin
  2
GENAXEH
 70
     0
 10
0.0
 20
0.0
 30
0.0
  3
GENAXEH
  1

  0
LINE
  5
73
330
72
100
AcDbEntity
  8
0
100
AcDbLine
 10
-1.0
 20
0.0
 30
0.0
 11
1.0
 21
0.0
 31
0.0
  0
ENDBLK
  5
75
330
72
100
AcDbEntity
  8
0
100
AcDbBlockEnd
  0
BLOCK
  5
6C7
330
6C4
100
AcDbEntity
  8
0
100
AcDbBlockBegin
  2
_Dot
 70
     0
 10
0.0
 20
0.0
 30
0.0
  3
_Dot
  1

  0
LWPOLYLINE
  5
6C5
330
6C4
100
AcDbEntity
  8
0
  6
ByBlock
 62
     0
100
AcDbPolyline
 90
        2
 70
     1
 43
0.5
 10
-0.25
 20
0.0
 42
1.0
 10
0.25
 20
0.0
 42
1.0
  0
LINE
  5
6C6
330
6C4
100
AcDbEntity
  8
0
  6
ByBlock
 62
     0
370
    -2
100
AcDbLine
 10
-0.5
 20
0.0
 30
0.0
 11
-1.0
 21
0.0
 31
0.0
  0
ENDBLK
  5
6C8
330
6C4
100
AcDbEntity
  8
0
100
AcDbBlockEnd
  0
BLOCK
  5
A6A
330
A66
100
AcDbEntity
  8
0
100
AcDbBlockBegin
  2
_OPEN30
 70
     0
 10
0.0
 20
0.0
 30
0.0
  3
_OPEN30
  1

  0
LINE
  5
A67
330
A66
100
AcDbEntity
  8
0
  6
ByBlock
 62
     0
100
AcDbLine
 10
-1.0
 20
0.26794919
 30
0.0
 11
0.0
 21
0.0
 31
0.0
  0
LINE
  5
A68
330
A66
100
AcDbEntity
  8
0
  6
ByBlock
 62
     0
100
AcDbLine
 10
0.0
 20
0.0
 30
0.0
 11
-1.0
 21
-0.26794919
 31
0.0
  0
LINE
  5
A69
330
A66
100
AcDbEntity
  8
0
  6
ByBlock
 62
     0
100
AcDbLine
 10
0.0
 20
0.0
 30
0.0
 11
-1.0
 21
0.0
 31
0.0
  0
ENDBLK
  5
A6B
330
A66
100
AcDbEntity
  8
0
100
AcDbBlockEnd
  0
BLOCK
  5
B543
330
B542
100
AcDbEntity
  8
0
100
AcDbBlockBegin
  2
*S52514242424242425
 70
     1
 10
0.0
 20
0.0
 30
0.0
  3
*S52514242424242425
  1

  0
CIRCLE
  5
B544
330
B542
100
AcDbEntity
  8
AM_12
 62
     4
100
AcDbCircle
 10
434.2305072603721
 20
-196.4392192591997
 30
0.0
 40
1.75
  0
LINE
  5
B545
330
B542
100
AcDbEntity
  8
AM_12
 62
     4
100
AcDbLine
 10
432.4805072603721
 20
-198.1892192591998
 30
0.0
 11
435.9805072603721
 21
-194.6892192591997
 31
0.0
  0
LINE
  5
B546
330
B542
100
AcDbEntity
  8
AM_12
 62
     4
100
AcDbLine
 10
432.4805072603721
 20
-194.6892192591997
 30
0.0
 11
435.9805072603721
 21
-198.1892192591998
 31
0.0
  0
ENDBLK
  5
B547
330
B542
100
AcDbEntity
  8
0
100
AcDbBlockEnd
  0
BLOCK
  5
B549
330
B548
100
AcDbEntity
  8
0
100
AcDbBlockBegin
  2
*S54534444444444446
 70
     1
 10
0.0
 20
0.0
 30
0.0
  3
*S54534444444444446
  1

  0
CIRCLE
  5
B54A
330
B548
100
AcDbEntity
  8
AM_12
 62
     4
100
AcDbCircle
 10
471.2606499322778
 20
-354.0786591091372
 30
0.0
 40
1.75
  0
LINE
  5
B54B
330
B548
100
AcDbEntity
  8
AM_12
 62
     4
100
AcDbLine
 10
469.5106499322778
 20
-355.8286591091372
 30
0.0
 11
473.0106499322778
 21
-352.3286591091371
 31
0.0
  0
LINE
  5
B54C
330
B548
100
AcDbEntity
  8
AM_12
 62
     4
100
AcDbLine
 10
469.5106499322778
 20
-352.3286591091371
 30
0.0
 11
473.0106499322778
 21
-355.8286591091372
 31
0.0
  0
ENDBLK
  5
B54D
330
B548
100
AcDbEntity
  8
0
100
AcDbBlockEnd
  0
BLOCK
  5
B54F
330
B54E
100
AcDbEntity
  8
0
100
AcDbBlockBegin
  2
*S56554646464646467
 70
     1
 10
0.0
 20
0.0
 30
0.0
  3
*S56554646464646467
  1

  0
CIRCLE
  5
B550
330
B54E
100
AcDbEntity
  8
AM_12
 62
     4
100
AcDbCircle
 10
453.3469795263711
 20
-254.8853989854594
 30
0.0
 40
1.75
  0
LINE
  5
B551
330
B54E
100
AcDbEntity
  8
AM_12
 62
     4
100
AcDbLine
 10
451.5969795263711
 20
-256.6353989854594
 30
0.0
 11
455.0969795263712
 21
-253.1353989854594
 31
0.0
  0
LINE
  5
B552
330
B54E
100
AcDbEntity
  8
AM_12
 62
     4
100
AcDbLine
 10
451.5969795263711
 20
-253.1353989854594
 30
0.0
 11
455.0969795263712
 21
-256.6353989854594
 31
0.0
  0
ENDBLK
  5
B553
330
B54E
100
AcDbEntity
  8
0
100
AcDbBlockEnd
  0
BLOCK
  5
B555
330
B554
100
AcDbEntity
  8
0
100
AcDbBlockBegin
  2
*S60595050505050508
 70
     1
 10
0.0
 20
0.0
 30
0.0
  3
*S60595050505050508
  1

  0
CIRCLE
  5
B556
330
B554
100
AcDbEntity
  8
AM_12
 62
     4
100
AcDbCircle
 10
456.1643182041633
 20
-182.2763145397497
 30
0.0
 40
1.75
  0
LINE
  5
B557
330
B554
100
AcDbEntity
  8
AM_12
 62
     4
100
AcDbLine
 10
454.4143182041635
 20
-184.0263145397497
 30
0.0
 11
457.9143182041631
 21
-180.5263145397496
 31
0.0
  0
LINE
  5
B558
330
B554
100
AcDbEntity
  8
AM_12
 62
     4
100
AcDbLine
 10
454.4143182041635
 20
-180.5263145397496
 30
0.0
 11
457.9143182041631
 21
-184.0263145397497
 31
0.0
  0
ENDBLK
  5
B559
330
B554
100
AcDbEntity
  8
0
100
AcDbBlockEnd
  0
BLOCK
  5
B55B
330
B55A
100
AcDbEntity
  8
0
100
AcDbBlockBegin
  2
*S62615252525252529
 70
     1
 10
0.0
 20
0.0
 30
0.0
  3
*S62615252525252529
  1

  0
CIRCLE
  5
B55C
330
B55A
100
AcDbEntity
  8
AM_12
 62
     4
100
AcDbCircle
 10
455.8017795609943
 20
-369.9844463147333
 30
0.0
 40
1.75
  0
LINE
  5
B55D
330
B55A
100
AcDbEntity
  8
AM_12
 62
     4
100
AcDbLine
 10
454.0517795609943
 20
-371.7344463147334
 30
0.0
 11
457.5517795609943
 21
-368.2344463147334
 31
0.0
  0
LINE
  5
B55E
330
B55A
100
AcDbEntity
  8
AM_12
 62
     4
100
AcDbLine
 10
454.0517795609943
 20
-368.2344463147334
 30
0.0
 11
457.5517795609943
 21
-371.7344463147334
 31
0.0
  0
ENDBLK
  5
B55F
330
B55A
100
AcDbEntity
  8
0
100
AcDbBlockEnd
  0
BLOCK
  5
B561
330
B560
100
AcDbEntity
  8
0
100
AcDbBlockBegin
  2
*S666556565656565610
 70
     1
 10
0.0
 20
0.0
 30
0.0
  3
*S666556565656565610
  1

  0
CIRCLE
  5
B562
330
B560
100
AcDbEntity
  8
AM_12
 62
     4
100
AcDbCircle
 10
456.9845769643425
 20
-228.4045202353603
 30
0.0
 40
1.75
  0
LINE
  5
B563
330
B560
100
AcDbEntity
  8
AM_12
 62
     4
100
AcDbLine
 10
455.2345769643425
 20
-230.1545202353604
 30
0.0
 11
458.7345769643425
 21
-226.6545202353603
 31
0.0
  0
LINE
  5
B564
330
B560
100
AcDbEntity
  8
AM_12
 62
     4
100
AcDbLine
 10
455.2345769643425
 20
-226.6545202353603
 30
0.0
 11
458.7345769643425
 21
-230.1545202353604
 31
0.0
  0
ENDBLK
  5
B565
330
B560
100
AcDbEntity
  8
0
100
AcDbBlockEnd
  0
BLOCK
  5
B567
330
B566
100
AcDbEntity
  8
0
100
AcDbBlockBegin
  2
*S706960606060606011
 70
     1
 10
0.0
 20
0.0
 30
0.0
  3
*S706960606060606011
  1

  0
CIRCLE
  5
B568
330
B566
100
AcDbEntity
  8
AM_12
 62
     4
100
AcDbCircle
 10
455.5847161253088
 20
-294.0205349616519
 30
0.0
 40
1.75
  0
LINE
  5
B569
330
B566
100
AcDbEntity
  8
AM_12
 62
     4
100
AcDbLine
 10
453.8347161253091
 20
-295.7705349616518
 30
0.0
 11
457.334716125309
 21
-292.2705349616519
 31
0.0
  0
LINE
  5
B56A
330
B566
100
AcDbEntity
  8
AM_12
 62
     4
100
AcDbLine
 10
453.8347161253091
 20
-292.2705349616519
 30
0.0
 11
457.334716125309
 21
-295.7705349616518
 31
0.0
  0
ENDBLK
  5
B56B
330
B566
100
AcDbEntity
  8
0
100
AcDbBlockEnd
  0
BLOCK
  5
B56D
330
B56C
100
AcDbEntity
  8
0
100
AcDbBlockBegin
  2
*D12
 70
     1
 10
0.0
 20
0.0
 30
0.0
  3
*D12
  1

  0
LINE
  5
B56E
330
B56C
100
AcDbEntity
  8
AM_5
100
AcDbLine
 10
913.4722605097083
 20
-196.601498827457
 30
0.0
 11
898.9722595097083
 21
-196.601498827457
 31
0.0
  0
LINE
  5
B56F
330
B56C
100
AcDbEntity
  8
AM_5
100
AcDbLine
 10
910.2222605097079
 20
-258.1014988274572
 30
0.0
 11
898.9722595097081
 21
-258.1014988274572
 31
0.0
  0
LINE
  5
B570
330
B56C
100
AcDbEntity
  8
AM_5
100
AcDbLine
 10
899.9722595097082
 20
-197.601498827457
 30
0.0
 11
899.9722595097081
 21
-257.1014988274573
 31
0.0
  0
INSERT
  5
B571
330
B56C
100
AcDbEntity
  8
AM_5
100
AcDbBlockReference
  2
_Dot
 10
899.9722595097082
 20
-196.601498827457
 30
0.0
 50
90.0
  0
INSERT
  5
B572
330
B56C
100
AcDbEntity
  8
AM_5
100
AcDbBlockReference
  2
_Dot
 10
899.9722595097081
 20
-258.1014988274572
 30
0.0
 50
270.0
  0
MTEXT
  5
B573
330
B56C
100
AcDbEntity
  8
AM_5
 62
     2
100
AcDbMText
 10
896.8722595097082
 20
-227.351498827457
 30
0.0
 40
3.2
 41
0.0
 71
     5
 72
     1
  1
61.5
 11
0.0000000000000001
 21
1.0
 31
0.0
 73
     1
 44
1.0
1001
ACAD
1000
MTEXTBEGIN
1070
    73
1070
     1
1070
    44
1040
1.0
1070
    74
1070
     0
1000
MTEXTEND
  0
POINT
  5
B574
330
B56C
100
AcDbEntity
  8
Defpoints
 62
     0
100
AcDbPoint
 10
914.9722605097084
 20
-196.601498827457
 30
0.0
  0
POINT
  5
B575
330
B56C
100
AcDbEntity
  8
Defpoints
 62
     0
100
AcDbPoint
 10
911.7222605097079
 20
-258.1014988274572
 30
0.0
  0
POINT
  5
B576
330
B56C
100
AcDbEntity
  8
Defpoints
 62
     0
100
AcDbPoint
 10
899.9722595097081
 20
-258.1014988274572
 30
0.0
  0
ENDBLK
  5
B577
330
B56C
100
AcDbEntity
  8
0
100
AcDbBlockEnd
  0
BLOCK
  5
B579
330
B578
100
AcDbEntity
  8
0
100
AcDbBlockBegin
  2
*D13
 70
     1
 10
0.0
 20
0.0
 30
0.0
  3
*D13
  1

  0
LINE
  5
B57A
330
B578
100
AcDbEntity
  8
AM_5
100
AcDbLine
 10
910.2222605097079
 20
-258.1014988274572
 30
0.0
 11
898.9722595097108
 21
-258.1014988274572
 31
0.0
  0
LINE
  5
B57B
330
B578
100
AcDbEntity
  8
AM_5
100
AcDbLine
 10
918.2222605097079
 20
-276.601498827457
 30
0.0
 11
898.9722595097108
 21
-276.601498827457
 31
0.0
  0
LINE
  5
B57C
330
B578
100
AcDbEntity
  8
AM_5
100
AcDbLine
 10
899.9722595097107
 20
-259.1014988274572
 30
0.0
 11
899.9722595097107
 21
-275.601498827457
 31
0.0
  0
INSERT
  5
B57D
330
B578
100
AcDbEntity
  8
AM_5
100
AcDbBlockReference
  2
_Dot
 10
899.9722595097107
 20
-258.1014988274572
 30
0.0
 50
90.0
  0
INSERT
  5
B57E
330
B578
100
AcDbEntity
  8
AM_5
100
AcDbBlockReference
  2
_Dot
 10
899.9722595097107
 20
-276.601498827457
 30
0.0
 50
270.0
  0
MTEXT
  5
B57F
330
B578
100
AcDbEntity
  8
AM_5
 62
     2
100
AcDbMText
 10
896.8722595097109
 20
-267.351498827457
 30
0.0
 40
3.2
 41
0.0
 71
     5
 72
     1
  1
18.5
 11
0.0000000000000001
 21
1.0
 31
0.0
 73
     1
 44
1.0
1001
ACAD
1000
MTEXTBEGIN
1070
    73
1070
     1
1070
    44
1040
1.0
1070
    74
1070
     0
1000
MTEXTEND
  0
POINT
  5
B580
330
B578
100
AcDbEntity
  8
Defpoints
 62
     0
100
AcDbPoint
 10
911.7222605097079
 20
-258.1014988274572
 30
0.0
  0
POINT
  5
B581
330
B578
100
AcDbEntity
  8
Defpoints
 62
     0
100
AcDbPoint
 10
919.722260509708
 20
-276.601498827457
 30
0.0
  0
POINT
  5
B582
330
B578
100
AcDbEntity
  8
Defpoints
 62
     0
100
AcDbPoint
 10
899.9722595097107
 20
-276.601498827457
 30
0.0
  0
ENDBLK
  5
B583
330
B578
100
AcDbEntity
  8
0
100
AcDbBlockEnd
  0
BLOCK
  5
B585
330
B584
100
AcDbEntity
  8
0
100
AcDbBlockBegin
  2
*D14
 70
     1
 10
0.0
 20
0.0
 30
0.0
  3
*D14
  1

  0
LINE
  5
B586
330
B584
100
AcDbEntity
  8
AM_5
100
AcDbLine
 10
918.2222605097079
 20
-276.601498827457
 30
0.0
 11
898.9722595097108
 21
-276.601498827457
 31
0.0
  0
LINE
  5
B587
330
B584
100
AcDbEntity
  8
AM_5
100
AcDbLine
 10
910.2222605097079
 20
-295.1014988274575
 30
0.0
 11
898.9722595097108
 21
-295.1014988274575
 31
0.0
  0
LINE
  5
B588
330
B584
100
AcDbEntity
  8
AM_5
100
AcDbLine
 10
899.9722595097107
 20
-277.601498827457
 30
0.0
 11
899.9722595097107
 21
-294.1014988274575
 31
0.0
  0
INSERT
  5
B589
330
B584
100
AcDbEntity
  8
AM_5
100
AcDbBlockReference
  2
_Dot
 10
899.9722595097107
 20
-276.601498827457
 30
0.0
 50
90.0
  0
INSERT
  5
B58A
330
B584
100
AcDbEntity
  8
AM_5
100
AcDbBlockReference
  2
_Dot
 10
899.9722595097107
 20
-295.1014988274575
 30
0.0
 50
270.0
  0
MTEXT
  5
B58B
330
B584
100
AcDbEntity
  8
AM_5
 62
     2
100
AcDbMText
 10
896.8722595097109
 20
-285.8514988274571
 30
0.0
 40
3.2
 41
0.0
 71
     5
 72
     1
  1
18.5
 11
0.0000000000000001
 21
1.0
 31
0.0
 73
     1
 44
1.0
1001
ACAD
1000
MTEXTBEGIN
1070
    73
1070
     1
1070
    44
1040
1.0
1070
    74
1070
     0
1000
MTEXTEND
  0
POINT
  5
B58C
330
B584
100
AcDbEntity
  8
Defpoints
 62
     0
100
AcDbPoint
 10
919.722260509708
 20
-276.601498827457
 30
0.0
  0
POINT
  5
B58D
330
B584
100
AcDbEntity
  8
Defpoints
 62
     0
100
AcDbPoint
 10
911.7222605097079
 20
-295.1014988274575
 30
0.0
  0
POINT
  5
B58E
330
B584
100
AcDbEntity
  8
Defpoints
 62
     0
100
AcDbPoint
 10
899.9722595097107
 20
-295.1014988274575
 30
0.0
  0
ENDBLK
  5
B58F
330
B584
100
AcDbEntity
  8
0
100
AcDbBlockEnd
  0
BLOCK
  5
B591
330
B590
100
AcDbEntity
  8
0
100
AcDbBlockBegin
  2
*D15
 70
     1
 10
0.0
 20
0.0
 30
0.0
  3
*D15
  1

  0
LINE
  5
B592
330
B590
100
AcDbEntity
  8
AM_5
100
AcDbLine
 10
910.2222605097079
 20
-295.1014988274575
 30
0.0
 11
898.9722595097108
 21
-295.1014988274575
 31
0.0
  0
LINE
  5
B593
330
B590
100
AcDbEntity
  8
AM_5
100
AcDbLine
 10
913.472260509708
 20
-304.1014988274572
 30
0.0
 11
898.9722595097108
 21
-304.1014988274572
 31
0.0
  0
LINE
  5
B594
330
B590
100
AcDbEntity
  8
AM_5
100
AcDbLine
 10
899.9722595097107
 20
-296.1014988274575
 30
0.0
 11
899.9722595097107
 21
-303.1014988274571
 31
0.0
  0
INSERT
  5
B595
330
B590
100
AcDbEntity
  8
AM_5
100
AcDbBlockReference
  2
_Dot
 10
899.9722595097107
 20
-295.1014988274575
 30
0.0
 50
90.0
  0
INSERT
  5
B596
330
B590
100
AcDbEntity
  8
AM_5
100
AcDbBlockReference
  2
_Dot
 10
899.9722595097107
 20
-304.1014988274572
 30
0.0
 50
270.0
  0
MTEXT
  5
B597
330
B590
100
AcDbEntity
  8
AM_5
 62
     2
100
AcDbMText
 10
896.8722595097109
 20
-299.6014988274571
 30
0.0
 40
3.2
 41
0.0
 71
     5
 72
     1
  1
9
 11
0.0000000000000001
 21
1.0
 31
0.0
 73
     1
 44
1.0
1001
ACAD
1000
MTEXTBEGIN
1070
    73
1070
     1
1070
    44
1040
1.0
1070
    74
1070
     0
1000
MTEXTEND
  0
POINT
  5
B598
330
B590
100
AcDbEntity
  8
Defpoints
 62
     0
100
AcDbPoint
 10
911.7222605097079
 20
-295.1014988274575
 30
0.0
  0
POINT
  5
B599
330
B590
100
AcDbEntity
  8
Defpoints
 62
     0
100
AcDbPoint
 10
914.9722605097078
 20
-304.1014988274572
 30
0.0
  0
POINT
  5
B59A
330
B590
100
AcDbEntity
  8
Defpoints
 62
     0
100
AcDbPoint
 10
899.9722595097107
 20
-304.1014988274572
 30
0.0
  0
ENDBLK
  5
B59B
330
B590
100
AcDbEntity
  8
0
100
AcDbBlockEnd
  0
BLOCK
  5
B59D
330
B59C
100
AcDbEntity
  8
0
100
AcDbBlockBegin
  2
*D16
 70
     1
 10
0.0
 20
0.0
 30
0.0
  3
*D16
  1

  0
LINE
  5
B59E
330
B59C
100
AcDbEntity
  8
AM_5
100
AcDbLine
 10
954.4722605097076
 20
-313.1014988274572
 30
0.0
 11
888.9722595097108
 21
-313.1014988274571
 31
0.0
  0
LINE
  5
B59F
330
B59C
100
AcDbEntity
  8
AM_5
100
AcDbLine
 10
913.4722605097078
 20
-304.1014988274572
 30
0.0
 11
888.9722595097108
 21
-304.1014988274572
 31
0.0
  0
LINE
  5
B5A0
330
B59C
100
AcDbEntity
  8
AM_5
100
AcDbLine
 10
889.9722595097108
 20
-312.1014988274571
 30
0.0
 11
889.9722595097108
 21
-305.1014988274571
 31
0.0
  0
INSERT
  5
B5A1
330
B59C
100
AcDbEntity
  8
AM_5
100
AcDbBlockReference
  2
_Dot
 10
889.9722595097108
 20
-313.1014988274571
 30
0.0
 50
270.0
  0
INSERT
  5
B5A2
330
B59C
100
AcDbEntity
  8
AM_5
100
AcDbBlockReference
  2
_Dot
 10
889.9722595097108
 20
-304.1014988274572
 30
0.0
 50
90.0
  0
MTEXT
  5
B5A3
330
B59C
100
AcDbEntity
  8
AM_5
 62
     2
100
AcDbMText
 10
886.8722595097109
 20
-308.601498827457
 30
0.0
 40
3.2
 41
0.0
 71
     5
 72
     1
  1
9
 11
0.0000000000000001
 21
1.0
 31
0.0
 73
     1
 44
1.0
1001
ACAD
1000
MTEXTBEGIN
1070
    73
1070
     1
1070
    44
1040
1.0
1070
    74
1070
     0
1000
MTEXTEND
  0
POINT
  5
B5A4
330
B59C
100
AcDbEntity
  8
Defpoints
 62
     0
100
AcDbPoint
 10
955.9722605097077
 20
-313.1014988274572
 30
0.0
  0
POINT
  5
B5A5
330
B59C
100
AcDbEntity
  8
Defpoints
 62
     0
100
AcDbPoint
 10
914.9722605097078
 20
-304.1014988274572
 30
0.0
  0
POINT
  5
B5A6
330
B59C
100
AcDbEntity
  8
Defpoints
 62
     0
100
AcDbPoint
 10
889.9722595097108
 20
-304.1014988274572
 30
0.0
  0
ENDBLK
  5
B5A7
330
B59C
100
AcDbEntity
  8
0
100
AcDbBlockEnd
  0
BLOCK
  5
B5A9
330
B5A8
100
AcDbEntity
  8
0
100
AcDbBlockBegin
  2
*D17
 70
     1
 10
0.0
 20
0.0
 30
0.0
  3
*D17
  1

  0
LINE
  5
B5AA
330
B5A8
100
AcDbEntity
  8
AM_5
100
AcDbLine
 10
913.472260509708
 20
-304.1014988274572
 30
0.0
 11
888.9722595097108
 21
-304.1014988274572
 31
0.0
  0
LINE
  5
B5AB
330
B5A8
100
AcDbEntity
  8
AM_5
100
AcDbLine
 10
913.4722605097083
 20
-196.601498827457
 30
0.0
 11
888.9722595097108
 21
-196.601498827457
 31
0.0
  0
LINE
  5
B5AC
330
B5A8
100
AcDbEntity
  8
AM_5
100
AcDbLine
 10
889.9722595097108
 20
-303.1014988274571
 30
0.0
 11
889.9722595097108
 21
-197.601498827457
 31
0.0
  0
INSERT
  5
B5AD
330
B5A8
100
AcDbEntity
  8
AM_5
100
AcDbBlockReference
  2
_Dot
 10
889.9722595097108
 20
-304.1014988274572
 30
0.0
 50
270.0
  0
INSERT
  5
B5AE
330
B5A8
100
AcDbEntity
  8
AM_5
100
AcDbBlockReference
  2
_Dot
 10
889.9722595097108
 20
-196.601498827457
 30
0.0
 50
90.0
  0
MTEXT
  5
B5AF
330
B5A8
100
AcDbEntity
  8
AM_5
 62
     2
100
AcDbMText
 10
886.8722595097107
 20
-250.351498827457
 30
0.0
 40
3.2
 41
0.0
 71
     5
 72
     1
  1
107.5
 11
0.0000000000000001
 21
1.0
 31
0.0
 73
     1
 44
1.0
1001
ACAD
1000
MTEXTBEGIN
1070
    73
1070
     1
1070
    44
1040
1.0
1070
    74
1070
     0
1000
MTEXTEND
  0
POINT
  5
B5B0
330
B5A8
100
AcDbEntity
  8
Defpoints
 62
     0
100
AcDbPoint
 10
914.9722605097078
 20
-304.1014988274572
 30
0.0
  0
POINT
  5
B5B1
330
B5A8
100
AcDbEntity
  8
Defpoints
 62
     0
100
AcDbPoint
 10
914.9722605097084
 20
-196.601498827457
 30
0.0
  0
POINT
  5
B5B2
330
B5A8
100
AcDbEntity
  8
Defpoints
 62
     0
100
AcDbPoint
 10
889.9722595097108
 20
-196.601498827457
 30
0.0
  0
ENDBLK
  5
B5B3
330
B5A8
100
AcDbEntity
  8
0
100
AcDbBlockEnd
  0
BLOCK
  5
B5B5
330
B5B4
100
AcDbEntity
  8
0
100
AcDbBlockBegin
  2
*D18
 70
     1
 10
0.0
 20
0.0
 30
0.0
  3
*D18
  1

  0
LINE
  5
B5B6
330
B5B4
100
AcDbEntity
  8
AM_5
100
AcDbLine
 10
911.9722605097082
 20
-198.1014988274571
 30
0.0
 11
911.9722605097082
 21
-180.601497827457
 31
0.0
  0
LINE
  5
B5B7
330
B5B4
100
AcDbEntity
  8
AM_5
100
AcDbLine
 10
966.9722605097083
 20
-189.101498827457
 30
0.0
 11
966.9722605097083
 21
-180.601497827457
 31
0.0
  0
LINE
  5
B5B8
330
B5B4
100
AcDbEntity
  8
AM_5
100
AcDbLine
 10
912.9722605097084
 20
-181.601497827457
 30
0.0
 11
965.9722605097083
 21
-181.601497827457
 31
0.0
  0
INSERT
  5
B5B9
330
B5B4
100
AcDbEntity
  8
AM_5
100
AcDbBlockReference
  2
_Dot
 10
911.9722605097082
 20
-181.601497827457
 30
0.0
 50
180.0
  0
INSERT
  5
B5BA
330
B5B4
100
AcDbEntity
  8
AM_5
100
AcDbBlockReference
  2
_Dot
 10
966.9722605097083
 20
-181.601497827457
 30
0.0
  0
MTEXT
  5
B5BB
330
B5B4
100
AcDbEntity
  8
AM_5
 62
     2
100
AcDbMText
 10
939.4722605097083
 20
-178.501497827457
 30
0.0
 40
3.2
 41
0.0
 71
     5
 72
     1
  1
55
 73
     1
 44
1.0
1001
ACAD
1000
MTEXTBEGIN
1070
    73
1070
     1
1070
    44
1040
1.0
1070
    74
1070
     0
1000
MTEXTEND
  0
POINT
  5
B5BC
330
B5B4
100
AcDbEntity
  8
Defpoints
 62
     0
100
AcDbPoint
 10
911.9722605097082
 20
-199.6014988274571
 30
0.0
  0
POINT
  5
B5BD
330
B5B4
100
AcDbEntity
  8
Defpoints
 62
     0
100
AcDbPoint
 10
966.9722605097083
 20
-190.601498827457
 30
0.0
  0
POINT
  5
B5BE
330
B5B4
100
AcDbEntity
  8
Defpoints
 62
     0
100
AcDbPoint
 10
966.9722605097083
 20
-181.601497827457
 30
0.0
  0
ENDBLK
  5
B5BF
330
B5B4
100
AcDbEntity
  8
0
100
AcDbBlockEnd
  0
BLOCK
  5
B5C1
330
B5C0
100
AcDbEntity
  8
0
100
AcDbBlockBegin
  2
*D19
 70
     1
 10
0.0
 20
0.0
 30
0.0
  3
*D19
  1

  0
LINE
  5
B5C2
330
B5C0
100
AcDbEntity
  8
AM_5
100
AcDbLine
 10
1021.972260509708
 20
-314.6014988274572
 30
0.0
 11
1021.972260509708
 21
-180.601497827457
 31
0.0
  0
LINE
  5
B5C3
330
B5C0
100
AcDbEntity
  8
AM_5
100
AcDbLine
 10
966.9722605097083
 20
-189.101498827457
 30
0.0
 11
966.9722605097083
 21
-180.601497827457
 31
0.0
  0
LINE
  5
B5C4
330
B5C0
100
AcDbEntity
  8
AM_5
100
AcDbLine
 10
1020.972260509708
 20
-181.601497827457
 30
0.0
 11
967.9722605097083
 21
-181.601497827457
 31
0.0
  0
INSERT
  5
B5C5
330
B5C0
100
AcDbEntity
  8
AM_5
100
AcDbBlockReference
  2
_Dot
 10
1021.972260509708
 20
-181.601497827457
 30
0.0
  0
INSERT
  5
B5C6
330
B5C0
100
AcDbEntity
  8
AM_5
100
AcDbBlockReference
  2
_Dot
 10
966.9722605097083
 20
-181.601497827457
 30
0.0
 50
180.0
  0
MTEXT
  5
B5C7
330
B5C0
100
AcDbEntity
  8
AM_5
 62
     2
100
AcDbMText
 10
994.4722605097084
 20
-178.501497827457
 30
0.0
 40
3.2
 41
0.0
 71
     5
 72
     1
  1
55
 73
     1
 44
1.0
1001
ACAD
1000
MTEXTBEGIN
1070
    73
1070
     1
1070
    44
1040
1.0
1070
    74
1070
     0
1000
MTEXTEND
  0
POINT
  5
B5C8
330
B5C0
100
AcDbEntity
  8
Defpoints
 62
     0
100
AcDbPoint
 10
1021.972260509708
 20
-316.1014988274571
 30
0.0
  0
POINT
  5
B5C9
330
B5C0
100
AcDbEntity
  8
Defpoints
 62
     0
100
AcDbPoint
 10
966.9722605097083
 20
-190.601498827457
 30
0.0
  0
POINT
  5
B5CA
330
B5C0
100
AcDbEntity
  8
Defpoints
 62
     0
100
AcDbPoint
 10
966.9722605097083
 20
-181.601497827457
 30
0.0
  0
ENDBLK
  5
B5CB
330
B5C0
100
AcDbEntity
  8
0
100
AcDbBlockEnd
  0
BLOCK
  5
B5CD
330
B5CC
100
AcDbEntity
  8
0
100
AcDbBlockBegin
  2
*D20
 70
     1
 10
0.0
 20
0.0
 30
0.0
  3
*D20
  1

  0
LINE
  5
B5CE
330
B5CC
100
AcDbEntity
  8
AM_5
100
AcDbLine
 10
1020.472260509708
 20
-313.1014988274571
 30
0.0
 11
1034.972261519708
 21
-313.1014988274571
 31
0.0
  0
LINE
  5
B5CF
330
B5CC
100
AcDbEntity
  8
AM_5
100
AcDbLine
 10
1023.722260509708
 20
-322.1014988274575
 30
0.0
 11
1034.972261519708
 21
-322.1014988274575
 31
0.0
  0
LINE
  5
B5D0
330
B5CC
100
AcDbEntity
  8
AM_5
100
AcDbLine
 10
1033.972261519708
 20
-314.1014988274571
 30
0.0
 11
1033.972261519708
 21
-321.1014988274575
 31
0.0
  0
INSERT
  5
B5D1
330
B5CC
100
AcDbEntity
  8
AM_5
100
AcDbBlockReference
  2
_Dot
 10
1033.972261519708
 20
-313.1014988274571
 30
0.0
 50
90.0
  0
INSERT
  5
B5D2
330
B5CC
100
AcDbEntity
  8
AM_5
100
AcDbBlockReference
  2
_Dot
 10
1033.972261519708
 20
-322.1014988274575
 30
0.0
 50
270.0
  0
MTEXT
  5
B5D3
330
B5CC
100
AcDbEntity
  8
AM_5
 62
     2
100
AcDbMText
 10
1030.872261519708
 20
-317.6014988274571
 30
0.0
 40
3.2
 41
0.0
 71
     5
 72
     1
  1
9
 11
0.0000000000000001
 21
1.0
 31
0.0
 73
     1
 44
1.0
1001
ACAD
1000
MTEXTBEGIN
1070
    73
1070
     1
1070
    44
1040
1.0
1070
    74
1070
     0
1000
MTEXTEND
  0
POINT
  5
B5D4
330
B5CC
100
AcDbEntity
  8
Defpoints
 62
     0
100
AcDbPoint
 10
1018.972260509708
 20
-313.1014988274571
 30
0.0
  0
POINT
  5
B5D5
330
B5CC
100
AcDbEntity
  8
Defpoints
 62
     0
100
AcDbPoint
 10
1022.222260509708
 20
-322.1014988274575
 30
0.0
  0
POINT
  5
B5D6
330
B5CC
100
AcDbEntity
  8
Defpoints
 62
     0
100
AcDbPoint
 10
1033.972261519708
 20
-322.1014988274575
 30
0.0
  0
ENDBLK
  5
B5D7
330
B5CC
100
AcDbEntity
  8
0
100
AcDbBlockEnd
  0
BLOCK
  5
B5D9
330
B5D8
100
AcDbEntity
  8
0
100
AcDbBlockBegin
  2
*D21
 70
     1
 10
0.0
 20
0.0
 30
0.0
  3
*D21
  1

  0
LINE
  5
B5DA
330
B5D8
100
AcDbEntity
  8
AM_5
100
AcDbLine
 10
1023.722260509708
 20
-322.1014988274575
 30
0.0
 11
1034.972261509708
 21
-322.1014988274575
 31
0.0
  0
LINE
  5
B5DB
330
B5D8
100
AcDbEntity
  8
AM_5
100
AcDbLine
 10
1015.722260509708
 20
-340.6014988274575
 30
0.0
 11
1034.972261509708
 21
-340.6014988274575
 31
0.0
  0
LINE
  5
B5DC
330
B5D8
100
AcDbEntity
  8
AM_5
100
AcDbLine
 10
1033.972261509708
 20
-323.1014988274575
 30
0.0
 11
1033.972261509708
 21
-339.6014988274575
 31
0.0
  0
INSERT
  5
B5DD
330
B5D8
100
AcDbEntity
  8
AM_5
100
AcDbBlockReference
  2
_Dot
 10
1033.972261509708
 20
-322.1014988274575
 30
0.0
 50
90.0
  0
INSERT
  5
B5DE
330
B5D8
100
AcDbEntity
  8
AM_5
100
AcDbBlockReference
  2
_Dot
 10
1033.972261509708
 20
-340.6014988274575
 30
0.0
 50
270.0
  0
MTEXT
  5
B5DF
330
B5D8
100
AcDbEntity
  8
AM_5
 62
     2
100
AcDbMText
 10
1030.872261509708
 20
-331.3514988274573
 30
0.0
 40
3.2
 41
0.0
 71
     5
 72
     1
  1
18.5
 11
0.0000000000000001
 21
1.0
 31
0.0
 73
     1
 44
1.0
1001
ACAD
1000
MTEXTBEGIN
1070
    73
1070
     1
1070
    44
1040
1.0
1070
    74
1070
     0
1000
MTEXTEND
  0
POINT
  5
B5E0
330
B5D8
100
AcDbEntity
  8
Defpoints
 62
     0
100
AcDbPoint
 10
1022.222260509708
 20
-322.1014988274575
 30
0.0
  0
POINT
  5
B5E1
330
B5D8
100
AcDbEntity
  8
Defpoints
 62
     0
100
AcDbPoint
 10
1014.222260509708
 20
-340.6014988274575
 30
0.0
  0
POINT
  5
B5E2
330
B5D8
100
AcDbEntity
  8
Defpoints
 62
     0
100
AcDbPoint
 10
1033.972261509708
 20
-340.6014988274575
 30
0.0
  0
ENDBLK
  5
B5E3
330
B5D8
100
AcDbEntity
  8
0
100
AcDbBlockEnd
  0
BLOCK
  5
B5E5
330
B5E4
100
AcDbEntity
  8
0
100
AcDbBlockBegin
  2
GENDOT
 70
     0
 10
0.0
 20
0.0
 30
0.0
  3
GENDOT
  1

  0
LINE
  5
B5E6
330
B5E4
100
AcDbEntity
  8
0
100
AcDbLine
 10
0.0
 20
0.0
 30
0.0
 11
-1.0
 21
0.0
 31
0.0
  0
LWPOLYLINE
  5
B5E7
330
B5E4
100
AcDbEntity
  8
0
100
AcDbPolyline
 90
        2
 70
     1
 43
0.25
 10
-0.125
 20
0.0
 42
1.0
 10
0.125
 20
0.0
 42
1.0
  0
ENDBLK
  5
B5E8
330
B5E4
100
AcDbEntity
  8
0
100
AcDbBlockEnd
  0
BLOCK
  5
B5EA
330
B5E9
100
AcDbEntity
  8
0
100
AcDbBlockBegin
  2
*D23
 70
     1
 10
0.0
 20
0.0
 30
0.0
  3
*D23
  1

  0
LINE
  5
B5EB
330
B5E9
100
AcDbEntity
  8
AM_5
100
AcDbLine
 10
999.8361777497839
 20
-320.8412161122919
 30
0.0
 11
996.1083432696311
 21
-323.3617815426226
 31
0.0
  0
LINE
  5
B5EC
330
B5E9
100
AcDbEntity
  8
AM_5
100
AcDbLine
 10
994.4515279451184
 20
-324.4820328449919
 30
0.0
 11
937.5395910960946
 21
-362.9628885156356
 31
0.0
  0
LINE
  5
B5ED
330
B5E9
100
AcDbEntity
  8
AM_5
100
AcDbLine
 10
937.5395910960946
 20
-362.9628885156356
 30
0.0
 11
920.6369244294279
 21
-362.9628885156356
 31
0.0
  0
INSERT
  5
B5EE
330
B5E9
100
AcDbEntity
  8
AM_5
100
AcDbBlockReference
  2
GENDOT
 10
1001.492993074296
 20
-319.7209648099226
 30
0.0
 41
2.0
 42
2.0
 43
2.0
 50
34.06448780399375
  0
INSERT
  5
B5EF
330
B5E9
100
AcDbEntity
  8
AM_5
100
AcDbBlockReference
  2
GENDOT
 10
994.4515279451184
 20
-324.4820328449919
 30
0.0
 41
2.0
 42
2.0
 43
2.0
 50
214.0644878039937
  0
MTEXT
  5
B5F0
330
B5E9
100
AcDbEntity
  8
AM_5
 62
     2
100
AcDbMText
 10
928.3382577627618
 20
-357.1962218489693
 30
0.0
 40
3.200000000000001
 41
0.0
 71
     5
 72
     1
  1
10-%%c5.5×\P\U+22058.5サラ
 73
     1
 44
1.0
1001
ACAD
1000
MTEXTBEGIN
1070
    73
1070
     1
1070
    44
1040
1.0
1070
    74
1070
     0
1000
MTEXTEND
  0
POINT
  5
B5F1
330
B5E9
100
AcDbEntity
  8
Defpoints
 62
     0
100
AcDbPoint
 10
994.4515279451184
 20
-324.4820328449919
 30
0.0
  0
POINT
  5
B5F2
330
B5E9
100
AcDbEntity
  8
Defpoints
 62
     0
100
AcDbPoint
 10
1001.492993074296
 20
-319.7209648099226
 30
0.0
  0
ENDBLK
  5
B5F3
330
B5E9
100
AcDbEntity
  8
0
100
AcDbBlockEnd
  0
BLOCK
  5
B5F5
330
B5F4
100
AcDbEntity
  8
0
100
AcDbBlockBegin
  2
*D24
 70
     1
 10
0.0
 20
0.0
 30
0.0
  3
*D24
  1

  0
LINE
  5
B5F6
330
B5F4
100
AcDbEntity
  8
AM_5
100
AcDbLine
 10
978.9722605097079
 20
-313.7014988274573
 30
0.0
 11
978.9722605097079
 21
-325.2014988274573
 31
0.0
  0
LINE
  5
B5F7
330
B5F4
100
AcDbEntity
  8
AM_5
100
AcDbLine
 10
954.9722605097079
 20
-313.7014988274573
 30
0.0
 11
954.9722605097079
 21
-325.2014988274573
 31
0.0
  0
LINE
  5
B5F8
330
B5F4
100
AcDbEntity
  8
AM_5
100
AcDbLine
 10
977.9722605097079
 20
-324.2014988274573
 30
0.0
 11
955.9722605097077
 21
-324.2014988274573
 31
0.0
  0
LINE
  5
B5F9
330
B5F4
100
AcDbEntity
  8
AM_5
100
AcDbLine
 10
935.6964916588992
 20
-324.2014988274573
 30
0.0
 11
954.9722605097079
 21
-324.2014988274573
 31
0.0
  0
MTEXT
  5
B5FA
330
B5F4
100
AcDbEntity
  8
AM_5
 62
     2
100
AcDbMText
 10
940.0764916588993
 20
-321.1014988274573
 30
0.0
 40
3.2
 41
0.0
 71
     5
 72
     1
  1
%%c24
 73
     1
 44
1.0
1001
ACAD
1000
MTEXTBEGIN
1070
    73
1070
     1
1070
    44
1040
1.0
1070
    74
1070
     0
1000
MTEXTEND
  0
INSERT
  5
B5FB
330
B5F4
100
AcDbEntity
  8
AM_5
100
AcDbBlockReference
  2
_Dot
 10
978.9722605097079
 20
-324.2014988274573
 30
0.0
  0
INSERT
  5
B5FC
330
B5F4
100
AcDbEntity
  8
AM_5
100
AcDbBlockReference
  2
_Dot
 10
954.9722605097079
 20
-324.2014988274573
 30
0.0
 50
180.0
  0
POINT
  5
B5FD
330
B5F4
100
AcDbEntity
  8
Defpoints
 62
     0
100
AcDbPoint
 10
978.9722605097079
 20
-312.2014988274573
 30
0.0
  0
POINT
  5
B5FE
330
B5F4
100
AcDbEntity
  8
Defpoints
 62
     0
100
AcDbPoint
 10
954.9722605097079
 20
-312.2014988274573
 30
0.0
  0
POINT
  5
B5FF
330
B5F4
100
AcDbEntity
  8
Defpoints
 62
     0
100
AcDbPoint
 10
954.9722605097079
 20
-324.2014988274573
 30
0.0
  0
ENDBLK
  5
B600
330
B5F4
100
AcDbEntity
  8
0
100
AcDbBlockEnd
  0
BLOCK
  5
B602
330
B601
100
AcDbEntity
  8
0
100
AcDbBlockBegin
  2
*D25
 70
     1
 10
0.0
 20
0.0
 30
0.0
  3
*D25
  1

  0
LINE
  5
B603
330
B601
100
AcDbEntity
  8
AM_5
100
AcDbLine
 10
1023.472260509708
 20
-148.8930863457698
 30
0.0
 11
1034.972260509708
 21
-148.8930863457698
 31
0.0
  0
LINE
  5
B604
330
B601
100
AcDbEntity
  8
AM_5
100
AcDbLine
 10
1023.472260509708
 20
-152.8930863457699
 30
0.0
 11
1034.972260509708
 21
-152.8930863457699
 31
0.0
  0
LINE
  5
B605
330
B601
100
AcDbEntity
  8
AM_5
100
AcDbLine
 10
1033.972260509708
 20
-147.8930863457698
 30
0.0
 11
1033.972260509708
 21
-146.8930863457698
 31
0.0
  0
LINE
  5
B606
330
B601
100
AcDbEntity
  8
AM_5
100
AcDbLine
 10
1033.972260509708
 20
-153.8930863457698
 30
0.0
 11
1033.972260509708
 21
-154.8930863457699
 31
0.0
  0
LINE
  5
B607
330
B601
100
AcDbEntity
  8
AM_5
100
AcDbLine
 10
1033.972260509708
 20
-139.9742600490651
 30
0.0
 11
1033.972260509708
 21
-148.8930863457698
 31
0.0
  0
MTEXT
  5
B608
330
B601
100
AcDbEntity
  8
AM_5
 62
     2
100
AcDbMText
 10
1030.872260509708
 20
-142.274260049065
 30
0.0
 40
3.2
 41
0.0
 71
     5
 72
     1
  1
4
 11
0.0000000000000001
 21
1.0
 31
0.0
 73
     1
 44
1.0
1001
ACAD
1000
MTEXTBEGIN
1070
    73
1070
     1
1070
    44
1040
1.0
1070
    74
1070
     0
1000
MTEXTEND
  0
LINE
  5
B609
330
B601
100
AcDbEntity
  8
AM_5
100
AcDbLine
 10
1033.972260509708
 20
-148.8930863457698
 30
0.0
 11
1033.972260509708
 21
-152.8930863457699
 31
0.0
  0
LINE
  5
B60A
330
B601
100
AcDbEntity
  8
AM_5
100
AcDbLine
 10
1033.972260509708
 20
-148.8930863457698
 30
0.0
 11
1033.972260509708
 21
-152.8930863457699
 31
0.0
  0
INSERT
  5
B60B
330
B601
100
AcDbEntity
  8
AM_5
100
AcDbBlockReference
  2
_Dot
 10
1033.972260509708
 20
-148.8930863457698
 30
0.0
 50
270.0
  0
INSERT
  5
B60C
330
B601
100
AcDbEntity
  8
AM_5
100
AcDbBlockReference
  2
_Dot
 10
1033.972260509708
 20
-152.8930863457699
 30
0.0
 50
90.0
  0
POINT
  5
B60D
330
B601
100
AcDbEntity
  8
Defpoints
 62
     0
100
AcDbPoint
 10
1021.972260509708
 20
-148.8930863457698
 30
0.0
  0
POINT
  5
B60E
330
B601
100
AcDbEntity
  8
Defpoints
 62
     0
100
AcDbPoint
 10
1021.972260509708
 20
-152.8930863457699
 30
0.0
  0
POINT
  5
B60F
330
B601
100
AcDbEntity
  8
Defpoints
 62
     0
100
AcDbPoint
 10
1033.972260509708
 20
-152.8930863457699
 30
0.0
  0
ENDBLK
  5
B610
330
B601
100
AcDbEntity
  8
0
100
AcDbBlockEnd
  0
BLOCK
  5
B612
330
B611
100
AcDbEntity
  8
0
100
AcDbBlockBegin
  2
*D26
 70
     1
 10
0.0
 20
0.0
 30
0.0
  3
*D26
  1

  0
LINE
  5
B613
330
B611
100
AcDbEntity
  8
AM_5
100
AcDbLine
 10
1015.722260509708
 20
-340.6014988274575
 30
0.0
 11
1035.222260509708
 21
-340.6014988274575
 31
0.0
  0
LINE
  5
B614
330
B611
100
AcDbEntity
  8
AM_5
100
AcDbLine
 10
1023.722260509708
 20
-359.1014988274575
 30
0.0
 11
1035.222260509708
 21
-359.1014988274575
 31
0.0
  0
LINE
  5
B615
330
B611
100
AcDbEntity
  8
AM_5
100
AcDbLine
 10
1034.222260509708
 20
-341.6014988274575
 30
0.0
 11
1034.222260509708
 21
-358.1014988274575
 31
0.0
  0
INSERT
  5
B616
330
B611
100
AcDbEntity
  8
AM_5
100
AcDbBlockReference
  2
_Dot
 10
1034.222260509708
 20
-340.6014988274575
 30
0.0
 50
90.0
  0
INSERT
  5
B617
330
B611
100
AcDbEntity
  8
AM_5
100
AcDbBlockReference
  2
_Dot
 10
1034.222260509708
 20
-359.1014988274575
 30
0.0
 50
270.0
  0
MTEXT
  5
B618
330
B611
100
AcDbEntity
  8
AM_5
 62
     2
100
AcDbMText
 10
1031.122260509708
 20
-349.8514988274572
 30
0.0
 40
3.2
 41
0.0
 71
     5
 72
     1
  1
18.5
 11
0.0000000000000001
 21
1.0
 31
0.0
 73
     1
 44
1.0
1001
ACAD
1000
MTEXTBEGIN
1070
    73
1070
     1
1070
    44
1040
1.0
1070
    74
1070
     0
1000
MTEXTEND
  0
POINT
  5
B619
330
B611
100
AcDbEntity
  8
Defpoints
 62
     0
100
AcDbPoint
 10
1014.222260509708
 20
-340.6014988274575
 30
0.0
  0
POINT
  5
B61A
330
B611
100
AcDbEntity
  8
Defpoints
 62
     0
100
AcDbPoint
 10
1022.222260509708
 20
-359.1014988274575
 30
0.0
  0
POINT
  5
B61B
330
B611
100
AcDbEntity
  8
Defpoints
 62
     0
100
AcDbPoint
 10
1034.222260509708
 20
-359.1014988274575
 30
0.0
  0
ENDBLK
  5
B61C
330
B611
100
AcDbEntity
  8
0
100
AcDbBlockEnd
  0
BLOCK
  5
B61E
330
B61D
100
AcDbEntity
  8
0
100
AcDbBlockBegin
  2
*D27
 70
     1
 10
0.0
 20
0.0
 30
0.0
  3
*D27
  1

  0
LINE
  5
B61F
330
B61D
100
AcDbEntity
  8
AM_5
100
AcDbLine
 10
1023.722260509708
 20
-359.1014988274575
 30
0.0
 11
1035.222260509708
 21
-359.1014988274575
 31
0.0
  0
LINE
  5
B620
330
B61D
100
AcDbEntity
  8
AM_5
100
AcDbLine
 10
1020.472260509708
 20
-381.6014988274575
 30
0.0
 11
1035.222260509708
 21
-381.6014988274575
 31
0.0
  0
LINE
  5
B621
330
B61D
100
AcDbEntity
  8
AM_5
100
AcDbLine
 10
1034.222260509708
 20
-360.1014988274575
 30
0.0
 11
1034.222260509708
 21
-380.6014988274575
 31
0.0
  0
INSERT
  5
B622
330
B61D
100
AcDbEntity
  8
AM_5
100
AcDbBlockReference
  2
_Dot
 10
1034.222260509708
 20
-359.1014988274575
 30
0.0
 50
90.0
  0
INSERT
  5
B623
330
B61D
100
AcDbEntity
  8
AM_5
100
AcDbBlockReference
  2
_Dot
 10
1034.222260509708
 20
-381.6014988274575
 30
0.0
 50
270.0
  0
MTEXT
  5
B624
330
B61D
100
AcDbEntity
  8
AM_5
 62
     2
100
AcDbMText
 10
1031.122260509708
 20
-370.3514988274573
 30
0.0
 40
3.2
 41
0.0
 71
     5
 72
     1
  1
22.5
 11
0.0000000000000001
 21
1.0
 31
0.0
 73
     1
 44
1.0
1001
ACAD
1000
MTEXTBEGIN
1070
    73
1070
     1
1070
    44
1040
1.0
1070
    74
1070
     0
1000
MTEXTEND
  0
POINT
  5
B625
330
B61D
100
AcDbEntity
  8
Defpoints
 62
     0
100
AcDbPoint
 10
1022.222260509708
 20
-359.1014988274575
 30
0.0
  0
POINT
  5
B626
330
B61D
100
AcDbEntity
  8
Defpoints
 62
     0
100
AcDbPoint
 10
1018.972260509708
 20
-381.6014988274575
 30
0.0
  0
POINT
  5
B627
330
B61D
100
AcDbEntity
  8
Defpoints
 62
     0
100
AcDbPoint
 10
1034.222260509708
 20
-381.6014988274575
 30
0.0
  0
ENDBLK
  5
B628
330
B61D
100
AcDbEntity
  8
0
100
AcDbBlockEnd
  0
BLOCK
  5
B62A
330
B629
100
AcDbEntity
  8
0
100
AcDbBlockBegin
  2
*D28
 70
     1
 10
0.0
 20
0.0
 30
0.0
  3
*D28
  1

  0
LINE
  5
B62B
330
B629
100
AcDbEntity
  8
AM_5
100
AcDbLine
 10
1005.972260509708
 20
-350.3514988274575
 30
0.0
 11
1005.972260509708
 21
-391.6014998274576
 31
0.0
  0
LINE
  5
B62C
330
B629
100
AcDbEntity
  8
AM_5
100
AcDbLine
 10
1013.972260509708
 20
-368.8514988274575
 30
0.0
 11
1013.972260509708
 21
-391.6014998274576
 31
0.0
  0
LINE
  5
B62D
330
B629
100
AcDbEntity
  8
AM_5
100
AcDbLine
 10
1006.972260509708
 20
-390.6014998274575
 30
0.0
 11
1012.972260509708
 21
-390.6014998274575
 31
0.0
  0
INSERT
  5
B62E
330
B629
100
AcDbEntity
  8
AM_5
100
AcDbBlockReference
  2
_Dot
 10
1005.972260509708
 20
-390.6014998274575
 30
0.0
 50
180.0
  0
INSERT
  5
B62F
330
B629
100
AcDbEntity
  8
AM_5
100
AcDbBlockReference
  2
_Dot
 10
1013.972260509708
 20
-390.6014998274575
 30
0.0
  0
MTEXT
  5
B630
330
B629
100
AcDbEntity
  8
AM_5
 62
     2
100
AcDbMText
 10
1009.972260509708
 20
-387.5014998274575
 30
0.0
 40
3.2
 41
0.0
 71
     5
 72
     1
  1
8
 73
     1
 44
1.0
1001
ACAD
1000
MTEXTBEGIN
1070
    73
1070
     1
1070
    44
1040
1.0
1070
    74
1070
     0
1000
MTEXTEND
  0
POINT
  5
B631
330
B629
100
AcDbEntity
  8
Defpoints
 62
     0
100
AcDbPoint
 10
1005.972260509708
 20
-348.8514988274575
 30
0.0
  0
POINT
  5
B632
330
B629
100
AcDbEntity
  8
Defpoints
 62
     0
100
AcDbPoint
 10
1013.972260509708
 20
-367.3514988274575
 30
0.0
  0
POINT
  5
B633
330
B629
100
AcDbEntity
  8
Defpoints
 62
     0
100
AcDbPoint
 10
1013.972260509708
 20
-390.6014998274575
 30
0.0
  0
ENDBLK
  5
B634
330
B629
100
AcDbEntity
  8
0
100
AcDbBlockEnd
  0
BLOCK
  5
B636
330
B635
100
AcDbEntity
  8
0
100
AcDbBlockBegin
  2
*D29
 70
     1
 10
0.0
 20
0.0
 30
0.0
  3
*D29
  1

  0
LINE
  5
B637
330
B635
100
AcDbEntity
  8
AM_5
100
AcDbLine
 10
997.9722605097078
 20
-368.8514988274575
 30
0.0
 11
997.9722605097078
 21
-391.6014998274583
 31
0.0
  0
LINE
  5
B638
330
B635
100
AcDbEntity
  8
AM_5
100
AcDbLine
 10
1005.972260509708
 20
-350.3514988274575
 30
0.0
 11
1005.972260509708
 21
-391.6014998274583
 31
0.0
  0
LINE
  5
B639
330
B635
100
AcDbEntity
  8
AM_5
100
AcDbLine
 10
998.9722605097078
 20
-390.6014998274583
 30
0.0
 11
1004.972260509708
 21
-390.6014998274583
 31
0.0
  0
INSERT
  5
B63A
330
B635
100
AcDbEntity
  8
AM_5
100
AcDbBlockReference
  2
_Dot
 10
997.9722605097078
 20
-390.6014998274583
 30
0.0
 50
180.0
  0
INSERT
  5
B63B
330
B635
100
AcDbEntity
  8
AM_5
100
AcDbBlockReference
  2
_Dot
 10
1005.972260509708
 20
-390.6014998274583
 30
0.0
  0
MTEXT
  5
B63C
330
B635
100
AcDbEntity
  8
AM_5
 62
     2
100
AcDbMText
 10
1001.972260509708
 20
-387.5014998274584
 30
0.0
 40
3.2
 41
0.0
 71
     5
 72
     1
  1
8
 73
     1
 44
1.0
1001
ACAD
1000
MTEXTBEGIN
1070
    73
1070
     1
1070
    44
1040
1.0
1070
    74
1070
     0
1000
MTEXTEND
  0
POINT
  5
B63D
330
B635
100
AcDbEntity
  8
Defpoints
 62
     0
100
AcDbPoint
 10
997.9722605097078
 20
-367.3514988274575
 30
0.0
  0
POINT
  5
B63E
330
B635
100
AcDbEntity
  8
Defpoints
 62
     0
100
AcDbPoint
 10
1005.972260509708
 20
-348.8514988274575
 30
0.0
  0
POINT
  5
B63F
330
B635
100
AcDbEntity
  8
Defpoints
 62
     0
100
AcDbPoint
 10
1005.972260509708
 20
-390.6014998274583
 30
0.0
  0
ENDBLK
  5
B640
330
B635
100
AcDbEntity
  8
0
100
AcDbBlockEnd
  0
BLOCK
  5
B642
330
B641
100
AcDbEntity
  8
0
100
AcDbBlockBegin
  2
*D30
 70
     1
 10
0.0
 20
0.0
 30
0.0
  3
*D30
  1

  0
LINE
  5
B643
330
B641
100
AcDbEntity
  8
AM_5
100
AcDbLine
 10
1013.972260509708
 20
-368.8514988274575
 30
0.0
 11
1013.972260509708
 21
-401.601499827459
 31
0.0
  0
LINE
  5
B644
330
B641
100
AcDbEntity
  8
AM_5
100
AcDbLine
 10
997.9722605097078
 20
-368.8514988274575
 30
0.0
 11
997.9722605097078
 21
-401.601499827459
 31
0.0
  0
LINE
  5
B645
330
B641
100
AcDbEntity
  8
AM_5
100
AcDbLine
 10
1012.972260509708
 20
-400.601499827459
 30
0.0
 11
998.9722605097078
 21
-400.601499827459
 31
0.0
  0
INSERT
  5
B646
330
B641
100
AcDbEntity
  8
AM_5
100
AcDbBlockReference
  2
_Dot
 10
1013.972260509708
 20
-400.601499827459
 30
0.0
  0
INSERT
  5
B647
330
B641
100
AcDbEntity
  8
AM_5
100
AcDbBlockReference
  2
_Dot
 10
997.9722605097078
 20
-400.601499827459
 30
0.0
 50
180.0
  0
MTEXT
  5
B648
330
B641
100
AcDbEntity
  8
AM_5
 62
     2
100
AcDbMText
 10
1005.972260509708
 20
-397.501499827459
 30
0.0
 40
3.2
 41
0.0
 71
     5
 72
     1
  1
16
 73
     1
 44
1.0
1001
ACAD
1000
MTEXTBEGIN
1070
    73
1070
     1
1070
    44
1040
1.0
1070
    74
1070
     0
1000
MTEXTEND
  0
POINT
  5
B649
330
B641
100
AcDbEntity
  8
Defpoints
 62
     0
100
AcDbPoint
 10
1013.972260509708
 20
-367.3514988274575
 30
0.0
  0
POINT
  5
B64A
330
B641
100
AcDbEntity
  8
Defpoints
 62
     0
100
AcDbPoint
 10
997.9722605097078
 20
-367.3514988274575
 30
0.0
  0
POINT
  5
B64B
330
B641
100
AcDbEntity
  8
Defpoints
 62
     0
100
AcDbPoint
 10
997.9722605097078
 20
-400.601499827459
 30
0.0
  0
ENDBLK
  5
B64C
330
B641
100
AcDbEntity
  8
0
100
AcDbBlockEnd
  0
BLOCK
  5
B64E
330
B64D
100
AcDbEntity
  8
0
100
AcDbBlockBegin
  2
*D31
 70
     1
 10
0.0
 20
0.0
 30
0.0
  3
*D31
  1

  0
LINE
  5
B64F
330
B64D
100
AcDbEntity
  8
AM_5
100
AcDbLine
 10
1021.972260509708
 20
-380.1014988274575
 30
0.0
 11
1021.972260509708
 21
-401.6014998274582
 31
0.0
  0
LINE
  5
B650
330
B64D
100
AcDbEntity
  8
AM_5
100
AcDbLine
 10
1013.972260509708
 20
-368.8514988274575
 30
0.0
 11
1013.972260509708
 21
-401.6014998274582
 31
0.0
  0
LINE
  5
B651
330
B64D
100
AcDbEntity
  8
AM_5
100
AcDbLine
 10
1020.972260509708
 20
-400.6014998274582
 30
0.0
 11
1014.972260509708
 21
-400.6014998274582
 31
0.0
  0
INSERT
  5
B652
330
B64D
100
AcDbEntity
  8
AM_5
100
AcDbBlockReference
  2
_Dot
 10
1021.972260509708
 20
-400.6014998274582
 30
0.0
  0
INSERT
  5
B653
330
B64D
100
AcDbEntity
  8
AM_5
100
AcDbBlockReference
  2
_Dot
 10
1013.972260509708
 20
-400.6014998274582
 30
0.0
 50
180.0
  0
MTEXT
  5
B654
330
B64D
100
AcDbEntity
  8
AM_5
 62
     2
100
AcDbMText
 10
1017.972260509708
 20
-397.5014998274582
 30
0.0
 40
3.2
 41
0.0
 71
     5
 72
     1
  1
8
 73
     1
 44
1.0
1001
ACAD
1000
MTEXTBEGIN
1070
    73
1070
     1
1070
    44
1040
1.0
1070
    74
1070
     0
1000
MTEXTEND
  0
POINT
  5
B655
330
B64D
100
AcDbEntity
  8
Defpoints
 62
     0
100
AcDbPoint
 10
1021.972260509708
 20
-378.6014988274575
 30
0.0
  0
POINT
  5
B656
330
B64D
100
AcDbEntity
  8
Defpoints
 62
     0
100
AcDbPoint
 10
1013.972260509708
 20
-367.3514988274575
 30
0.0
  0
POINT
  5
B657
330
B64D
100
AcDbEntity
  8
Defpoints
 62
     0
100
AcDbPoint
 10
1013.972260509708
 20
-400.6014998274582
 30
0.0
  0
ENDBLK
  5
B658
330
B64D
100
AcDbEntity
  8
0
100
AcDbBlockEnd
  0
BLOCK
  5
B65A
330
B659
100
AcDbEntity
  8
0
100
AcDbBlockBegin
  2
*D32
 70
     1
 10
0.0
 20
0.0
 30
0.0
  3
*D32
  1

  0
LINE
  5
B65B
330
B659
100
AcDbEntity
  8
AM_5
100
AcDbLine
 10
997.9722605097078
 20
-368.8514988274575
 30
0.0
 11
997.9722605097078
 21
-401.6014998274597
 31
0.0
  0
LINE
  5
B65C
330
B659
100
AcDbEntity
  8
AM_5
100
AcDbLine
 10
966.9722605097083
 20
-389.1014988274573
 30
0.0
 11
966.9722605097083
 21
-401.6014998274597
 31
0.0
  0
LINE
  5
B65D
330
B659
100
AcDbEntity
  8
AM_5
100
AcDbLine
 10
996.9722605097079
 20
-400.6014998274596
 30
0.0
 11
967.9722605097083
 21
-400.6014998274596
 31
0.0
  0
INSERT
  5
B65E
330
B659
100
AcDbEntity
  8
AM_5
100
AcDbBlockReference
  2
_Dot
 10
997.9722605097078
 20
-400.6014998274596
 30
0.0
  0
INSERT
  5
B65F
330
B659
100
AcDbEntity
  8
AM_5
100
AcDbBlockReference
  2
_Dot
 10
966.9722605097083
 20
-400.6014998274596
 30
0.0
 50
180.0
  0
MTEXT
  5
B660
330
B659
100
AcDbEntity
  8
AM_5
 62
     2
100
AcDbMText
 10
982.4722605097083
 20
-397.5014998274597
 30
0.0
 40
3.2
 41
0.0
 71
     5
 72
     1
  1
31
 73
     1
 44
1.0
1001
ACAD
1000
MTEXTBEGIN
1070
    73
1070
     1
1070
    44
1040
1.0
1070
    74
1070
     0
1000
MTEXTEND
  0
POINT
  5
B661
330
B659
100
AcDbEntity
  8
Defpoints
 62
     0
100
AcDbPoint
 10
997.9722605097078
 20
-367.3514988274575
 30
0.0
  0
POINT
  5
B662
330
B659
100
AcDbEntity
  8
Defpoints
 62
     0
100
AcDbPoint
 10
966.9722605097083
 20
-387.6014988274572
 30
0.0
  0
POINT
  5
B663
330
B659
100
AcDbEntity
  8
Defpoints
 62
     0
100
AcDbPoint
 10
966.9722605097083
 20
-400.6014998274596
 30
0.0
  0
ENDBLK
  5
B664
330
B659
100
AcDbEntity
  8
0
100
AcDbBlockEnd
  0
BLOCK
  5
B666
330
B665
100
AcDbEntity
  8
0
100
AcDbBlockBegin
  2
*D33
 70
     1
 10
0.0
 20
0.0
 30
0.0
  3
*D33
  1

  0
LINE
  5
B667
330
B665
100
AcDbEntity
  8
AM_5
100
AcDbLine
 10
1020.472260509708
 20
-313.1014988274571
 30
0.0
 11
1045.222260509708
 21
-313.1014988274571
 31
0.0
  0
LINE
  5
B668
330
B665
100
AcDbEntity
  8
AM_5
100
AcDbLine
 10
1020.472260509708
 20
-381.6014988274575
 30
0.0
 11
1045.222260509708
 21
-381.6014988274575
 31
0.0
  0
LINE
  5
B669
330
B665
100
AcDbEntity
  8
AM_5
100
AcDbLine
 10
1044.222260509708
 20
-314.1014988274571
 30
0.0
 11
1044.222260509708
 21
-380.6014988274575
 31
0.0
  0
INSERT
  5
B66A
330
B665
100
AcDbEntity
  8
AM_5
100
AcDbBlockReference
  2
_Dot
 10
1044.222260509708
 20
-313.1014988274571
 30
0.0
 50
90.0
  0
INSERT
  5
B66B
330
B665
100
AcDbEntity
  8
AM_5
100
AcDbBlockReference
  2
_Dot
 10
1044.222260509708
 20
-381.6014988274575
 30
0.0
 50
270.0
  0
MTEXT
  5
B66C
330
B665
100
AcDbEntity
  8
AM_5
 62
     2
100
AcDbMText
 10
1041.122260509708
 20
-347.3514988274571
 30
0.0
 40
3.2
 41
0.0
 71
     5
 72
     1
  1
68.5
 11
0.0000000000000001
 21
1.0
 31
0.0
 73
     1
 44
1.0
1001
ACAD
1000
MTEXTBEGIN
1070
    73
1070
     1
1070
    44
1040
1.0
1070
    74
1070
     0
1000
MTEXTEND
  0
POINT
  5
B66D
330
B665
100
AcDbEntity
  8
Defpoints
 62
     0
100
AcDbPoint
 10
1018.972260509708
 20
-313.1014988274571
 30
0.0
  0
POINT
  5
B66E
330
B665
100
AcDbEntity
  8
Defpoints
 62
     0
100
AcDbPoint
 10
1018.972260509708
 20
-381.6014988274575
 30
0.0
  0
POINT
  5
B66F
330
B665
100
AcDbEntity
  8
Defpoints
 62
     0
100
AcDbPoint
 10
1044.222260509708
 20
-381.6014988274575
 30
0.0
  0
ENDBLK
  5
B670
330
B665
100
AcDbEntity
  8
0
100
AcDbBlockEnd
  0
BLOCK
  5
B672
330
B671
100
AcDbEntity
  8
0
100
AcDbBlockBegin
  2
*D34
 70
     1
 10
0.0
 20
0.0
 30
0.0
  3
*D34
  1

  0
LINE
  5
B673
330
B671
100
AcDbEntity
  8
AM_5
100
AcDbLine
 10
1020.472260509708
 20
-381.6014988274575
 30
0.0
 11
1055.222260509705
 21
-381.6014988274575
 31
0.0
  0
LINE
  5
B674
330
B671
100
AcDbEntity
  8
AM_5
100
AcDbLine
 10
979.4722605097078
 20
-196.6014988274572
 30
0.0
 11
1055.222260509705
 21
-196.6014988274572
 31
0.0
  0
LINE
  5
B675
330
B671
100
AcDbEntity
  8
AM_5
100
AcDbLine
 10
1054.222260509705
 20
-380.6014988274575
 30
0.0
 11
1054.222260509705
 21
-197.6014988274572
 31
0.0
  0
INSERT
  5
B676
330
B671
100
AcDbEntity
  8
AM_5
100
AcDbBlockReference
  2
_Dot
 10
1054.222260509705
 20
-381.6014988274575
 30
0.0
 50
270.0
  0
INSERT
  5
B677
330
B671
100
AcDbEntity
  8
AM_5
100
AcDbBlockReference
  2
_Dot
 10
1054.222260509705
 20
-196.6014988274572
 30
0.0
 50
90.0
  0
MTEXT
  5
B678
330
B671
100
AcDbEntity
  8
AM_5
 62
     2
100
AcDbMText
 10
1051.122260509705
 20
-289.1014988274572
 30
0.0
 40
3.2
 41
0.0
 71
     5
 72
     1
  1
185
 11
0.0000000000000001
 21
1.0
 31
0.0
 73
     1
 44
1.0
1001
ACAD
1000
MTEXTBEGIN
1070
    73
1070
     1
1070
    44
1040
1.0
1070
    74
1070
     0
1000
MTEXTEND
  0
POINT
  5
B679
330
B671
100
AcDbEntity
  8
Defpoints
 62
     0
100
AcDbPoint
 10
1018.972260509708
 20
-381.6014988274575
 30
0.0
  0
POINT
  5
B67A
330
B671
100
AcDbEntity
  8
Defpoints
 62
     0
100
AcDbPoint
 10
977.9722605097079
 20
-196.6014988274572
 30
0.0
  0
POINT
  5
B67B
330
B671
100
AcDbEntity
  8
Defpoints
 62
     0
100
AcDbPoint
 10
1054.222260509705
 20
-196.6014988274572
 30
0.0
  0
ENDBLK
  5
B67C
330
B671
100
AcDbEntity
  8
0
100
AcDbBlockEnd
  0
BLOCK
  5
B67E
330
B67D
100
AcDbEntity
  8
0
100
AcDbBlockBegin
  2
*D35
 70
     1
 10
0.0
 20
0.0
 30
0.0
  3
*D35
  1

  0
LINE
  5
B67F
330
B67D
100
AcDbEntity
  8
AM_5
100
AcDbLine
 10
990.7392441596876
 20
-167.1408080297955
 30
0.0
 11
984.1192441596874
 21
-167.1408080297956
 31
0.0
  0
LINE
  5
B680
330
B67D
100
AcDbEntity
  8
AM_5
100
AcDbLine
 10
984.1192441596874
 20
-167.1408080297956
 30
0.0
 11
976.4087631283851
 21
-159.8346979638007
 31
0.0
  0
MTEXT
  5
B681
330
B67D
100
AcDbEntity
  8
AM_5
 62
     2
100
AcDbMText
 10
988.1792441596877
 20
-164.0408080297957
 30
0.0
 40
3.2
 41
0.0
 71
     5
 72
     1
  1
R11
 73
     1
 44
1.0
1001
ACAD
1000
MTEXTBEGIN
1070
    73
1070
     1
1070
    44
1040
1.0
1070
    74
1070
     0
1000
MTEXTEND
  0
INSERT
  5
B682
330
B67D
100
AcDbEntity
  8
AM_5
100
AcDbBlockReference
  2
_OPEN30
 10
974.9569934947423
 20
-158.4590654071806
 30
0.0
 41
2.0
 42
2.0
 43
2.0
 50
136.5425040090043
  0
POINT
  5
B683
330
B67D
100
AcDbEntity
  8
Defpoints
 62
     0
100
AcDbPoint
 10
974.9569934947423
 20
-158.4590654071806
 30
0.0
  0
POINT
  5
B684
330
B67D
100
AcDbEntity
  8
Defpoints
 62
     0
100
AcDbPoint
 10
966.9722605097081
 20
-150.8930863457699
 30
0.0
  0
ENDBLK
  5
B685
330
B67D
100
AcDbEntity
  8
0
100
AcDbBlockEnd
  0
BLOCK
  5
B687
330
B686
100
AcDbEntity
  8
0
100
AcDbBlockBegin
  2
*D36
 70
     1
 10
0.0
 20
0.0
 30
0.0
  3
*D36
  1

  0
LINE
  5
B688
330
B686
100
AcDbEntity
  8
AM_5
100
AcDbLine
 10
994.6351996276352
 20
-139.1160791174558
 30
0.0
 11
987.3751996276352
 21
-139.1160791174557
 31
0.0
  0
LINE
  5
B689
330
B686
100
AcDbEntity
  8
AM_5
100
AcDbLine
 10
987.3751996276352
 20
-139.1160791174557
 30
0.0
 11
979.0972942131535
 21
-143.8942608950014
 31
0.0
  0
MTEXT
  5
B68A
330
B686
100
AcDbEntity
  8
AM_5
 62
     2
100
AcDbMText
 10
991.7551996276351
 20
-136.0160791174558
 30
0.0
 40
3.2
 41
0.0
 71
     5
 72
     1
  1
R12
 73
     1
 44
1.0
1001
ACAD
1000
MTEXTBEGIN
1070
    73
1070
     1
1070
    44
1040
1.0
1070
    74
1070
     0
1000
MTEXTEND
  0
INSERT
  5
B68B
330
B686
100
AcDbEntity
  8
AM_5
100
AcDbBlockReference
  2
_OPEN30
 10
977.3651465412328
 20
-144.894093102254
 30
0.0
 41
2.0
 42
2.0
 43
2.0
 50
209.9944496158018
  0
POINT
  5
B68C
330
B686
100
AcDbEntity
  8
Defpoints
 62
     0
100
AcDbPoint
 10
977.3651465412328
 20
-144.894093102254
 30
0.0
  0
POINT
  5
B68D
330
B686
100
AcDbEntity
  8
Defpoints
 62
     0
100
AcDbPoint
 10
966.9722605097085
 20
-150.8930863457698
 30
0.0
  0
ENDBLK
  5
B68E
330
B686
100
AcDbEntity
  8
0
100
AcDbBlockEnd
  0
BLOCK
  5
B81A
330
B810
100
AcDbEntity
  8
0
100
AcDbBlockBegin
  2
*D38
 70
     1
 10
0.0
 20
0.0
 30
0.0
  3
*D38
  1

  0
LINE
  5
B92E
330
B810
100
AcDbEntity
  8
AM_5
100
AcDbLine
 10
183.3580741674259
 20
210.9605295106214
 30
0.0
 11
168.3580731674257
 21
210.9605295106214
 31
0.0
  0
LINE
  5
B92F
330
B810
100
AcDbEntity
  8
AM_5
100
AcDbLine
 10
180.1080741674254
 20
149.4605295106212
 30
0.0
 11
168.3580731674257
 21
149.4605295106212
 31
0.0
  0
LINE
  5
B930
330
B810
100
AcDbEntity
  8
AM_5
100
AcDbLine
 10
169.3580731674257
 20
209.9605295106214
 30
0.0
 11
169.3580731674257
 21
150.4605295106212
 31
0.0
  0
INSERT
  5
B931
330
B810
100
AcDbEntity
  8
AM_5
100
AcDbBlockReference
  2
_Dot
 10
169.3580731674257
 20
210.9605295106214
 30
0.0
 50
90.0
  0
INSERT
  5
B932
330
B810
100
AcDbEntity
  8
AM_5
100
AcDbBlockReference
  2
_Dot
 10
169.3580731674257
 20
149.4605295106212
 30
0.0
 50
270.0
  0
MTEXT
  5
B933
330
B810
100
AcDbEntity
  8
AM_5
 62
     2
100
AcDbMText
 10
166.2580731674256
 20
180.2105295106214
 30
0.0
 40
3.200000000000001
 41
0.0
 71
     5
 72
     1
  1
61.5
 11
0.0000000000000001
 21
1.0
 31
0.0
 73
     1
 44
1.0
1001
ACAD
1000
MTEXTBEGIN
1070
    73
1070
     1
1070
    44
1040
1.0
1070
    74
1070
     0
1000
MTEXTEND
  0
POINT
  5
B934
330
B810
100
AcDbEntity
  8
Defpoints
 62
     0
100
AcDbPoint
 10
184.3580741674259
 20
210.9605295106214
 30
0.0
  0
POINT
  5
B935
330
B810
100
AcDbEntity
  8
Defpoints
 62
     0
100
AcDbPoint
 10
181.1080741674254
 20
149.4605295106212
 30
0.0
  0
POINT
  5
B936
330
B810
100
AcDbEntity
  8
Defpoints
 62
     0
100
AcDbPoint
 10
169.3580731674257
 20
149.4605295106212
 30
0.0
  0
ENDBLK
  5
B81B
330
B810
100
AcDbEntity
  8
0
100
AcDbBlockEnd
  0
BLOCK
  5
B826
330
B81C
100
AcDbEntity
  8
0
100
AcDbBlockBegin
  2
*D39
 70
     1
 10
0.0
 20
0.0
 30
0.0
  3
*D39
  1

  0
LINE
  5
B937
330
B81C
100
AcDbEntity
  8
AM_5
100
AcDbLine
 10
180.1080741674254
 20
149.4605295106212
 30
0.0
 11
168.3580731674283
 21
149.4605295106212
 31
0.0
  0
LINE
  5
B938
330
B81C
100
AcDbEntity
  8
AM_5
100
AcDbLine
 10
188.1080741674254
 20
130.9605295106214
 30
0.0
 11
168.3580731674283
 21
130.9605295106214
 31
0.0
  0
LINE
  5
B939
330
B81C
100
AcDbEntity
  8
AM_5
100
AcDbLine
 10
169.3580731674283
 20
148.4605295106212
 30
0.0
 11
169.3580731674283
 21
131.9605295106214
 31
0.0
  0
INSERT
  5
B93A
330
B81C
100
AcDbEntity
  8
AM_5
100
AcDbBlockReference
  2
_Dot
 10
169.3580731674283
 20
149.4605295106212
 30
0.0
 50
90.0
  0
INSERT
  5
B93B
330
B81C
100
AcDbEntity
  8
AM_5
100
AcDbBlockReference
  2
_Dot
 10
169.3580731674283
 20
130.9605295106214
 30
0.0
 50
270.0
  0
MTEXT
  5
B93C
330
B81C
100
AcDbEntity
  8
AM_5
 62
     2
100
AcDbMText
 10
166.2580731674283
 20
140.2105295106213
 30
0.0
 40
3.200000000000001
 41
0.0
 71
     5
 72
     1
  1
18.5
 11
0.0000000000000001
 21
1.0
 31
0.0
 73
     1
 44
1.0
1001
ACAD
1000
MTEXTBEGIN
1070
    73
1070
     1
1070
    44
1040
1.0
1070
    74
1070
     0
1000
MTEXTEND
  0
POINT
  5
B93D
330
B81C
100
AcDbEntity
  8
Defpoints
 62
     0
100
AcDbPoint
 10
181.1080741674254
 20
149.4605295106212
 30
0.0
  0
POINT
  5
B93E
330
B81C
100
AcDbEntity
  8
Defpoints
 62
     0
100
AcDbPoint
 10
189.1080741674254
 20
130.9605295106214
 30
0.0
  0
POINT
  5
B93F
330
B81C
100
AcDbEntity
  8
Defpoints
 62
     0
100
AcDbPoint
 10
169.3580731674283
 20
130.9605295106214
 30
0.0
  0
ENDBLK
  5
B827
330
B81C
100
AcDbEntity
  8
0
100
AcDbBlockEnd
  0
BLOCK
  5
B832
330
B828
100
AcDbEntity
  8
0
100
AcDbBlockBegin
  2
*D40
 70
     1
 10
0.0
 20
0.0
 30
0.0
  3
*D40
  1

  0
LINE
  5
B940
330
B828
100
AcDbEntity
  8
AM_5
100
AcDbLine
 10
188.1080741674254
 20
130.9605295106214
 30
0.0
 11
168.3580731674283
 21
130.9605295106214
 31
0.0
  0
LINE
  5
B941
330
B828
100
AcDbEntity
  8
AM_5
100
AcDbLine
 10
180.1080741674254
 20
112.4605295106209
 30
0.0
 11
168.3580731674283
 21
112.4605295106209
 31
0.0
  0
LINE
  5
B942
330
B828
100
AcDbEntity
  8
AM_5
100
AcDbLine
 10
169.3580731674283
 20
129.9605295106214
 30
0.0
 11
169.3580731674283
 21
113.4605295106209
 31
0.0
  0
INSERT
  5
B943
330
B828
100
AcDbEntity
  8
AM_5
100
AcDbBlockReference
  2
_Dot
 10
169.3580731674283
 20
130.9605295106214
 30
0.0
 50
90.0
  0
INSERT
  5
B944
330
B828
100
AcDbEntity
  8
AM_5
100
AcDbBlockReference
  2
_Dot
 10
169.3580731674283
 20
112.4605295106209
 30
0.0
 50
270.0
  0
MTEXT
  5
B945
330
B828
100
AcDbEntity
  8
AM_5
 62
     2
100
AcDbMText
 10
166.2580731674283
 20
121.7105295106212
 30
0.0
 40
3.200000000000001
 41
0.0
 71
     5
 72
     1
  1
18.5
 11
0.0000000000000001
 21
1.0
 31
0.0
 73
     1
 44
1.0
1001
ACAD
1000
MTEXTBEGIN
1070
    73
1070
     1
1070
    44
1040
1.0
1070
    74
1070
     0
1000
MTEXTEND
  0
POINT
  5
B946
330
B828
100
AcDbEntity
  8
Defpoints
 62
     0
100
AcDbPoint
 10
189.1080741674254
 20
130.9605295106214
 30
0.0
  0
POINT
  5
B947
330
B828
100
AcDbEntity
  8
Defpoints
 62
     0
100
AcDbPoint
 10
181.1080741674254
 20
112.4605295106209
 30
0.0
  0
POINT
  5
B948
330
B828
100
AcDbEntity
  8
Defpoints
 62
     0
100
AcDbPoint
 10
169.3580731674283
 20
112.4605295106209
 30
0.0
  0
ENDBLK
  5
B833
330
B828
100
AcDbEntity
  8
0
100
AcDbBlockEnd
  0
BLOCK
  5
B83E
330
B834
100
AcDbEntity
  8
0
100
AcDbBlockBegin
  2
*D41
 70
     1
 10
0.0
 20
0.0
 30
0.0
  3
*D41
  1

  0
LINE
  5
B949
330
B834
100
AcDbEntity
  8
AM_5
100
AcDbLine
 10
180.1080741674254
 20
112.4605295106209
 30
0.0
 11
168.3580731674283
 21
112.4605295106209
 31
0.0
  0
LINE
  5
B94A
330
B834
100
AcDbEntity
  8
AM_5
100
AcDbLine
 10
183.3580741674253
 20
103.4605295106212
 30
0.0
 11
168.3580731674283
 21
103.4605295106212
 31
0.0
  0
LINE
  5
B94B
330
B834
100
AcDbEntity
  8
AM_5
100
AcDbLine
 10
169.3580731674283
 20
111.4605295106209
 30
0.0
 11
169.3580731674283
 21
104.4605295106212
 31
0.0
  0
INSERT
  5
B94C
330
B834
100
AcDbEntity
  8
AM_5
100
AcDbBlockReference
  2
_Dot
 10
169.3580731674283
 20
112.4605295106209
 30
0.0
 50
90.0
  0
INSERT
  5
B94D
330
B834
100
AcDbEntity
  8
AM_5
100
AcDbBlockReference
  2
_Dot
 10
169.3580731674283
 20
103.4605295106212
 30
0.0
 50
270.0
  0
MTEXT
  5
B94E
330
B834
100
AcDbEntity
  8
AM_5
 62
     2
100
AcDbMText
 10
166.2580731674283
 20
107.9605295106211
 30
0.0
 40
3.200000000000001
 41
0.0
 71
     5
 72
     1
  1
9
 11
0.0000000000000001
 21
1.0
 31
0.0
 73
     1
 44
1.0
1001
ACAD
1000
MTEXTBEGIN
1070
    73
1070
     1
1070
    44
1040
1.0
1070
    74
1070
     0
1000
MTEXTEND
  0
POINT
  5
B94F
330
B834
100
AcDbEntity
  8
Defpoints
 62
     0
100
AcDbPoint
 10
181.1080741674254
 20
112.4605295106209
 30
0.0
  0
POINT
  5
B950
330
B834
100
AcDbEntity
  8
Defpoints
 62
     0
100
AcDbPoint
 10
184.3580741674253
 20
103.4605295106212
 30
0.0
  0
POINT
  5
B951
330
B834
100
AcDbEntity
  8
Defpoints
 62
     0
100
AcDbPoint
 10
169.3580731674283
 20
103.4605295106212
 30
0.0
  0
ENDBLK
  5
B83F
330
B834
100
AcDbEntity
  8
0
100
AcDbBlockEnd
  0
BLOCK
  5
B84A
330
B840
100
AcDbEntity
  8
0
100
AcDbBlockBegin
  2
*D42
 70
     1
 10
0.0
 20
0.0
 30
0.0
  3
*D42
  1

  0
LINE
  5
B952
330
B840
100
AcDbEntity
  8
AM_5
100
AcDbLine
 10
224.3580741674252
 20
94.46052951062126
 30
0.0
 11
158.3580731674283
 21
94.46052951062128
 31
0.0
  0
LINE
  5
B953
330
B840
100
AcDbEntity
  8
AM_5
100
AcDbLine
 10
183.3580741674253
 20
103.4605295106212
 30
0.0
 11
158.3580731674283
 21
103.4605295106213
 31
0.0
  0
LINE
  5
B954
330
B840
100
AcDbEntity
  8
AM_5
100
AcDbLine
 10
159.3580731674283
 20
95.46052951062128
 30
0.0
 11
159.3580731674283
 21
102.4605295106213
 31
0.0
  0
INSERT
  5
B955
330
B840
100
AcDbEntity
  8
AM_5
100
AcDbBlockReference
  2
_Dot
 10
159.3580731674283
 20
94.46052951062128
 30
0.0
 50
270.0
  0
INSERT
  5
B956
330
B840
100
AcDbEntity
  8
AM_5
100
AcDbBlockReference
  2
_Dot
 10
159.3580731674283
 20
103.4605295106213
 30
0.0
 50
90.0
  0
MTEXT
  5
B957
330
B840
100
AcDbEntity
  8
AM_5
 62
     2
100
AcDbMText
 10
156.2580731674283
 20
98.96052951062131
 30
0.0
 40
3.200000000000001
 41
0.0
 71
     5
 72
     1
  1
9
 11
0.0000000000000001
 21
1.0
 31
0.0
 73
     1
 44
1.0
1001
ACAD
1000
MTEXTBEGIN
1070
    73
1070
     1
1070
    44
1040
1.0
1070
    74
1070
     0
1000
MTEXTEND
  0
POINT
  5
B958
330
B840
100
AcDbEntity
  8
Defpoints
 62
     0
100
AcDbPoint
 10
225.3580741674252
 20
94.46052951062126
 30
0.0
  0
POINT
  5
B959
330
B840
100
AcDbEntity
  8
Defpoints
 62
     0
100
AcDbPoint
 10
184.3580741674253
 20
103.4605295106212
 30
0.0
  0
POINT
  5
B95A
330
B840
100
AcDbEntity
  8
Defpoints
 62
     0
100
AcDbPoint
 10
159.3580731674283
 20
103.4605295106213
 30
0.0
  0
ENDBLK
  5
B84B
330
B840
100
AcDbEntity
  8
0
100
AcDbBlockEnd
  0
BLOCK
  5
B856
330
B84C
100
AcDbEntity
  8
0
100
AcDbBlockBegin
  2
*D43
 70
     1
 10
0.0
 20
0.0
 30
0.0
  3
*D43
  1

  0
LINE
  5
B95B
330
B84C
100
AcDbEntity
  8
AM_5
100
AcDbLine
 10
183.3580741674253
 20
103.4605295106212
 30
0.0
 11
158.3580731674282
 21
103.4605295106213
 31
0.0
  0
LINE
  5
B95C
330
B84C
100
AcDbEntity
  8
AM_5
100
AcDbLine
 10
183.3580741674259
 20
210.9605295106214
 30
0.0
 11
158.3580731674283
 21
210.9605295106214
 31
0.0
  0
LINE
  5
B95D
330
B84C
100
AcDbEntity
  8
AM_5
100
AcDbLine
 10
159.3580731674282
 20
104.4605295106213
 30
0.0
 11
159.3580731674283
 21
209.9605295106214
 31
0.0
  0
INSERT
  5
B95E
330
B84C
100
AcDbEntity
  8
AM_5
100
AcDbBlockReference
  2
_Dot
 10
159.3580731674282
 20
103.4605295106213
 30
0.0
 50
270.0
  0
INSERT
  5
B95F
330
B84C
100
AcDbEntity
  8
AM_5
100
AcDbBlockReference
  2
_Dot
 10
159.3580731674283
 20
210.9605295106214
 30
0.0
 50
90.0
  0
MTEXT
  5
B960
330
B84C
100
AcDbEntity
  8
AM_5
 62
     2
100
AcDbMText
 10
156.2580731674282
 20
157.2105295106213
 30
0.0
 40
3.200000000000001
 41
0.0
 71
     5
 72
     1
  1
107.5
 11
0.0000000000000001
 21
1.0
 31
0.0
 73
     1
 44
1.0
1001
ACAD
1000
MTEXTBEGIN
1070
    73
1070
     1
1070
    44
1040
1.0
1070
    74
1070
     0
1000
MTEXTEND
  0
POINT
  5
B961
330
B84C
100
AcDbEntity
  8
Defpoints
 62
     0
100
AcDbPoint
 10
184.3580741674253
 20
103.4605295106212
 30
0.0
  0
POINT
  5
B962
330
B84C
100
AcDbEntity
  8
Defpoints
 62
     0
100
AcDbPoint
 10
184.3580741674259
 20
210.9605295106214
 30
0.0
  0
POINT
  5
B963
330
B84C
100
AcDbEntity
  8
Defpoints
 62
     0
100
AcDbPoint
 10
159.3580731674283
 20
210.9605295106214
 30
0.0
  0
ENDBLK
  5
B857
330
B84C
100
AcDbEntity
  8
0
100
AcDbBlockEnd
  0
BLOCK
  5
B862
330
B858
100
AcDbEntity
  8
0
100
AcDbBlockBegin
  2
*D44
 70
     1
 10
0.0
 20
0.0
 30
0.0
  3
*D44
  1

  0
LINE
  5
B964
330
B858
100
AcDbEntity
  8
AM_5
100
AcDbLine
 10
181.3580741674258
 20
208.9605295106214
 30
0.0
 11
181.3580741674258
 21
226.9605305106214
 31
0.0
  0
LINE
  5
B965
330
B858
100
AcDbEntity
  8
AM_5
100
AcDbLine
 10
236.3580741674259
 20
217.9605295106214
 30
0.0
 11
236.3580741674259
 21
226.9605305106214
 31
0.0
  0
LINE
  5
B966
330
B858
100
AcDbEntity
  8
AM_5
100
AcDbLine
 10
182.3580741674258
 20
225.9605305106215
 30
0.0
 11
235.3580741674259
 21
225.9605305106215
 31
0.0
  0
INSERT
  5
B967
330
B858
100
AcDbEntity
  8
AM_5
100
AcDbBlockReference
  2
_Dot
 10
181.3580741674258
 20
225.9605305106215
 30
0.0
 50
180.0
  0
INSERT
  5
B968
330
B858
100
AcDbEntity
  8
AM_5
100
AcDbBlockReference
  2
_Dot
 10
236.3580741674259
 20
225.9605305106215
 30
0.0
  0
MTEXT
  5
B969
330
B858
100
AcDbEntity
  8
AM_5
 62
     2
100
AcDbMText
 10
208.8580741674259
 20
229.0605305106215
 30
0.0
 40
3.200000000000001
 41
0.0
 71
     5
 72
     1
  1
55
 73
     1
 44
1.0
1001
ACAD
1000
MTEXTBEGIN
1070
    73
1070
     1
1070
    44
1040
1.0
1070
    74
1070
     0
1000
MTEXTEND
  0
POINT
  5
B96A
330
B858
100
AcDbEntity
  8
Defpoints
 62
     0
100
AcDbPoint
 10
181.3580741674258
 20
207.9605295106214
 30
0.0
  0
POINT
  5
B96B
330
B858
100
AcDbEntity
  8
Defpoints
 62
     0
100
AcDbPoint
 10
236.3580741674259
 20
216.9605295106214
 30
0.0
  0
POINT
  5
B96C
330
B858
100
AcDbEntity
  8
Defpoints
 62
     0
100
AcDbPoint
 10
236.3580741674259
 20
225.9605305106215
 30
0.0
  0
ENDBLK
  5
B863
330
B858
100
AcDbEntity
  8
0
100
AcDbBlockEnd
  0
BLOCK
  5
B86E
330
B864
100
AcDbEntity
  8
0
100
AcDbBlockBegin
  2
*D45
 70
     1
 10
0.0
 20
0.0
 30
0.0
  3
*D45
  1

  0
LINE
  5
B96D
330
B864
100
AcDbEntity
  8
AM_5
100
AcDbLine
 10
291.3580741674254
 20
92.4605295106213
 30
0.0
 11
291.3580741674254
 21
226.9605305106214
 31
0.0
  0
LINE
  5
B96E
330
B864
100
AcDbEntity
  8
AM_5
100
AcDbLine
 10
236.3580741674259
 20
217.9605295106214
 30
0.0
 11
236.3580741674259
 21
226.9605305106214
 31
0.0
  0
LINE
  5
B96F
330
B864
100
AcDbEntity
  8
AM_5
100
AcDbLine
 10
290.3580741674255
 20
225.9605305106215
 30
0.0
 11
237.3580741674259
 21
225.9605305106215
 31
0.0
  0
INSERT
  5
B970
330
B864
100
AcDbEntity
  8
AM_5
100
AcDbBlockReference
  2
_Dot
 10
291.3580741674254
 20
225.9605305106215
 30
0.0
  0
INSERT
  5
B971
330
B864
100
AcDbEntity
  8
AM_5
100
AcDbBlockReference
  2
_Dot
 10
236.3580741674259
 20
225.9605305106215
 30
0.0
 50
180.0
  0
MTEXT
  5
B972
330
B864
100
AcDbEntity
  8
AM_5
 62
     2
100
AcDbMText
 10
263.8580741674257
 20
229.0605305106215
 30
0.0
 40
3.200000000000001
 41
0.0
 71
     5
 72
     1
  1
55
 73
     1
 44
1.0
1001
ACAD
1000
MTEXTBEGIN
1070
    73
1070
     1
1070
    44
1040
1.0
1070
    74
1070
     0
1000
MTEXTEND
  0
POINT
  5
B973
330
B864
100
AcDbEntity
  8
Defpoints
 62
     0
100
AcDbPoint
 10
291.3580741674254
 20
91.46052951062131
 30
0.0
  0
POINT
  5
B974
330
B864
100
AcDbEntity
  8
Defpoints
 62
     0
100
AcDbPoint
 10
236.3580741674259
 20
216.9605295106214
 30
0.0
  0
POINT
  5
B975
330
B864
100
AcDbEntity
  8
Defpoints
 62
     0
100
AcDbPoint
 10
236.3580741674259
 20
225.9605305106215
 30
0.0
  0
ENDBLK
  5
B86F
330
B864
100
AcDbEntity
  8
0
100
AcDbBlockEnd
  0
BLOCK
  5
B87A
330
B870
100
AcDbEntity
  8
0
100
AcDbBlockBegin
  2
*D46
 70
     1
 10
0.0
 20
0.0
 30
0.0
  3
*D46
  1

  0
LINE
  5
B976
330
B870
100
AcDbEntity
  8
AM_5
100
AcDbLine
 10
289.3580741674254
 20
94.46052951062132
 30
0.0
 11
304.3580751774255
 21
94.46052951062132
 31
0.0
  0
LINE
  5
B977
330
B870
100
AcDbEntity
  8
AM_5
100
AcDbLine
 10
292.6080741674255
 20
85.46052951062097
 30
0.0
 11
304.3580751774255
 21
85.46052951062097
 31
0.0
  0
LINE
  5
B978
330
B870
100
AcDbEntity
  8
AM_5
100
AcDbLine
 10
303.3580751774255
 20
93.46052951062132
 30
0.0
 11
303.3580751774255
 21
86.46052951062097
 31
0.0
  0
INSERT
  5
B979
330
B870
100
AcDbEntity
  8
AM_5
100
AcDbBlockReference
  2
_Dot
 10
303.3580751774255
 20
94.46052951062132
 30
0.0
 50
90.0
  0
INSERT
  5
B97A
330
B870
100
AcDbEntity
  8
AM_5
100
AcDbBlockReference
  2
_Dot
 10
303.3580751774255
 20
85.46052951062097
 30
0.0
 50
270.0
  0
MTEXT
  5
B97B
330
B870
100
AcDbEntity
  8
AM_5
 62
     2
100
AcDbMText
 10
300.2580751774254
 20
89.9605295106212
 30
0.0
 40
3.200000000000001
 41
0.0
 71
     5
 72
     1
  1
9
 11
0.0000000000000001
 21
1.0
 31
0.0
 73
     1
 44
1.0
1001
ACAD
1000
MTEXTBEGIN
1070
    73
1070
     1
1070
    44
1040
1.0
1070
    74
1070
     0
1000
MTEXTEND
  0
POINT
  5
B97C
330
B870
100
AcDbEntity
  8
Defpoints
 62
     0
100
AcDbPoint
 10
288.3580741674255
 20
94.46052951062132
 30
0.0
  0
POINT
  5
B97D
330
B870
100
AcDbEntity
  8
Defpoints
 62
     0
100
AcDbPoint
 10
291.6080741674254
 20
85.46052951062097
 30
0.0
  0
POINT
  5
B97E
330
B870
100
AcDbEntity
  8
Defpoints
 62
     0
100
AcDbPoint
 10
303.3580751774255
 20
85.46052951062097
 30
0.0
  0
ENDBLK
  5
B87B
330
B870
100
AcDbEntity
  8
0
100
AcDbBlockEnd
  0
BLOCK
  5
B886
330
B87C
100
AcDbEntity
  8
0
100
AcDbBlockBegin
  2
*D47
 70
     1
 10
0.0
 20
0.0
 30
0.0
  3
*D47
  1

  0
LINE
  5
B97F
330
B87C
100
AcDbEntity
  8
AM_5
100
AcDbLine
 10
292.6080741674255
 20
85.46052951062097
 30
0.0
 11
304.3580751674256
 21
85.46052951062097
 31
0.0
  0
LINE
  5
B980
330
B87C
100
AcDbEntity
  8
AM_5
100
AcDbLine
 10
284.6080741674255
 20
66.96052951062097
 30
0.0
 11
304.3580751674256
 21
66.96052951062096
 31
0.0
  0
LINE
  5
B981
330
B87C
100
AcDbEntity
  8
AM_5
100
AcDbLine
 10
303.3580751674256
 20
84.46052951062098
 30
0.0
 11
303.3580751674256
 21
67.96052951062096
 31
0.0
  0
INSERT
  5
B982
330
B87C
100
AcDbEntity
  8
AM_5
100
AcDbBlockReference
  2
_Dot
 10
303.3580751674256
 20
85.46052951062097
 30
0.0
 50
90.0
  0
INSERT
  5
B983
330
B87C
100
AcDbEntity
  8
AM_5
100
AcDbBlockReference
  2
_Dot
 10
303.3580751674256
 20
66.96052951062096
 30
0.0
 50
270.0
  0
MTEXT
  5
B984
330
B87C
100
AcDbEntity
  8
AM_5
 62
     2
100
AcDbMText
 10
300.2580751674255
 20
76.21052951062101
 30
0.0
 40
3.200000000000001
 41
0.0
 71
     5
 72
     1
  1
18.5
 11
0.0000000000000001
 21
1.0
 31
0.0
 73
     1
 44
1.0
1001
ACAD
1000
MTEXTBEGIN
1070
    73
1070
     1
1070
    44
1040
1.0
1070
    74
1070
     0
1000
MTEXTEND
  0
POINT
  5
B985
330
B87C
100
AcDbEntity
  8
Defpoints
 62
     0
100
AcDbPoint
 10
291.6080741674254
 20
85.46052951062097
 30
0.0
  0
POINT
  5
B986
330
B87C
100
AcDbEntity
  8
Defpoints
 62
     0
100
AcDbPoint
 10
283.6080741674255
 20
66.96052951062097
 30
0.0
  0
POINT
  5
B987
330
B87C
100
AcDbEntity
  8
Defpoints
 62
     0
100
AcDbPoint
 10
303.3580751674256
 20
66.96052951062096
 30
0.0
  0
ENDBLK
  5
B887
330
B87C
100
AcDbEntity
  8
0
100
AcDbBlockEnd
  0
BLOCK
  5
B891
330
B888
100
AcDbEntity
  8
0
100
AcDbBlockBegin
  2
*D48
 70
     1
 10
0.0
 20
0.0
 30
0.0
  3
*D48
  1

  0
LINE
  5
B988
330
B888
100
AcDbEntity
  8
AM_5
100
AcDbLine
 10
269.2149180933514
 20
86.73121068020991
 30
0.0
 11
265.5012302414982
 21
84.18984834103246
 31
0.0
  0
LINE
  5
B989
330
B888
100
AcDbEntity
  8
AM_5
100
AcDbLine
 10
263.8507023073408
 20
83.06035396806445
 30
0.0
 11
207.6474047538126
 21
44.59913982244254
 31
0.0
  0
LINE
  5
B98A
330
B888
100
AcDbEntity
  8
AM_5
100
AcDbLine
 10
207.6474047538126
 20
44.59913982244254
 30
0.0
 11
189.3007380871459
 21
44.59913982244254
 31
0.0
  0
INSERT
  5
B98B
330
B888
100
AcDbEntity
  8
AM_5
100
AcDbBlockReference
  2
GENDOT
 10
270.8654460275087
 20
87.86070505317791
 30
0.0
 41
2.0
 42
2.0
 43
2.0
 50
34.38473733049394
  0
INSERT
  5
B98C
330
B888
100
AcDbEntity
  8
AM_5
100
AcDbBlockReference
  2
GENDOT
 10
263.8507023073408
 20
83.06035396806445
 30
0.0
 41
2.0
 42
2.0
 43
2.0
 50
214.3847373304939
  0
MTEXT
  5
B98D
330
B888
100
AcDbEntity
  8
AM_5
 62
     2
100
AcDbMText
 10
197.7240714204793
 20
50.76580648910908
 30
0.0
 40
3.5
 41
0.0
 71
     5
 72
     1
  1
10-%%c5.5×\P\U+22058.5サラ
 73
     1
 44
1.0
1001
ACAD
1000
MTEXTBEGIN
1070
    73
1070
     1
1070
    44
1040
1.0
1070
    74
1070
     0
1000
MTEXTEND
  0
POINT
  5
B98E
330
B888
100
AcDbEntity
  8
Defpoints
 62
     0
100
AcDbPoint
 10
263.8507023073408
 20
83.06035396806445
 30
0.0
  0
POINT
  5
B98F
330
B888
100
AcDbEntity
  8
Defpoints
 62
     0
100
AcDbPoint
 10
270.8654460275087
 20
87.86070505317791
 30
0.0
  0
ENDBLK
  5
B892
330
B888
100
AcDbEntity
  8
0
100
AcDbBlockEnd
  0
BLOCK
  5
B89E
330
B893
100
AcDbEntity
  8
0
100
AcDbBlockBegin
  2
*D49
 70
     1
 10
0.0
 20
0.0
 30
0.0
  3
*D49
  1

  0
LINE
  5
B990
330
B893
100
AcDbEntity
  8
AM_5
100
AcDbLine
 10
248.3580741674255
 20
94.36052951062112
 30
0.0
 11
248.3580741674255
 21
82.36052951062111
 31
0.0
  0
LINE
  5
B991
330
B893
100
AcDbEntity
  8
AM_5
100
AcDbLine
 10
224.3580741674255
 20
94.36052951062112
 30
0.0
 11
224.3580741674255
 21
82.36052951062111
 31
0.0
  0
LINE
  5
B992
330
B893
100
AcDbEntity
  8
AM_5
100
AcDbLine
 10
247.3580741674255
 20
83.36052951062113
 30
0.0
 11
225.3580741674255
 21
83.36052951062113
 31
0.0
  0
LINE
  5
B993
330
B893
100
AcDbEntity
  8
AM_5
100
AcDbLine
 10
205.0823053166169
 20
83.36052951062113
 30
0.0
 11
224.3580741674255
 21
83.36052951062113
 31
0.0
  0
MTEXT
  5
B994
330
B893
100
AcDbEntity
  8
AM_5
 62
     2
100
AcDbMText
 10
209.4623053166168
 20
86.46052951062111
 30
0.0
 40
3.200000000000001
 41
0.0
 71
     5
 72
     1
  1
%%c24
 73
     1
 44
1.0
1001
ACAD
1000
MTEXTBEGIN
1070
    73
1070
     1
1070
    44
1040
1.0
1070
    74
1070
     0
1000
MTEXTEND
  0
INSERT
  5
B995
330
B893
100
AcDbEntity
  8
AM_5
100
AcDbBlockReference
  2
_Dot
 10
248.3580741674255
 20
83.36052951062113
 30
0.0
  0
INSERT
  5
B996
330
B893
100
AcDbEntity
  8
AM_5
100
AcDbBlockReference
  2
_Dot
 10
224.3580741674255
 20
83.36052951062113
 30
0.0
 50
180.0
  0
POINT
  5
B997
330
B893
100
AcDbEntity
  8
Defpoints
 62
     0
100
AcDbPoint
 10
248.3580741674255
 20
95.36052951062112
 30
0.0
  0
POINT
  5
B998
330
B893
100
AcDbEntity
  8
Defpoints
 62
     0
100
AcDbPoint
 10
224.3580741674255
 20
95.36052951062112
 30
0.0
  0
POINT
  5
B999
330
B893
100
AcDbEntity
  8
Defpoints
 62
     0
100
AcDbPoint
 10
224.3580741674255
 20
83.36052951062113
 30
0.0
  0
ENDBLK
  5
B89F
330
B893
100
AcDbEntity
  8
0
100
AcDbBlockEnd
  0
BLOCK
  5
B8AE
330
B8A0
100
AcDbEntity
  8
0
100
AcDbBlockBegin
  2
*D50
 70
     1
 10
0.0
 20
0.0
 30
0.0
  3
*D50
  1

  0
LINE
  5
B99A
330
B8A0
100
AcDbEntity
  8
AM_5
100
AcDbLine
 10
292.3580741674255
 20
258.6689419923086
 30
0.0
 11
304.3580741674255
 21
258.6689419923086
 31
0.0
  0
LINE
  5
B99B
330
B8A0
100
AcDbEntity
  8
AM_5
100
AcDbLine
 10
292.3580741674255
 20
254.6689419923086
 30
0.0
 11
304.3580741674255
 21
254.6689419923086
 31
0.0
  0
LINE
  5
B99C
330
B8A0
100
AcDbEntity
  8
AM_5
100
AcDbLine
 10
303.3580741674255
 20
259.6689419923086
 30
0.0
 11
303.3580741674255
 21
260.6689419923086
 31
0.0
  0
LINE
  5
B99D
330
B8A0
100
AcDbEntity
  8
AM_5
100
AcDbLine
 10
303.3580741674255
 20
253.6689419923086
 30
0.0
 11
303.3580741674255
 21
252.6689419923086
 31
0.0
  0
LINE
  5
B99E
330
B8A0
100
AcDbEntity
  8
AM_5
100
AcDbLine
 10
303.3580741674255
 20
267.5877682890134
 30
0.0
 11
303.3580741674255
 21
258.6689419923086
 31
0.0
  0
MTEXT
  5
B99F
330
B8A0
100
AcDbEntity
  8
AM_5
 62
     2
100
AcDbMText
 10
300.2580741674254
 20
265.2877682890135
 30
0.0
 40
3.200000000000001
 41
0.0
 71
     5
 72
     1
  1
4
 11
0.0000000000000001
 21
1.0
 31
0.0
 73
     1
 44
1.0
1001
ACAD
1000
MTEXTBEGIN
1070
    73
1070
     1
1070
    44
1040
1.0
1070
    74
1070
     0
1000
MTEXTEND
  0
LINE
  5
B9A0
330
B8A0
100
AcDbEntity
  8
AM_5
100
AcDbLine
 10
303.3580741674255
 20
258.6689419923086
 30
0.0
 11
303.3580741674255
 21
254.6689419923086
 31
0.0
  0
LINE
  5
B9A1
330
B8A0
100
AcDbEntity
  8
AM_5
100
AcDbLine
 10
303.3580741674255
 20
258.6689419923086
 30
0.0
 11
303.3580741674255
 21
254.6689419923086
 31
0.0
  0
INSERT
  5
B9A2
330
B8A0
100
AcDbEntity
  8
AM_5
100
AcDbBlockReference
  2
_Dot
 10
303.3580741674255
 20
258.6689419923086
 30
0.0
 50
270.0
  0
INSERT
  5
B9A3
330
B8A0
100
AcDbEntity
  8
AM_5
100
AcDbBlockReference
  2
_Dot
 10
303.3580741674255
 20
254.6689419923086
 30
0.0
 50
90.0
  0
POINT
  5
B9A4
330
B8A0
100
AcDbEntity
  8
Defpoints
 62
     0
100
AcDbPoint
 10
291.3580741674254
 20
258.6689419923086
 30
0.0
  0
POINT
  5
B9A5
330
B8A0
100
AcDbEntity
  8
Defpoints
 62
     0
100
AcDbPoint
 10
291.3580741674254
 20
254.6689419923086
 30
0.0
  0
POINT
  5
B9A6
330
B8A0
100
AcDbEntity
  8
Defpoints
 62
     0
100
AcDbPoint
 10
303.3580741674255
 20
254.6689419923086
 30
0.0
  0
ENDBLK
  5
B8AF
330
B8A0
100
AcDbEntity
  8
0
100
AcDbBlockEnd
  0
BLOCK
  5
B8BA
330
B8B0
100
AcDbEntity
  8
0
100
AcDbBlockBegin
  2
*D51
 70
     1
 10
0.0
 20
0.0
 30
0.0
  3
*D51
  1

  0
LINE
  5
B9A7
330
B8B0
100
AcDbEntity
  8
AM_5
100
AcDbLine
 10
284.6080741674255
 20
66.96052951062097
 30
0.0
 11
304.6080741674255
 21
66.96052951062096
 31
0.0
  0
LINE
  5
B9A8
330
B8B0
100
AcDbEntity
  8
AM_5
100
AcDbLine
 10
292.6080741674255
 20
48.46052951062097
 30
0.0
 11
304.6080741674255
 21
48.46052951062096
 31
0.0
  0
LINE
  5
B9A9
330
B8B0
100
AcDbEntity
  8
AM_5
100
AcDbLine
 10
303.6080741674255
 20
65.96052951062095
 30
0.0
 11
303.6080741674255
 21
49.46052951062097
 31
0.0
  0
INSERT
  5
B9AA
330
B8B0
100
AcDbEntity
  8
AM_5
100
AcDbBlockReference
  2
_Dot
 10
303.6080741674255
 20
66.96052951062096
 30
0.0
 50
90.0
  0
INSERT
  5
B9AB
330
B8B0
100
AcDbEntity
  8
AM_5
100
AcDbBlockReference
  2
_Dot
 10
303.6080741674255
 20
48.46052951062097
 30
0.0
 50
270.0
  0
MTEXT
  5
B9AC
330
B8B0
100
AcDbEntity
  8
AM_5
 62
     2
100
AcDbMText
 10
300.5080741674254
 20
57.71052951062101
 30
0.0
 40
3.200000000000001
 41
0.0
 71
     5
 72
     1
  1
18.5
 11
0.0000000000000001
 21
1.0
 31
0.0
 73
     1
 44
1.0
1001
ACAD
1000
MTEXTBEGIN
1070
    73
1070
     1
1070
    44
1040
1.0
1070
    74
1070
     0
1000
MTEXTEND
  0
POINT
  5
B9AD
330
B8B0
100
AcDbEntity
  8
Defpoints
 62
     0
100
AcDbPoint
 10
283.6080741674255
 20
66.96052951062097
 30
0.0
  0
POINT
  5
B9AE
330
B8B0
100
AcDbEntity
  8
Defpoints
 62
     0
100
AcDbPoint
 10
291.6080741674254
 20
48.46052951062097
 30
0.0
  0
POINT
  5
B9AF
330
B8B0
100
AcDbEntity
  8
Defpoints
 62
     0
100
AcDbPoint
 10
303.6080741674255
 20
48.46052951062097
 30
0.0
  0
ENDBLK
  5
B8BB
330
B8B0
100
AcDbEntity
  8
0
100
AcDbBlockEnd
  0
BLOCK
  5
B8C6
330
B8BC
100
AcDbEntity
  8
0
100
AcDbBlockBegin
  2
*D52
 70
     1
 10
0.0
 20
0.0
 30
0.0
  3
*D52
  1

  0
LINE
  5
B9B0
330
B8BC
100
AcDbEntity
  8
AM_5
100
AcDbLine
 10
292.6080741674255
 20
48.46052951062097
 30
0.0
 11
304.6080741674255
 21
48.46052951062096
 31
0.0
  0
LINE
  5
B9B1
330
B8BC
100
AcDbEntity
  8
AM_5
100
AcDbLine
 10
289.3580741674254
 20
25.96052951062097
 30
0.0
 11
304.6080741674255
 21
25.96052951062097
 31
0.0
  0
LINE
  5
B9B2
330
B8BC
100
AcDbEntity
  8
AM_5
100
AcDbLine
 10
303.6080741674255
 20
47.46052951062097
 30
0.0
 11
303.6080741674255
 21
26.96052951062097
 31
0.0
  0
INSERT
  5
B9B3
330
B8BC
100
AcDbEntity
  8
AM_5
100
AcDbBlockReference
  2
_Dot
 10
303.6080741674255
 20
48.46052951062097
 30
0.0
 50
90.0
  0
INSERT
  5
B9B4
330
B8BC
100
AcDbEntity
  8
AM_5
100
AcDbBlockReference
  2
_Dot
 10
303.6080741674255
 20
25.96052951062097
 30
0.0
 50
270.0
  0
MTEXT
  5
B9B5
330
B8BC
100
AcDbEntity
  8
AM_5
 62
     2
100
AcDbMText
 10
300.5080741674254
 20
37.21052951062102
 30
0.0
 40
3.200000000000001
 41
0.0
 71
     5
 72
     1
  1
22.5
 11
0.0000000000000001
 21
1.0
 31
0.0
 73
     1
 44
1.0
1001
ACAD
1000
MTEXTBEGIN
1070
    73
1070
     1
1070
    44
1040
1.0
1070
    74
1070
     0
1000
MTEXTEND
  0
POINT
  5
B9B6
330
B8BC
100
AcDbEntity
  8
Defpoints
 62
     0
100
AcDbPoint
 10
291.6080741674254
 20
48.46052951062097
 30
0.0
  0
POINT
  5
B9B7
330
B8BC
100
AcDbEntity
  8
Defpoints
 62
     0
100
AcDbPoint
 10
288.3580741674255
 20
25.96052951062097
 30
0.0
  0
POINT
  5
B9B8
330
B8BC
100
AcDbEntity
  8
Defpoints
 62
     0
100
AcDbPoint
 10
303.6080741674255
 20
25.96052951062097
 30
0.0
  0
ENDBLK
  5
B8C7
330
B8BC
100
AcDbEntity
  8
0
100
AcDbBlockEnd
  0
BLOCK
  5
B8D2
330
B8C8
100
AcDbEntity
  8
0
100
AcDbBlockBegin
  2
*D53
 70
     1
 10
0.0
 20
0.0
 30
0.0
  3
*D53
  1

  0
LINE
  5
B9B9
330
B8C8
100
AcDbEntity
  8
AM_5
100
AcDbLine
 10
275.3580741674255
 20
57.71052951062097
 30
0.0
 11
275.3580741674255
 21
15.96052851062092
 31
0.0
  0
LINE
  5
B9BA
330
B8C8
100
AcDbEntity
  8
AM_5
100
AcDbLine
 10
283.3580741674254
 20
39.21052951062097
 30
0.0
 11
283.3580741674254
 21
15.96052851062092
 31
0.0
  0
LINE
  5
B9BB
330
B8C8
100
AcDbEntity
  8
AM_5
100
AcDbLine
 10
276.3580741674255
 20
16.96052851062091
 30
0.0
 11
282.3580741674255
 21
16.96052851062091
 31
0.0
  0
INSERT
  5
B9BC
330
B8C8
100
AcDbEntity
  8
AM_5
100
AcDbBlockReference
  2
_Dot
 10
275.3580741674255
 20
16.96052851062091
 30
0.0
 50
180.0
  0
INSERT
  5
B9BD
330
B8C8
100
AcDbEntity
  8
AM_5
100
AcDbBlockReference
  2
_Dot
 10
283.3580741674254
 20
16.96052851062091
 30
0.0
  0
MTEXT
  5
B9BE
330
B8C8
100
AcDbEntity
  8
AM_5
 62
     2
100
AcDbMText
 10
279.3580741674254
 20
20.06052851062092
 30
0.0
 40
3.200000000000001
 41
0.0
 71
     5
 72
     1
  1
8
 73
     1
 44
1.0
1001
ACAD
1000
MTEXTBEGIN
1070
    73
1070
     1
1070
    44
1040
1.0
1070
    74
1070
     0
1000
MTEXTEND
  0
POINT
  5
B9BF
330
B8C8
100
AcDbEntity
  8
Defpoints
 62
     0
100
AcDbPoint
 10
275.3580741674255
 20
58.71052951062097
 30
0.0
  0
POINT
  5
B9C0
330
B8C8
100
AcDbEntity
  8
Defpoints
 62
     0
100
AcDbPoint
 10
283.3580741674254
 20
40.21052951062097
 30
0.0
  0
POINT
  5
B9C1
330
B8C8
100
AcDbEntity
  8
Defpoints
 62
     0
100
AcDbPoint
 10
283.3580741674254
 20
16.96052851062091
 30
0.0
  0
ENDBLK
  5
B8D3
330
B8C8
100
AcDbEntity
  8
0
100
AcDbBlockEnd
  0
BLOCK
  5
B8DE
330
B8D4
100
AcDbEntity
  8
0
100
AcDbBlockBegin
  2
*D54
 70
     1
 10
0.0
 20
0.0
 30
0.0
  3
*D54
  1

  0
LINE
  5
B9C2
330
B8D4
100
AcDbEntity
  8
AM_5
100
AcDbLine
 10
267.3580741674253
 20
39.21052951062097
 30
0.0
 11
267.3580741674253
 21
15.96052851062012
 31
0.0
  0
LINE
  5
B9C3
330
B8D4
100
AcDbEntity
  8
AM_5
100
AcDbLine
 10
275.3580741674255
 20
57.71052951062097
 30
0.0
 11
275.3580741674255
 21
15.96052851062012
 31
0.0
  0
LINE
  5
B9C4
330
B8D4
100
AcDbEntity
  8
AM_5
100
AcDbLine
 10
268.3580741674254
 20
16.96052851062012
 30
0.0
 11
274.3580741674255
 21
16.96052851062012
 31
0.0
  0
INSERT
  5
B9C5
330
B8D4
100
AcDbEntity
  8
AM_5
100
AcDbBlockReference
  2
_Dot
 10
267.3580741674253
 20
16.96052851062012
 30
0.0
 50
180.0
  0
INSERT
  5
B9C6
330
B8D4
100
AcDbEntity
  8
AM_5
100
AcDbBlockReference
  2
_Dot
 10
275.3580741674255
 20
16.96052851062012
 30
0.0
  0
MTEXT
  5
B9C7
330
B8D4
100
AcDbEntity
  8
AM_5
 62
     2
100
AcDbMText
 10
271.3580741674254
 20
20.06052851062012
 30
0.0
 40
3.200000000000001
 41
0.0
 71
     5
 72
     1
  1
8
 73
     1
 44
1.0
1001
ACAD
1000
MTEXTBEGIN
1070
    73
1070
     1
1070
    44
1040
1.0
1070
    74
1070
     0
1000
MTEXTEND
  0
POINT
  5
B9C8
330
B8D4
100
AcDbEntity
  8
Defpoints
 62
     0
100
AcDbPoint
 10
267.3580741674253
 20
40.21052951062097
 30
0.0
  0
POINT
  5
B9C9
330
B8D4
100
AcDbEntity
  8
Defpoints
 62
     0
100
AcDbPoint
 10
275.3580741674255
 20
58.71052951062097
 30
0.0
  0
POINT
  5
B9CA
330
B8D4
100
AcDbEntity
  8
Defpoints
 62
     0
100
AcDbPoint
 10
275.3580741674255
 20
16.96052851062012
 30
0.0
  0
ENDBLK
  5
B8DF
330
B8D4
100
AcDbEntity
  8
0
100
AcDbBlockEnd
  0
BLOCK
  5
B8EA
330
B8E0
100
AcDbEntity
  8
0
100
AcDbBlockBegin
  2
*D55
 70
     1
 10
0.0
 20
0.0
 30
0.0
  3
*D55
  1

  0
LINE
  5
B9CB
330
B8E0
100
AcDbEntity
  8
AM_5
100
AcDbLine
 10
283.3580741674254
 20
39.21052951062097
 30
0.0
 11
283.3580741674254
 21
5.96052851061944
 31
0.0
  0
LINE
  5
B9CC
330
B8E0
100
AcDbEntity
  8
AM_5
100
AcDbLine
 10
267.3580741674253
 20
39.21052951062097
 30
0.0
 11
267.3580741674253
 21
5.96052851061944
 31
0.0
  0
LINE
  5
B9CD
330
B8E0
100
AcDbEntity
  8
AM_5
100
AcDbLine
 10
282.3580741674255
 20
6.96052851061944
 30
0.0
 11
268.3580741674254
 21
6.96052851061944
 31
0.0
  0
INSERT
  5
B9CE
330
B8E0
100
AcDbEntity
  8
AM_5
100
AcDbBlockReference
  2
_Dot
 10
283.3580741674254
 20
6.96052851061944
 30
0.0
  0
INSERT
  5
B9CF
330
B8E0
100
AcDbEntity
  8
AM_5
100
AcDbBlockReference
  2
_Dot
 10
267.3580741674253
 20
6.96052851061944
 30
0.0
 50
180.0
  0
MTEXT
  5
B9D0
330
B8E0
100
AcDbEntity
  8
AM_5
 62
     2
100
AcDbMText
 10
275.3580741674254
 20
10.06052851061944
 30
0.0
 40
3.200000000000001
 41
0.0
 71
     5
 72
     1
  1
16
 73
     1
 44
1.0
1001
ACAD
1000
MTEXTBEGIN
1070
    73
1070
     1
1070
    44
1040
1.0
1070
    74
1070
     0
1000
MTEXTEND
  0
POINT
  5
B9D1
330
B8E0
100
AcDbEntity
  8
Defpoints
 62
     0
100
AcDbPoint
 10
283.3580741674254
 20
40.21052951062097
 30
0.0
  0
POINT
  5
B9D2
330
B8E0
100
AcDbEntity
  8
Defpoints
 62
     0
100
AcDbPoint
 10
267.3580741674253
 20
40.21052951062097
 30
0.0
  0
POINT
  5
B9D3
330
B8E0
100
AcDbEntity
  8
Defpoints
 62
     0
100
AcDbPoint
 10
267.3580741674253
 20
6.96052851061944
 30
0.0
  0
ENDBLK
  5
B8EB
330
B8E0
100
AcDbEntity
  8
0
100
AcDbBlockEnd
  0
BLOCK
  5
B8F6
330
B8EC
100
AcDbEntity
  8
0
100
AcDbBlockBegin
  2
*D56
 70
     1
 10
0.0
 20
0.0
 30
0.0
  3
*D56
  1

  0
LINE
  5
B9D4
330
B8EC
100
AcDbEntity
  8
AM_5
100
AcDbLine
 10
291.3580741674254
 20
27.96052951062097
 30
0.0
 11
291.3580741674254
 21
5.960528510620235
 31
0.0
  0
LINE
  5
B9D5
330
B8EC
100
AcDbEntity
  8
AM_5
100
AcDbLine
 10
283.3580741674254
 20
39.21052951062097
 30
0.0
 11
283.3580741674254
 21
5.960528510620235
 31
0.0
  0
LINE
  5
B9D6
330
B8EC
100
AcDbEntity
  8
AM_5
100
AcDbLine
 10
290.3580741674255
 20
6.960528510620235
 30
0.0
 11
284.3580741674255
 21
6.960528510620235
 31
0.0
  0
INSERT
  5
B9D7
330
B8EC
100
AcDbEntity
  8
AM_5
100
AcDbBlockReference
  2
_Dot
 10
291.3580741674254
 20
6.960528510620235
 30
0.0
  0
INSERT
  5
B9D8
330
B8EC
100
AcDbEntity
  8
AM_5
100
AcDbBlockReference
  2
_Dot
 10
283.3580741674254
 20
6.960528510620235
 30
0.0
 50
180.0
  0
MTEXT
  5
B9D9
330
B8EC
100
AcDbEntity
  8
AM_5
 62
     2
100
AcDbMText
 10
287.3580741674254
 20
10.06052851062023
 30
0.0
 40
3.200000000000001
 41
0.0
 71
     5
 72
     1
  1
8
 73
     1
 44
1.0
1001
ACAD
1000
MTEXTBEGIN
1070
    73
1070
     1
1070
    44
1040
1.0
1070
    74
1070
     0
1000
MTEXTEND
  0
POINT
  5
B9DA
330
B8EC
100
AcDbEntity
  8
Defpoints
 62
     0
100
AcDbPoint
 10
291.3580741674254
 20
28.96052951062097
 30
0.0
  0
POINT
  5
B9DB
330
B8EC
100
AcDbEntity
  8
Defpoints
 62
     0
100
AcDbPoint
 10
283.3580741674254
 20
40.21052951062097
 30
0.0
  0
POINT
  5
B9DC
330
B8EC
100
AcDbEntity
  8
Defpoints
 62
     0
100
AcDbPoint
 10
283.3580741674254
 20
6.960528510620235
 30
0.0
  0
ENDBLK
  5
B8F7
330
B8EC
100
AcDbEntity
  8
0
100
AcDbBlockEnd
  0
BLOCK
  5
B902
330
B8F8
100
AcDbEntity
  8
0
100
AcDbBlockBegin
  2
*D57
 70
     1
 10
0.0
 20
0.0
 30
0.0
  3
*D57
  1

  0
LINE
  5
B9DD
330
B8F8
100
AcDbEntity
  8
AM_5
100
AcDbLine
 10
267.3580741674253
 20
39.21052951062097
 30
0.0
 11
267.3580741674253
 21
5.960528510618814
 31
0.0
  0
LINE
  5
B9DE
330
B8F8
100
AcDbEntity
  8
AM_5
100
AcDbLine
 10
236.3580741674259
 20
18.96052951062126
 30
0.0
 11
236.3580741674259
 21
5.960528510618814
 31
0.0
  0
LINE
  5
B9DF
330
B8F8
100
AcDbEntity
  8
AM_5
100
AcDbLine
 10
266.3580741674254
 20
6.960528510618814
 30
0.0
 11
237.3580741674259
 21
6.960528510618814
 31
0.0
  0
INSERT
  5
B9E0
330
B8F8
100
AcDbEntity
  8
AM_5
100
AcDbBlockReference
  2
_Dot
 10
267.3580741674253
 20
6.960528510618814
 30
0.0
  0
INSERT
  5
B9E1
330
B8F8
100
AcDbEntity
  8
AM_5
100
AcDbBlockReference
  2
_Dot
 10
236.3580741674259
 20
6.960528510618814
 30
0.0
 50
180.0
  0
MTEXT
  5
B9E2
330
B8F8
100
AcDbEntity
  8
AM_5
 62
     2
100
AcDbMText
 10
251.8580741674256
 20
10.06052851061881
 30
0.0
 40
3.200000000000001
 41
0.0
 71
     5
 72
     1
  1
31
 73
     1
 44
1.0
1001
ACAD
1000
MTEXTBEGIN
1070
    73
1070
     1
1070
    44
1040
1.0
1070
    74
1070
     0
1000
MTEXTEND
  0
POINT
  5
B9E3
330
B8F8
100
AcDbEntity
  8
Defpoints
 62
     0
100
AcDbPoint
 10
267.3580741674253
 20
40.21052951062097
 30
0.0
  0
POINT
  5
B9E4
330
B8F8
100
AcDbEntity
  8
Defpoints
 62
     0
100
AcDbPoint
 10
236.3580741674259
 20
19.96052951062125
 30
0.0
  0
POINT
  5
B9E5
330
B8F8
100
AcDbEntity
  8
Defpoints
 62
     0
100
AcDbPoint
 10
236.3580741674259
 20
6.960528510618814
 30
0.0
  0
ENDBLK
  5
B903
330
B8F8
100
AcDbEntity
  8
0
100
AcDbBlockEnd
  0
BLOCK
  5
B90E
330
B904
100
AcDbEntity
  8
0
100
AcDbBlockBegin
  2
*D58
 70
     1
 10
0.0
 20
0.0
 30
0.0
  3
*D58
  1

  0
LINE
  5
B9E6
330
B904
100
AcDbEntity
  8
AM_5
100
AcDbLine
 10
289.3580741674254
 20
94.46052951062132
 30
0.0
 11
314.6080741674254
 21
94.46052951062132
 31
0.0
  0
LINE
  5
B9E7
330
B904
100
AcDbEntity
  8
AM_5
100
AcDbLine
 10
289.3580741674254
 20
25.96052951062097
 30
0.0
 11
314.6080741674254
 21
25.96052951062097
 31
0.0
  0
LINE
  5
B9E8
330
B904
100
AcDbEntity
  8
AM_5
100
AcDbLine
 10
313.6080741674255
 20
93.46052951062132
 30
0.0
 11
313.6080741674255
 21
26.96052951062096
 31
0.0
  0
INSERT
  5
B9E9
330
B904
100
AcDbEntity
  8
AM_5
100
AcDbBlockReference
  2
_Dot
 10
313.6080741674255
 20
94.46052951062132
 30
0.0
 50
90.0
  0
INSERT
  5
B9EA
330
B904
100
AcDbEntity
  8
AM_5
100
AcDbBlockReference
  2
_Dot
 10
313.6080741674255
 20
25.96052951062097
 30
0.0
 50
270.0
  0
MTEXT
  5
B9EB
330
B904
100
AcDbEntity
  8
AM_5
 62
     2
100
AcDbMText
 10
310.5080741674254
 20
60.21052951062119
 30
0.0
 40
3.200000000000001
 41
0.0
 71
     5
 72
     1
  1
68.5
 11
0.0000000000000001
 21
1.0
 31
0.0
 73
     1
 44
1.0
1001
ACAD
1000
MTEXTBEGIN
1070
    73
1070
     1
1070
    44
1040
1.0
1070
    74
1070
     0
1000
MTEXTEND
  0
POINT
  5
B9EC
330
B904
100
AcDbEntity
  8
Defpoints
 62
     0
100
AcDbPoint
 10
288.3580741674255
 20
94.46052951062132
 30
0.0
  0
POINT
  5
B9ED
330
B904
100
AcDbEntity
  8
Defpoints
 62
     0
100
AcDbPoint
 10
288.3580741674255
 20
25.96052951062097
 30
0.0
  0
POINT
  5
B9EE
330
B904
100
AcDbEntity
  8
Defpoints
 62
     0
100
AcDbPoint
 10
313.6080741674255
 20
25.96052951062097
 30
0.0
  0
ENDBLK
  5
B90F
330
B904
100
AcDbEntity
  8
0
100
AcDbBlockEnd
  0
BLOCK
  5
B91A
330
B910
100
AcDbEntity
  8
0
100
AcDbBlockBegin
  2
*D59
 70
     1
 10
0.0
 20
0.0
 30
0.0
  3
*D59
  1

  0
LINE
  5
B9EF
330
B910
100
AcDbEntity
  8
AM_5
100
AcDbLine
 10
289.3580741674254
 20
25.96052951062097
 30
0.0
 11
324.6080741674224
 21
25.96052951062096
 31
0.0
  0
LINE
  5
B9F0
330
B910
100
AcDbEntity
  8
AM_5
100
AcDbLine
 10
248.3580741674255
 20
210.9605295106212
 30
0.0
 11
324.6080741674225
 21
210.9605295106212
 31
0.0
  0
LINE
  5
B9F1
330
B910
100
AcDbEntity
  8
AM_5
100
AcDbLine
 10
323.6080741674224
 20
26.96052951062096
 30
0.0
 11
323.6080741674225
 21
209.9605295106212
 31
0.0
  0
INSERT
  5
B9F2
330
B910
100
AcDbEntity
  8
AM_5
100
AcDbBlockReference
  2
_Dot
 10
323.6080741674224
 20
25.96052951062096
 30
0.0
 50
270.0
  0
INSERT
  5
B9F3
330
B910
100
AcDbEntity
  8
AM_5
100
AcDbBlockReference
  2
_Dot
 10
323.6080741674225
 20
210.9605295106212
 30
0.0
 50
90.0
  0
MTEXT
  5
B9F4
330
B910
100
AcDbEntity
  8
AM_5
 62
     2
100
AcDbMText
 10
320.5080741674224
 20
118.4605295106211
 30
0.0
 40
3.200000000000001
 41
0.0
 71
     5
 72
     1
  1
185
 11
0.0000000000000001
 21
1.0
 31
0.0
 73
     1
 44
1.0
1001
ACAD
1000
MTEXTBEGIN
1070
    73
1070
     1
1070
    44
1040
1.0
1070
    74
1070
     0
1000
MTEXTEND
  0
POINT
  5
B9F5
330
B910
100
AcDbEntity
  8
Defpoints
 62
     0
100
AcDbPoint
 10
288.3580741674255
 20
25.96052951062097
 30
0.0
  0
POINT
  5
B9F6
330
B910
100
AcDbEntity
  8
Defpoints
 62
     0
100
AcDbPoint
 10
247.3580741674255
 20
210.9605295106212
 30
0.0
  0
POINT
  5
B9F7
330
B910
100
AcDbEntity
  8
Defpoints
 62
     0
100
AcDbPoint
 10
323.6080741674225
 20
210.9605295106212
 30
0.0
  0
ENDBLK
  5
B91B
330
B910
100
AcDbEntity
  8
0
100
AcDbBlockEnd
  0
BLOCK
  5
B923
330
B91C
100
AcDbEntity
  8
0
100
AcDbBlockBegin
  2
*D60
 70
     1
 10
0.0
 20
0.0
 30
0.0
  3
*D60
  1

  0
LINE
  5
B9F8
330
B91C
100
AcDbEntity
  8
AM_5
100
AcDbLine
 10
260.6050578174053
 20
240.4212203082828
 30
0.0
 11
253.5050578174053
 21
240.4212203082828
 31
0.0
  0
LINE
  5
B9F9
330
B91C
100
AcDbEntity
  8
AM_5
100
AcDbLine
 10
253.5050578174053
 20
240.4212203082828
 30
0.0
 11
245.7945767861026
 21
247.7273303742777
 31
0.0
  0
MTEXT
  5
B9FA
330
B91C
100
AcDbEntity
  8
AM_5
 62
     2
100
AcDbMText
 10
257.8050578174053
 20
243.6712203082827
 30
0.0
 40
3.5
 41
0.0
 71
     5
 72
     1
  1
R11
 73
     1
 44
1.0
1001
ACAD
1000
MTEXTBEGIN
1070
    73
1070
     1
1070
    44
1040
1.0
1070
    74
1070
     0
1000
MTEXTEND
  0
INSERT
  5
B9FB
330
B91C
100
AcDbEntity
  8
AM_5
100
AcDbBlockReference
  2
_OPEN30
 10
244.34280715246
 20
249.1029629308978
 30
0.0
 41
2.0
 42
2.0
 43
2.0
 50
136.5425040090046
  0
POINT
  5
B9FC
330
B91C
100
AcDbEntity
  8
Defpoints
 62
     0
100
AcDbPoint
 10
244.34280715246
 20
249.1029629308978
 30
0.0
  0
POINT
  5
B9FD
330
B91C
100
AcDbEntity
  8
Defpoints
 62
     0
100
AcDbPoint
 10
236.3580741674257
 20
256.6689419923085
 30
0.0
  0
ENDBLK
  5
B924
330
B91C
100
AcDbEntity
  8
0
100
AcDbBlockEnd
  0
BLOCK
  5
B92C
330
B925
100
AcDbEntity
  8
0
100
AcDbBlockBegin
  2
*D61
 70
     1
 10
0.0
 20
0.0
 30
0.0
  3
*D61
  1

  0
LINE
  5
B9FE
330
B925
100
AcDbEntity
  8
AM_5
100
AcDbLine
 10
264.5610132853526
 20
268.4459492206227
 30
0.0
 11
256.7610132853527
 21
268.4459492206227
 31
0.0
  0
LINE
  5
B9FF
330
B925
100
AcDbEntity
  8
AM_5
100
AcDbLine
 10
256.7610132853527
 20
268.4459492206227
 30
0.0
 11
248.4831078708711
 21
263.6677674430771
 31
0.0
  0
MTEXT
  5
BA00
330
B925
100
AcDbEntity
  8
AM_5
 62
     2
100
AcDbMText
 10
261.4110132853526
 20
271.6959492206227
 30
0.0
 40
3.5
 41
0.0
 71
     5
 72
     1
  1
R12
 73
     1
 44
1.0
1001
ACAD
1000
MTEXTBEGIN
1070
    73
1070
     1
1070
    44
1040
1.0
1070
    74
1070
     0
1000
MTEXTEND
  0
INSERT
  5
BA01
330
B925
100
AcDbEntity
  8
AM_5
100
AcDbBlockReference
  2
_OPEN30
 10
246.7509601989504
 20
262.6679352358244
 30
0.0
 41
2.0
 42
2.0
 43
2.0
 50
209.9944496158021
  0
POINT
  5
BA02
330
B925
100
AcDbEntity
  8
Defpoints
 62
     0
100
AcDbPoint
 10
246.7509601989504
 20
262.6679352358244
 30
0.0
  0
POINT
  5
BA03
330
B925
100
AcDbEntity
  8
Defpoints
 62
     0
100
AcDbPoint
 10
236.3580741674261
 20
256.6689419923086
 30
0.0
  0
ENDBLK
  5
B92D
330
B925
100
AcDbEntity
  8
0
100
AcDbBlockEnd
  0
BLOCK
  5
BA2F
330
BA29
100
AcDbEntity
  8
0
100
AcDbBlockBegin
  2
*D62
 70
     1
 10
0.0
 20
0.0
 30
0.0
  3
*D62
  1

  0
LINE
  5
BA36
330
BA29
100
AcDbEntity
  8
AM_5
100
AcDbLine
 10
212.4435343378867
 20
238.646590716107
 30
0.0
 11
219.5435343378868
 21
238.646590716107
 31
0.0
  0
LINE
  5
BA37
330
BA29
100
AcDbEntity
  8
AM_5
100
AcDbLine
 10
219.5435343378868
 20
238.646590716107
 30
0.0
 11
227.4897189104809
 21
247.1635606198114
 31
0.0
  0
MTEXT
  5
BA38
330
BA29
100
AcDbEntity
  8
AM_5
 62
     2
100
AcDbMText
 10
215.2435343378868
 20
241.896590716107
 30
0.0
 40
3.5
 41
0.0
 71
     5
 72
     1
  1
R11
 73
     1
 44
1.0
1001
ACAD
1000
MTEXTBEGIN
1070
    73
1070
     1
1070
    44
1040
1.0
1070
    74
1070
     0
1000
MTEXTEND
  0
INSERT
  5
BA39
330
BA29
100
AcDbEntity
  8
AM_5
100
AcDbBlockReference
  2
_OPEN30
 10
228.8540812577032
 20
248.625926984811
 30
0.0
 41
2.0
 42
2.0
 43
2.0
 50
46.98567633427209
  0
POINT
  5
BA3A
330
BA29
100
AcDbEntity
  8
Defpoints
 62
     0
100
AcDbPoint
 10
228.8540812577032
 20
248.625926984811
 30
0.0
  0
POINT
  5
BA3B
330
BA29
100
AcDbEntity
  8
Defpoints
 62
     0
100
AcDbPoint
 10
236.358074167426
 20
256.6689419923086
 30
0.0
  0
ENDBLK
  5
BA30
330
BA29
100
AcDbEntity
  8
0
100
AcDbBlockEnd
  0
BLOCK
  5
BA49
330
BA43
100
AcDbEntity
  8
0
100
AcDbBlockBegin
  2
*D63
 70
     1
 10
0.0
 20
0.0
 30
0.0
  3
*D63
  1

  0
LINE
  5
BA4B
330
BA43
100
AcDbEntity
  8
AM_5
100
AcDbLine
 10
237.4957735451418
 20
257.7939487149307
 30
0.0
 11
229.9585151677742
 21
250.3407791775592
 31
0.0
  0
MTEXT
  5
BA4C
330
BA43
100
AcDbEntity
  8
AM_5
 62
     2
100
AcDbMText
 10
232.1530365622042
 20
257.0814450088691
 30
0.0
 40
3.5
 41
0.0
 71
     5
 72
     1
  1
R11
 11
0.7110621110724128
 21
0.7031292016388196
 31
0.0
 73
     1
 44
1.0
1001
ACAD
1000
MTEXTBEGIN
1070
    73
1070
     1
1070
    44
1040
1.0
1070
    74
1070
     0
1000
MTEXTEND
  0
INSERT
  5
BA4D
330
BA43
100
AcDbEntity
  8
AM_5
100
AcDbBlockReference
  2
_OPEN30
 10
228.5363909456293
 20
248.9345207742815
 30
0.0
 41
2.0
 42
2.0
 43
2.0
 50
224.6786025636003
  0
POINT
  5
BA4E
330
BA43
100
AcDbEntity
  8
Defpoints
 62
     0
100
AcDbPoint
 10
228.5363909456293
 20
248.9345207742815
 30
0.0
  0
POINT
  5
BA4F
330
BA43
100
AcDbEntity
  8
Defpoints
 62
     0
100
AcDbPoint
 10
236.3580741674259
 20
256.6689419923085
 30
0.0
  0
ENDBLK
  5
BA4A
330
BA43
100
AcDbEntity
  8
0
100
AcDbBlockEnd
  0
BLOCK
  5
BA57
330
BA51
100
AcDbEntity
  8
0
100
AcDbBlockBegin
  2
*D64
 70
     1
 10
0.0
 20
0.0
 30
0.0
  3
*D64
  1

  0
LINE
  5
BA59
330
BA51
100
AcDbEntity
  8
AM_5
100
AcDbLine
 10
237.9105597766006
 20
258.2041074158865
 30
0.0
 11
229.9585151677741
 21
250.3407791775591
 31
0.0
  0
MTEXT
  5
BA5A
330
BA51
100
AcDbEntity
  8
AM_5
 62
     2
100
AcDbMText
 10
232.3604296779337
 20
257.286524359347
 30
0.0
 40
3.5
 41
0.0
 71
     5
 72
     1
  1
\U+220522
 11
0.7110621110724149
 21
0.7031292016388177
 31
0.0
 73
     1
 44
1.0
1001
ACAD
1000
MTEXTBEGIN
1070
    73
1070
     1
1070
    44
1040
1.0
1070
    74
1070
     0
1000
MTEXTEND
  0
INSERT
  5
BA5B
330
BA51
100
AcDbEntity
  8
AM_5
100
AcDbBlockReference
  2
_OPEN30
 10
228.5363909456293
 20
248.9345207742815
 30
0.0
 41
2.0
 42
2.0
 43
2.0
 50
224.6786025636002
  0
POINT
  5
BA5C
330
BA51
100
AcDbEntity
  8
Defpoints
 62
     0
100
AcDbPoint
 10
228.5363909456293
 20
248.9345207742815
 30
0.0
  0
POINT
  5
BA5D
330
BA51
100
AcDbEntity
  8
Defpoints
 62
     0
100
AcDbPoint
 10
244.1797573892224
 20
264.4033632103355
 30
0.0
  0
ENDBLK
  5
BA58
330
BA51
100
AcDbEntity
  8
0
100
AcDbBlockEnd
  0
BLOCK
  5
BA65
330
BA5F
100
AcDbEntity
  8
0
100
AcDbBlockBegin
  2
*D65
 70
     1
 10
0.0
 20
0.0
 30
0.0
  3
*D65
  1

  0
LINE
  5
BAD7
330
BA5F
100
AcDbEntity
  8
AM_5
100
AcDbLine
 10
209.7940355833312
 20
238.5379647571502
 30
0.0
 11
217.4773689166646
 21
238.5379647571502
 31
0.0
  0
LINE
  5
BAD8
330
BA5F
100
AcDbEntity
  8
AM_5
100
AcDbLine
 10
217.4773689166646
 20
238.5379647571502
 30
0.0
 11
227.7026860782102
 21
248.3572479998024
 31
0.0
  0
LINE
  5
BAD9
330
BA5F
100
AcDbEntity
  8
AM_5
100
AcDbLine
 10
245.0134622566416
 20
264.9806359848147
 30
0.0
 11
245.7347445974096
 21
265.6732771508568
 31
0.0
  0
MTEXT
  5
BADA
330
BA5F
100
AcDbEntity
  8
AM_5
 62
     2
100
AcDbMText
 10
212.8857022499979
 20
241.7879647571502
 30
0.0
 40
3.5
 41
0.0
 71
     5
 72
     1
  1
\U+220522
 73
     1
 44
1.0
1001
ACAD
1000
MTEXTBEGIN
1070
    73
1070
     1
1070
    44
1040
1.0
1070
    74
1070
     0
1000
MTEXTEND
  0
LINE
  5
BADB
330
BA5F
100
AcDbEntity
  8
AM_5
100
AcDbLine
 10
244.2921799158736
 20
264.2879948187725
 30
0.0
 11
228.4239684189782
 21
249.0498891658446
 31
0.0
  0
INSERT
  5
BADC
330
BA5F
100
AcDbEntity
  8
AM_5
100
AcDbBlockReference
  2
_Dot
 10
244.2921799158736
 20
264.2879948187725
 30
0.0
 50
223.8395454010241
  0
INSERT
  5
BADD
330
BA5F
100
AcDbEntity
  8
AM_5
100
AcDbBlockReference
  2
_Dot
 10
228.4239684189782
 20
249.0498891658446
 30
0.0
 50
43.83954540102409
  0
POINT
  5
BADE
330
BA5F
100
AcDbEntity
  8
Defpoints
 62
     0
100
AcDbPoint
 10
228.4239684189782
 20
249.0498891658446
 30
0.0
  0
POINT
  5
BADF
330
BA5F
100
AcDbEntity
  8
Defpoints
 62
     0
100
AcDbPoint
 10
244.2921799158736
 20
264.2879948187725
 30
0.0
  0
ENDBLK
  5
BA66
330
BA5F
100
AcDbEntity
  8
0
100
AcDbBlockEnd
  0
BLOCK
  5
BAE7
330
BAE1
100
AcDbEntity
  8
0
100
AcDbBlockBegin
  2
*D66
 70
     1
 10
0.0
 20
0.0
 30
0.0
  3
*D66
  1

  0
LINE
  5
BAE9
330
BAE1
100
AcDbEntity
  8
AM_5
100
AcDbLine
 10
237.775913273224
 20
257.4103813155641
 30
0.0
 11
228.382729197312
 21
252.4983457989952
 31
0.0
  0
MTEXT
  5
BAEA
330
BAE1
100
AcDbEntity
  8
AM_5
 62
     2
100
AcDbMText
 10
232.4594220510286
 20
258.2977488179667
 30
0.0
 40
3.5
 41
0.0
 71
     5
 72
     1
  1
R11
 11
0.886149441123765
 21
0.4633995770348077
 31
0.0
 73
     1
 44
1.0
1001
ACAD
1000
MTEXTBEGIN
1070
    73
1070
     1
1070
    44
1040
1.0
1070
    74
1070
     0
1000
MTEXTEND
  0
INSERT
  5
BAEB
330
BAE1
100
AcDbEntity
  8
AM_5
100
AcDbBlockReference
  2
_OPEN30
 10
226.6104303150644
 20
251.5715466449256
 30
0.0
 41
2.0
 42
2.0
 43
2.0
 50
207.6066945068553
  0
POINT
  5
BAEC
330
BAE1
100
AcDbEntity
  8
Defpoints
 62
     0
100
AcDbPoint
 10
226.6104303150644
 20
251.5715466449256
 30
0.0
  0
POINT
  5
BAED
330
BAE1
100
AcDbEntity
  8
Defpoints
 62
     0
100
AcDbPoint
 10
236.3580741674259
 20
256.6689419923085
 30
0.0
  0
ENDBLK
  5
BAE8
330
BAE1
100
AcDbEntity
  8
0
100
AcDbBlockEnd
  0
BLOCK
  5
BAF5
330
BAEF
100
AcDbEntity
  8
0
100
AcDbBlockBegin
  2
*D67
 70
     1
 10
0.0
 20
0.0
 30
0.0
  3
*D67
  1

  0
LINE
  5
BAF7
330
BAEF
100
AcDbEntity
  8
AM_5
100
AcDbLine
 10
237.775913273224
 20
257.4103813155641
 30
0.0
 11
228.382729197312
 21
252.4983457989952
 31
0.0
  0
MTEXT
  5
BAF8
330
BAEF
100
AcDbEntity
  8
AM_5
 62
     2
100
AcDbMText
 10
232.4594220510286
 20
258.2977488179667
 30
0.0
 40
3.5
 41
0.0
 71
     5
 72
     1
  1
R11
 11
0.886149441123765
 21
0.4633995770348077
 31
0.0
 73
     1
 44
1.0
1001
ACAD
1000
MTEXTBEGIN
1070
    73
1070
     1
1070
    44
1040
1.0
1070
    74
1070
     0
1000
MTEXTEND
  0
INSERT
  5
BAF9
330
BAEF
100
AcDbEntity
  8
AM_5
100
AcDbBlockReference
  2
_OPEN30
 10
226.6104303150644
 20
251.5715466449256
 30
0.0
 41
2.0
 42
2.0
 43
2.0
 50
207.6066945068553
  0
POINT
  5
BAFA
330
BAEF
100
AcDbEntity
  8
Defpoints
 62
     0
100
AcDbPoint
 10
226.6104303150644
 20
251.5715466449256
 30
0.0
  0
POINT
  5
BAFB
330
BAEF
100
AcDbEntity
  8
Defpoints
 62
     0
100
AcDbPoint
 10
236.3580741674259
 20
256.6689419923085
 30
0.0
  0
ENDBLK
  5
BAF6
330
BAEF
100
AcDbEntity
  8
0
100
AcDbBlockEnd
  0
BLOCK
  5
BB08
330
BB02
100
AcDbEntity
  8
0
100
AcDbBlockBegin
  2
*D68
 70
     1
 10
0.0
 20
0.0
 30
0.0
  3
*D68
  1

  0
LINE
  5
BBC0
330
BB02
100
AcDbEntity
  8
AM_5
100
AcDbLine
 10
243.8370016978056
 20
261.6755019884862
 30
0.0
 11
228.8791466370462
 21
251.6623819961306
 31
0.0
  0
LINE
  5
BBC1
330
BB02
100
AcDbEntity
  8
AM_5
100
AcDbLine
 10
227.2171627414063
 20
250.5498131080912
 30
0.0
 11
213.4414305964408
 21
241.328032418963
 31
0.0
  0
LINE
  5
BBC2
330
BB02
100
AcDbEntity
  8
AM_5
100
AcDbLine
 10
213.4414305964408
 20
241.328032418963
 30
0.0
 11
205.7580972631075
 21
241.328032418963
 31
0.0
  0
INSERT
  5
BBC3
330
BB02
100
AcDbEntity
  8
AM_5
100
AcDbBlockReference
  2
GENDOT
 10
245.4989855934455
 20
262.7880708765257
 30
0.0
 41
2.0
 42
2.0
 43
2.0
 50
33.79922973794363
  0
INSERT
  5
BBC4
330
BB02
100
AcDbEntity
  8
AM_5
100
AcDbBlockReference
  2
GENDOT
 10
227.2171627414063
 20
250.5498131080912
 30
0.0
 41
2.0
 42
2.0
 43
2.0
 50
213.7992297379437
  0
MTEXT
  5
BBC5
330
BB02
100
AcDbEntity
  8
AM_5
 62
     2
100
AcDbMText
 10
208.8497639297742
 20
244.5780324189631
 30
0.0
 40
3.5
 41
0.0
 71
     5
 72
     1
  1
\U+220522
 73
     1
 44
1.0
1001
ACAD
1000
MTEXTBEGIN
1070
    73
1070
     1
1070
    44
1040
1.0
1070
    74
1070
     0
1000
MTEXTEND
  0
POINT
  5
BBC6
330
BB02
100
AcDbEntity
  8
Defpoints
 62
     0
100
AcDbPoint
 10
227.2171627414063
 20
250.5498131080912
 30
0.0
  0
POINT
  5
BBC7
330
BB02
100
AcDbEntity
  8
Defpoints
 62
     0
100
AcDbPoint
 10
245.4989855934455
 20
262.7880708765257
 30
0.0
  0
ENDBLK
  5
BB09
330
BB02
100
AcDbEntity
  8
0
100
AcDbBlockEnd
  0
BLOCK
  5
BB34
330
BB2E
100
AcDbEntity
  8
0
100
AcDbBlockBegin
  2
*D69
 70
     1
 10
0.0
 20
0.0
 30
0.0
  3
*D69
  1

  0
LINE
  5
BB3B
330
BB2E
100
AcDbEntity
  8
AM_5
100
AcDbLine
 10
236.3580741674259
 20
256.6689419923085
 30
0.0
 11
245.2158993792169
 21
255.0755391815417
 31
0.0
  0
INSERT
  5
BB3C
330
BB2E
100
AcDbEntity
  8
AM_5
100
AcDbBlockReference
  2
_OPEN30
 10
247.1843049818371
 20
254.7214496680381
 30
0.0
 41
2.0
 42
2.0
 43
2.0
 50
349.8023276686969
  0
MTEXT
  5
BB3D
330
BB2E
100
AcDbEntity
  8
AM_5
 62
     2
100
AcDbMText
 10
239.5908171904067
 20
259.3895802533364
 30
0.0
 40
3.5
 41
0.0
 71
     5
 72
     1
  1
R11
 11
0.9842028013101135
 21
-0.1770447567518591
 31
0.0
 73
     1
 44
1.0
1001
ACAD
1000
MTEXTBEGIN
1070
    73
1070
     1
1070
    44
1040
1.0
1070
    74
1070
     0
1000
MTEXTEND
  0
POINT
  5
BB3E
330
BB2E
100
AcDbEntity
  8
Defpoints
 62
     0
100
AcDbPoint
 10
247.1843049818371
 20
254.7214496680381
 30
0.0
  0
POINT
  5
BB3F
330
BB2E
100
AcDbEntity
  8
Defpoints
 62
     0
100
AcDbPoint
 10
236.3580741674259
 20
256.6689419923085
 30
0.0
  0
ENDBLK
  5
BB35
330
BB2E
100
AcDbEntity
  8
0
100
AcDbBlockEnd
  0
BLOCK
  5
BB47
330
BB41
100
AcDbEntity
  8
0
100
AcDbBlockBegin
  2
*D70
 70
     1
 10
0.0
 20
0.0
 30
0.0
  3
*D70
  1

  0
LINE
  5
BB4E
330
BB41
100
AcDbEntity
  8
AM_5
100
AcDbLine
 10
227.5002489556349
 20
258.2623448030755
 30
0.0
 11
245.2158993792168
 21
255.0755391815415
 31
0.0
  0
INSERT
  5
BB4F
330
BB41
100
AcDbEntity
  8
AM_5
100
AcDbBlockReference
  2
_OPEN30
 10
225.5318433530147
 20
258.6164343165793
 30
0.0
 41
2.0
 42
2.0
 43
2.0
 50
169.802327668695
  0
INSERT
  5
BB50
330
BB41
100
AcDbEntity
  8
AM_5
100
AcDbBlockReference
  2
_OPEN30
 10
247.184304981837
 20
254.7214496680378
 30
0.0
 41
2.0
 42
2.0
 43
2.0
 50
349.8023276686951
  0
MTEXT
  5
BB51
330
BB41
100
AcDbEntity
  8
AM_5
 62
     2
100
AcDbMText
 10
239.3037580400247
 20
259.4412183073889
 30
0.0
 40
3.5
 41
0.0
 71
     5
 72
     1
  1
\U+220522
 11
0.9842028013101081
 21
-0.1770447567518906
 31
0.0
 73
     1
 44
1.0
1001
ACAD
1000
MTEXTBEGIN
1070
    73
1070
     1
1070
    44
1040
1.0
1070
    74
1070
     0
1000
MTEXTEND
  0
POINT
  5
BB52
330
BB41
100
AcDbEntity
  8
Defpoints
 62
     0
100
AcDbPoint
 10
247.184304981837
 20
254.7214496680378
 30
0.0
  0
POINT
  5
BB53
330
BB41
100
AcDbEntity
  8
Defpoints
 62
     0
100
AcDbPoint
 10
225.5318433530147
 20
258.6164343165793
 30
0.0
  0
ENDBLK
  5
BB48
330
BB41
100
AcDbEntity
  8
0
100
AcDbBlockEnd
  0
BLOCK
  5
BB5B
330
BB55
100
AcDbEntity
  8
0
100
AcDbBlockBegin
  2
*D71
 70
     1
 10
0.0
 20
0.0
 30
0.0
  3
*D71
  1

  0
LINE
  5
BB68
330
BB55
100
AcDbEntity
  8
AM_5
100
AcDbLine
 10
240.7550908981479
 20
248.816156252856
 30
0.0
 11
231.9610574367038
 21
264.5217277317611
 31
0.0
  0
LINE
  5
BB69
330
BB55
100
AcDbEntity
  8
AM_5
100
AcDbLine
 10
230.9839426076545
 20
266.2667912294172
 30
0.0
 11
224.2578543137225
 21
278.2791472133835
 31
0.0
  0
LINE
  5
BB6A
330
BB55
100
AcDbEntity
  8
AM_5
100
AcDbLine
 10
224.2578543137225
 20
278.2791472133835
 30
0.0
 11
216.5745209803892
 21
278.2791472133835
 31
0.0
  0
INSERT
  5
BB6B
330
BB55
100
AcDbEntity
  8
AM_5
100
AcDbBlockReference
  2
_OPEN30
 10
241.7322057271972
 20
247.0710927551998
 30
0.0
 41
2.0
 42
2.0
 43
2.0
 50
299.2458086441697
  0
INSERT
  5
BB6C
330
BB55
100
AcDbEntity
  8
AM_5
100
AcDbBlockReference
  2
_OPEN30
 10
230.9839426076545
 20
266.2667912294172
 30
0.0
 41
2.0
 42
2.0
 43
2.0
 50
119.2458086441698
  0
MTEXT
  5
BB6D
330
BB55
100
AcDbEntity
  8
AM_5
 62
     2
100
AcDbMText
 10
219.6661876470559
 20
281.5291472133834
 30
0.0
 40
3.5
 41
0.0
 71
     5
 72
     1
  1
\U+220522
 73
     1
 44
1.0
1001
ACAD
1000
MTEXTBEGIN
1070
    73
1070
     1
1070
    44
1040
1.0
1070
    74
1070
     0
1000
MTEXTEND
  0
POINT
  5
BB6E
330
BB55
100
AcDbEntity
  8
Defpoints
 62
     0
100
AcDbPoint
 10
230.9839426076545
 20
266.2667912294172
 30
0.0
  0
POINT
  5
BB6F
330
BB55
100
AcDbEntity
  8
Defpoints
 62
     0
100
AcDbPoint
 10
241.7322057271972
 20
247.0710927551998
 30
0.0
  0
ENDBLK
  5
BB5C
330
BB55
100
AcDbEntity
  8
0
100
AcDbBlockEnd
  0
BLOCK
  5
BB77
330
BB71
100
AcDbEntity
  8
0
100
AcDbBlockBegin
  2
*D72
 70
     1
 10
0.0
 20
0.0
 30
0.0
  3
*D72
  1

  0
LINE
  5
BB79
330
BB71
100
AcDbEntity
  8
AM_5
100
AcDbLine
 10
237.8179821612316
 20
257.3236699126098
 30
0.0
 11
228.1460917022685
 21
252.9860974406136
 31
0.0
  0
MTEXT
  5
BB7A
330
BB71
100
AcDbEntity
  8
AM_5
 62
     2
100
AcDbMText
 10
232.5645633397666
 20
258.5295267392179
 30
0.0
 40
3.5
 41
0.0
 71
     5
 72
     1
  1
R11
 11
0.9124424961285928
 21
0.4092049501883168
 31
0.0
 73
     1
 44
1.0
1001
ACAD
1000
MTEXTBEGIN
1070
    73
1070
     1
1070
    44
1040
1.0
1070
    74
1070
     0
1000
MTEXTEND
  0
INSERT
  5
BB7B
330
BB71
100
AcDbEntity
  8
AM_5
100
AcDbBlockReference
  2
_OPEN30
 10
226.3212067100113
 20
252.1676875402369
 30
0.0
 41
2.0
 42
2.0
 43
2.0
 50
204.1549007962048
  0
POINT
  5
BB7C
330
BB71
100
AcDbEntity
  8
Defpoints
 62
     0
100
AcDbPoint
 10
226.3212067100113
 20
252.1676875402369
 30
0.0
  0
POINT
  5
BB7D
330
BB71
100
AcDbEntity
  8
Defpoints
 62
     0
100
AcDbPoint
 10
236.358074167426
 20
256.6689419923085
 30
0.0
  0
ENDBLK
  5
BB78
330
BB71
100
AcDbEntity
  8
0
100
AcDbBlockEnd
  0
BLOCK
  5
BB85
330
BB7F
100
AcDbEntity
  8
0
100
AcDbBlockBegin
  2
*D73
 70
     1
 10
0.0
 20
0.0
 30
0.0
  3
*D73
  1

  0
LINE
  5
BB87
330
BB7F
100
AcDbEntity
  8
AM_5
100
AcDbLine
 10
238.3502402839733
 20
257.5623728002196
 30
0.0
 11
228.1460917022686
 21
252.9860974406136
 31
0.0
  0
MTEXT
  5
BB88
330
BB7F
100
AcDbEntity
  8
AM_5
 62
     2
100
AcDbMText
 10
232.8306924011375
 20
258.648878183023
 30
0.0
 40
3.5
 41
0.0
 71
     5
 72
     1
  1
\U+220522
 11
0.9124424961285912
 21
0.4092049501883207
 31
0.0
 73
     1
 44
1.0
1001
ACAD
1000
MTEXTBEGIN
1070
    73
1070
     1
1070
    44
1040
1.0
1070
    74
1070
     0
1000
MTEXTEND
  0
INSERT
  5
BB89
330
BB7F
100
AcDbEntity
  8
AM_5
100
AcDbBlockReference
  2
_OPEN30
 10
226.3212067100114
 20
252.167687540237
 30
0.0
 41
2.0
 42
2.0
 43
2.0
 50
204.154900796205
  0
POINT
  5
BB8A
330
BB7F
100
AcDbEntity
  8
Defpoints
 62
     0
100
AcDbPoint
 10
226.3212067100114
 20
252.167687540237
 30
0.0
  0
POINT
  5
BB8B
330
BB7F
100
AcDbEntity
  8
Defpoints
 62
     0
100
AcDbPoint
 10
246.3949416248403
 20
261.17019644438
 30
0.0
  0
ENDBLK
  5
BB86
330
BB7F
100
AcDbEntity
  8
0
100
AcDbBlockEnd
  0
BLOCK
  5
BB93
330
BB8D
100
AcDbEntity
  8
0
100
AcDbBlockBegin
  2
*D74
 70
     1
 10
0.0
 20
0.0
 30
0.0
  3
*D74
  1

  0
LINE
  5
BBB8
330
BB8D
100
AcDbEntity
  8
AM_5
100
AcDbLine
 10
243.7459744704565
 20
263.4082987206972
 30
0.0
 11
228.9701738643952
 21
249.9295852639197
 31
0.0
  0
LINE
  5
BBB9
330
BB8D
100
AcDbEntity
  8
AM_5
100
AcDbLine
 10
228.2313838340922
 20
249.2556495910808
 30
0.0
 11
215.7130999264581
 21
237.836277723517
 31
0.0
  0
LINE
  5
BBBA
330
BB8D
100
AcDbEntity
  8
AM_5
100
AcDbLine
 10
215.7130999264581
 20
237.836277723517
 30
0.0
 11
208.0297665931248
 21
237.8362777235171
 31
0.0
  0
INSERT
  5
BBBB
330
BB8D
100
AcDbEntity
  8
AM_5
100
AcDbBlockReference
  2
_Dot
 10
244.4847645007595
 20
264.0822343935361
 30
0.0
 50
42.37155353180091
  0
INSERT
  5
BBBC
330
BB8D
100
AcDbEntity
  8
AM_5
100
AcDbBlockReference
  2
_Dot
 10
228.2313838340922
 20
249.2556495910808
 30
0.0
 50
222.3715535318009
  0
MTEXT
  5
BBBD
330
BB8D
100
AcDbEntity
  8
AM_5
 62
     2
100
AcDbMText
 10
211.1214332597914
 20
241.086277723517
 30
0.0
 40
3.5
 41
0.0
 71
     5
 72
     1
  1
\U+220522
 73
     1
 44
1.0
1001
ACAD
1000
MTEXTBEGIN
1070
    73
1070
     1
1070
    44
1040
1.0
1070
    74
1070
     0
1000
MTEXTEND
  0
POINT
  5
BBBE
330
BB8D
100
AcDbEntity
  8
Defpoints
 62
     0
100
AcDbPoint
 10
228.2313838340922
 20
249.2556495910808
 30
0.0
  0
POINT
  5
BBBF
330
BB8D
100
AcDbEntity
  8
Defpoints
 62
     0
100
AcDbPoint
 10
244.4847645007595
 20
264.0822343935361
 30
0.0
  0
ENDBLK
  5
BB94
330
BB8D
100
AcDbEntity
  8
0
100
AcDbBlockEnd
  0
ENDSEC
  0
SECTION
  2
ENTITIES
  0
LINE
  5
B761
330
1F
100
AcDbEntity
  8
0
  6
Continuous
 62
     7
100
AcDbLine
 10
381.0000001795236
 20
272.9999999371186
 30
0.0
 11
381.0000001795236
 21
-0.0000000628811563
 31
0.0
  0
LINE
  5
B762
330
1F
100
AcDbEntity
  8
0
  6
Continuous
 62
     7
100
AcDbLine
 10
0.0000001795234539
 20
-0.0000000628811563
 30
0.0
 11
381.0000001795236
 21
-0.0000000628811563
 31
0.0
  0
LINE
  5
B763
330
1F
100
AcDbEntity
  8
0
  6
Continuous
 62
     7
100
AcDbLine
 10
0.0000001795234539
 20
272.9999999371186
 30
0.0
 11
381.0000001795236
 21
272.9999999371186
 31
0.0
  0
LINE
  5
B764
330
1F
100
AcDbEntity
  8
0
  6
Continuous
 62
     7
100
AcDbLine
 10
0.0000001795234539
 20
272.9999999371186
 30
0.0
 11
0.0000001795234539
 21
-0.0000000628811563
 31
0.0
  0
LINE
  5
B765
330
1F
100
AcDbEntity
  8
0
  6
Continuous
 62
     7
100
AcDbLine
 10
20.00000017952345
 20
272.9999999371186
 30
0.0
 11
20.00000017952345
 21
184.9999999371185
 31
0.0
  0
LINE
  5
B766
330
1F
100
AcDbEntity
  8
0
  6
Continuous
 62
     7
100
AcDbLine
 10
0.0000001795234539
 20
264.9999999371186
 30
0.0
 11
110.0000001795233
 21
264.9999999371186
 31
0.0
  0
LINE
  5
B767
330
1F
100
AcDbEntity
  8
0
  6
Continuous
 62
     7
100
AcDbLine
 10
0.0000001795234539
 20
256.9999999371185
 30
0.0
 11
110.0000001795233
 21
256.9999999371185
 31
0.0
  0
LINE
  5
B768
330
1F
100
AcDbEntity
  8
0
  6
Continuous
 62
     7
100
AcDbLine
 10
0.0000001795234539
 20
248.9999999371185
 30
0.0
 11
110.0000001795233
 21
248.9999999371185
 31
0.0
  0
LINE
  5
B769
330
1F
100
AcDbEntity
  8
0
  6
Continuous
 62
     7
100
AcDbLine
 10
0.0000001795234539
 20
240.9999999371185
 30
0.0
 11
110.0000001795233
 21
240.9999999371185
 31
0.0
  0
LINE
  5
B76A
330
1F
100
AcDbEntity
  8
0
  6
Continuous
 62
     7
100
AcDbLine
 10
20.00000017952345
 20
224.9999999371186
 30
0.0
 11
110.0000001795233
 21
224.9999999371186
 31
0.0
  0
LINE
  5
B76B
330
1F
100
AcDbEntity
  8
0
  6
Continuous
 62
     7
100
AcDbLine
 10
20.00000017952345
 20
216.9999999371186
 30
0.0
 11
110.0000001795233
 21
216.9999999371186
 31
0.0
  0
LINE
  5
B76C
330
1F
100
AcDbEntity
  8
0
  6
Continuous
 62
     7
100
AcDbLine
 10
0.0000001795234539
 20
208.9999999371185
 30
0.0
 11
110.0000001795233
 21
208.9999999371185
 31
0.0
  0
LINE
  5
B76D
330
1F
100
AcDbEntity
  8
0
  6
Continuous
 62
     7
100
AcDbLine
 10
20.00000017952345
 20
200.9999999371185
 30
0.0
 11
110.0000001795233
 21
200.9999999371185
 31
0.0
  0
LINE
  5
B76E
330
1F
100
AcDbEntity
  8
0
  6
Continuous
 62
     7
100
AcDbLine
 10
20.00000017952345
 20
192.9999999371185
 30
0.0
 11
110.0000001795233
 21
192.9999999371185
 31
0.0
  0
LINE
  5
B76F
330
1F
100
AcDbEntity
  8
0
  6
Continuous
 62
     7
100
AcDbLine
 10
0.0000001795234539
 20
184.9999999371185
 30
0.0
 11
110.0000001795233
 21
184.9999999371185
 31
0.0
  0
LINE
  5
B770
330
1F
100
AcDbEntity
  8
0
  6
Continuous
 62
     7
100
AcDbLine
 10
0.0000001795234539
 20
272.9999999371186
 30
0.0
 11
0.0000001795234539
 21
176.9999999371185
 31
0.0
  0
LINE
  5
B771
330
1F
100
AcDbEntity
  8
0
  6
Continuous
 62
     7
100
AcDbLine
 10
0.0000001795234539
 20
272.9999999371186
 30
0.0
 11
110.0000001795233
 21
272.9999999371186
 31
0.0
  0
LINE
  5
B772
330
1F
100
AcDbEntity
  8
0
  6
Continuous
 62
     7
100
AcDbLine
 10
110.0000001795233
 20
272.9999999371186
 30
0.0
 11
110.0000001795233
 21
184.9999999371185
 31
0.0
  0
LINE
  5
B773
330
1F
100
AcDbEntity
  8
0
  6
Continuous
 62
     7
100
AcDbLine
 10
0.0000001795234539
 20
232.9999999371186
 30
0.0
 11
110.0000001795233
 21
232.9999999371186
 31
0.0
  0
LINE
  5
B774
330
1F
100
AcDbEntity
  8
0
  6
Continuous
 62
     7
100
AcDbLine
 10
20.00000017952345
 20
224.9999999371186
 30
0.0
 11
110.0000001795233
 21
224.9999999371186
 31
0.0
  0
TEXT
  5
B775
330
1F
100
AcDbEntity
  8
0
  6
Continuous
 62
     7
100
AcDbText
 10
5.657000179523492
 20
267.3999999371186
 30
0.0
 40
3.2
  1
品　名
 41
0.85537027
100
AcDbText
  0
TEXT
  5
B776
330
1F
100
AcDbEntity
  8
0
  6
Continuous
 62
     7
100
AcDbText
 10
5.657000179523492
 20
259.3999999371185
 30
0.0
 40
3.2
  1
品　番
 41
0.85537027
100
AcDbText
  0
TEXT
  5
B777
330
1F
100
AcDbEntity
  8
0
  6
Continuous
 62
     7
100
AcDbText
 10
22.85700017952331
 20
195.3999999371185
 30
0.0
 40
3.2
  1
＊
 41
0.90047268
100
AcDbText
  0
TEXT
  5
B778
330
1F
100
AcDbEntity
  8
0
  6
Continuous
 62
     7
100
AcDbText
 10
22.85700017952331
 20
187.3999999371186
 30
0.0
 40
3.2
  1
＊
 41
0.90047268
100
AcDbText
  0
TEXT
  5
B779
330
1F
100
AcDbEntity
  8
0
  6
Continuous
 62
     7
100
AcDbText
 10
5.657000179523492
 20
251.3999999371185
 30
0.0
 40
3.2
  1
材　質
 41
0.85537027
100
AcDbText
  0
TEXT
  5
B77A
330
1F
100
AcDbEntity
  8
0
  6
Continuous
 62
     7
100
AcDbText
 10
5.657000179523492
 20
243.3999999371185
 30
0.0
 40
3.2
  1
仕上げ
 41
0.85537027
100
AcDbText
  0
TEXT
  5
B77B
330
1F
100
AcDbEntity
  8
0
  6
Continuous
 62
     7
100
AcDbText
 10
22.85700017952331
 20
211.3999999371185
 30
0.0
 40
3.2
  1
＊
 41
0.90047268
100
AcDbText
  0
TEXT
  5
B77C
330
1F
100
AcDbEntity
  8
0
  6
Continuous
 62
     7
100
AcDbText
 10
22.85700017952331
 20
219.3999999371186
 30
0.0
 40
3.2
  1
＊
 41
0.90047268
100
AcDbText
  0
TEXT
  5
B77D
330
1F
100
AcDbEntity
  8
0
  6
Continuous
 62
     7
100
AcDbText
 10
2.457000179523333
 20
227.3999999371186
 30
0.0
 40
3.2
  1
セットビス
 41
0.84892707
100
AcDbText
  0
TEXT
  5
B77E
330
1F
100
AcDbEntity
  8
0
  6
Continuous
 62
     7
100
AcDbText
 10
22.85700017952331
 20
227.3999999371186
 30
0.0
 40
3.2
  1
＊
 41
0.90047268
100
AcDbText
  0
TEXT
  5
B77F
330
1F
100
AcDbEntity
  8
0
  6
Continuous
 62
     7
100
AcDbText
 10
7.257000179523288
 20
203.3999999371185
 30
0.0
 40
3.2
  1
備考
 41
0.8643907499999999
100
AcDbText
  0
TEXT
  5
B780
330
1F
100
AcDbEntity
  8
0
  6
Continuous
 62
     7
100
AcDbText
 10
4.057000179523242
 20
235.3999999371186
 30
0.0
 40
3.2
  1
左右勝手
 41
0.8512700499999999
100
AcDbText
  0
TEXT
  5
B781
330
1F
100
AcDbEntity
  8
0
  6
Continuous
 62
     7
100
AcDbText
 10
22.85700017952331
 20
267.3999999371186
 30
0.0
 40
3.2
  1
対震丁番
 41
0.85537027
100
AcDbText
  0
TEXT
  5
B782
330
1F
100
AcDbEntity
  8
0
  6
Continuous
 62
     7
100
AcDbText
 10
22.85700017952331
 20
259.3999999371185
 30
0.0
 40
3.2
  1
DHT-22S
 41
0.84496202
100
AcDbText
  0
TEXT
  5
B783
330
1F
100
AcDbEntity
  8
0
  6
Continuous
 62
     7
100
AcDbText
 10
22.85700017952331
 20
251.3999999371185
 30
0.0
 40
3.2
  1
羽根：ステンレス／軸：ステンレス
 41
0.8428951399999997
100
AcDbText
  0
TEXT
  5
B784
330
1F
100
AcDbEntity
  8
0
  6
Continuous
 62
     7
100
AcDbText
 10
22.85700017952331
 20
243.3999999371185
 30
0.0
 40
3.2
  1
羽根：ヘアーライン／軸：生地
 41
0.84326962
100
AcDbText
  0
TEXT
  5
B785
330
1F
100
AcDbEntity
  8
0
  6
Continuous
 62
     7
100
AcDbText
 10
22.62145017952332
 20
235.3661699371184
 30
0.0
 40
3.2
  1
左勝手
 41
0.85537027
100
AcDbText
  0
LINE
  5
B786
330
1F
100
AcDbEntity
  8
AM_7
100
AcDbLine
 10
236.3580741674259
 20
241.6689419923086
 30
0.0
 11
236.3580741674259
 21
271.6689419923085
 31
0.0
1001
GENIUS_GENODEF_13
1002
{
1000
HIER
1070
     0
1002
}
1002
{
1000
MANEDIT
1070
     0
1002
}
1002
{
1000
NOSEL
1070
     0
1002
}
1002
{
1000
BEHIND
1070
     0
1002
}
1002
{
1000
OTHER
1070
     0
1002
}
1002
{
1000
REACTOR
1002
}
1001
GENIUS_GENOBJ-N-CEN_13
1002
{
1000
OWNER
1000
GEN
1002
}
  0
ARC
  5
B787
330
1F
100
AcDbEntity
  8
AM_0
100
AcDbCircle
 10
236.3580741674259
 20
256.6689419923085
 30
0.0
 40
12.0
100
AcDbArc
 50
189.5940682268616
 51
349.524318303607
  0
CIRCLE
  5
B788
330
1F
100
AcDbEntity
  8
AM_0
 48
0.9
100
AcDbCircle
 10
236.3580741674259
 20
256.6689419923085
 30
0.0
 40
9.0
  0
LINE
  5
B789
330
1F
100
AcDbEntity
  8
AM_7
100
AcDbLine
 10
292.3580741674255
 20
256.6689419923085
 30
0.0
 11
180.3580741674259
 21
256.6689419923085
 31
0.0
1001
GENIUS_GENOBJ-N-CEN_13
1002
{
1000
OWNER
1000
GEN
1002
}
1001
GENIUS_GENODEF_13
1002
{
1000
HIER
1070
     0
1002
}
1002
{
1000
MANEDIT
1070
     0
1002
}
1002
{
1000
NOSEL
1070
     0
1002
}
1002
{
1000
BEHIND
1070
     0
1002
}
1002
{
1000
OTHER
1070
     0
1002
}
1002
{
1000
REACTOR
1002
}
  0
LINE
  5
B78A
330
1F
100
AcDbEntity
  8
AM_0
100
AcDbLine
 10
225.5414203410344
 20
258.6689419923084
 30
0.0
 11
181.3580741674258
 21
258.6689419923085
 31
0.0
  0
LINE
  5
B78B
330
1F
100
AcDbEntity
  8
AM_7
 48
0.55
100
AcDbLine
 10
189.3580741674259
 20
251.6689419923086
 30
0.0
 11
189.3580741674259
 21
262.6689419923085
 31
0.0
1001
GENIUS_GENODEF_13
1002
{
1000
HIER
1070
     0
1002
}
1002
{
1000
MANEDIT
1070
     0
1002
}
1002
{
1000
NOSEL
1070
     0
1002
}
1002
{
1000
BEHIND
1070
     0
1002
}
1002
{
1000
OTHER
1070
     0
1002
}
1002
{
1000
REACTOR
1002
}
1001
GENIUS_GENOBJ-N-CEN_13
1002
{
1000
OWNER
1000
GEN
1002
}
  0
LINE
  5
B78C
330
1F
100
AcDbEntity
  8
AM_0
 48
0.15
100
AcDbLine
 10
181.3580741674258
 20
254.6689419923086
 30
0.0
 11
181.3580741674258
 21
258.6689419923084
 31
0.0
  0
LINE
  5
B78D
330
1F
100
AcDbEntity
  8
AM_0
 48
0.15
100
AcDbLine
 10
181.3580741674258
 20
255.6689419923086
 30
0.0
 11
181.3580741674258
 21
258.6689419923084
 31
0.0
  0
LINE
  5
B78E
330
1F
100
AcDbEntity
  8
AM_7
 48
0.55
100
AcDbLine
 10
197.3580741674259
 20
251.6689419923086
 30
0.0
 11
197.3580741674259
 21
262.6689419923085
 31
0.0
1001
GENIUS_GENODEF_13
1002
{
1000
HIER
1070
     0
1002
}
1002
{
1000
MANEDIT
1070
     0
1002
}
1002
{
1000
NOSEL
1070
     0
1002
}
1002
{
1000
BEHIND
1070
     0
1002
}
1002
{
1000
OTHER
1070
     0
1002
}
1002
{
1000
REACTOR
1002
}
1001
GENIUS_GENOBJ-N-CEN_13
1002
{
1000
OWNER
1000
GEN
1002
}
  0
LINE
  5
B78F
330
1F
100
AcDbEntity
  8
AM_7
 48
0.55
100
AcDbLine
 10
205.3580741674259
 20
251.6689419923086
 30
0.0
 11
205.3580741674259
 21
262.6689419923085
 31
0.0
1001
GENIUS_GENODEF_13
1002
{
1000
HIER
1070
     0
1002
}
1002
{
1000
MANEDIT
1070
     0
1002
}
1002
{
1000
NOSEL
1070
     0
1002
}
1002
{
1000
BEHIND
1070
     0
1002
}
1002
{
1000
OTHER
1070
     0
1002
}
1002
{
1000
REACTOR
1002
}
1001
GENIUS_GENOBJ-N-CEN_13
1002
{
1000
OWNER
1000
GEN
1002
}
  0
LINE
  5
B790
330
1F
100
AcDbEntity
  8
AM_0
100
AcDbLine
 10
248.1902337336252
 20
258.6689419923085
 30
0.0
 11
291.3580741674254
 21
258.6689419923085
 31
0.0
  0
LINE
  5
B791
330
1F
100
AcDbEntity
  8
AM_0
100
AcDbLine
 10
248.1902337336252
 20
254.6689419923086
 30
0.0
 11
291.3580741674254
 21
254.6689419923086
 31
0.0
  0
LINE
  5
B792
330
1F
100
AcDbEntity
  8
AM_7
 48
0.55
100
AcDbLine
 10
267.3580741674259
 20
251.6689419923086
 30
0.0
 11
267.3580741674259
 21
262.6689419923085
 31
0.0
1001
GENIUS_GENODEF_13
1002
{
1000
HIER
1070
     0
1002
}
1002
{
1000
MANEDIT
1070
     0
1002
}
1002
{
1000
NOSEL
1070
     0
1002
}
1002
{
1000
BEHIND
1070
     0
1002
}
1002
{
1000
OTHER
1070
     0
1002
}
1002
{
1000
REACTOR
1002
}
1001
GENIUS_GENOBJ-N-CEN_13
1002
{
1000
OWNER
1000
GEN
1002
}
  0
LINE
  5
B793
330
1F
100
AcDbEntity
  8
AM_7
 48
0.55
100
AcDbLine
 10
275.3580741674255
 20
251.6689419923086
 30
0.0
 11
275.3580741674255
 21
262.6689419923085
 31
0.0
1001
GENIUS_GENODEF_13
1002
{
1000
HIER
1070
     0
1002
}
1002
{
1000
MANEDIT
1070
     0
1002
}
1002
{
1000
NOSEL
1070
     0
1002
}
1002
{
1000
BEHIND
1070
     0
1002
}
1002
{
1000
OTHER
1070
     0
1002
}
1002
{
1000
REACTOR
1002
}
1001
GENIUS_GENOBJ-N-CEN_13
1002
{
1000
OWNER
1000
GEN
1002
}
  0
LINE
  5
B794
330
1F
100
AcDbEntity
  8
AM_7
 48
0.55
100
AcDbLine
 10
283.3580741674254
 20
251.6689419923086
 30
0.0
 11
283.3580741674254
 21
262.6689419923085
 31
0.0
1001
GENIUS_GENODEF_13
1002
{
1000
HIER
1070
     0
1002
}
1002
{
1000
MANEDIT
1070
     0
1002
}
1002
{
1000
NOSEL
1070
     0
1002
}
1002
{
1000
BEHIND
1070
     0
1002
}
1002
{
1000
OTHER
1070
     0
1002
}
1002
{
1000
REACTOR
1002
}
1001
GENIUS_GENOBJ-N-CEN_13
1002
{
1000
OWNER
1000
GEN
1002
}
  0
LINE
  5
B795
330
1F
100
AcDbEntity
  8
AM_0
 48
0.15
100
AcDbLine
 10
291.3580741674254
 20
254.6689419923086
 30
0.0
 11
291.3580741674254
 21
258.6689419923086
 31
0.0
  0
LINE
  5
B796
330
1F
100
AcDbEntity
  8
AM_0
 48
0.15
100
AcDbLine
 10
291.3580741674254
 20
255.6689419923086
 30
0.0
 11
291.3580741674254
 21
257.6689419923085
 31
0.0
  0
LINE
  5
B797
330
1F
100
AcDbEntity
  8
AM_0
 48
0.85
100
AcDbLine
 10
227.8580741674255
 20
22.96052951062097
 30
0.0
 11
244.8580741674255
 21
22.96052951062097
 31
0.0
  0
LINE
  5
B798
330
1F
100
AcDbEntity
  8
AM_0
 48
0.9
100
AcDbLine
 10
245.3580741674254
 20
23.46052951062097
 30
0.0
 11
227.3580741674253
 21
23.46052951062097
 31
0.0
  0
LINE
  5
B799
330
1F
100
AcDbEntity
  8
AM_0
100
AcDbLine
 10
288.3580741674255
 20
25.96052951062097
 30
0.0
 11
225.3580741674252
 21
25.96052951062148
 31
0.0
  0
ARC
  5
B79A
330
1F
100
AcDbEntity
  8
AM_0
100
AcDbCircle
 10
288.3580741674255
 20
28.96052951062097
 30
0.0
 40
3.0
100
AcDbArc
 50
270.0
 51
0.0
1001
GENIUS_GENODEF_13
1002
{
1000
HIER
1070
     0
1002
}
1002
{
1000
MANEDIT
1070
     0
1002
}
1002
{
1000
NOSEL
1070
     0
1002
}
1002
{
1000
BEHIND
1070
     0
1002
}
1002
{
1000
OTHER
1070
     0
1002
}
1002
{
1000
REACTOR
1002
}
1001
GENIUS_GENOBJ-N-FIL_13
1002
{
1000
OWNER
1000
GEN
1002
}
  0
LINE
  5
B79B
330
1F
100
AcDbEntity
  8
AM_0
100
AcDbLine
 10
288.3580741674255
 20
94.46052951062132
 30
0.0
 11
225.3580741674252
 21
94.46052951062132
 31
0.0
  0
LINE
  5
B79C
330
1F
100
AcDbEntity
  8
AM_0
100
AcDbLine
 10
225.3580741674252
 20
94.46052951062126
 30
0.0
 11
225.3580741674252
 21
25.96052951062097
 31
0.0
  0
LINE
  5
B79D
330
1F
100
AcDbEntity
  8
AM_0
 48
0.15
100
AcDbLine
 10
227.3580741674253
 20
23.46052951062097
 30
0.0
 11
227.3580741674253
 21
25.96052951062097
 31
0.0
  0
LINE
  5
B79E
330
1F
100
AcDbEntity
  8
AM_0
 48
0.15
100
AcDbLine
 10
227.8580741674255
 20
22.96052951062097
 30
0.0
 11
227.3580741674253
 21
23.46052951062097
 31
0.0
  0
LINE
  5
B79F
330
1F
100
AcDbEntity
  8
AM_0
100
AcDbLine
 10
291.3580741674254
 20
91.46052951062131
 30
0.0
 11
291.3580741674254
 21
28.96052951062097
 31
0.0
  0
ARC
  5
B7A0
330
1F
100
AcDbEntity
  8
AM_0
100
AcDbCircle
 10
288.3580741674255
 20
91.46052951062131
 30
0.0
 40
3.0
100
AcDbArc
 50
0.0
 51
90.0
1001
GENIUS_GENOBJ-N-FIL_13
1002
{
1000
OWNER
1000
GEN
1002
}
1001
GENIUS_GENODEF_13
1002
{
1000
HIER
1070
     0
1002
}
1002
{
1000
MANEDIT
1070
     0
1002
}
1002
{
1000
NOSEL
1070
     0
1002
}
1002
{
1000
BEHIND
1070
     0
1002
}
1002
{
1000
OTHER
1070
     0
1002
}
1002
{
1000
REACTOR
1002
}
  0
LINE
  5
B7A1
330
1F
100
AcDbEntity
  8
AM_0
100
AcDbLine
 10
247.3580741674255
 20
94.46052951062126
 30
0.0
 11
247.3580741674255
 21
25.96052951062097
 31
0.0
  0
LINE
  5
B7A2
330
1F
100
AcDbEntity
  8
AM_7
 48
0.825
100
AcDbLine
 10
259.1080741674255
 20
48.46052951062097
 30
0.0
 11
275.6080741674255
 21
48.46052951062097
 31
0.0
1001
GENIUS_GENOBJ-N-CEN_13
1002
{
1000
OWNER
1000
GEN
1002
}
1001
GENIUS_GENODEF_13
1002
{
1000
HIER
1070
     0
1002
}
1002
{
1000
MANEDIT
1070
     0
1002
}
1002
{
1000
NOSEL
1070
     0
1002
}
1002
{
1000
BEHIND
1070
     0
1002
}
1002
{
1000
OTHER
1070
     0
1002
}
1002
{
1000
REACTOR
1002
}
  0
LINE
  5
B7A3
330
1F
100
AcDbEntity
  8
AM_0
 48
0.15
100
AcDbLine
 10
245.3580741674254
 20
23.46052951062097
 30
0.0
 11
245.3580741674254
 21
25.96052951062097
 31
0.0
  0
LINE
  5
B7A4
330
1F
100
AcDbEntity
  8
AM_0
 48
0.15
100
AcDbLine
 10
245.3580741674254
 20
23.46052951062097
 30
0.0
 11
244.8580741674255
 21
22.96052951062097
 31
0.0
  0
LINE
  5
B7A5
330
1F
100
AcDbEntity
  8
AM_7
 48
0.825
100
AcDbLine
 10
275.1080741674254
 20
48.46052951062097
 30
0.0
 11
291.6080741674254
 21
48.46052951062097
 31
0.0
1001
GENIUS_GENOBJ-N-CEN_13
1002
{
1000
OWNER
1000
GEN
1002
}
1001
GENIUS_GENODEF_13
1002
{
1000
HIER
1070
     0
1002
}
1002
{
1000
MANEDIT
1070
     0
1002
}
1002
{
1000
NOSEL
1070
     0
1002
}
1002
{
1000
BEHIND
1070
     0
1002
}
1002
{
1000
OTHER
1070
     0
1002
}
1002
{
1000
REACTOR
1002
}
  0
CIRCLE
  5
B7A6
330
1F
100
AcDbEntity
  8
AM_0
 48
0.425
100
AcDbCircle
 10
283.3580741674254
 20
48.46052951062097
 30
0.0
 40
4.25
  0
CIRCLE
  5
B7A7
330
1F
100
AcDbEntity
  8
AM_0
 48
0.425
100
AcDbCircle
 10
267.3580741674253
 20
48.46052951062097
 30
0.0
 40
4.25
  0
LINE
  5
B7A8
330
1F
100
AcDbEntity
  8
AM_7
 48
0.825
100
AcDbLine
 10
267.3580741674253
 20
40.21052951062097
 30
0.0
 11
267.3580741674253
 21
56.71052951062097
 31
0.0
1001
GENIUS_GENODEF_13
1002
{
1000
HIER
1070
     0
1002
}
1002
{
1000
MANEDIT
1070
     0
1002
}
1002
{
1000
NOSEL
1070
     0
1002
}
1002
{
1000
BEHIND
1070
     0
1002
}
1002
{
1000
OTHER
1070
     0
1002
}
1002
{
1000
REACTOR
1002
}
1001
GENIUS_GENOBJ-N-CEN_13
1002
{
1000
OWNER
1000
GEN
1002
}
  0
CIRCLE
  5
B7A9
330
1F
100
AcDbEntity
  8
AM_0
 48
0.4
100
AcDbCircle
 10
267.3580741674253
 20
48.46052951062097
 30
0.0
 40
2.75
  0
LINE
  5
B7AA
330
1F
100
AcDbEntity
  8
AM_7
 48
0.825
100
AcDbLine
 10
283.3580741674254
 20
40.21052951062097
 30
0.0
 11
283.3580741674254
 21
56.71052951062097
 31
0.0
1001
GENIUS_GENODEF_13
1002
{
1000
HIER
1070
     0
1002
}
1002
{
1000
MANEDIT
1070
     0
1002
}
1002
{
1000
NOSEL
1070
     0
1002
}
1002
{
1000
BEHIND
1070
     0
1002
}
1002
{
1000
OTHER
1070
     0
1002
}
1002
{
1000
REACTOR
1002
}
1001
GENIUS_GENOBJ-N-CEN_13
1002
{
1000
OWNER
1000
GEN
1002
}
  0
CIRCLE
  5
B7AB
330
1F
100
AcDbEntity
  8
AM_0
 48
0.4
100
AcDbCircle
 10
283.3580741674254
 20
48.46052951062097
 30
0.0
 40
2.75
  0
LINE
  5
B7AC
330
1F
100
AcDbEntity
  8
AM_7
 48
0.825
100
AcDbLine
 10
259.1080741674255
 20
85.46052951062097
 30
0.0
 11
275.6080741674255
 21
85.46052951062097
 31
0.0
1001
GENIUS_GENOBJ-N-CEN_13
1002
{
1000
OWNER
1000
GEN
1002
}
1001
GENIUS_GENODEF_13
1002
{
1000
HIER
1070
     0
1002
}
1002
{
1000
MANEDIT
1070
     0
1002
}
1002
{
1000
NOSEL
1070
     0
1002
}
1002
{
1000
BEHIND
1070
     0
1002
}
1002
{
1000
OTHER
1070
     0
1002
}
1002
{
1000
REACTOR
1002
}
  0
LINE
  5
B7AD
330
1F
100
AcDbEntity
  8
AM_7
 48
0.825
100
AcDbLine
 10
267.3580741674253
 20
77.21052951062097
 30
0.0
 11
267.3580741674253
 21
93.71052951062097
 31
0.0
1001
GENIUS_GENODEF_13
1002
{
1000
HIER
1070
     0
1002
}
1002
{
1000
MANEDIT
1070
     0
1002
}
1002
{
1000
NOSEL
1070
     0
1002
}
1002
{
1000
BEHIND
1070
     0
1002
}
1002
{
1000
OTHER
1070
     0
1002
}
1002
{
1000
REACTOR
1002
}
1001
GENIUS_GENOBJ-N-CEN_13
1002
{
1000
OWNER
1000
GEN
1002
}
  0
LINE
  5
B7AE
330
1F
100
AcDbEntity
  8
AM_7
 48
0.825
100
AcDbLine
 10
283.3580741674254
 20
77.21052951062097
 30
0.0
 11
283.3580741674254
 21
93.71052951062097
 31
0.0
1001
GENIUS_GENODEF_13
1002
{
1000
HIER
1070
     0
1002
}
1002
{
1000
MANEDIT
1070
     0
1002
}
1002
{
1000
NOSEL
1070
     0
1002
}
1002
{
1000
BEHIND
1070
     0
1002
}
1002
{
1000
OTHER
1070
     0
1002
}
1002
{
1000
REACTOR
1002
}
1001
GENIUS_GENOBJ-N-CEN_13
1002
{
1000
OWNER
1000
GEN
1002
}
  0
CIRCLE
  5
B7AF
330
1F
100
AcDbEntity
  8
AM_0
 48
0.425
100
AcDbCircle
 10
275.3580741674255
 20
66.96052951062097
 30
0.0
 40
4.25
  0
LINE
  5
B7B0
330
1F
100
AcDbEntity
  8
AM_7
 48
0.825
100
AcDbLine
 10
267.1080741674255
 20
66.96052951062097
 30
0.0
 11
283.6080741674255
 21
66.96052951062097
 31
0.0
1001
GENIUS_GENOBJ-N-CEN_13
1002
{
1000
OWNER
1000
GEN
1002
}
1001
GENIUS_GENODEF_13
1002
{
1000
HIER
1070
     0
1002
}
1002
{
1000
MANEDIT
1070
     0
1002
}
1002
{
1000
NOSEL
1070
     0
1002
}
1002
{
1000
BEHIND
1070
     0
1002
}
1002
{
1000
OTHER
1070
     0
1002
}
1002
{
1000
REACTOR
1002
}
  0
LINE
  5
B7B1
330
1F
100
AcDbEntity
  8
AM_7
 48
0.825
100
AcDbLine
 10
275.3580741674255
 20
58.71052951062097
 30
0.0
 11
275.3580741674255
 21
75.21052951062097
 31
0.0
1001
GENIUS_GENODEF_13
1002
{
1000
HIER
1070
     0
1002
}
1002
{
1000
MANEDIT
1070
     0
1002
}
1002
{
1000
NOSEL
1070
     0
1002
}
1002
{
1000
BEHIND
1070
     0
1002
}
1002
{
1000
OTHER
1070
     0
1002
}
1002
{
1000
REACTOR
1002
}
1001
GENIUS_GENOBJ-N-CEN_13
1002
{
1000
OWNER
1000
GEN
1002
}
  0
CIRCLE
  5
B7B2
330
1F
100
AcDbEntity
  8
AM_0
 48
0.4
100
AcDbCircle
 10
275.3580741674255
 20
66.96052951062097
 30
0.0
 40
2.75
  0
LINE
  5
B7B3
330
1F
100
AcDbEntity
  8
AM_7
 48
0.825
100
AcDbLine
 10
275.1080741674254
 20
85.46052951062097
 30
0.0
 11
291.6080741674254
 21
85.46052951062097
 31
0.0
1001
GENIUS_GENOBJ-N-CEN_13
1002
{
1000
OWNER
1000
GEN
1002
}
1001
GENIUS_GENODEF_13
1002
{
1000
HIER
1070
     0
1002
}
1002
{
1000
MANEDIT
1070
     0
1002
}
1002
{
1000
NOSEL
1070
     0
1002
}
1002
{
1000
BEHIND
1070
     0
1002
}
1002
{
1000
OTHER
1070
     0
1002
}
1002
{
1000
REACTOR
1002
}
  0
CIRCLE
  5
B7B4
330
1F
100
AcDbEntity
  8
AM_0
 48
0.425
100
AcDbCircle
 10
283.3580741674254
 20
85.46052951062097
 30
0.0
 40
4.25
  0
CIRCLE
  5
B7B5
330
1F
100
AcDbEntity
  8
AM_0
 48
0.425
100
AcDbCircle
 10
267.3580741674253
 20
85.46052951062097
 30
0.0
 40
4.25
  0
CIRCLE
  5
B7B6
330
1F
100
AcDbEntity
  8
AM_0
 48
0.4
100
AcDbCircle
 10
267.3580741674253
 20
85.46052951062097
 30
0.0
 40
2.75
  0
CIRCLE
  5
B7B7
330
1F
100
AcDbEntity
  8
AM_0
 48
0.4
100
AcDbCircle
 10
283.3580741674254
 20
85.46052951062097
 30
0.0
 40
2.75
  0
LINE
  5
B7B8
330
1F
100
AcDbEntity
  8
AM_0
100
AcDbLine
 10
181.3580741674258
 20
207.9605295106214
 30
0.0
 11
181.3580741674254
 21
106.4605295106214
 31
0.0
  0
ARC
  5
B7B9
330
1F
100
AcDbEntity
  8
AM_0
100
AcDbCircle
 10
184.3580741674253
 20
106.4605295106214
 30
0.0
 40
3.0
100
AcDbArc
 50
180.0
 51
270.0
1001
GENIUS_GENOBJ-N-FIL_13
1002
{
1000
OWNER
1000
GEN
1002
}
1001
GENIUS_GENODEF_13
1002
{
1000
HIER
1070
     0
1002
}
1002
{
1000
MANEDIT
1070
     0
1002
}
1002
{
1000
NOSEL
1070
     0
1002
}
1002
{
1000
BEHIND
1070
     0
1002
}
1002
{
1000
OTHER
1070
     0
1002
}
1002
{
1000
REACTOR
1002
}
  0
ARC
  5
B7BA
330
1F
100
AcDbEntity
  8
AM_0
100
AcDbCircle
 10
184.3580741674259
 20
207.9605295106214
 30
0.0
 40
3.0
100
AcDbArc
 50
90.0
 51
180.0
1001
GENIUS_GENOBJ-N-FIL_13
1002
{
1000
OWNER
1000
GEN
1002
}
1001
GENIUS_GENODEF_13
1002
{
1000
HIER
1070
     0
1002
}
1002
{
1000
MANEDIT
1070
     0
1002
}
1002
{
1000
NOSEL
1070
     0
1002
}
1002
{
1000
BEHIND
1070
     0
1002
}
1002
{
1000
OTHER
1070
     0
1002
}
1002
{
1000
REACTOR
1002
}
  0
LINE
  5
B7BB
330
1F
100
AcDbEntity
  8
AM_0
100
AcDbLine
 10
225.3580741674252
 20
107.4605295106211
 30
0.0
 11
225.3580741674252
 21
210.9605295106212
 31
0.0
  0
LINE
  5
B7BC
330
1F
100
AcDbEntity
  8
AM_0
100
AcDbLine
 10
247.3580741674255
 20
107.4605295106211
 30
0.0
 11
247.3580741674255
 21
210.9605295106212
 31
0.0
  0
LINE
  5
B7BD
330
1F
100
AcDbEntity
  8
AM_0
100
AcDbLine
 10
224.3580741674255
 20
107.4605295106211
 30
0.0
 11
248.3580741674255
 21
107.4605295106211
 31
0.0
  0
LINE
  5
B7BE
330
1F
100
AcDbEntity
  8
AM_7
 48
0.825
100
AcDbLine
 10
205.3580741674255
 20
141.210529510621
 30
0.0
 11
205.3580741674255
 21
157.7105295106209
 31
0.0
1001
GENIUS_GENODEF_13
1002
{
1000
HIER
1070
     0
1002
}
1002
{
1000
MANEDIT
1070
     0
1002
}
1002
{
1000
NOSEL
1070
     0
1002
}
1002
{
1000
BEHIND
1070
     0
1002
}
1002
{
1000
OTHER
1070
     0
1002
}
1002
{
1000
REACTOR
1002
}
1001
GENIUS_GENOBJ-N-CEN_13
1002
{
1000
OWNER
1000
GEN
1002
}
  0
CIRCLE
  5
B7BF
330
1F
100
AcDbEntity
  8
AM_0
 48
0.4
100
AcDbCircle
 10
205.3580741674255
 20
149.4605295106212
 30
0.0
 40
2.75
  0
LINE
  5
B7C0
330
1F
100
AcDbEntity
  8
AM_7
 48
0.825
100
AcDbLine
 10
189.3580741674254
 20
141.210529510621
 30
0.0
 11
189.3580741674254
 21
157.7105295106209
 31
0.0
1001
GENIUS_GENODEF_13
1002
{
1000
HIER
1070
     0
1002
}
1002
{
1000
MANEDIT
1070
     0
1002
}
1002
{
1000
NOSEL
1070
     0
1002
}
1002
{
1000
BEHIND
1070
     0
1002
}
1002
{
1000
OTHER
1070
     0
1002
}
1002
{
1000
REACTOR
1002
}
1001
GENIUS_GENOBJ-N-CEN_13
1002
{
1000
OWNER
1000
GEN
1002
}
  0
CIRCLE
  5
B7C1
330
1F
100
AcDbEntity
  8
AM_0
 48
0.4
100
AcDbCircle
 10
189.3580741674254
 20
149.4605295106212
 30
0.0
 40
2.75
  0
CIRCLE
  5
B7C2
330
1F
100
AcDbEntity
  8
AM_0
 48
0.425
100
AcDbCircle
 10
189.3580741674254
 20
149.4605295106212
 30
0.0
 40
4.25
  0
CIRCLE
  5
B7C3
330
1F
100
AcDbEntity
  8
AM_0
 48
0.425
100
AcDbCircle
 10
205.3580741674255
 20
149.4605295106212
 30
0.0
 40
4.25
  0
CIRCLE
  5
B7C4
330
1F
100
AcDbEntity
  8
AM_0
 48
0.425
100
AcDbCircle
 10
189.3580741674254
 20
112.4605295106209
 30
0.0
 40
4.25
  0
LINE
  5
B7C5
330
1F
100
AcDbEntity
  8
AM_7
 48
0.825
100
AcDbLine
 10
205.6080741674255
 20
130.9605295106214
 30
0.0
 11
189.1080741674254
 21
130.9605295106214
 31
0.0
1001
GENIUS_GENOBJ-N-CEN_13
1002
{
1000
OWNER
1000
GEN
1002
}
1001
GENIUS_GENODEF_13
1002
{
1000
HIER
1070
     0
1002
}
1002
{
1000
MANEDIT
1070
     0
1002
}
1002
{
1000
NOSEL
1070
     0
1002
}
1002
{
1000
BEHIND
1070
     0
1002
}
1002
{
1000
OTHER
1070
     0
1002
}
1002
{
1000
REACTOR
1002
}
  0
LINE
  5
B7C6
330
1F
100
AcDbEntity
  8
AM_7
 48
0.825
100
AcDbLine
 10
197.6080741674254
 20
112.4605295106209
 30
0.0
 11
181.1080741674254
 21
112.4605295106209
 31
0.0
1001
GENIUS_GENOBJ-N-CEN_13
1002
{
1000
OWNER
1000
GEN
1002
}
1001
GENIUS_GENODEF_13
1002
{
1000
HIER
1070
     0
1002
}
1002
{
1000
MANEDIT
1070
     0
1002
}
1002
{
1000
NOSEL
1070
     0
1002
}
1002
{
1000
BEHIND
1070
     0
1002
}
1002
{
1000
OTHER
1070
     0
1002
}
1002
{
1000
REACTOR
1002
}
  0
LINE
  5
B7C7
330
1F
100
AcDbEntity
  8
AM_7
 48
0.825
100
AcDbLine
 10
197.6080741674254
 20
149.4605295106212
 30
0.0
 11
181.1080741674254
 21
149.4605295106212
 31
0.0
1001
GENIUS_GENOBJ-N-CEN_13
1002
{
1000
OWNER
1000
GEN
1002
}
1001
GENIUS_GENODEF_13
1002
{
1000
HIER
1070
     0
1002
}
1002
{
1000
MANEDIT
1070
     0
1002
}
1002
{
1000
NOSEL
1070
     0
1002
}
1002
{
1000
BEHIND
1070
     0
1002
}
1002
{
1000
OTHER
1070
     0
1002
}
1002
{
1000
REACTOR
1002
}
  0
LINE
  5
B7C8
330
1F
100
AcDbEntity
  8
AM_7
 48
0.825
100
AcDbLine
 10
189.3580741674254
 20
104.2105295106209
 30
0.0
 11
189.3580741674254
 21
120.710529510621
 31
0.0
1001
GENIUS_GENODEF_13
1002
{
1000
HIER
1070
     0
1002
}
1002
{
1000
MANEDIT
1070
     0
1002
}
1002
{
1000
NOSEL
1070
     0
1002
}
1002
{
1000
BEHIND
1070
     0
1002
}
1002
{
1000
OTHER
1070
     0
1002
}
1002
{
1000
REACTOR
1002
}
1001
GENIUS_GENOBJ-N-CEN_13
1002
{
1000
OWNER
1000
GEN
1002
}
  0
CIRCLE
  5
B7C9
330
1F
100
AcDbEntity
  8
AM_0
 48
0.4
100
AcDbCircle
 10
189.3580741674254
 20
112.4605295106209
 30
0.0
 40
2.75
  0
CIRCLE
  5
B7CA
330
1F
100
AcDbEntity
  8
AM_0
 48
0.425
100
AcDbCircle
 10
197.3580741674254
 20
130.9605295106214
 30
0.0
 40
4.25
  0
LINE
  5
B7CB
330
1F
100
AcDbEntity
  8
AM_7
 48
0.825
100
AcDbLine
 10
197.3580741674254
 20
122.710529510621
 30
0.0
 11
197.3580741674254
 21
139.2105295106214
 31
0.0
1001
GENIUS_GENODEF_13
1002
{
1000
HIER
1070
     0
1002
}
1002
{
1000
MANEDIT
1070
     0
1002
}
1002
{
1000
NOSEL
1070
     0
1002
}
1002
{
1000
BEHIND
1070
     0
1002
}
1002
{
1000
OTHER
1070
     0
1002
}
1002
{
1000
REACTOR
1002
}
1001
GENIUS_GENOBJ-N-CEN_13
1002
{
1000
OWNER
1000
GEN
1002
}
  0
LINE
  5
B7CC
330
1F
100
AcDbEntity
  8
AM_7
 48
0.825
100
AcDbLine
 10
213.6080741674255
 20
112.4605295106209
 30
0.0
 11
197.1080741674253
 21
112.4605295106209
 31
0.0
1001
GENIUS_GENOBJ-N-CEN_13
1002
{
1000
OWNER
1000
GEN
1002
}
1001
GENIUS_GENODEF_13
1002
{
1000
HIER
1070
     0
1002
}
1002
{
1000
MANEDIT
1070
     0
1002
}
1002
{
1000
NOSEL
1070
     0
1002
}
1002
{
1000
BEHIND
1070
     0
1002
}
1002
{
1000
OTHER
1070
     0
1002
}
1002
{
1000
REACTOR
1002
}
  0
CIRCLE
  5
B7CD
330
1F
100
AcDbEntity
  8
AM_0
 48
0.425
100
AcDbCircle
 10
205.3580741674255
 20
112.4605295106209
 30
0.0
 40
4.25
  0
LINE
  5
B7CE
330
1F
100
AcDbEntity
  8
AM_7
 48
0.825
100
AcDbLine
 10
205.3580741674255
 20
104.2105295106209
 30
0.0
 11
205.3580741674255
 21
120.710529510621
 31
0.0
1001
GENIUS_GENODEF_13
1002
{
1000
HIER
1070
     0
1002
}
1002
{
1000
MANEDIT
1070
     0
1002
}
1002
{
1000
NOSEL
1070
     0
1002
}
1002
{
1000
BEHIND
1070
     0
1002
}
1002
{
1000
OTHER
1070
     0
1002
}
1002
{
1000
REACTOR
1002
}
1001
GENIUS_GENOBJ-N-CEN_13
1002
{
1000
OWNER
1000
GEN
1002
}
  0
CIRCLE
  5
B7CF
330
1F
100
AcDbEntity
  8
AM_0
 48
0.4
100
AcDbCircle
 10
205.3580741674255
 20
112.4605295106209
 30
0.0
 40
2.75
  0
LINE
  5
B7D0
330
1F
100
AcDbEntity
  8
AM_7
 48
0.825
100
AcDbLine
 10
213.6080741674255
 20
149.4605295106212
 30
0.0
 11
197.1080741674253
 21
149.4605295106212
 31
0.0
1001
GENIUS_GENOBJ-N-CEN_13
1002
{
1000
OWNER
1000
GEN
1002
}
1001
GENIUS_GENODEF_13
1002
{
1000
HIER
1070
     0
1002
}
1002
{
1000
MANEDIT
1070
     0
1002
}
1002
{
1000
NOSEL
1070
     0
1002
}
1002
{
1000
BEHIND
1070
     0
1002
}
1002
{
1000
OTHER
1070
     0
1002
}
1002
{
1000
REACTOR
1002
}
  0
CIRCLE
  5
B7D1
330
1F
100
AcDbEntity
  8
AM_0
 48
0.4
100
AcDbCircle
 10
197.3580741674254
 20
130.9605295106214
 30
0.0
 40
2.75
  0
LINE
  5
B7D2
330
1F
100
AcDbEntity
  8
AM_0
 48
0.85
100
AcDbLine
 10
227.8580741674255
 20
213.9605295106214
 30
0.0
 11
244.8580741674255
 21
213.9605295106214
 31
0.0
  0
LINE
  5
B7D3
330
1F
100
AcDbEntity
  8
AM_0
 48
0.9
100
AcDbLine
 10
245.3580741674254
 20
213.4605295106214
 30
0.0
 11
227.3580741674253
 21
213.4605295106214
 31
0.0
  0
LINE
  5
B7D4
330
1F
100
AcDbEntity
  8
AM_0
100
AcDbLine
 10
184.3580741674259
 20
210.9605295106214
 30
0.0
 11
247.3580741674255
 21
210.9605295106212
 31
0.0
  0
LINE
  5
B7D5
330
1F
100
AcDbEntity
  8
AM_0
 48
0.15
100
AcDbLine
 10
227.3580741674253
 20
213.4605295106214
 30
0.0
 11
227.3580741674253
 21
210.9605295106212
 31
0.0
  0
LINE
  5
B7D6
330
1F
100
AcDbEntity
  8
AM_0
 48
0.15
100
AcDbLine
 10
227.3580741674253
 20
213.4605295106214
 30
0.0
 11
227.8580741674255
 21
213.9605295106214
 31
0.0
  0
LINE
  5
B7D7
330
1F
100
AcDbEntity
  8
AM_0
 48
0.15
100
AcDbLine
 10
245.3580741674254
 20
213.4605295106214
 30
0.0
 11
245.3580741674254
 21
210.9605295106212
 31
0.0
  0
LINE
  5
B7D8
330
1F
100
AcDbEntity
  8
AM_0
 48
0.15
100
AcDbLine
 10
245.3580741674254
 20
213.4605295106214
 30
0.0
 11
244.8580741674255
 21
213.9605295106214
 31
0.0
  0
LINE
  5
B7D9
330
1F
100
AcDbEntity
  8
AM_0
100
AcDbLine
 10
225.5414203410339
 20
254.6689419923086
 30
0.0
 11
181.3580741674258
 21
254.6689419923086
 31
0.0
  0
CIRCLE
  5
B7DA
330
1F
100
AcDbEntity
  8
AM_0
 48
0.9
100
AcDbCircle
 10
236.3580741674259
 20
256.6689419923085
 30
0.0
 40
8.5
  0
LINE
  5
B7DB
330
1F
100
AcDbEntity
  8
AM_0
100
AcDbLine
 10
224.3580741674255
 20
103.4605295106212
 30
0.0
 11
184.3580741674253
 21
103.4605295106212
 31
0.0
  0
INSERT
  5
B7DC
330
1F
100
AcDbEntity
  8
AM_12
100
AcDbBlockReference
  2
*S52514242424242425
 10
-214.0699176476073
 20
394.6387503048193
 30
0.0
  0
INSERT
  5
B7DD
330
1F
100
AcDbEntity
  8
AM_12
100
AcDbBlockReference
  2
*S54534444444444446
 10
-214.0699176476073
 20
394.6387503048193
 30
0.0
  0
INSERT
  5
B7DE
330
1F
100
AcDbEntity
  8
AM_12
100
AcDbBlockReference
  2
*S56554646464646467
 10
-214.0699176476073
 20
394.6387503048193
 30
0.0
  0
INSERT
  5
B7DF
330
1F
100
AcDbEntity
  8
AM_12
100
AcDbBlockReference
  2
*S60595050505050508
 10
-214.0699176476073
 20
394.6387503048193
 30
0.0
  0
INSERT
  5
B7E0
330
1F
100
AcDbEntity
  8
AM_12
100
AcDbBlockReference
  2
*S62615252525252529
 10
-214.0699176476073
 20
394.6387503048193
 30
0.0
  0
INSERT
  5
B7E1
330
1F
100
AcDbEntity
  8
AM_12
100
AcDbBlockReference
  2
*S666556565656565610
 10
-214.0699176476073
 20
394.6387503048193
 30
0.0
  0
INSERT
  5
B7E2
330
1F
100
AcDbEntity
  8
AM_12
100
AcDbBlockReference
  2
*S706960606060606011
 10
-214.0699176476073
 20
394.1387503048194
 30
0.0
  0
LINE
  5
B7E3
330
1F
100
AcDbEntity
  8
AM_0
100
AcDbLine
 10
248.3580741674255
 20
95.36052951062112
 30
0.0
 11
248.3580741674255
 21
107.4605295106211
 31
0.0
  0
LINE
  5
B7E4
330
1F
100
AcDbEntity
  8
AM_0
100
AcDbLine
 10
224.3580741674255
 20
95.36052951062112
 30
0.0
 11
224.3580741674255
 21
107.4605295106211
 31
0.0
  0
LINE
  5
B7E5
330
1F
100
AcDbEntity
  8
AM_0
100
AcDbLine
 10
225.2580741674255
 20
94.46052951062132
 30
0.0
 11
247.4580741674255
 21
94.46052951062132
 31
0.0
  0
ARC
  5
B7E6
330
1F
100
AcDbEntity
  8
AM_0
100
AcDbCircle
 10
225.2580741674255
 20
95.36052951062112
 30
0.0
 40
0.9
100
AcDbArc
 50
180.0
 51
270.0
1001
GENIUS_GENOBJ-N-FIL_13
1002
{
1000
OWNER
1000
GEN
1002
}
1001
GENIUS_GENODEF_13
1002
{
1000
HIER
1070
     0
1002
}
1002
{
1000
MANEDIT
1070
     0
1002
}
1002
{
1000
NOSEL
1070
     0
1002
}
1002
{
1000
BEHIND
1070
     0
1002
}
1002
{
1000
OTHER
1070
     0
1002
}
1002
{
1000
REACTOR
1002
}
  0
ARC
  5
B7E7
330
1F
100
AcDbEntity
  8
AM_0
100
AcDbCircle
 10
247.4580741674255
 20
95.36052951062112
 30
0.0
 40
0.9
100
AcDbArc
 50
270.0
 51
0.0
1001
GENIUS_GENODEF_13
1002
{
1000
HIER
1070
     0
1002
}
1002
{
1000
MANEDIT
1070
     0
1002
}
1002
{
1000
NOSEL
1070
     0
1002
}
1002
{
1000
BEHIND
1070
     0
1002
}
1002
{
1000
OTHER
1070
     0
1002
}
1002
{
1000
REACTOR
1002
}
1001
GENIUS_GENOBJ-N-FIL_13
1002
{
1000
OWNER
1000
GEN
1002
}
  0
LINE
  5
B7E8
330
1F
100
AcDbEntity
  8
AM_7
100
AcDbLine
 10
236.3580741674259
 20
216.9605295106214
 30
0.0
 11
236.3580741674259
 21
19.96052951062125
 31
0.0
1001
GENIUS_GENODEF_13
1002
{
1000
HIER
1070
     0
1002
}
1002
{
1000
MANEDIT
1070
     0
1002
}
1002
{
1000
NOSEL
1070
     0
1002
}
1002
{
1000
BEHIND
1070
     0
1002
}
1002
{
1000
OTHER
1070
     0
1002
}
1002
{
1000
REACTOR
1002
}
1001
GENIUS_GENOBJ-N-CEN_13
1002
{
1000
OWNER
1000
GEN
1002
}
1001
GENIUS_GENCEN_19
1002
{
1040
3.0
1002
}
  0
DIMENSION
  5
B7E9
330
1F
100
AcDbEntity
  8
AM_5
100
AcDbDimension
  2
*D38
 10
169.3580731674257
 20
149.4605295106212
 30
0.0
 11
166.2580731674256
 21
180.2105295106214
 31
0.0
 70
    32
 71
     5
 42
61.50000000000017
  3
SYS$0
100
AcDbAlignedDimension
 13
184.3580741674259
 23
210.9605295106214
 33
0.0
 14
181.1080741674254
 24
149.4605295106212
 34
0.0
 50
90.0
100
AcDbRotatedDimension
1001
ACAD
1000
DSTYLE
1002
{
1070
    48
1040
0.2
1070
   173
1070
     1
1070
   271
1070
     1
1070
   272
1070
     1
1002
}
  0
DIMENSION
  5
B7EA
330
1F
100
AcDbEntity
  8
AM_5
100
AcDbDimension
  2
*D39
 10
169.3580731674283
 20
130.9605295106214
 30
0.0
 11
166.2580731674283
 21
140.2105295106213
 31
0.0
 70
    32
 71
     5
 42
18.49999999999983
  3
SYS$0
100
AcDbAlignedDimension
 13
181.1080741674254
 23
149.4605295106212
 33
0.0
 14
189.1080741674254
 24
130.9605295106214
 34
0.0
 50
90.0
100
AcDbRotatedDimension
1001
ACAD
1000
DSTYLE
1002
{
1070
    48
1040
0.2
1070
   173
1070
     1
1070
   271
1070
     1
1070
   272
1070
     1
1002
}
  0
DIMENSION
  5
B7EB
330
1F
100
AcDbEntity
  8
AM_5
100
AcDbDimension
  2
*D40
 10
169.3580731674283
 20
112.4605295106209
 30
0.0
 11
166.2580731674283
 21
121.7105295106212
 31
0.0
 70
    32
 71
     5
 42
18.50000000000044
  3
SYS$0
100
AcDbAlignedDimension
 13
189.1080741674254
 23
130.9605295106214
 33
0.0
 14
181.1080741674254
 24
112.4605295106209
 34
0.0
 50
90.0
100
AcDbRotatedDimension
1001
ACAD
1000
DSTYLE
1002
{
1070
    48
1040
0.2
1070
   173
1070
     1
1070
   271
1070
     1
1070
   272
1070
     1
1002
}
  0
DIMENSION
  5
B7EC
330
1F
100
AcDbEntity
  8
AM_5
100
AcDbDimension
  2
*D41
 10
169.3580731674283
 20
103.4605295106212
 30
0.0
 11
166.2580731674283
 21
107.9605295106211
 31
0.0
 70
    32
 71
     5
 42
8.999999999999715
  3
SYS$0
100
AcDbAlignedDimension
 13
181.1080741674254
 23
112.4605295106209
 33
0.0
 14
184.3580741674253
 24
103.4605295106212
 34
0.0
 50
90.0
100
AcDbRotatedDimension
1001
ACAD
1000
DSTYLE
1002
{
1070
    48
1040
0.2
1070
   173
1070
     1
1070
   271
1070
     1
1070
   272
1070
     1
1002
}
  0
DIMENSION
  5
B7ED
330
1F
100
AcDbEntity
  8
AM_5
100
AcDbDimension
  2
*D42
 10
159.3580731674283
 20
103.4605295106213
 30
0.0
 11
156.2580731674283
 21
98.96052951062131
 31
0.0
 70
    32
 71
     5
 42
8.999999999999985
  3
SYS$0
100
AcDbAlignedDimension
 13
225.3580741674252
 23
94.46052951062126
 33
0.0
 14
184.3580741674253
 24
103.4605295106212
 34
0.0
 50
90.0
100
AcDbRotatedDimension
1001
ACAD
1000
DSTYLE
1002
{
1070
    48
1040
0.2
1070
   173
1070
     1
1070
   271
1070
     1
1070
   272
1070
     1
1002
}
  0
DIMENSION
  5
B7EE
330
1F
100
AcDbEntity
  8
AM_5
100
AcDbDimension
  2
*D43
 10
159.3580731674283
 20
210.9605295106214
 30
0.0
 11
156.2580731674282
 21
157.2105295106213
 31
0.0
 70
    32
 71
     5
 42
107.5000000000001
  3
SYS$0
100
AcDbAlignedDimension
 13
184.3580741674253
 23
103.4605295106212
 33
0.0
 14
184.3580741674259
 24
210.9605295106214
 34
0.0
 50
90.0
100
AcDbRotatedDimension
1001
ACAD
1000
DSTYLE
1002
{
1070
    48
1040
0.2
1070
   173
1070
     1
1070
   271
1070
     1
1070
   272
1070
     1
1002
}
  0
DIMENSION
  5
B7EF
330
1F
100
AcDbEntity
  8
AM_5
100
AcDbDimension
  2
*D44
 10
236.3580741674259
 20
225.9605305106215
 30
0.0
 11
208.8580741674259
 21
229.0605305106215
 31
0.0
 70
    32
 71
     5
 42
55.00000000000011
  3
SYS$0
100
AcDbAlignedDimension
 13
181.3580741674258
 23
207.9605295106214
 33
0.0
 14
236.3580741674259
 24
216.9605295106214
 34
0.0
100
AcDbRotatedDimension
1001
ACAD
1000
DSTYLE
1002
{
1070
    48
1040
0.2
1070
   173
1070
     1
1070
   271
1070
     1
1070
   272
1070
     1
1002
}
  0
DIMENSION
  5
B7F0
330
1F
100
AcDbEntity
  8
AM_5
100
AcDbDimension
  2
*D45
 10
236.3580741674259
 20
225.9605305106215
 30
0.0
 11
263.8580741674257
 21
229.0605305106215
 31
0.0
 70
    32
 71
     5
 42
54.99999999999954
  3
SYS$0
100
AcDbAlignedDimension
 13
291.3580741674254
 23
91.46052951062131
 33
0.0
 14
236.3580741674259
 24
216.9605295106214
 34
0.0
100
AcDbRotatedDimension
1001
ACAD
1000
DSTYLE
1002
{
1070
    48
1040
0.2
1070
   173
1070
     1
1070
   271
1070
     1
1070
   272
1070
     1
1002
}
  0
LINE
  5
B7F1
330
1F
100
AcDbEntity
  8
AM_5
100
AcDbLine
 10
291.3580741674254
 20
92.96052951062126
 30
0.0
 11
291.3580741674254
 21
236.960530510621
 31
0.0
  0
LINE
  5
B7F2
330
1F
100
AcDbEntity
  8
AM_5
100
AcDbLine
 10
181.3580741674258
 20
209.4605295106214
 30
0.0
 11
181.3580741674258
 21
236.960530510621
 31
0.0
  0
LINE
  5
B7F3
330
1F
100
AcDbEntity
  8
AM_5
100
AcDbLine
 10
290.3580741674255
 20
235.9605305106209
 30
0.0
 11
182.3580741674259
 21
235.9605305106209
 31
0.0
  0
INSERT
  5
B7F4
330
1F
100
AcDbEntity
  8
AM_5
100
AcDbBlockReference
  2
_Dot
 10
291.3580741674254
 20
235.9605305106209
 30
0.0
  0
INSERT
  5
B7F5
330
1F
100
AcDbEntity
  8
AM_5
100
AcDbBlockReference
  2
_Dot
 10
181.3580741674258
 20
235.9605305106209
 30
0.0
 50
180.0
  0
MTEXT
  5
B7F6
330
1F
100
AcDbEntity
  8
AM_5
 62
     2
100
AcDbMText
 10
236.3580741674259
 20
239.0605305106209
 30
0.0
 40
3.2
 41
0.0
 71
     5
 72
     1
  1
110
 73
     1
 44
1.0
1001
ACAD
1000
MTEXTBEGIN
1070
    73
1070
     1
1070
    44
1040
1.0
1070
    74
1070
     0
1000
MTEXTEND
  0
DIMENSION
  5
B7F7
330
1F
100
AcDbEntity
  8
AM_5
100
AcDbDimension
  2
*D46
 10
303.3580751774255
 20
85.46052951062097
 30
0.0
 11
300.2580751774254
 21
89.9605295106212
 31
0.0
 70
    32
 71
     5
 42
9.000000000000341
  3
SYS$0
100
AcDbAlignedDimension
 13
288.3580741674255
 23
94.46052951062132
 33
0.0
 14
291.6080741674254
 24
85.46052951062097
 34
0.0
 50
90.0
100
AcDbRotatedDimension
1001
ACAD
1000
DSTYLE
1002
{
1070
    48
1040
0.2
1070
   173
1070
     1
1070
   271
1070
     1
1070
   272
1070
     1
1002
}
  0
DIMENSION
  5
B7F8
330
1F
100
AcDbEntity
  8
AM_5
100
AcDbDimension
  2
*D47
 10
303.3580751674256
 20
66.96052951062096
 30
0.0
 11
300.2580751674255
 21
76.21052951062101
 31
0.0
 70
    32
 71
     5
 42
18.50000000000001
  3
SYS$0
100
AcDbAlignedDimension
 13
291.6080741674254
 23
85.46052951062097
 33
0.0
 14
283.6080741674255
 24
66.96052951062097
 34
0.0
 50
90.0
100
AcDbRotatedDimension
1001
ACAD
1000
DSTYLE
1002
{
1070
    48
1040
0.2
1070
   173
1070
     1
1070
   271
1070
     1
1070
   272
1070
     1
1002
}
  0
TEXT
  5
B7F9
330
1F
100
AcDbEntity
  8
0
  6
Continuous
 62
     7
100
AcDbText
 10
22.85700017952331
 20
203.3999999371185
 30
0.0
 40
3.2
  1
＊適応扉重量：75kg(3枚吊)
 41
0.90047268
100
AcDbText
  0
DIMENSION
  5
B800
330
1F
100
AcDbEntity
  8
AM_5
100
AcDbDimension
  2
*D48
 10
270.8654460275087
 20
87.86070505317791
 30
0.0
 11
197.7240714204793
 21
44.59913982244241
 31
0.0
 70
   163
  1
10-%%c5.5×\P<>サラ
 71
     5
 42
8.499999999999033
  3
SYS$3
100
AcDbDiametricDimension
 15
263.8507023073408
 25
83.06035396806445
 35
0.0
 40
0.0
1001
ACAD
1000
DSTYLE
1002
{
1070
    48
1040
0.2
1070
    74
1070
     1
1070
   172
1070
     1
1070
   289
1070
     2
1070
   342
1005
B5E4
1002
}
  0
DIMENSION
  5
B801
330
1F
100
AcDbEntity
  8
AM_5
100
AcDbDimension
  2
*D49
 10
224.3580741674255
 20
83.36052951062113
 30
0.0
 11
209.4623053166168
 21
84.63279209649078
 31
0.0
 70
   160
  1
%%c<>
 71
     5
 42
24.0
  3
SYS$0
100
AcDbAlignedDimension
 13
248.3580741674255
 23
95.36052951062112
 33
0.0
 14
224.3580741674255
 24
95.36052951062112
 34
0.0
100
AcDbRotatedDimension
1001
ACAD
1000
DSTYLE
1002
{
1070
    48
1040
0.2
1070
   173
1070
     1
1070
   279
1070
     1
1002
}
  0
DIMENSION
  5
B802
330
1F
100
AcDbEntity
  8
AM_5
100
AcDbDimension
  2
*D50
 10
303.3580741674255
 20
254.6689419923086
 30
0.0
 11
301.7475091364577
 21
265.2877682890135
 31
0.0
 70
   160
 71
     5
 42
4.000000000000085
  3
SYS$0
100
AcDbAlignedDimension
 13
291.3580741674254
 23
258.6689419923086
 33
0.0
 14
291.3580741674254
 24
254.6689419923086
 34
0.0
 50
90.0
100
AcDbRotatedDimension
1001
ACAD
1000
DSTYLE
1002
{
1070
    48
1040
0.2
1070
   173
1070
     1
1070
   279
1070
     1
1002
}
  0
DIMENSION
  5
B803
330
1F
100
AcDbEntity
  8
AM_5
100
AcDbDimension
  2
*D51
 10
303.6080741674255
 20
48.46052951062097
 30
0.0
 11
300.5080741674254
 21
57.71052951062101
 31
0.0
 70
    32
 71
     5
 42
18.49999999999999
  3
SYS$0
100
AcDbAlignedDimension
 13
283.6080741674255
 23
66.96052951062097
 33
0.0
 14
291.6080741674254
 24
48.46052951062097
 34
0.0
 50
90.0
100
AcDbRotatedDimension
1001
ACAD
1000
DSTYLE
1002
{
1070
    48
1040
0.2
1070
   173
1070
     1
1070
   271
1070
     1
1070
   272
1070
     1
1002
}
  0
DIMENSION
  5
B804
330
1F
100
AcDbEntity
  8
AM_5
100
AcDbDimension
  2
*D52
 10
303.6080741674255
 20
25.96052951062097
 30
0.0
 11
300.5080741674254
 21
37.21052951062102
 31
0.0
 70
    32
 71
     5
 42
22.5
  3
SYS$0
100
AcDbAlignedDimension
 13
291.6080741674254
 23
48.46052951062097
 33
0.0
 14
288.3580741674255
 24
25.96052951062097
 34
0.0
 50
90.0
100
AcDbRotatedDimension
1001
ACAD
1000
DSTYLE
1002
{
1070
    48
1040
0.2
1070
   173
1070
     1
1070
   271
1070
     1
1070
   272
1070
     1
1002
}
  0
DIMENSION
  5
B805
330
1F
100
AcDbEntity
  8
AM_5
100
AcDbDimension
  2
*D53
 10
283.3580741674254
 20
16.96052851062091
 30
0.0
 11
279.3580741674254
 21
20.06052851062092
 31
0.0
 70
    32
 71
     5
 42
8.0
  3
SYS$0
100
AcDbAlignedDimension
 13
275.3580741674255
 23
58.71052951062097
 33
0.0
 14
283.3580741674254
 24
40.21052951062097
 34
0.0
100
AcDbRotatedDimension
1001
ACAD
1000
DSTYLE
1002
{
1070
    48
1040
0.2
1070
   173
1070
     1
1070
   271
1070
     1
1070
   272
1070
     1
1002
}
  0
DIMENSION
  5
B806
330
1F
100
AcDbEntity
  8
AM_5
100
AcDbDimension
  2
*D54
 10
275.3580741674255
 20
16.96052851062012
 30
0.0
 11
271.3580741674254
 21
20.06052851062012
 31
0.0
 70
    32
 71
     5
 42
8.000000000000113
  3
SYS$0
100
AcDbAlignedDimension
 13
267.3580741674253
 23
40.21052951062097
 33
0.0
 14
275.3580741674255
 24
58.71052951062097
 34
0.0
100
AcDbRotatedDimension
1001
ACAD
1000
DSTYLE
1002
{
1070
    48
1040
0.2
1070
   173
1070
     1
1070
   271
1070
     1
1070
   272
1070
     1
1002
}
  0
DIMENSION
  5
B807
330
1F
100
AcDbEntity
  8
AM_5
100
AcDbDimension
  2
*D55
 10
267.3580741674253
 20
6.96052851061944
 30
0.0
 11
275.3580741674254
 21
10.06052851061944
 31
0.0
 70
    32
 71
     5
 42
16.00000000000011
  3
SYS$0
100
AcDbAlignedDimension
 13
283.3580741674254
 23
40.21052951062097
 33
0.0
 14
267.3580741674253
 24
40.21052951062097
 34
0.0
100
AcDbRotatedDimension
1001
ACAD
1000
DSTYLE
1002
{
1070
    48
1040
0.2
1070
   173
1070
     1
1070
   271
1070
     1
1070
   272
1070
     1
1002
}
  0
DIMENSION
  5
B808
330
1F
100
AcDbEntity
  8
AM_5
100
AcDbDimension
  2
*D56
 10
283.3580741674254
 20
6.960528510620235
 30
0.0
 11
287.3580741674254
 21
10.06052851062023
 31
0.0
 70
    32
 71
     5
 42
8.0
  3
SYS$0
100
AcDbAlignedDimension
 13
291.3580741674254
 23
28.96052951062097
 33
0.0
 14
283.3580741674254
 24
40.21052951062097
 34
0.0
100
AcDbRotatedDimension
1001
ACAD
1000
DSTYLE
1002
{
1070
    48
1040
0.2
1070
   173
1070
     1
1070
   271
1070
     1
1070
   272
1070
     1
1002
}
  0
DIMENSION
  5
B809
330
1F
100
AcDbEntity
  8
AM_5
100
AcDbDimension
  2
*D57
 10
236.3580741674259
 20
6.960528510618814
 30
0.0
 11
251.8580741674256
 21
10.06052851061881
 31
0.0
 70
    32
 71
     5
 42
30.99999999999943
  3
SYS$0
100
AcDbAlignedDimension
 13
267.3580741674253
 23
40.21052951062097
 33
0.0
 14
236.3580741674259
 24
19.96052951062125
 34
0.0
100
AcDbRotatedDimension
1001
ACAD
1000
DSTYLE
1002
{
1070
    48
1040
0.2
1070
   173
1070
     1
1070
   271
1070
     1
1070
   272
1070
     1
1002
}
  0
DIMENSION
  5
B80A
330
1F
100
AcDbEntity
  8
AM_5
100
AcDbDimension
  2
*D58
 10
313.6080741674255
 20
25.96052951062097
 30
0.0
 11
310.5080741674254
 21
60.21052951062119
 31
0.0
 70
    32
 71
     5
 42
68.50000000000034
  3
SYS$0
100
AcDbAlignedDimension
 13
288.3580741674255
 23
94.46052951062132
 33
0.0
 14
288.3580741674255
 24
25.96052951062097
 34
0.0
 50
90.0
100
AcDbRotatedDimension
1001
ACAD
1000
DSTYLE
1002
{
1070
    48
1040
0.2
1070
   173
1070
     1
1070
   271
1070
     1
1070
   272
1070
     1
1002
}
  0
DIMENSION
  5
B80B
330
1F
100
AcDbEntity
  8
AM_5
100
AcDbDimension
  2
*D59
 10
323.6080741674225
 20
210.9605295106212
 30
0.0
 11
320.5080741674224
 21
118.4605295106211
 31
0.0
 70
    32
 71
     5
 42
185.0000000000003
  3
SYS$0
100
AcDbAlignedDimension
 13
288.3580741674255
 23
25.96052951062097
 33
0.0
 14
247.3580741674255
 24
210.9605295106212
 34
0.0
 50
90.0
100
AcDbRotatedDimension
1001
ACAD
1000
DSTYLE
1002
{
1070
    48
1040
0.2
1070
   173
1070
     1
1070
   271
1070
     1
1070
   272
1070
     1
1002
}
  0
ARC
  5
B80C
330
1F
100
AcDbEntity
  8
AM_0
100
AcDbCircle
 10
236.3580741674259
 20
256.6689419923086
 30
0.0
 40
12.0
100
AcDbArc
 50
189.5940682268616
 51
170.4059317731416
  0
ARC
  5
B80D
330
1F
100
AcDbEntity
  8
AM_0
100
AcDbCircle
 10
236.3580741674259
 20
256.6689419923085
 30
0.0
 40
11.0
100
AcDbArc
 50
190.4756816963898
 51
169.5243183036101
  0
DIMENSION
  5
B80E
330
1F
100
AcDbEntity
  8
AM_5
100
AcDbDimension
  2
*D60
 10
236.3580741674257
 20
256.6689419923085
 30
0.0
 11
257.8050578174053
 21
240.4212203082827
 31
0.0
 70
   164
 71
     5
 42
10.99999999999994
  3
SYS$4
100
AcDbRadialDimension
 15
244.34280715246
 25
249.1029629308978
 35
0.0
 40
0.0
1001
ACAD
1000
DSTYLE
1002
{
1070
    48
1040
0.2
1070
    74
1070
     1
1070
   271
1070
     1
1070
   272
1070
     1
1002
}
  0
DIMENSION
  5
B80F
330
1F
100
AcDbEntity
  8
AM_5
100
AcDbDimension
  2
*D61
 10
236.3580741674261
 20
256.6689419923086
 30
0.0
 11
261.4110132853526
 21
268.4459492206226
 31
0.0
 70
   164
 71
     5
 42
12.0
  3
SYS$4
100
AcDbRadialDimension
 15
246.7509601989504
 25
262.6679352358244
 35
0.0
 40
0.0
1001
ACAD
1000
DSTYLE
1002
{
1070
    48
1040
0.2
1070
    74
1070
     1
1070
   271
1070
     1
1070
   272
1070
     1
1002
}
  0
DIMENSION
  5
BB01
330
1F
100
AcDbEntity
  8
AM_5
100
AcDbDimension
  2
*D68
 10
245.4989855934455
 20
262.7880708765257
 30
0.0
 11
208.8497639297742
 21
241.3280324189631
 31
0.0
 70
   163
 71
     5
 42
21.99999999999977
  3
SYS$3
100
AcDbDiametricDimension
 15
227.2171627414063
 25
250.5498131080912
 35
0.0
 40
0.0
1001
ACAD
1000
DSTYLE
1002
{
1070
   172
1070
     1
1070
   289
1070
     2
1070
   342
1005
B5E4
1002
}
  0
ENDSEC
  0
SECTION
  2
OBJECTS
  0
DICTIONARY
  5
C
330
0
100
AcDbDictionary
281
     1
  3
ACAD_2007HEADERVARS_RT
350
BBC9
  3
ACAD_BGPLOT_KEY
350
AB06
  3
ACAD_COLOR
350
A91D
  3
ACAD_GROUP
350
D
  3
ACAD_LAYOUT
350
1A
  3
ACAD_MATERIAL
350
A91C
  3
ACAD_MLINESTYLE
350
17
  3
ACAD_PLOTSETTINGS
350
19
  3
ACAD_PLOTSTYLENAME
350
E
  3
ACAD_TABLESTYLE
350
AAB9
  3
ACAD_VISUALSTYLE
350
B0F1
  3
AcAsAppObject
350
3DA1
  3
ACASGREF_MASTER
350
3DE9
  3
AcDbVariableDictionary
350
34
  3
AcmDictionary
350
47
  3
AD_GREF_MODULE
350
3DEA
  3
AD_MAPI_MODULE
350
3E06
  3
AMG
350
2B
  3
AMGSNAPSETTINGS
350
7D
  3
ASE_INDEX_DICTIONARY
350
B331
  3
DWGPROPS
350
BBC8
  3
MAPISURF_MODULE
350
3DEB
  0
DICTIONARY
  5
3F95
330
2
100
AcDbDictionary
280
     1
281
     1
  3
ACAD_LAYERFILTERS
360
B523
  3
ACAD_LAYERSTATES
360
3F96
  3
ACLYDICTIONARY
360
B522
  3
AMLAYER_GROUPCOLORS
360
AAB4
  0
DICTIONARY
  5
8A
330
1F
100
AcDbDictionary
280
     1
281
     1
  3
ACAD_SORTENTS
360
B1BA
  0
DICTIONARY
  5
BBC9
102
{ACAD_REACTORS
330
C
102
}
330
C
100
AcDbDictionary
281
     1
  3
DIMARCSYM
350
BBCA
  0
DICTIONARY
  5
AB06
102
{ACAD_REACTORS
330
C
102
}
330
C
100
AcDbDictionary
280
     1
281
     1
  0
DICTIONARY
  5
A91D
102
{ACAD_REACTORS
330
C
102
}
330
C
100
AcDbDictionary
281
     1
  0
DICTIONARY
  5
D
102
{ACAD_REACTORS
330
C
102
}
330
C
100
AcDbDictionary
281
     1
  0
DICTIONARY
  5
1A
102
{ACAD_REACTORS
330
C
102
}
330
C
100
AcDbDictionary
281
     1
  3
Model
350
22
  3
ﾚｲｱｳﾄ1
350
1E
  3
ﾚｲｱｳﾄ2
350
26
  0
DICTIONARY
  5
A91C
102
{ACAD_REACTORS
330
C
102
}
330
C
100
AcDbDictionary
281
     1
  3
ByBlock
350
B0EF
  3
ByLayer
350
B0EE
  3
Global
350
B0F0
  0
DICTIONARY
  5
17
102
{ACAD_REACTORS
330
C
102
}
330
C
100
AcDbDictionary
281
     1
  3
Standard
350
18
  0
DICTIONARY
  5
19
102
{ACAD_REACTORS
330
C
102
}
330
C
100
AcDbDictionary
281
     1
  0
ACDBDICTIONARYWDFLT
  5
E
102
{ACAD_REACTORS
330
C
102
}
330
C
100
AcDbDictionary
281
     1
  3
Normal
350
F
100
AcDbDictionaryWithDefault
340
F
  0
DICTIONARY
  5
AAB9
102
{ACAD_REACTORS
330
C
102
}
330
C
100
AcDbDictionary
281
     1
  3
Standard
350
AABA
  0
DICTIONARY
  5
B0F1
102
{ACAD_REACTORS
330
C
102
}
330
C
100
AcDbDictionary
281
     1
  3
2dWireframe
350
B0F7
  3
3D Hidden
350
B0F9
  3
3dWireframe
350
B0F8
  3
Basic
350
B0F6
  3
Brighten
350
B0FD
  3
ColorChange
350
B101
  3
Conceptual
350
B0FA
  3
Dim
350
B0FC
  3
Facepattern
350
B100
  3
Flat
350
B0F2
  3
FlatWithEdges
350
B0F3
  3
Gouraud
350
B0F4
  3
GouraudWithEdges
350
B0F5
  3
Linepattern
350
B0FF
  3
Realistic
350
B0FB
  3
Thicken
350
B0FE
  0
ACAD_PROXY_OBJECT
  5
3DA1
102
{ACAD_REACTORS
330
C
102
}
330
C
100
AcDbProxyObject
 90
      499
 91
      576
 95
   917527
 70
     0
 93
       10
310
407F
 94
        0
1001
ACAD
1000
AcRTDxfName
1000
ASAPP
  0
ACAD_PROXY_OBJECT
  5
3DE9
102
{ACAD_REACTORS
330
C
102
}
330
C
100
AcDbProxyObject
 90
      499
 91
      581
 95
   917527
 70
     0
 93
       34
310
010000407F
 94
        0
1001
ACAD
1000
AcRTDxfName
1000
ACASGREFMASTER
  0
DICTIONARY
  5
34
102
{ACAD_REACTORS
330
C
102
}
330
C
100
AcDbDictionary
281
     1
  3
CTABLESTYLE
350
AAF3
  3
DIMASSOC
350
A10C
  3
FIELDEVAL
350
AB07
  3
INDEXCTL
350
35
  3
SORTENTS
350
194C
  0
DICTIONARY
  5
47
102
{ACAD_REACTORS
330
C
102
}
330
C
100
AcDbDictionary
281
     1
  3
AcmBOM
350
7E8
  3
AcmStdDictionary
350
4C
  3
AMDTSECTSYM_ARROWCOLOR
350
A929
  0
ACAD_PROXY_OBJECT
  5
3DEA
102
{ACAD_REACTORS
330
C
102
}
330
C
100
AcDbProxyObject
 90
      499
 91
      582
 95
   917527
 70
     0
 93
      114
310
00000043800000000000000000003F
 94
        0
1001
ACAD
1000
AcRTDxfName
1000
ACADGREFMODULE
  0
ACAD_PROXY_OBJECT
  5
3E06
102
{ACAD_REACTORS
330
C
102
}
330
C
100
AcDbProxyObject
 90
      499
 91
      594
 95
   917527
 70
     0
 93
       34
310
05000044FF
 94
        0
1001
ACAD
1000
AcRTDxfName
1000
MAPIADMODULE
  0
DICTIONARY
  5
2B
102
{ACAD_REACTORS
330
C
102
}
330
C
100
AcDbDictionary
281
     1
  0
DICTIONARY
  5
7D
102
{ACAD_REACTORS
330
C
102
}
330
C
100
AcDbDictionary
281
     1
  0
DICTIONARY
  5
B331
102
{ACAD_REACTORS
330
C
102
}
330
C
100
AcDbDictionary
281
     1
  3
ASEBlockHierarchyIndexRecord
350
B332
1001
DCO15
1040
1594111214.218
  0
XRECORD
  5
BBC8
102
{ACAD_REACTORS
330
C
102
}
330
C
100
AcDbXrecord
280
     1
  1
DWGPROPS COOKIE
  2

  3

  4

  6

  7

  8
Administrator
  9

300
AmdtFileType=84
301
=
302
=
303
=
304
=
305
=
306
=
307
=
308
=
309
=
 40
0.0205228240740741
 41
2456533.563205834
 42
2456533.583726123
  1

 90
        1
  0
ACAD_PROXY_OBJECT
  5
3DEB
102
{ACAD_REACTORS
330
C
102
}
330
C
100
AcDbProxyObject
 90
      499
 91
      583
 95
   917527
 70
     0
 93
        8
310
047E
 94
        0
1001
ACAD
1000
AcRTDxfName
1000
AMDTMAPISURFMOUDULE
  0
DICTIONARY
  5
B523
102
{ACAD_REACTORS
330
3F95
102
}
330
3F95
100
AcDbDictionary
281
     1
  0
DICTIONARY
  5
3F96
102
{ACAD_REACTORS
330
3F95
102
}
330
3F95
100
AcDbDictionary
281
     1
  3
20011210
350
3FB7
  0
DICTIONARY
  5
B522
102
{ACAD_REACTORS
330
3F95
102
}
330
3F95
100
AcDbDictionary
281
     1
1001
ACAD
1000
<All
  0
DICTIONARY
  5
AAB4
102
{ACAD_REACTORS
330
3F95
102
}
330
3F95
100
AcDbDictionary
280
     1
281
     1
  0
SORTENTSTABLE
  5
B1BA
102
{ACAD_REACTORS
330
8A
102
}
330
8A
100
AcDbSortentsTable
330
1F
  0
XRECORD
  5
BBCA
102
{ACAD_REACTORS
330
BBC9
102
}
330
BBC9
100
AcDbXrecord
280
     1
 70
     1
  0
LAYOUT
  5
22
102
{ACAD_XDICTIONARY
360
BBCD
102
}
102
{ACAD_REACTORS
330
1A
102
}
330
1A
100
AcDbPlotSettings
  1

  2
DocuCentre-II C5400
  4
A3
  6
AM_VIEW1
 40
4.857749938964843
 41
4.942420959472656
 42
4.9423828125
 43
4.857757568359375
 44
297.0106506347656
 45
420.0313415527343
 46
0.0
 47
2.016715294974204
 48
214.3704939521119
 49
367.5855324241176
140
275.6727856380065
141
407.629191407817
142
1.0
143
0.7311709945292711
 70
  3764
 72
     1
 73
     1
 74
     2
  7
monochrome.ctb
 75
     0
147
1.367669132777622
148
-1700.85588156276
149
-1647.985052086429
100
AcDbLayout
  1
Model
 70
     1
 71
     0
 10
0.0
 20
0.0
 11
12.0
 21
9.0
 12
0.0
 22
0.0
 32
0.0
 14
0.0
 24
0.0
 34
0.0
 15
0.0
 25
0.0
 35
0.0
146
0.0
 13
0.0
 23
0.0
 33
0.0
 16
1.0
 26
0.0
 36
0.0
 17
0.0
 27
1.0
 37
0.0
 76
     0
330
1F
331
B0EC
1001
ACAD_PSEXT
1000
DocuCentre-II C5400
1000
FX DocuCentre-II C5400
1000
192.168.2.200
1000

1070
     0
  0
LAYOUT
  5
1E
102
{ACAD_XDICTIONARY
360
BBCB
102
}
102
{ACAD_REACTORS
330
1A
102
}
330
1A
100
AcDbPlotSettings
  1

  2
\\ML370\XEROX
  4
A4
  6

 40
3.174999952316284
 41
3.174999952316284
 42
3.175003051757812
 43
3.17498779296875
 44
209.8674926757813
 45
296.6719970703125
 46
0.0
 47
0.0
 48
0.0
 49
0.0
140
0.0
141
0.0
142
1.0
143
1.0
 70
   688
 72
     1
 73
     1
 74
     5
  7
monochrome.ctb
 75
    16
147
1.0
148
0.0
149
0.0
100
AcDbLayout
  1
ﾚｲｱｳﾄ1
 70
     1
 71
     1
 10
-3.17498779296875
 20
-3.174999952316284
 11
293.4970092773438
 21
206.692492723465
 12
0.0
 22
0.0
 32
0.0
 14
1.000000000000000E+20
 24
1.000000000000000E+20
 34
1.000000000000000E+20
 15
-1.000000000000000E+20
 25
-1.000000000000000E+20
 35
-1.000000000000000E+20
146
0.0
 13
0.0
 23
0.0
 33
0.0
 16
1.0
 26
0.0
 36
0.0
 17
0.0
 27
1.0
 37
0.0
 76
     0
330
1B
  0
LAYOUT
  5
26
102
{ACAD_XDICTIONARY
360
BBCF
102
}
102
{ACAD_REACTORS
330
1A
102
}
330
1A
100
AcDbPlotSettings
  1

  2
\\ML370\XEROX
  4

  6

 40
0.0
 41
0.0
 42
0.0
 43
0.0
 44
0.0
 45
0.0
 46
0.0
 47
0.0
 48
0.0
 49
0.0
140
0.0
141
0.0
142
1.0
143
1.0
 70
   688
 72
     0
 73
     0
 74
     5
  7
monochrome.ctb
 75
    16
147
1.0
148
0.0
149
0.0
100
AcDbLayout
  1
ﾚｲｱｳﾄ2
 70
     1
 71
     2
 10
0.0
 20
0.0
 11
12.0
 21
9.0
 12
0.0
 22
0.0
 32
0.0
 14
0.0
 24
0.0
 34
0.0
 15
0.0
 25
0.0
 35
0.0
146
0.0
 13
0.0
 23
0.0
 33
0.0
 16
1.0
 26
0.0
 36
0.0
 17
0.0
 27
1.0
 37
0.0
 76
     0
330
23
  0
MATERIAL
  5
B0EF
102
{ACAD_XDICTIONARY
360
BBD5
102
}
102
{ACAD_REACTORS
330
A91C
102
}
330
A91C
100
AcDbMaterial
  1
ByBlock
  0
MATERIAL
  5
B0EE
102
{ACAD_XDICTIONARY
360
BBD3
102
}
102
{ACAD_REACTORS
330
A91C
102
}
330
A91C
100
AcDbMaterial
  1
ByLayer
  0
MATERIAL
  5
B0F0
102
{ACAD_XDICTIONARY
360
BBD7
102
}
102
{ACAD_REACTORS
330
A91C
102
}
330
A91C
100
AcDbMaterial
  1
Global
  0
MLINESTYLE
  5
18
102
{ACAD_REACTORS
330
17
102
}
330
17
100
AcDbMlineStyle
  2
STANDARD
 70
     0
  3

 62
   256
 51
90.0
 52
90.0
 71
     2
 49
0.5
 62
   256
  6
BYLAYER
 49
-0.5
 62
   256
  6
BYLAYER
  0
ACDBPLACEHOLDER
  5
F
102
{ACAD_REACTORS
330
E
102
}
330
E
  0
TABLESTYLE
  5
AABA
102
{ACAD_XDICTIONARY
360
BBD1
102
}
102
{ACAD_REACTORS
330
AAB9
102
}
330
AAB9
100
AcDbTableStyle
  3
Standard
 70
     0
 71
     0
 40
1.5
 41
1.5
280
     0
281
     0
  7
STANDARD
140
4.5
170
     2
 62
     0
 63
     7
283
     0
274
    -2
284
     1
 64
     0
275
    -2
285
     1
 65
     0
276
    -2
286
     1
 66
     0
277
    -2
287
     1
 67
     0
278
    -2
288
     1
 68
     0
279
    -2
289
     1
 69
     0
  7
STANDARD
140
6.0
170
     5
 62
     0
 63
     7
283
     0
274
    -2
284
     1
 64
     0
275
    -2
285
     1
 65
     0
276
    -2
286
     1
 66
     0
277
    -2
287
     1
 67
     0
278
    -2
288
     1
 68
     0
279
    -2
289
     1
 69
     0
  7
STANDARD
140
4.5
170
     5
 62
     0
 63
     7
283
     0
274
    -2
284
     1
 64
     0
275
    -2
285
     1
 65
     0
276
    -2
286
     1
 66
     0
277
    -2
287
     1
 67
     0
278
    -2
288
     1
 68
     0
279
    -2
289
     1
 69
     0
  0
VISUALSTYLE
  5
B0F7
102
{ACAD_REACTORS
330
B0F1
102
}
330
B0F1
100
AcDbVisualStyle
  2
2dWireframe
 70
     4
 71
     0
 72
     2
 73
     0
 90
        0
 40
-0.6
 41
-30.0
 62
     5
 63
     7
 74
     1
 91
        4
 64
     7
 65
   257
 75
     1
175
     1
 42
1.0
 92
        0
 66
   257
 43
1.0
 76
     1
 77
     6
 78
     2
 67
     7
 79
     5
170
     0
171
     0
290
     0
174
     0
 93
        1
 44
0.0
173
     0
291
     0
 45
0.0
1001
ACAD
1000
AcDbSavedByObjectVersion
1070
     0
  0
VISUALSTYLE
  5
B0F9
102
{ACAD_REACTORS
330
B0F1
102
}
330
B0F1
100
AcDbVisualStyle
  2
3D Hidden
 70
     6
 71
     1
 72
     2
 73
     2
 90
        0
 40
-0.6
 41
-30.0
 62
     5
 63
     7
 74
     2
 91
        2
 64
     7
 65
   257
 75
     2
175
     1
 42
40.0
 92
        0
 66
   257
 43
1.0
 76
     1
 77
     6
 78
     2
 67
     7
 79
     3
170
     0
171
     0
290
     0
174
     0
 93
        1
 44
0.0
173
     0
291
     0
 45
0.0
1001
ACAD
1000
AcDbSavedByObjectVersion
1070
     0
  0
VISUALSTYLE
  5
B0F8
102
{ACAD_REACTORS
330
B0F1
102
}
330
B0F1
100
AcDbVisualStyle
  2
3dWireframe
 70
     5
 71
     0
 72
     2
 73
     0
 90
        0
 40
-0.6
 41
-30.0
 62
     5
 63
     7
 74
     1
 91
        4
 64
     7
 65
   257
 75
     1
175
     1
 42
1.0
 92
        0
 66
   257
 43
1.0
 76
     1
 77
     6
 78
     2
 67
     7
 79
     5
170
     0
171
     0
290
     0
174
     0
 93
        1
 44
0.0
173
     0
291
     0
 45
0.0
1001
ACAD
1000
AcDbSavedByObjectVersion
1070
     0
  0
VISUALSTYLE
  5
B0F6
102
{ACAD_REACTORS
330
B0F1
102
}
330
B0F1
100
AcDbVisualStyle
  2
Basic
 70
     7
 71
     1
 72
     0
 73
     1
 90
        0
 40
-0.6
 41
-30.0
 62
     5
 63
     7
 74
     0
 91
        4
 64
     7
 65
   257
 75
     1
175
     1
 42
1.0
 92
        8
 66
     7
 43
1.0
 76
     1
 77
     6
 78
     2
 67
     7
 79
     5
170
     0
171
     0
290
     0
174
     0
 93
        1
 44
0.0
173
     0
291
     1
 45
0.0
1001
ACAD
1000
AcDbSavedByObjectVersion
1070
     0
  0
VISUALSTYLE
  5
B0FD
102
{ACAD_REACTORS
330
B0F1
102
}
330
B0F1
100
AcDbVisualStyle
  2
Brighten
 70
    12
 71
     2
 72
     2
 73
     0
 90
        0
 40
-0.6
 41
-30.0
 62
     5
 63
     7
 74
     1
 91
        4
 64
     7
 65
   257
 75
     1
175
     1
 42
1.0
 92
        8
 66
     7
 43
1.0
 76
     1
 77
     6
 78
     2
 67
     7
 79
     5
170
     0
171
     0
290
     0
174
     0
 93
        1
 44
50.0
173
     0
291
     1
 45
0.0
1001
ACAD
1000
AcDbSavedByObjectVersion
1070
     0
  0
VISUALSTYLE
  5
B101
102
{ACAD_REACTORS
330
B0F1
102
}
330
B0F1
100
AcDbVisualStyle
  2
ColorChange
 70
    16
 71
     2
 72
     2
 73
     3
 90
        0
 40
-0.6
 41
-30.0
 62
     5
 63
     8
 74
     1
 91
        4
 64
     7
 65
   257
 75
     1
175
     1
 42
1.0
 92
        8
 66
     8
 43
1.0
 76
     1
 77
     6
 78
     2
 67
     7
 79
     5
170
     0
171
     0
290
     0
174
     0
 93
        1
 44
0.0
173
     0
291
     1
 45
0.0
1001
ACAD
1000
AcDbSavedByObjectVersion
1070
     0
  0
VISUALSTYLE
  5
B0FA
102
{ACAD_REACTORS
330
B0F1
102
}
330
B0F1
100
AcDbVisualStyle
  2
Conceptual
 70
     9
 71
     3
 72
     2
 73
     0
 90
        0
 40
-0.6
 41
-30.0
 62
     5
 63
     7
 74
     2
 91
        2
 64
     7
 65
   257
 75
     1
175
     1
 42
40.0
 92
        8
 66
     7
 43
1.0
 76
     1
 77
     6
 78
     2
 67
     7
 79
     3
170
     0
171
     0
290
     0
174
     0
 93
        1
 44
0.0
173
     0
291
     0
 45
0.0
1001
ACAD
1000
AcDbSavedByObjectVersion
1070
     0
  0
VISUALSTYLE
  5
B0FC
102
{ACAD_REACTORS
330
B0F1
102
}
330
B0F1
100
AcDbVisualStyle
  2
Dim
 70
    11
 71
     2
 72
     2
 73
     0
 90
        0
 40
-0.6
 41
-30.0
 62
     5
 63
     7
 74
     1
 91
        4
 64
     7
 65
   257
 75
     1
175
     1
 42
1.0
 92
        8
 66
     7
 43
1.0
 76
     1
 77
     6
 78
     2
 67
     7
 79
     5
170
     0
171
     0
290
     0
174
     0
 93
        1
 44
-50.0
173
     0
291
     1
 45
0.0
1001
ACAD
1000
AcDbSavedByObjectVersion
1070
     0
  0
VISUALSTYLE
  5
B100
102
{ACAD_REACTORS
330
B0F1
102
}
330
B0F1
100
AcDbVisualStyle
  2
Facepattern
 70
    15
 71
     2
 72
     2
 73
     0
 90
        0
 40
-0.6
 41
-30.0
 62
     5
 63
     7
 74
     1
 91
        4
 64
     7
 65
   257
 75
     1
175
     1
 42
1.0
 92
        8
 66
     7
 43
1.0
 76
     1
 77
     6
 78
     2
 67
     7
 79
     5
170
     0
171
     0
290
     0
174
     0
 93
        1
 44
0.0
173
     0
291
     1
 45
0.0
1001
ACAD
1000
AcDbSavedByObjectVersion
1070
     0
  0
VISUALSTYLE
  5
B0F2
102
{ACAD_REACTORS
330
B0F1
102
}
330
B0F1
100
AcDbVisualStyle
  2
Flat
 70
     0
 71
     2
 72
     1
 73
     1
 90
        2
 40
-0.6
 41
30.0
 62
     5
 63
     7
 74
     0
 91
        4
 64
     7
 65
   257
 75
     1
175
     1
 42
1.0
 92
        8
 66
     7
 43
1.0
 76
     1
 77
     6
 78
     2
 67
     7
 79
     5
170
     0
171
     0
290
     0
174
     0
 93
       13
 44
0.0
173
     0
291
     1
 45
0.0
1001
ACAD
1000
AcDbSavedByObjectVersion
1070
     0
  0
VISUALSTYLE
  5
B0F3
102
{ACAD_REACTORS
330
B0F1
102
}
330
B0F1
100
AcDbVisualStyle
  2
FlatWithEdges
 70
     1
 71
     2
 72
     1
 73
     1
 90
        2
 40
-0.6
 41
30.0
 62
     5
 63
     7
 74
     1
 91
        4
 64
     7
 65
   257
 75
     1
175
     1
 42
1.0
 92
        0
 66
   257
 43
1.0
 76
     1
 77
     6
 78
     2
 67
     7
 79
     5
170
     0
171
     0
290
     0
174
     0
 93
       13
 44
0.0
173
     0
291
     1
 45
0.0
1001
ACAD
1000
AcDbSavedByObjectVersion
1070
     0
  0
VISUALSTYLE
  5
B0F4
102
{ACAD_REACTORS
330
B0F1
102
}
330
B0F1
100
AcDbVisualStyle
  2
Gouraud
 70
     2
 71
     2
 72
     2
 73
     1
 90
        2
 40
-0.6
 41
30.0
 62
     5
 63
     7
 74
     0
 91
        4
 64
     7
 65
   257
 75
     1
175
     1
 42
1.0
 92
        0
 66
     7
 43
1.0
 76
     1
 77
     6
 78
     2
 67
     7
 79
     5
170
     0
171
     0
290
     0
174
     0
 93
       13
 44
0.0
173
     0
291
     1
 45
0.0
1001
ACAD
1000
AcDbSavedByObjectVersion
1070
     0
  0
VISUALSTYLE
  5
B0F5
102
{ACAD_REACTORS
330
B0F1
102
}
330
B0F1
100
AcDbVisualStyle
  2
GouraudWithEdges
 70
     3
 71
     2
 72
     2
 73
     1
 90
        2
 40
-0.6
 41
30.0
 62
     5
 63
     7
 74
     1
 91
        4
 64
     7
 65
   257
 75
     1
175
     1
 42
1.0
 92
        0
 66
   257
 43
1.0
 76
     1
 77
     6
 78
     2
 67
     7
 79
     5
170
     0
171
     0
290
     0
174
     0
 93
       13
 44
0.0
173
     0
291
     1
 45
0.0
1001
ACAD
1000
AcDbSavedByObjectVersion
1070
     0
  0
VISUALSTYLE
  5
B0FF
102
{ACAD_REACTORS
330
B0F1
102
}
330
B0F1
100
AcDbVisualStyle
  2
Linepattern
 70
    14
 71
     2
 72
     2
 73
     0
 90
        0
 40
-0.6
 41
-30.0
 62
     5
 63
     7
 74
     1
 91
        4
 64
     7
 65
   257
 75
     7
175
     7
 42
1.0
 92
        8
 66
     7
 43
1.0
 76
     1
 77
     6
 78
     2
 67
     7
 79
     5
170
     0
171
     0
290
     0
174
     0
 93
        1
 44
0.0
173
     0
291
     1
 45
0.0
1001
ACAD
1000
AcDbSavedByObjectVersion
1070
     0
  0
VISUALSTYLE
  5
B0FB
102
{ACAD_REACTORS
330
B0F1
102
}
330
B0F1
100
AcDbVisualStyle
  2
Realistic
 70
     8
 71
     2
 72
     2
 73
     0
 90
        0
 40
-0.6
 41
-30.0
 62
     5
 63
     7
 74
     1
 91
        0
 64
     7
 65
   257
 75
     1
175
     1
 42
1.0
 92
        8
 66
     8
 43
1.0
 76
     1
 77
     6
 78
     2
 67
     7
 79
     5
170
     0
171
     0
290
     0
174
     0
 93
       13
 44
0.0
173
     0
291
     0
 45
0.0
1001
ACAD
1000
AcDbSavedByObjectVersion
1070
     0
  0
VISUALSTYLE
  5
B0FE
102
{ACAD_REACTORS
330
B0F1
102
}
330
B0F1
100
AcDbVisualStyle
  2
Thicken
 70
    13
 71
     2
 72
     2
 73
     0
 90
        0
 40
-0.6
 41
-30.0
 62
     5
 63
     7
 74
     1
 91
        4
 64
     7
 65
   257
 75
     1
175
     1
 42
1.0
 92
       12
 66
     7
 43
1.0
 76
     1
 77
     6
 78
     2
 67
     7
 79
     5
170
     0
171
     0
290
     0
174
     0
 93
        1
 44
0.0
173
     0
291
     1
 45
0.0
1001
ACAD
1000
AcDbSavedByObjectVersion
1070
     0
  0
DICTIONARYVAR
  5
AAF3
102
{ACAD_REACTORS
330
34
102
}
330
34
100
DictionaryVariables
280
     0
  1
STANDARD
  0
DICTIONARYVAR
  5
A10C
102
{ACAD_REACTORS
330
34
102
}
330
34
100
DictionaryVariables
280
     0
  1
1
  0
DICTIONARYVAR
  5
AB07
102
{ACAD_REACTORS
330
34
102
}
330
34
100
DictionaryVariables
280
     0
  1
4
  0
DICTIONARYVAR
  5
35
102
{ACAD_REACTORS
330
34
102
}
330
34
100
DictionaryVariables
280
     0
  1
0
  0
DICTIONARYVAR
  5
194C
102
{ACAD_REACTORS
330
34
102
}
330
34
100
DictionaryVariables
280
     0
  1
96
  0
DICTIONARY
  5
7E8
102
{ACAD_REACTORS
330
47
102
}
330
47
100
AcDbDictionary
281
     1
  0
DICTIONARY
  5
4C
102
{ACAD_REACTORS
330
47
102
}
330
47
100
AcDbDictionary
281
     1
  0
XRECORD
  5
A929
102
{ACAD_REACTORS
330
47
102
}
330
47
100
AcDbXrecord
280
     1
 90
-1023410169
  0
XRECORD
  5
B332
102
{ACAD_REACTORS
330
B331
102
}
330
B331
100
AcDbXrecord
280
     1
  0
XRECORD
  5
3FB7
102
{ACAD_REACTORS
330
3F96
102
}
330
3F96
100
AcDbXrecord
280
     1
 91
        3
330
0
 90
        8
 62
     7
370
    40
331
16
  1
Color_7
330
0
 90
        0
 62
    14
370
    -3
331
16
  1
Color_14
330
0
 90
        8
 62
     7
370
    20
331
16
  1
Color_7
330
6D1
 90
        0
 62
     7
370
    -3
331
16
  1
Color_7
330
0
 90
        8
 62
     7
370
    50
331
16
  1
Color_7
330
0
 90
        8
 62
     2
370
    35
331
16
  1
Color_2
330
0
 90
        8
 62
     7
370
    -3
331
16
  1
Color_7
330
10
 90
        8
 62
     7
370
    -3
331
16
  1
Color_7
  0
DICTIONARY
  5
BBCD
330
22
100
AcDbDictionary
280
     1
281
     1
  3
ACAD_XREC_ROUNDTRIP
360
BBCE
  0
DICTIONARY
  5
BBCB
330
1E
100
AcDbDictionary
280
     1
281
     1
  3
ACAD_XREC_ROUNDTRIP
360
BBCC
  0
DICTIONARY
  5
BBCF
330
26
100
AcDbDictionary
280
     1
281
     1
  3
ACAD_XREC_ROUNDTRIP
360
BBD0
  0
DICTIONARY
  5
BBD5
330
B0EF
100
AcDbDictionary
280
     1
281
     1
  3
ACAD_XREC_ROUNDTRIP
360
BBD6
  0
DICTIONARY
  5
BBD3
330
B0EE
100
AcDbDictionary
280
     1
281
     1
  3
ACAD_XREC_ROUNDTRIP
360
BBD4
  0
DICTIONARY
  5
BBD7
330
B0F0
100
AcDbDictionary
280
     1
281
     1
  3
ACAD_XREC_ROUNDTRIP
360
BBD8
  0
DICTIONARY
  5
BBD1
330
AABA
100
AcDbDictionary
280
     1
281
     1
  3
ACAD_XREC_ROUNDTRIP
360
BBD2
  0
XRECORD
  5
BBCE
102
{ACAD_REACTORS
330
BBCD
102
}
330
BBCD
100
AcDbXrecord
280
     1
102
SHADEPLOT
 70
     0
102
SHADEPLOTRESLEVEL
 70
     2
102
SHADEPLOTCUSTOMDPI
 70
   200
  0
XRECORD
  5
BBCC
102
{ACAD_REACTORS
330
BBCB
102
}
330
BBCB
100
AcDbXrecord
280
     1
102
SHADEPLOT
 70
     0
102
SHADEPLOTRESLEVEL
 70
     2
102
SHADEPLOTCUSTOMDPI
 70
   300
  0
XRECORD
  5
BBD0
102
{ACAD_REACTORS
330
BBCF
102
}
330
BBCF
100
AcDbXrecord
280
     1
102
SHADEPLOT
 70
     0
102
SHADEPLOTRESLEVEL
 70
     2
102
SHADEPLOTCUSTOMDPI
 70
   300
  0
XRECORD
  5
BBD6
102
{ACAD_REACTORS
330
BBD5
102
}
330
BBD5
100
AcDbXrecord
280
     1
102
MATERIAL
148
0.0
149
0.0
149
0.0
 93
        0
 94
       63
282
     0
 72
     1
 77
     1
171
     1
175
     1
179
     1
273
     0
  0
XRECORD
  5
BBD4
102
{ACAD_REACTORS
330
BBD3
102
}
330
BBD3
100
AcDbXrecord
280
     1
102
MATERIAL
148
0.0
149
0.0
149
0.0
 93
        0
 94
       63
282
     0
 72
     1
 77
     1
171
     1
175
     1
179
     1
273
     0
  0
XRECORD
  5
BBD8
102
{ACAD_REACTORS
330
BBD7
102
}
330
BBD7
100
AcDbXrecord
280
     1
102
MATERIAL
148
0.0
149
0.0
149
0.0
 93
        0
 94
       63
282
     0
 72
     1
 77
     1
171
     1
175
     1
179
     1
273
     0
  0
XRECORD
  5
BBD2
102
{ACAD_REACTORS
330
BBD1
102
}
330
BBD1
100
AcDbXrecord
280
     1
102
ACAD_ROUNDTRIP_PRE2007_TABLESTYLE
 90
        4
 91
        0
  1

 92
        4
 93
        0
  2

 94
        4
 95
        0
  3

  0
ENDSEC
  0
EOF
