  0
SECTION
  2
HEADER
  9
$ACADVER
  1
AC1015
  9
$ACADMAINTVER
 70
    20
  9
$DWGCODEPAGE
  3
ANSI_932
  9
$INSBASE
 10
0.0
 20
0.0
 30
0.0
  9
$EXTMIN
 10
633.1340215392688
 20
291.2105166547831
 30
-0.0015258207003583
  9
$EXTMAX
 10
1014.178966059302
 20
564.2612251673646
 30
0.0000000349246037
  9
$LIMMIN
 10
219.4956354736257
 20
-100.0
  9
$LIMMAX
 10
627.9956354736257
 20
188.5
  9
$ORTHOMODE
 70
     0
  9
$REGENMODE
 70
     1
  9
$FILLMODE
 70
     1
  9
$QTEXTMODE
 70
     0
  9
$MIRRTEXT
 70
     1
  9
$LTSCALE
 40
1.0
  9
$ATTMODE
 70
     1
  9
$TEXTSIZE
 40
3.2
  9
$TRACEWID
 40
1.0
  9
$TEXTSTYLE
  7
STANDARD
  9
$CLAYER
  8
AM_0
  9
$CELTYPE
  6
ByLayer
  9
$CECOLOR
 62
   256
  9
$CELTSCALE
 40
1.0
  9
$DISPSILH
 70
     0
  9
$DIMSCALE
 40
1.0
  9
$DIMASZ
 40
1.0
  9
$DIMEXO
 40
1.0
  9
$DIMDLI
 40
10.0
  9
$DIMRND
 40
0.0
  9
$DIMDLE
 40
0.0
  9
$DIMEXE
 40
1.0
  9
$DIMTP
 40
0.2
  9
$DIMTM
 40
0.2
  9
$DIMTXT
 40
3.5
  9
$DIMCEN
 40
0.0
  9
$DIMTSZ
 40
0.0
  9
$DIMTOL
 70
     1
  9
$DIMLIM
 70
     0
  9
$DIMTIH
 70
     0
  9
$DIMTOH
 70
     0
  9
$DIMSE1
 70
     0
  9
$DIMSE2
 70
     0
  9
$DIMTAD
 70
     1
  9
$DIMZIN
 70
     8
  9
$DIMBLK
  1
Dot
  9
$DIMASO
 70
     1
  9
$DIMSHO
 70
     1
  9
$DIMPOST
  1

  9
$DIMAPOST
  1
"
  9
$DIMALT
 70
     0
  9
$DIMALTD
 70
     2
  9
$DIMALTF
 40
0.0393701
  9
$DIMLFAC
 40
1.0
  9
$DIMTOFL
 70
     1
  9
$DIMTVP
 40
0.0
  9
$DIMTIX
 70
     0
  9
$DIMSOXD
 70
     0
  9
$DIMSAH
 70
     1
  9
$DIMBLK1
  1

  9
$DIMBLK2
  1

  9
$DIMSTYLE
  2
SYS
  9
$DIMCLRD
 70
   256
  9
$DIMCLRE
 70
   256
  9
$DIMCLRT
 70
     7
  9
$DIMTFAC
 40
0.6
  9
$DIMGAP
 40
1.5
  9
$DIMJUST
 70
     0
  9
$DIMSD1
 70
     0
  9
$DIMSD2
 70
     0
  9
$DIMTOLJ
 70
     0
  9
$DIMTZIN
 70
     8
  9
$DIMALTZ
 70
     0
  9
$DIMALTTZ
 70
     0
  9
$DIMUPT
 70
     0
  9
$DIMDEC
 70
     1
  9
$DIMTDEC
 70
     1
  9
$DIMALTU
 70
     2
  9
$DIMALTTD
 70
     2
  9
$DIMTXSTY
  7
STANDARD
  9
$DIMAUNIT
 70
     0
  9
$DIMADEC
 70
     0
  9
$DIMALTRND
 40
0.0
  9
$DIMAZIN
 70
     2
  9
$DIMDSEP
 70
    46
  9
$DIMATFIT
 70
     3
  9
$DIMFRAC
 70
     0
  9
$DIMLDRBLK
  1
OPEN30
  9
$DIMLUNIT
 70
     2
  9
$DIMLWD
 70
    -1
  9
$DIMLWE
 70
    -1
  9
$DIMTMOVE
 70
     0
  9
$LUNITS
 70
     2
  9
$LUPREC
 70
     2
  9
$SKETCHINC
 40
1.0
  9
$FILLETRAD
 40
5.0
  9
$AUNITS
 70
     0
  9
$AUPREC
 70
     0
  9
$MENU
  1
.
  9
$ELEVATION
 40
0.0
  9
$PELEVATION
 40
0.0
  9
$THICKNESS
 40
0.0
  9
$LIMCHECK
 70
     0
  9
$CHAMFERA
 40
0.5
  9
$CHAMFERB
 40
0.5
  9
$CHAMFERC
 40
20.0
  9
$CHAMFERD
 40
0.0
  9
$SKPOLY
 70
     0
  9
$TDCREATE
 40
2452002.615067627
  9
$TDUCREATE
 40
2452002.240067627
  9
$TDUPDATE
 40
2455348.449141528
  9
$TDUUPDATE
 40
2455348.074141528
  9
$TDINDWG
 40
11.0496389236
  9
$TDUSRTIMER
 40
11.0496382060
  9
$USRTIMER
 70
     1
  9
$ANGBASE
 50
0.0
  9
$ANGDIR
 70
     0
  9
$PDMODE
 70
     0
  9
$PDSIZE
 40
0.0
  9
$PLINEWID
 40
0.0
  9
$SPLFRAME
 70
     0
  9
$SPLINETYPE
 70
     6
  9
$SPLINESEGS
 70
     8
  9
$HANDSEED
  5
1834F
  9
$SURFTAB1
 70
     6
  9
$SURFTAB2
 70
     6
  9
$SURFTYPE
 70
     6
  9
$SURFU
 70
     6
  9
$SURFV
 70
     6
  9
$UCSBASE
  2

  9
$UCSNAME
  2

  9
$UCSORG
 10
0.0
 20
0.0
 30
0.0
  9
$UCSXDIR
 10
1.0
 20
0.0
 30
0.0
  9
$UCSYDIR
 10
0.0
 20
1.0
 30
0.0
  9
$UCSORTHOREF
  2

  9
$UCSORTHOVIEW
 70
     0
  9
$UCSORGTOP
 10
0.0
 20
0.0
 30
0.0
  9
$UCSORGBOTTOM
 10
0.0
 20
0.0
 30
0.0
  9
$UCSORGLEFT
 10
0.0
 20
0.0
 30
0.0
  9
$UCSORGRIGHT
 10
0.0
 20
0.0
 30
0.0
  9
$UCSORGFRONT
 10
0.0
 20
0.0
 30
0.0
  9
$UCSORGBACK
 10
0.0
 20
0.0
 30
0.0
  9
$PUCSBASE
  2

  9
$PUCSNAME
  2

  9
$PUCSORG
 10
0.0
 20
0.0
 30
0.0
  9
$PUCSXDIR
 10
1.0
 20
0.0
 30
0.0
  9
$PUCSYDIR
 10
0.0
 20
1.0
 30
0.0
  9
$PUCSORTHOREF
  2

  9
$PUCSORTHOVIEW
 70
     0
  9
$PUCSORGTOP
 10
0.0
 20
0.0
 30
0.0
  9
$PUCSORGBOTTOM
 10
0.0
 20
0.0
 30
0.0
  9
$PUCSORGLEFT
 10
0.0
 20
0.0
 30
0.0
  9
$PUCSORGRIGHT
 10
0.0
 20
0.0
 30
0.0
  9
$PUCSORGFRONT
 10
0.0
 20
0.0
 30
0.0
  9
$PUCSORGBACK
 10
0.0
 20
0.0
 30
0.0
  9
$USERI1
 70
     0
  9
$USERI2
 70
     0
  9
$USERI3
 70
     0
  9
$USERI4
 70
     0
  9
$USERI5
 70
     0
  9
$USERR1
 40
0.0
  9
$USERR2
 40
0.0
  9
$USERR3
 40
0.0
  9
$USERR4
 40
0.0
  9
$USERR5
 40
0.0
  9
$WORLDVIEW
 70
     1
  9
$SHADEDGE
 70
     3
  9
$SHADEDIF
 70
    70
  9
$TILEMODE
 70
     1
  9
$MAXACTVP
 70
    64
  9
$PINSBASE
 10
0.0
 20
0.0
 30
0.0
  9
$PLIMCHECK
 70
     0
  9
$PEXTMIN
 10
1.000000000000000E+20
 20
1.000000000000000E+20
 30
1.000000000000000E+20
  9
$PEXTMAX
 10
-1.000000000000000E+20
 20
-1.000000000000000E+20
 30
-1.000000000000000E+20
  9
$PLIMMIN
 10
-3.17498779296875
 20
-3.174999952316282
  9
$PLIMMAX
 10
293.4970092773438
 20
206.692492723465
  9
$UNITMODE
 70
     0
  9
$VISRETAIN
 70
     1
  9
$PLINEGEN
 70
     0
  9
$PSLTSCALE
 70
     1
  9
$TREEDEPTH
 70
  3020
  9
$CMLSTYLE
  2
Standard
  9
$CMLJUST
 70
     0
  9
$CMLSCALE
 40
20.0
  9
$PROXYGRAPHICS
 70
     1
  9
$MEASUREMENT
 70
     1
  9
$CELWEIGHT
370
    -1
  9
$ENDCAPS
280
     0
  9
$JOINSTYLE
280
     0
  9
$LWDISPLAY
290
     0
  9
$INSUNITS
 70
     4
  9
$HYPERLINKBASE
  1

  9
$STYLESHEET
  1
monochrome.ctb
  9
$XEDIT
290
     1
  9
$CEPSNTYPE
380
     0
  9
$PSTYLEMODE
290
     1
  9
$FINGERPRINTGUID
  2
{83FB3AA1-FF18-4BFE-AFE0-611B71DE056D}
  9
$VERSIONGUID
  2
{028B897A-AEF2-4DCD-97F1-315423FF9859}
  9
$EXTNAMES
290
     1
  9
$PSVPSCALE
 40
0.0
  9
$OLESTARTUP
290
     0
  0
ENDSEC
  0
SECTION
  2
CLASSES
  0
CLASS
  1
ACDBDICTIONARYWDFLT
  2
AcDbDictionaryWithDefault
  3
ObjectDBX Classes
 90
        0
280
     0
281
     0
  0
CLASS
  1
ACDBPLACEHOLDER
  2
AcDbPlaceHolder
  3
ObjectDBX Classes
 90
        0
280
     0
281
     0
  0
CLASS
  1
LAYOUT
  2
AcDbLayout
  3
ObjectDBX Classes
 90
        0
280
     0
281
     0
  0
CLASS
  1
AMGSETTINGSOBJ
  2
AmgSettingsObj
  3
"AcadM|Product Description: AutoCAD Mechanical|Company: Autodesk"
 90
        0
280
     0
281
     0
  0
CLASS
  1
ACME_DOCUMENT
  2
AcMeDbDoc
  3
AcMeServices
 90
        0
280
     0
281
     0
  0
CLASS
  1
ACMESCOPE
  2
AcMeScope
  3
AcMeServices
 90
        0
280
     0
281
     0
  0
CLASS
  1
ACMECOMMANDHISTORY
  2
AcMeCommandHistory
  3
AcMeServices
 90
        0
280
     0
281
     0
  0
CLASS
  1
DICTIONARYVAR
  2
AcDbDictionaryVar
  3
ObjectDBX Classes
 90
        0
280
     0
281
     0
  0
CLASS
  1
ACIMSYSVARMAN
  2
AcImSysVarManager
  3
AcMeServices
 90
        0
280
     0
281
     0
  0
CLASS
  1
ACIMREALSYSVAR
  2
AcImRealSysVar
  3
AcMeServices
 90
        0
280
     0
281
     0
  0
CLASS
  1
ACIMINTSYSVAR
  2
AcImIntSysVar
  3
AcMeServices
 90
        0
280
     0
281
     0
  0
CLASS
  1
ACMEDRAWINGMAN
  2
AcMeDrawingMan
  3
AcMeServices
 90
        0
280
     0
281
     0
  0
CLASS
  1
ACMEVIEW
  2
AcMeView
  3
AcMeServices
 90
        0
280
     0
281
     0
  0
CLASS
  1
ACDBENTITYCACHE
  2
AcMeEntityCache
  3
AcMeServices
 90
        0
280
     0
281
     0
  0
CLASS
  1
GSMANAGER
  2
AcMeGSManager
  3
AcMeServices
 90
        0
280
     0
281
     0
  0
CLASS
  1
AMDTINTERNALREACTOR
  2
AmdtInternalReactor
  3
AcMeServices
 90
        0
280
     0
281
     0
  0
CLASS
  1
ACMESTATEMGR
  2
AcMeStateMgr
  3
AcMeServices
 90
        0
280
     0
281
     0
  0
CLASS
  1
ACGREFMASTER
  2
AcGrefMaster
  3
AcAttribServices
 90
        0
280
     0
281
     0
  0
CLASS
  1
ACME_DATABASE
  2
AcMeDbDatabase
  3
AcMeServices
 90
        0
280
     0
281
     0
  0
CLASS
  1
ACRFINSADJUSTERMGR
  2
AcRfInsAdjusterMgr
  3
AcMeServices
 90
        0
280
     0
281
     0
  0
CLASS
  1
ACGREFACADMASTER
  2
AcGrefacadMaster
  3
AcGrefServices
 90
        0
280
     0
281
     0
  0
CLASS
  1
AMIMASTER
  2
AmiMaster
  3
AmiServices
 90
        0
280
     0
281
     0
  0
CLASS
  1
ACMDATADICTIONARY
  2
AcmDataDictionary
  3
"AcmSymBB|Product Description: AutoCAD Mechanical|Company: Autodesk"
 90
        0
280
     0
281
     0
  0
CLASS
  1
ACMDATAENTRYBLOCK
  2
AcmDataEntryBlock
  3
"AcmSymBB|Product Description: AutoCAD Mechanical|Company: Autodesk"
 90
    32768
280
     0
281
     0
  0
CLASS
  1
ACIMSTRSYSVAR
  2
AcImStrSysVar
  3
AcMeServices
 90
        0
280
     0
281
     0
  0
CLASS
  1
ACMSTANDARDISO
  2
AcmStandardISO
  3
"Amdt_StdImp|Product Description: AutoCAD Mechanical|Company: Autodesk"
 90
        0
280
     0
281
     0
  0
CLASS
  1
AMGOBJPROPCFG
  2
AmgObjPropCfg
  3
"AmgLay|Product Description: AutoCAD Mechanical|Company: Autodesk"
 90
        1
280
     0
281
     0
  0
CLASS
  1
AMDTEDGESTANDARDISO
  2
AmdtEdgeStdISO
  3
"Amdt_StdImp|Product Description: AutoCAD Mechanical|Company: Autodesk"
 90
    32768
280
     0
281
     0
  0
CLASS
  1
ACMSURFSTANDARDISO
  2
AcmSurfTextStdISO
  3
"Amdt_StdImp|Product Description: AutoCAD Mechanical|Company: Autodesk"
 90
        0
280
     0
281
     0
  0
CLASS
  1
ACMFCFSTANDARDISO
  2
AcmFCFStdISO
  3
"Amdt_StdImp|Product Description: AutoCAD Mechanical|Company: Autodesk"
 90
        0
280
     0
281
     0
  0
CLASS
  1
ACMWELDSTANDARDISO
  2
AcmWeldingStdISO
  3
"Amdt_StdImp|Product Description: AutoCAD Mechanical|Company: Autodesk"
 90
        0
280
     0
281
     0
  0
CLASS
  1
ACMIDSTANDARDISO
  2
AcmIdStdISO
  3
"Amdt_StdImp|Product Description: AutoCAD Mechanical|Company: Autodesk"
 90
        0
280
     0
281
     0
  0
CLASS
  1
ACMDATUMSTANDARDISO
  2
AcmDatumStdISO
  3
"Amdt_StdImp|Product Description: AutoCAD Mechanical|Company: Autodesk"
 90
        0
280
     0
281
     0
  0
CLASS
  1
ACMBOMSTANDARDISO
  2
AcmBOMStdISO
  3
"Amdt_StdImp|Product Description: AutoCAD Mechanical|Company: Autodesk"
 90
        0
280
     0
281
     0
  0
CLASS
  1
ACMDETAILSTANDARDISO
  2
AmdtDetailSymStdISO
  3
"Amdt_StdImp|Product Description: AutoCAD Mechanical|Company: Autodesk"
 90
        0
280
     0
281
     0
  0
CLASS
  1
ACMSECTIONSTANDARDISO
  2
AmdtSectionSymStdISO
  3
"Amdt_StdImp|Product Description: AutoCAD Mechanical|Company: Autodesk"
 90
        0
280
     0
281
     0
  0
CLASS
  1
ACMCENTERLINESTANDARDISO
  2
AmdtCenterLineStdISO
  3
"Amdt_StdImp|Product Description: AutoCAD Mechanical|Company: Autodesk"
 90
        0
280
     0
281
     0
  0
CLASS
  1
ACAMGLAYSTD
  2
AcAmgLayStd
  3
"AmgLay|Product Description: AutoCAD Mechanical|Company: Autodesk"
 90
        0
280
     0
281
     0
  0
CLASS
  1
ACAMGDIMSTD
  2
AcAmgDimStd
  3
"AmgDim|Product Description: AutoCAD Mechanical|Company: Autodesk"
 90
        0
280
     0
281
     0
  0
CLASS
  1
ACAMGTITLESTD
  2
AcAmgTitleStd
  3
"AmgTitle|Product Description: AutoCAD Mechanical|Company: Autodesk"
 90
        0
280
     0
281
     0
  0
CLASS
  1
ACAMGFILTERDAT
  2
AcAmgFilterDat
  3
"AcadM|Product Description: AutoCAD Mechanical|Company: Autodesk"
 90
    32768
280
     0
281
     0
  0
CLASS
  1
LAYER_INDEX
  2
AcDbLayerIndex
  3
ObjectDBX Classes
 90
    32768
280
     0
281
     0
  0
CLASS
  1
IDBUFFER
  2
AcDbIdBuffer
  3
ObjectDBX Classes
 90
    32768
280
     0
281
     0
  0
CLASS
  1
PLOTSETTINGS
  2
AcDbPlotSettings
  3
ObjectDBX Classes
 90
        0
280
     0
281
     0
  0
CLASS
  1
AMDTFORMULAUPDATEDISPATCHER
  2
AmdtFormulaUpdateDispatcher
  3
AcMeServices
 90
    32768
280
     0
281
     0
  0
CLASS
  1
ACMSTANDARDANSI
  2
AcmStandardANSI
  3
"Amdt_StdImp|Product Description: AutoCAD Mechanical|Company: Autodesk"
 90
    32768
280
     0
281
     0
  0
CLASS
  1
ACMSURFSTANDARDANSI
  2
AcmSurfTextStdANSI
  3
"Amdt_StdImp|Product Description: AutoCAD Mechanical|Company: Autodesk"
 90
    32768
280
     0
281
     0
  0
CLASS
  1
ACMFCFSTANDARDANSI
  2
AcmFCFStdANSI
  3
"Amdt_StdImp|Product Description: AutoCAD Mechanical|Company: Autodesk"
 90
    32768
280
     0
281
     0
  0
CLASS
  1
ACMWELDSTANDARDANSI
  2
AcmWeldingStdANSI
  3
"Amdt_StdImp|Product Description: AutoCAD Mechanical|Company: Autodesk"
 90
    32768
280
     0
281
     0
  0
CLASS
  1
ACMIDSTANDARDANSI
  2
AcmIdStdANSI
  3
"Amdt_StdImp|Product Description: AutoCAD Mechanical|Company: Autodesk"
 90
    32768
280
     0
281
     0
  0
CLASS
  1
ACMDATUMSTANDARDANSI
  2
AcmDatumStdANSI
  3
"Amdt_StdImp|Product Description: AutoCAD Mechanical|Company: Autodesk"
 90
    32768
280
     0
281
     0
  0
CLASS
  1
ACMBOMSTANDARDANSI
  2
AcmBOMStdANSI
  3
"Amdt_StdImp|Product Description: AutoCAD Mechanical|Company: Autodesk"
 90
    32768
280
     0
281
     0
  0
CLASS
  1
ACMDETAILSTANDARDANSI
  2
AmdtDetailSymStdANSI
  3
"Amdt_StdImp|Product Description: AutoCAD Mechanical|Company: Autodesk"
 90
    32768
280
     0
281
     0
  0
CLASS
  1
ACMSECTIONSTANDARDANSI
  2
AmdtSectionSymStdANSI
  3
"Amdt_StdImp|Product Description: AutoCAD Mechanical|Company: Autodesk"
 90
    32768
280
     0
281
     0
  0
CLASS
  1
ACMCENTERLINESTANDARDANSI
  2
AmdtCenterLineStdANSI
  3
"Amdt_StdImp|Product Description: AutoCAD Mechanical|Company: Autodesk"
 90
    32768
280
     0
281
     0
  0
CLASS
  1
ACMBOM
  2
AcmBom
  3
"AcmSymBB|Product Description: AutoCAD Mechanical|Company: Autodesk"
 90
    32768
280
     0
281
     0
  0
CLASS
  1
ACMDATAENTRYPART
  2
AcmDataEntryPart
  3
"AcmSymBB|Product Description: AutoCAD Mechanical|Company: Autodesk"
 90
    32768
280
     0
281
     0
  0
CLASS
  1
ACMPARTREF
  2
AcmPartRef
  3
"AcmSymBB|Product Description: AutoCAD Mechanical|Company: Autodesk"
 90
    35839
280
     0
281
     1
  0
CLASS
  1
ACDBCIRCARCRES
  2
AcDbCircArcRes
  3
AcGrefServices
 90
    32768
280
     0
281
     0
  0
CLASS
  1
ACMBOMROW
  2
AcmBomRow
  3
"AcmSymBB|Product Description: AutoCAD Mechanical|Company: Autodesk"
 90
    32768
280
     0
281
     0
  0
CLASS
  1
ACMBALLOON
  2
AcmBalloon
  3
"AcmSymBB|Product Description: AutoCAD Mechanical|Company: Autodesk"
 90
    35839
280
     0
281
     1
  0
CLASS
  1
AMDTNOTE
  2
AmdtNote
  3
"AcmSymBB|Product Description: AutoCAD Mechanical|Company: Autodesk"
 90
    35839
280
     0
281
     1
  0
CLASS
  1
STDPART2D
  2
AmgStdPart
  3
"AmgStdPart|Product Description: AutoCAD Mechanical|Company: Autodesk"
 90
    35839
280
     0
281
     1
  0
CLASS
  1
ACDBSTDPARTRES_LINE
  2
AcDbStdPartRes_Line
  3
"AmgStdPart|Product Description: AutoCAD Mechanical|Company: Autodesk"
 90
    32768
280
     0
281
     0
  0
CLASS
  1
ACMDATAENTRY
  2
AcmDataEntry
  3
"AcmSymBB|Product Description: AutoCAD Mechanical|Company: Autodesk"
 90
    32768
280
     0
281
     0
  0
CLASS
  1
ACDBOPPOLYLINERES
  2
AcDbOpPolylineRes
  3
AcGrefServices
 90
    32768
280
     0
281
     0
  0
CLASS
  1
ACMPARTLIST
  2
AcmPartList
  3
"AcmSymBB|Product Description: AutoCAD Mechanical|Company: Autodesk"
 90
    35839
280
     0
281
     1
  0
CLASS
  1
ACDBLINERES
  2
AcDbLineRes
  3
AcGrefServices
 90
    32768
280
     0
281
     0
  0
CLASS
  1
ACRFINSADJ
  2
AcRfInsAdjuster
  3
AcMeServices
 90
    32768
280
     0
281
     0
  0
CLASS
  1
AM_DRAWING_MGR
  2
AcDmDwgMgr
  3
AcMechDwgViewMgmt
 90
        0
280
     0
281
     0
  0
CLASS
  1
AM_DWG_DOCUMENT
  2
AcDmDwgDocument
  3
AcMechDwgViewMgmt
 90
        0
280
     0
281
     0
  0
CLASS
  1
AM_DWG_SHEET
  2
AcDmSheet
  3
AcMechDwgViewMgmt
 90
        0
280
     0
281
     0
  0
CLASS
  1
AM_VIEWDIMPARMAP
  2
AcDmViewDimParMap
  3
AcMechDwgViewMgmt
 90
        0
280
     0
281
     0
  0
CLASS
  1
AM_DWGMGR_NAME
  2
AcDmDwgMgrName
  3
AcMechDwgViewMgmt
 90
        0
280
     0
281
     0
  0
CLASS
  1
AMDTMENUSTATEMGR
  2
AmdtMenuStateMgr
  3
McadcomServices
 90
        0
280
     0
281
     0
  0
CLASS
  1
AMDTMCOMMENUSTATE
  2
AmdtMcomMenuState
  3
McadcomServices
 90
        0
280
     0
281
     0
  0
CLASS
  1
ASAPP
  2
AcAsAppObject
  3
AutoSurfServices
 90
        0
280
     0
281
     0
  0
CLASS
  1
IM_STATIC_MAN
  2
AcImStaticVarManager
  3
AcMeServices
 90
    32768
280
     0
281
     0
  0
CLASS
  1
ACIMDBLSTATICVAR
  2
AcImDblStaticVar
  3
AcMeServices
 90
    32768
280
     0
281
     0
  0
CLASS
  1
ACIMSTRSTATICVAR
  2
AcImStrStaticVar
  3
AcMeServices
 90
    32768
280
     0
281
     0
  0
CLASS
  1
ACIMINTSTATICVAR
  2
AcImIntStaticVar
  3
AcMeServices
 90
    32768
280
     0
281
     0
  0
CLASS
  1
ACASGREFMASTER
  2
AcAsGrefMaster
  3
AutoSurfResolverServices
 90
        0
280
     0
281
     0
  0
CLASS
  1
ACADGREFMODULE
  2
AcAdGrefModule
  3
AdGrefServices
 90
        0
280
     0
281
     0
  0
CLASS
  1
AMDTMAPISURFMOUDULE
  2
AmdtMApiSurfModule
  3
MApiSurfServices
 90
        0
280
     0
281
     0
  0
CLASS
  1
MAPIAMMOUDLE
  2
MApiAmModule
  3
MApiAmServices
 90
        0
280
     0
281
     0
  0
CLASS
  1
AMDTADMENUSTATE
  2
AmdtAdMenuState
  3
DesignerServices
 90
        0
280
     0
281
     0
  0
CLASS
  1
ADAPPL
  2
AcAdAppl
  3
DesignerServices
 90
        0
280
     0
281
     0
  0
CLASS
  1
DEPMGR
  2
AcAdDepMgr
  3
DesignerServices
 90
        0
280
     0
281
     0
  0
CLASS
  1
PARAMMGR
  2
AcAdParamMgr
  3
DesignerServices
 90
        0
280
     0
281
     0
  0
CLASS
  1
PARAMSCOPE
  2
AcAdParamScope
  3
DesignerServices
 90
        0
280
     0
281
     0
  0
CLASS
  1
NAMEDAPPL
  2
AcAdNamedAppl
  3
DesignerServices
 90
        0
280
     0
281
     0
  0
CLASS
  1
ADHNTMPLT
  2
AdHoleNoteTemplateMgr
  3
DesignerServices
 90
    32768
280
     0
281
     0
  0
CLASS
  1
AM_HNTEMPLATE_MGR_NAME
  2
AdHoleNoteTemplateMgrName
  3
DesignerServices
 90
    32768
280
     0
281
     0
  0
CLASS
  1
AMDTDMMENUSTATE
  2
AmdtDmMenuState
  3
AcMechDwgViewMgmt
 90
        0
280
     0
281
     0
  0
CLASS
  1
MAPIADMODULE
  2
MApiAdModule
  3
MApiAdServices
 90
        0
280
     0
281
     0
  0
CLASS
  1
AMDTAMMENUSTATE
  2
AmdtAmMenuState
  3
DesignerAssemblies
 90
        0
280
     0
281
     0
  0
CLASS
  1
ACAMPROJECT
  2
AcAmProject
  3
DesignerAssemblies
 90
        0
280
     0
281
     0
  0
CLASS
  1
ACAMGRCOMPDEF
  2
AcAmGrCompDef
  3
DesignerAssemblies
 90
        0
280
     0
281
     0
  0
CLASS
  1
ACCMCONTEXT
  2
AcCmContext
  3
DesignerAssemblies
 90
        0
280
     0
281
     0
  0
CLASS
  1
ACAMCOMPDEF
  2
AcAmCompDef
  3
DesignerAssemblies
 90
        0
280
     0
281
     0
  0
CLASS
  1
ACAMCOMPDEFMGR
  2
AcAmCompDefMgr
  3
DesignerAssemblies
 90
        0
280
     0
281
     0
  0
CLASS
  1
AMCONTEXTMGR
  2
AcAmContextMgr
  3
DesignerAssemblies
 90
        0
280
     0
281
     0
  0
CLASS
  1
ACAMCONTEXTMODELER
  2
AcAmContextModeler
  3
DesignerAssemblies
 90
        0
280
     0
281
     0
  0
CLASS
  1
CATALOGSTATE
  2
AcAmCatalogState
  3
DesignerAssemblies
 90
        0
280
     0
281
     0
  0
CLASS
  1
ACAMGRCOMPDEFSET
  2
AcAmGrCompDefSet
  3
DesignerAssemblies
 90
        0
280
     0
281
     0
  0
CLASS
  1
AMDTBROWSERDBTAB
  2
AmdtBrowserDbTab
  3
McadcomServices
 90
        0
280
     0
281
     0
  0
CLASS
  1
CBROWSERAPPOBJECT
  2
CBrowserAppObject
  3
McadcomServices
 90
        0
280
     0
281
     0
  0
CLASS
  1
DM_PLACEHOLDER
  2
AcDmSelsetPlaceholder
  3
AcMechDwgViewMgmt
 90
        0
280
     0
281
     0
  0
CLASS
  1
ACMPICKOBJ
  2
AcmPickEnt
  3
"AcmSymBB|Product Description: AutoCAD Mechanical|Company: Autodesk"
 90
    32768
280
     0
281
     1
  0
CLASS
  1
ACMNOTESTANDARDISO
  2
AmdtNoteStdISO
  3
"Amdt_StdImp|Product Description: AutoCAD Mechanical|Company: Autodesk"
 90
        0
280
     0
281
     0
  0
CLASS
  1
ACMNOTESTANDARDANSI
  2
AmdtNoteStdANSI
  3
"Amdt_StdImp|Product Description: AutoCAD Mechanical|Company: Autodesk"
 90
    32768
280
     0
281
     0
  0
CLASS
  1
TABLESTYLE
  2
AcDbTableStyle
  3
ObjectDBX Classes
 90
     4095
280
     0
281
     0
  0
CLASS
  1
ACMTHREADLINESTANDARDISO
  2
AmdtThreadLineStdISO
  3
"Amdt_StdImp|Product Description: AutoCAD Mechanical|Company: Autodesk"
 90
        0
280
     0
281
     0
  0
CLASS
  1
ACMTHREADLINESTANDARDANSI
  2
AmdtThreadLineStdANSI
  3
"Amdt_StdImp|Product Description: AutoCAD Mechanical|Company: Autodesk"
 90
    32768
280
     0
281
     0
  0
CLASS
  1
SORTENTSTABLE
  2
AcDbSortentsTable
  3
ObjectDBX Classes
 90
        0
280
     0
281
     0
  0
CLASS
  1
AMDTACMWBLOCKBOMENTITY
  2
AmdtAcmWblockBomEntity
  3
"AcmSymBB|Product Description: AutoCAD Mechanical|Company: Autodesk"
 90
     3071
280
     0
281
     1
  0
CLASS
  1
AMDTNOTETEMPLATEDB
  2
AmdtNoteTemplateDB
  3
AMDT_STDIMP_MODULE_NAME
 90
        0
280
     0
281
     0
  0
CLASS
  1
DIMASSOC
  2
AcDbDimAssoc
  3
"AcDbDimAssoc|Product Desc:     AcDim ARX App For Dimension|Company:          Autodesk, Inc.|WEB Address:      www.autodesk.com"
 90
    32768
280
     0
281
     0
  0
CLASS
  1
MATERIAL
  2
AcDbMaterial
  3
ObjectDBX Classes
 90
     1153
280
     0
281
     0
  0
CLASS
  1
VISUALSTYLE
  2
AcDbVisualStyle
  3
ObjectDBX Classes
 90
     4095
280
     0
281
     0
  0
CLASS
  1
ACRFATTGENMGR
  2
AcRfAttGeneralMgr
  3
AcAttribServices
 90
    32768
280
     0
281
     0
  0
CLASS
  1
ACRFOBJATTMGR
  2
AcRfObjAttGroupMgr
  3
AcAttribServices
 90
    32768
280
     0
281
     0
  0
CLASS
  1
ACRFMCADAPIATTHOLDER
  2
AcRfMCADAPIAttHolder
  3
AcAttribServices
 90
    32768
280
     0
281
     0
  0
CLASS
  1
AMDTSYSATTR
  2
AmdtSystemAttribute
  3
AcAttribServices
 90
    32768
280
     0
281
     0
  0
CLASS
  1
ACMTAPERSTANDARDISO
  2
AcmTaperStdISO
  3
"Amdt_StdImp|Product Description: AutoCAD Mechanical|Company: Autodesk"
 90
        0
280
     0
281
     0
  0
CLASS
  1
ACMTAPERSTANDARDANSI
  2
AcmTaperStdANSI
  3
"Amdt_StdImp|Product Description: AutoCAD Mechanical|Company: Autodesk"
 90
    32768
280
     0
281
     0
  0
CLASS
  1
AMDTEDGESTANDARDISO13715
  2
AmdtEdgeStdISO13715
  3
"Amdt_StdImp|Product Description: AutoCAD Mechanical|Company: Autodesk"
 90
        0
280
     0
281
     0
  0
CLASS
  1
ACAMGHOLECHARTSTDISO
  2
AcAmgHoleChartStdISO
  3
ACMSYMBB_MODULE_NAME
 90
        0
280
     0
281
     0
  0
CLASS
  1
CAMSSTRUCTBTNSTATE
  2
StructBtnState
  3
L"DesignerAssemblies"
 90
        0
280
     0
281
     0
  0
ENDSEC
  0
SECTION
  2
TABLES
  0
TABLE
  2
VPORT
  5
8
330
0
100
AcDbSymbolTable
 70
     1
  0
VPORT
  5
1648C
330
8
100
AcDbSymbolTableRecord
100
AcDbViewportTableRecord
  2
*Active
 70
     0
 10
0.0
 20
0.0
 11
1.0
 21
1.0
 12
785.1382444646962
 22
445.1174472220962
 13
0.0
 23
0.0
 14
2.5
 24
2.5
 15
10.0
 25
10.0
 16
0.0
 26
0.0
 36
1.0
 17
0.0
 27
0.0
 37
0.0
 40
567.1546150076732
 41
1.369369369369369
 42
50.0
 43
-1370.695619172058
 44
-1370.695619172058
 50
0.0
 51
0.0
 71
    16
 72
   100
 73
     1
 74
     3
 75
     0
 76
     0
 77
     0
 78
     1
281
     0
 65
     0
110
0.0
120
0.0
130
0.0
111
1.0
121
0.0
131
0.0
112
0.0
122
1.0
132
0.0
 79
     0
146
0.0
  0
ENDTAB
  0
TABLE
  2
LTYPE
  5
5
330
0
100
AcDbSymbolTable
 70
    27
  0
LTYPE
  5
14
330
5
100
AcDbSymbolTableRecord
100
AcDbLinetypeTableRecord
  2
ByBlock
 70
     0
  3

 72
    65
 73
     0
 40
0.0
  0
LTYPE
  5
15
330
5
100
AcDbSymbolTableRecord
100
AcDbLinetypeTableRecord
  2
ByLayer
 70
     0
  3

 72
    65
 73
     0
 40
0.0
  0
LTYPE
  5
16
330
5
100
AcDbSymbolTableRecord
100
AcDbLinetypeTableRecord
  2
Continuous
 70
     0
  3
Solid line
 72
    65
 73
     0
 40
0.0
  0
LTYPE
  5
4F
330
5
100
AcDbSymbolTableRecord
100
AcDbLinetypeTableRecord
  2
AM_ISO02W050
 70
     0
  3
__ __ __ __ __ __ __ __ __ __ __ __ __ __ __
 72
    65
 73
     2
 40
7.5
 49
6.0
 74
     0
 49
-1.5
 74
     0
  0
LTYPE
  5
52
330
5
100
AcDbSymbolTableRecord
100
AcDbLinetypeTableRecord
  2
Amconstr
 70
     0
  3
_______________________
 72
    65
 73
     2
 40
9999.0
 49
9999.0
 74
     0
 49
0.0
 74
     0
  0
LTYPE
  5
64
330
5
100
AcDbSymbolTableRecord
100
AcDbLinetypeTableRecord
  2
ACISOWELD
 70
     0
  3
_ _ _ _ _
 72
    65
 73
     2
 40
2.0
 49
2.0
 74
     0
 49
-1.0
 74
     0
  0
LTYPE
  5
65
330
5
100
AcDbSymbolTableRecord
100
AcDbLinetypeTableRecord
  2
ACISOTGB
 70
     0
  3
__ . . __ . .
 72
    65
 73
     6
 40
9.0
 49
4.0
 74
     0
 49
-1.0
 74
     0
 49
1.0
 74
     0
 49
-1.0
 74
     0
 49
1.0
 74
     0
 49
-1.0
 74
     0
  0
LTYPE
  5
66
330
5
100
AcDbSymbolTableRecord
100
AcDbLinetypeTableRecord
  2
ACISOTGL
 70
     0
  3
_ _ _ _ _
 72
    65
 73
     2
 40
3.0
 49
2.0
 74
     0
 49
-1.0
 74
     0
  0
LTYPE
  5
69
330
5
100
AcDbSymbolTableRecord
100
AcDbLinetypeTableRecord
  2
CENTER
 70
     0
  3
__ . __
 72
    65
 73
     4
 40
7.0
 49
4.0
 74
     0
 49
-1.0
 74
     0
 49
1.0
 74
     0
 49
-1.0
 74
     0
  0
LTYPE
  5
A6E
330
5
100
AcDbSymbolTableRecord
100
AcDbLinetypeTableRecord
  2
PHANTOM2
 70
     0
  3
Phantom (.5x) ___ _ _ ___ _ _ ___ _ _ ___ _ _
 72
    65
 73
     6
 40
31.75
 49
15.875
 74
     0
 49
-3.174999999999998
 74
     0
 49
3.174999999999998
 74
     0
 49
-3.174999999999998
 74
     0
 49
3.174999999999998
 74
     0
 49
-3.174999999999998
 74
     0
  0
LTYPE
  5
FA3
330
5
100
AcDbSymbolTableRecord
100
AcDbLinetypeTableRecord
  2
ACANSTGB
 70
     0
  3
__ . . __ . .
 72
    65
 73
     6
 40
0.35433070866
 49
0.15748031496
 74
     0
 49
-0.03937007874
 74
     0
 49
0.03937007874
 74
     0
 49
-0.03937007874
 74
     0
 49
0.03937007874
 74
     0
 49
-0.03937007874
 74
     0
  0
LTYPE
  5
FA4
330
5
100
AcDbSymbolTableRecord
100
AcDbLinetypeTableRecord
  2
ACANSTGL
 70
     0
  3
_ _ _ _ _
 72
    65
 73
     2
 40
0.11811023622
 49
0.07874015748
 74
     0
 49
-0.03937007874
 74
     0
  0
LTYPE
  5
4DED
330
5
100
AcDbSymbolTableRecord
100
AcDbLinetypeTableRecord
  2
中線
 70
     0
  3
___________________
 72
    65
 73
     2
 40
2.0
 49
1.0
 74
     0
 49
1.0
 74
     0
  0
LTYPE
  5
4DF6
330
5
100
AcDbSymbolTableRecord
100
AcDbLinetypeTableRecord
  2
細線
 70
     0
  3
___________________
 72
    65
 73
     2
 40
2.0
 49
1.0
 74
     0
 49
1.0
 74
     0
  0
LTYPE
  5
4DF7
330
5
100
AcDbSymbolTableRecord
100
AcDbLinetypeTableRecord
  2
太線
 70
     0
  3
___________________
 72
    65
 73
     2
 40
2.0
 49
1.0
 74
     0
 49
1.0
 74
     0
  0
LTYPE
  5
4EA7
330
5
100
AcDbSymbolTableRecord
100
AcDbLinetypeTableRecord
  2
文字
 70
     0
  3
_________________
 72
    65
 73
     2
 40
2.0
 49
1.0
 74
     0
 49
1.0
 74
     0
  0
LTYPE
  5
4EA9
330
5
100
AcDbSymbolTableRecord
100
AcDbLinetypeTableRecord
  2
寸法線
 70
     0
  3
________________
 72
    65
 73
     2
 40
2.0
 49
1.0
 74
     0
 49
1.0
 74
     0
  0
LTYPE
  5
4F12
330
5
100
AcDbSymbolTableRecord
100
AcDbLinetypeTableRecord
  2
ハッチング
 70
     0
  3
_________________
 72
    65
 73
     2
 40
2.0
 49
1.0
 74
     0
 49
1.0
 74
     0
  0
LTYPE
  5
5180
330
5
100
AcDbSymbolTableRecord
100
AcDbLinetypeTableRecord
  2
陰線1
 70
     0
  3
__ __ __ __
 72
    65
 73
     2
 40
4.0
 49
2.2
 74
     0
 49
-1.8
 74
     0
  0
LTYPE
  5
5182
330
5
100
AcDbSymbolTableRecord
100
AcDbLinetypeTableRecord
  2
切断線
 70
     0
  3
/\/-/\/-/\/-/\/-/\/-/\/
 72
    65
 73
     2
 40
11.0001
 49
0.0001
 74
     4
 75
   135
340
56
 46
0.04
 50
0.0
 44
0.0
 45
0.0
 49
-11.0
 74
     0
  0
LTYPE
  5
5183
330
5
100
AcDbSymbolTableRecord
100
AcDbLinetypeTableRecord
  2
想像線1
 70
     0
  3
__ __ __ _____ __ __ ____
 72
    65
 73
     6
 40
14.5
 49
6.0
 74
     0
 49
-1.5
 74
     0
 49
2.0
 74
     0
 49
-1.5
 74
     0
 49
2.0
 74
     0
 49
-1.5
 74
     0
  0
LTYPE
  5
5185
330
5
100
AcDbSymbolTableRecord
100
AcDbLinetypeTableRecord
  2
中心線1
 70
     0
  3
___ _ ___ _ ___
 72
    65
 73
     4
 40
18.0
 49
12.0
 74
     0
 49
-2.0
 74
     0
 49
2.0
 74
     0
 49
-2.0
 74
     0
  0
LTYPE
  5
5188
330
5
100
AcDbSymbolTableRecord
100
AcDbLinetypeTableRecord
  2
補助線
 70
     0
  3
______________
 72
    65
 73
     2
 40
2.0
 49
1.0
 74
     0
 49
1.0
 74
     0
  0
LTYPE
  5
1293F
330
5
100
AcDbSymbolTableRecord
100
AcDbLinetypeTableRecord
  2
HIDDEN
 70
     0
  3
Hidden __ __ __ __ __ __ __ __ __ __ __ __ __ _
 72
    65
 73
     2
 40
9.524999999999996
 49
6.349999999999997
 74
     0
 49
-3.174999999999998
 74
     0
  0
LTYPE
  5
1535C
330
5
100
AcDbSymbolTableRecord
100
AcDbLinetypeTableRecord
  2
AM_ISO08W050
 70
     0
  3
____ . ____ . ____ . ____ . ____ . ____ . ____
 72
    65
 73
     4
 40
18.0
 49
12.0
 74
     0
 49
-1.5
 74
     0
 49
3.0
 74
     0
 49
-1.5
 74
     0
  0
LTYPE
  5
1535D
330
5
100
AcDbSymbolTableRecord
100
AcDbLinetypeTableRecord
  2
AM_ISO09W050
 70
     0
  3
_____ . . _____ . . _____ . . ____ .. ____
 72
    65
 73
     6
 40
22.5
 49
12.0
 74
     0
 49
-1.5
 74
     0
 49
3.0
 74
     0
 49
-1.5
 74
     0
 49
3.0
 74
     0
 49
-1.5
 74
     0
  0
LTYPE
  5
1535E
330
5
100
AcDbSymbolTableRecord
100
AcDbLinetypeTableRecord
  2
AM_ISO08W050x2
 70
     0
  3
__ . __ . __ . __ . __ . __
 72
    65
 73
     4
 40
9.0
 49
6.0
 74
     0
 49
-0.75
 74
     0
 49
1.5
 74
     0
 49
-0.75
 74
     0
  0
LTYPE
  5
1535F
330
5
100
AcDbSymbolTableRecord
100
AcDbLinetypeTableRecord
  2
AM_ISO02W050x2
 70
     0
  3
 _ _ _ _ _ _ _ _ _ _ _ _
 72
    65
 73
     2
 40
3.75
 49
3.0
 74
     0
 49
-0.75
 74
     0
  0
LTYPE
  5
15360
330
5
100
AcDbSymbolTableRecord
100
AcDbLinetypeTableRecord
  2
Amzigzag
 70
     0
  3
/\/-/\/-/\/-/\/-/\/-/\/
 72
    65
 73
     2
 40
11.0001
 49
0.0001
 74
     4
 75
   135
340
56
 46
0.04
 50
0.0
 44
0.0
 45
0.0
 49
-11.0
 74
     0
  0
ENDTAB
  0
TABLE
  2
LAYER
  5
2
102
{ACAD_XDICTIONARY
360
3F95
102
}
330
0
100
AcDbSymbolTable
 70
    24
  0
LAYER
  5
10
330
2
100
AcDbSymbolTableRecord
100
AcDbLayerTableRecord
  2
0
 70
     0
 62
     7
  6
Continuous
370
    -3
390
F
  0
LAYER
  5
6D1
330
2
100
AcDbSymbolTableRecord
100
AcDbLayerTableRecord
  2
Defpoints
 70
     0
 62
     7
  6
Continuous
290
     0
370
    -3
390
F
  0
LAYER
  5
A46
330
2
100
AcDbSymbolTableRecord
100
AcDbLayerTableRecord
  2
size
 70
     0
 62
     5
  6
Continuous
290
     0
370
    30
390
F
  0
LAYER
  5
A47
330
2
100
AcDbSymbolTableRecord
100
AcDbLayerTableRecord
  2
waku
 70
     0
 62
     7
  6
Continuous
370
    40
390
F
  0
LAYER
  5
A48
330
2
100
AcDbSymbolTableRecord
100
AcDbLayerTableRecord
  2
AM_6
 70
     0
 62
     2
  6
文字
370
    18
390
F
  0
LAYER
  5
3A31
330
2
100
AcDbSymbolTableRecord
100
AcDbLayerTableRecord
  2
hyosen1
 70
     0
 62
     1
  6
Continuous
370
    30
390
F
  0
LAYER
  5
5765
330
2
100
AcDbSymbolTableRecord
100
AcDbLayerTableRecord
  2
hyomoji
 70
     0
 62
     2
  6
Continuous
370
    20
390
F
  0
LAYER
  5
591A
330
2
100
AcDbSymbolTableRecord
100
AcDbLayerTableRecord
  2
hyosen2
 70
     0
 62
     1
  6
Continuous
370
    20
390
F
  0
LAYER
  5
5F85
330
2
100
AcDbSymbolTableRecord
100
AcDbLayerTableRecord
  2
AM_0
 70
     0
 62
     7
  6
中線
370
    30
390
F
  0
LAYER
  5
5F86
330
2
100
AcDbSymbolTableRecord
100
AcDbLayerTableRecord
  2
AM_1
 70
     0
 62
    30
  6
太線
370
    40
390
F
  0
LAYER
  5
5F87
330
2
100
AcDbSymbolTableRecord
100
AcDbLayerTableRecord
  2
AM_2
 70
     0
 62
     1
  6
細線
370
    15
390
F
  0
LAYER
  5
5F88
330
2
100
AcDbSymbolTableRecord
100
AcDbLayerTableRecord
  2
AM_3
 70
     0
 62
     6
  6
陰線1
370
    18
390
F
  0
LAYER
  5
5F89
330
2
100
AcDbSymbolTableRecord
100
AcDbLayerTableRecord
  2
AM_4
 70
     0
 62
     3
  6
補助線
370
    15
390
F
  0
LAYER
  5
5F8A
330
2
100
AcDbSymbolTableRecord
100
AcDbLayerTableRecord
  2
AM_5
 70
     0
 62
     3
  6
寸法線
370
    15
390
F
  0
LAYER
  5
5F8B
330
2
100
AcDbSymbolTableRecord
100
AcDbLayerTableRecord
  2
AM_7
 70
     0
 62
     4
  6
中心線1
370
    15
390
F
  0
LAYER
  5
5F8C
330
2
100
AcDbSymbolTableRecord
100
AcDbLayerTableRecord
  2
AM_8
 70
     0
 62
     1
  6
ハッチング
370
    15
390
F
  0
LAYER
  5
5F8D
330
2
100
AcDbSymbolTableRecord
100
AcDbLayerTableRecord
  2
AM_10
 70
     0
 62
     7
  6
切断線
370
    15
390
F
  0
LAYER
  5
642B
330
2
100
AcDbSymbolTableRecord
100
AcDbLayerTableRecord
  2
AM_CL
 70
     0
 62
     1
  6
Amconstr
370
     0
390
F
  0
LAYER
  5
65AF
330
2
100
AcDbSymbolTableRecord
100
AcDbLayerTableRecord
  2
AM_11
 70
     0
 62
     2
  6
想像線1
370
    15
390
F
  0
LAYER
  5
73C2
330
2
100
AcDbSymbolTableRecord
100
AcDbLayerTableRecord
  2
AM_12
 70
     0
 62
     7
  6
Continuous
290
     0
370
    20
390
F
  0
LAYER
  5
E33A
330
2
100
AcDbSymbolTableRecord
100
AcDbLayerTableRecord
  2
PV0001_1
 70
     0
 62
     7
  6
Continuous
370
    -3
390
F
  0
LAYER
  5
F630
330
2
100
AcDbSymbolTableRecord
100
AcDbLayerTableRecord
  2
IS0001D5_1
 70
     0
 62
     7
  6
Continuous
370
    -3
390
F
  0
LAYER
  5
F638
330
2
100
AcDbSymbolTableRecord
100
AcDbLayerTableRecord
  2
SS0001D22475_1
 70
     0
 62
     7
  6
Continuous
370
    -3
390
F
  0
LAYER
  5
11F6B
330
2
100
AcDbSymbolTableRecord
100
AcDbLayerTableRecord
  2
AM_PAREF
 70
     0
 62
     4
  6
Continuous
290
     0
370
    20
390
F
  0
ENDTAB
  0
TABLE
  2
STYLE
  5
3
330
0
100
AcDbSymbolTable
 70
     9
  0
STYLE
  5
11
330
3
100
AcDbSymbolTableRecord
100
AcDbTextStyleTableRecord
  2
STANDARD
 70
     0
 40
0.0
 41
0.7
 50
0.0
 71
     0
 42
3.2
  3
romans.shx
  4
extfont.shx
  0
STYLE
  5
56
330
3
100
AcDbSymbolTableRecord
100
AcDbTextStyleTableRecord
  2

 70
     1
 40
0.0
 41
1.0
 50
0.0
 71
     0
 42
2.5
  3
ltypeshp.shx
  4

  0
STYLE
  5
58
330
3
100
AcDbSymbolTableRecord
100
AcDbTextStyleTableRecord
  2
ACISOTS
 70
     0
 40
0.0
 41
0.7
 50
0.0
 71
     0
 42
2.5
  3
romans.shx
  4
extfont.shx
  0
STYLE
  5
63
330
3
100
AcDbSymbolTableRecord
100
AcDbTextStyleTableRecord
  2
ACISOGDT
 70
     0
 40
0.0
 41
1.0
 50
0.0
 71
     0
 42
2.5
  3
amgdt.shx
  4

  0
STYLE
  5
A74
330
3
100
AcDbSymbolTableRecord
100
AcDbTextStyleTableRecord
  2
DIM
 70
     0
 40
0.0
 41
1.0
 50
0.0
 71
     0
 42
2.5
  3
monotxt.shx
  4
extfont.shx
  0
STYLE
  5
FA7
330
3
100
AcDbSymbolTableRecord
100
AcDbTextStyleTableRecord
  2
ACANSTS
 70
     0
 40
1.0
 41
1.0
 50
0.0
 71
     0
 42
0.2
  3
romans.shx
  4
extfont.shx
  0
STYLE
  5
FA8
330
3
100
AcDbSymbolTableRecord
100
AcDbTextStyleTableRecord
  2
ACANSGDT
 70
     0
 40
0.0
 41
1.0
 50
0.0
 71
     0
 42
0.2
  3
amgdtans.shx
  4

  0
ENDTAB
  0
TABLE
  2
VIEW
  5
6
330
0
100
AcDbSymbolTable
 70
     6
  0
VIEW
  5
AE1
330
6
100
AcDbSymbolTableRecord
100
AcDbViewTableRecord
  2
AM_VIEW1
 70
     0
 40
144.25
 10
334.3858514422121
 20
116.375
 41
229.7804319371728
 11
0.0
 21
0.0
 31
1.0
 12
0.0
 22
0.0
 32
0.0
 42
50.0
 43
-1370.695619172058
 44
-1370.695619172058
 50
0.0
 71
    16
281
     0
 72
     0
  0
VIEW
  5
AE2
330
6
100
AcDbSymbolTableRecord
100
AcDbViewTableRecord
  2
AM_VIEW2
 70
     0
 40
144.25
 10
513.1054195050393
 20
116.375
 41
229.7804319371728
 11
0.0
 21
0.0
 31
1.0
 12
0.0
 22
0.0
 32
0.0
 42
50.0
 43
-1370.695619172058
 44
-1370.695619172058
 50
0.0
 71
    16
281
     0
 72
     0
  0
VIEW
  5
AE3
330
6
100
AcDbSymbolTableRecord
100
AcDbViewTableRecord
  2
AM_VIEW3
 70
     0
 40
144.25
 10
334.3858514422121
 20
-27.875
 41
229.7804319371728
 11
0.0
 21
0.0
 31
1.0
 12
0.0
 22
0.0
 32
0.0
 42
50.0
 43
-1370.695619172058
 44
-1370.695619172058
 50
0.0
 71
    16
281
     0
 72
     0
  0
VIEW
  5
AE4
330
6
100
AcDbSymbolTableRecord
100
AcDbViewTableRecord
  2
AM_VIEW4
 70
     0
 40
144.25
 10
513.1054195050393
 20
-27.875
 41
229.7804319371728
 11
0.0
 21
0.0
 31
1.0
 12
0.0
 22
0.0
 32
0.0
 42
50.0
 43
-1370.695619172058
 44
-1370.695619172058
 50
0.0
 71
    16
281
     0
 72
     0
  0
VIEW
  5
AE5
330
6
100
AcDbSymbolTableRecord
100
AcDbViewTableRecord
  2
AM_VIEW5
 70
     0
 40
144.25
 10
423.7456354736257
 20
44.24999999999999
 41
229.7804319371728
 11
0.0
 21
0.0
 31
1.0
 12
0.0
 22
0.0
 32
0.0
 42
50.0
 43
-1370.695619172058
 44
-1370.695619172058
 50
0.0
 71
    16
281
     0
 72
     0
  0
VIEW
  5
AE6
330
6
100
AcDbSymbolTableRecord
100
AcDbViewTableRecord
  2
AM_VIEW6
 70
     0
 40
288.497115
 10
423.7456354736257
 20
44.24999999999999
 41
459.5562682657067
 11
0.0
 21
0.0
 31
1.0
 12
0.0
 22
0.0
 32
0.0
 42
50.0
 43
-1370.695619172058
 44
-1370.695619172058
 50
0.0
 71
    16
281
     0
 72
     0
  0
ENDTAB
  0
TABLE
  2
UCS
  5
7
330
0
100
AcDbSymbolTable
 70
     0
  0
ENDTAB
  0
TABLE
  2
APPID
  5
9
330
0
100
AcDbSymbolTable
 70
    54
  0
APPID
  5
12
330
9
100
AcDbSymbolTableRecord
100
AcDbRegAppTableRecord
  2
ACAD
 70
     0
  0
APPID
  5
30
330
9
100
AcDbSymbolTableRecord
100
AcDbRegAppTableRecord
  2
MCAD_NO_VIS
 70
     0
  0
APPID
  5
31
330
9
100
AcDbSymbolTableRecord
100
AcDbRegAppTableRecord
  2
ACAD_TEMP_GRAPHIC
 70
     0
  0
APPID
  5
44
330
9
100
AcDbSymbolTableRecord
100
AcDbRegAppTableRecord
  2
ACATTRIBSERVICES
 70
     0
  0
APPID
  5
7A1
330
9
100
AcDbSymbolTableRecord
100
AcDbRegAppTableRecord
  2
GENIUS_GENDIMSH_14
 70
     0
  0
APPID
  5
A49
330
9
100
AcDbSymbolTableRecord
100
AcDbRegAppTableRecord
  2
GENIUS_GENREC_14
 70
     0
  0
APPID
  5
A4A
330
9
100
AcDbSymbolTableRecord
100
AcDbRegAppTableRecord
  2
GENIUS_GENOBJ-N-REC_13
 70
     0
  0
APPID
  5
A4B
330
9
100
AcDbSymbolTableRecord
100
AcDbRegAppTableRecord
  2
GENIUS_GENODEF_13
 70
     0
  0
APPID
  5
A4C
330
9
100
AcDbSymbolTableRecord
100
AcDbRegAppTableRecord
  2
DCO15
 70
     0
  0
APPID
  5
ADC
330
9
100
AcDbSymbolTableRecord
100
AcDbRegAppTableRecord
  2
GENIUS_GENOLIS_13
 70
     0
  0
APPID
  5
ADD
330
9
100
AcDbSymbolTableRecord
100
AcDbRegAppTableRecord
  2
GENIUS_GENOENT_13
 70
     0
  0
APPID
  5
ADE
330
9
100
AcDbSymbolTableRecord
100
AcDbRegAppTableRecord
  2
GENIUS_GENOBJ-N-TIT_13
 70
     0
  0
APPID
  5
ADF
330
9
100
AcDbSymbolTableRecord
100
AcDbRegAppTableRecord
  2
GENIUS_GENTITLE_13
 70
     0
  0
APPID
  5
AE0
330
9
100
AcDbSymbolTableRecord
100
AcDbRegAppTableRecord
  2
GENIUS_GENOREF_13
 70
     0
  0
APPID
  5
AE7
330
9
100
AcDbSymbolTableRecord
100
AcDbRegAppTableRecord
  2
GENIUS_GENSCREG_15
 70
     0
  0
APPID
  5
AE8
330
9
100
AcDbSymbolTableRecord
100
AcDbRegAppTableRecord
  2
GENIUS_GENOBJ-N-SDF_13
 70
     0
  0
APPID
  5
FAF
330
9
100
AcDbSymbolTableRecord
100
AcDbRegAppTableRecord
  2
GENIUS_GENBLLY_14
 70
     0
  0
APPID
  5
FB0
330
9
100
AcDbSymbolTableRecord
100
AcDbRegAppTableRecord
  2
GENIUS_GENTRA_14
 70
     0
  0
APPID
  5
1285
330
9
100
AcDbSymbolTableRecord
100
AcDbRegAppTableRecord
  2
GENIUS_GENDTOL_13
 70
     0
  0
APPID
  5
142D
330
9
100
AcDbSymbolTableRecord
100
AcDbRegAppTableRecord
  2
GENIUS_GENOBJ-N-CEN_13
 70
     0
  0
APPID
  5
1AB5
330
9
100
AcDbSymbolTableRecord
100
AcDbRegAppTableRecord
  2
GENIUS_GENOBJ-N-CRS_13
 70
     0
  0
APPID
  5
1B36
330
9
100
AcDbSymbolTableRecord
100
AcDbRegAppTableRecord
  2
GENIUS_GENOBJ-N-HTC_13
 70
     0
  0
APPID
  5
1B37
330
9
100
AcDbSymbolTableRecord
100
AcDbRegAppTableRecord
  2
GENIUS_GENHATCH_13
 70
     0
  0
APPID
  5
216D
330
9
100
AcDbSymbolTableRecord
100
AcDbRegAppTableRecord
  2
GENIUS_GENOBJ-N-FIL_13
 70
     0
  0
APPID
  5
2356
330
9
100
AcDbSymbolTableRecord
100
AcDbRegAppTableRecord
  2
GEVID990412420
 70
     0
  0
APPID
  5
2357
330
9
100
AcDbSymbolTableRecord
100
AcDbRegAppTableRecord
  2
GEVDC
 70
     0
  0
APPID
  5
2358
330
9
100
AcDbSymbolTableRecord
100
AcDbRegAppTableRecord
  2
GEVCON
 70
     0
  0
APPID
  5
235B
330
9
100
AcDbSymbolTableRecord
100
AcDbRegAppTableRecord
  2
GEVRADREF
 70
     0
  0
APPID
  5
2360
330
9
100
AcDbSymbolTableRecord
100
AcDbRegAppTableRecord
  2
GENIUS_GENBH_13
 70
     0
  0
APPID
  5
2362
330
9
100
AcDbSymbolTableRecord
100
AcDbRegAppTableRecord
  2
GENIUS_GENOBJ-NBEHI-BHF_13
 70
     0
  0
APPID
  5
2364
330
9
100
AcDbSymbolTableRecord
100
AcDbRegAppTableRecord
  2
GENIUS_GENOBJ-NBEHI-BHB_13
 70
     0
  0
APPID
  5
2379
330
9
100
AcDbSymbolTableRecord
100
AcDbRegAppTableRecord
  2
GENIUS_GENOBJ-F-SCPASSM_13
 70
     0
  0
APPID
  5
3D74
330
9
100
AcDbSymbolTableRecord
100
AcDbRegAppTableRecord
  2
GENIUS_GENDIM_13
 70
     0
  0
APPID
  5
3D76
330
9
100
AcDbSymbolTableRecord
100
AcDbRegAppTableRecord
  2
GENIUS_GE3DTOL_13
 70
     0
  0
APPID
  5
3D9C
330
9
100
AcDbSymbolTableRecord
100
AcDbRegAppTableRecord
  2
AD_DRAW
 70
     0
  0
APPID
  5
3DE8
330
9
100
AcDbSymbolTableRecord
100
AcDbRegAppTableRecord
  2
ASURF_PCURVE_APPNAME
 70
     0
  0
APPID
  5
3DED
330
9
100
AcDbSymbolTableRecord
100
AcDbRegAppTableRecord
  2
AMG_3D2D_5.0
 70
     0
  0
APPID
  5
3E1B
330
9
100
AcDbSymbolTableRecord
100
AcDbRegAppTableRecord
  2
DESIGNERASSEMBLIES
 70
     0
  0
APPID
  5
3E20
330
9
100
AcDbSymbolTableRecord
100
AcDbRegAppTableRecord
  2
ACADM_DIM_EDIT
 70
     0
  0
APPID
  5
3E21
330
9
100
AcDbSymbolTableRecord
100
AcDbRegAppTableRecord
  2
AMDT_DM_ADJ
 70
     0
  0
APPID
  5
4143
330
9
100
AcDbSymbolTableRecord
100
AcDbRegAppTableRecord
  2
GENIUS_GENFIL_13
 70
     0
  0
APPID
  5
4144
330
9
100
AcDbSymbolTableRecord
100
AcDbRegAppTableRecord
  2
GENIUS_GENOBJ-N-CHA_13
 70
     0
  0
APPID
  5
4E17
330
9
100
AcDbSymbolTableRecord
100
AcDbRegAppTableRecord
  2
GEVID1008153417
 70
     0
  0
APPID
  5
4E58
330
9
100
AcDbSymbolTableRecord
100
AcDbRegAppTableRecord
  2
GEVID1008153418
 70
     0
  0
APPID
  5
4E5E
330
9
100
AcDbSymbolTableRecord
100
AcDbRegAppTableRecord
  2
GEVID1008153419
 70
     0
  0
APPID
  5
4E64
330
9
100
AcDbSymbolTableRecord
100
AcDbRegAppTableRecord
  2
GEVID1008153420
 70
     0
  0
APPID
  5
4E75
330
9
100
AcDbSymbolTableRecord
100
AcDbRegAppTableRecord
  2
GEVID1008153421
 70
     0
  0
APPID
  5
4EB7
330
9
100
AcDbSymbolTableRecord
100
AcDbRegAppTableRecord
  2
GENIUS_AMGTXT_16
 70
     0
  0
APPID
  5
7645
330
9
100
AcDbSymbolTableRecord
100
AcDbRegAppTableRecord
  2
GENIUS_GENOBJ-N-DIM_13
 70
     0
  0
APPID
  5
1291E
330
9
100
AcDbSymbolTableRecord
100
AcDbRegAppTableRecord
  2
ACAD_DSTYLE_DIMARC_LENGTH_SYMBOL
 70
     0
  0
APPID
  5
1291F
330
9
100
AcDbSymbolTableRecord
100
AcDbRegAppTableRecord
  2
ACAD_DSTYLE_DIMJOGGED_JOGANGLE_SYMBOL
 70
     0
  0
APPID
  5
12AB6
330
9
100
AcDbSymbolTableRecord
100
AcDbRegAppTableRecord
  2
ACAD_PSEXT
 70
     0
  0
APPID
  5
14DD7
330
9
100
AcDbSymbolTableRecord
100
AcDbRegAppTableRecord
  2
ACAD_EXEMPT_FROM_CAD_STANDARDS
 70
     0
  0
APPID
  5
1536A
330
9
100
AcDbSymbolTableRecord
100
AcDbRegAppTableRecord
  2
GENIUS_GENCEN_19
 70
     0
  0
ENDTAB
  0
TABLE
  2
DIMSTYLE
  5
A
330
0
100
AcDbSymbolTable
 70
    38
100
AcDbDimStyleTable
 71
     3
340
2515
340
E921
340
FA9
  0
DIMSTYLE
105
A76
330
A
100
AcDbSymbolTableRecord
100
AcDbDimStyleTableRecord
  2
STANDARD
 70
     0
 41
3.0
 42
1.0
 43
7.0
 44
2.0
 73
     0
 74
     0
 77
     1
140
2.799999999999998
141
0.0
143
0.0394
147
0.7
171
     4
172
     1
173
     1
176
     3
177
     3
178
     2
271
     3
272
     3
273
     8
274
     4
289
     0
340
A74
341
A66
343
A66
344
A66
  0
DIMSTYLE
105
FA9
330
A
100
AcDbSymbolTableRecord
100
AcDbDimStyleTableRecord
  2
AM_ANSI
 70
     0
  4
mm
 41
0.1
 42
0.05
 43
0.5
 44
0.1
 47
0.1
 48
0.1
 78
     7
 79
     2
140
0.12
141
0.0
146
0.71
147
0.06
176
   256
177
   256
178
     2
274
     4
284
     7
340
11
371
    -1
372
    -1
1001
ACAD_DSTYLE_DIMJOGGED_JOGANGLE_SYMBOL
1070
   384
1040
0.7853981633974483
1001
ACAD_DSTYLE_DIMARC_LENGTH_SYMBOL
1070
   379
1070
     1
  0
DIMSTYLE
105
FAA
330
A
100
AcDbSymbolTableRecord
100
AcDbDimStyleTableRecord
  2
AM_ANSI$3
 70
     0
  4
mm
 41
0.1
 42
0.05
 43
0.5
 44
0.1
 47
0.1
 48
0.1
 78
     7
 79
     2
140
0.12
141
0.0
146
0.71
147
0.06
176
   256
177
   256
178
     2
274
     4
284
     7
288
     1
289
     0
340
11
371
    -1
372
    -1
1001
ACAD_DSTYLE_DIMJOGGED_JOGANGLE_SYMBOL
1070
   384
1040
0.7853981633974483
1001
ACAD_DSTYLE_DIMARC_LENGTH_SYMBOL
1070
   379
1070
     1
  0
DIMSTYLE
105
FAB
330
A
100
AcDbSymbolTableRecord
100
AcDbDimStyleTableRecord
  2
AM_ANSI$4
 70
     0
  4
mm
 41
0.1
 42
0.05
 43
0.5
 44
0.1
 47
0.1
 48
0.1
 78
     7
 79
     2
140
0.12
141
0.0
146
0.71
147
0.06
176
   256
177
   256
178
     2
274
     4
284
     7
288
     1
289
     0
340
11
371
    -1
372
    -1
1001
ACAD_DSTYLE_DIMJOGGED_JOGANGLE_SYMBOL
1070
   384
1040
0.7853981633974483
1001
ACAD_DSTYLE_DIMARC_LENGTH_SYMBOL
1070
   379
1070
     1
  0
DIMSTYLE
105
FAC
330
A
100
AcDbSymbolTableRecord
100
AcDbDimStyleTableRecord
  2
AM_ANSI$7
 70
     0
  4
mm
 41
0.1
 42
0.05
 43
0.5
 44
0.1
 47
0.1
 48
0.1
 78
     7
 79
     2
140
0.24
141
0.0
146
0.71
147
0.06
176
   256
177
   256
178
     2
274
     4
284
     7
340
11
371
    -1
372
    -1
1001
ACAD_DSTYLE_DIMJOGGED_JOGANGLE_SYMBOL
1070
   384
1040
0.7853981633974483
1001
ACAD_DSTYLE_DIMARC_LENGTH_SYMBOL
1070
   379
1070
     1
  0
DIMSTYLE
105
FAD
330
A
100
AcDbSymbolTableRecord
100
AcDbDimStyleTableRecord
  2
AM_ANSI$SF
 70
     0
  4
mm
 41
0.1
 42
0.05
 43
0.5
 44
0.1
 47
0.1
 48
0.1
 75
     1
 76
     1
 78
     7
 79
     2
140
0.12
141
0.0
146
0.71
147
0.06
176
   256
177
   256
178
     2
274
     4
284
     7
340
11
371
    -1
372
    -1
1001
ACAD_DSTYLE_DIMJOGGED_JOGANGLE_SYMBOL
1070
   384
1040
0.7853981633974483
1001
ACAD_DSTYLE_DIMARC_LENGTH_SYMBOL
1070
   379
1070
     1
  0
DIMSTYLE
105
FAE
330
A
100
AcDbSymbolTableRecord
100
AcDbDimStyleTableRecord
  2
AM_ANSI$SH
 70
     0
  4
mm
 41
0.1
 42
0.05
 43
0.5
 44
0.1
 47
0.1
 48
0.1
 75
     1
 76
     1
 78
     7
 79
     2
140
0.12
141
0.0
146
0.71
147
0.06
173
     1
176
   256
177
   256
178
     2
274
     4
284
     7
340
11
343
72
371
    -1
372
    -1
1001
ACAD_DSTYLE_DIMJOGGED_JOGANGLE_SYMBOL
1070
   384
1040
0.7853981633974483
1001
ACAD_DSTYLE_DIMARC_LENGTH_SYMBOL
1070
   379
1070
     1
  0
DIMSTYLE
105
2515
330
A
100
AcDbSymbolTableRecord
100
AcDbDimStyleTableRecord
  2
SYS
 70
     0
  4
"
 41
1.0
 42
1.0
 43
10.0
 44
1.0
 47
0.2
 48
0.2000000002
 71
     1
 73
     0
 74
     0
 77
     1
 78
     8
 79
     2
140
3.5
141
0.0
143
0.0393701
146
0.6
147
1.5
172
     1
176
   256
177
   256
178
     7
271
     2
272
     2
283
     0
284
     8
340
11
341
A66
342
6C4
371
    -1
372
    -1
1001
ACAD_DSTYLE_DIMJOGGED_JOGANGLE_SYMBOL
1070
   384
1040
0.7853981633974483
1001
ACAD_DSTYLE_DIMARC_LENGTH_SYMBOL
1070
   379
1070
     1
  0
DIMSTYLE
105
2516
102
{ACAD_REACTORS
330
178B8
330
17DAA
102
}
330
A
100
AcDbSymbolTableRecord
100
AcDbDimStyleTableRecord
  2
SYS$3
 70
     0
  4
"
 41
2.0
 42
1.0
 43
10.0
 44
1.0
 47
0.1
 48
0.1
 73
     0
 74
     0
 77
     1
 78
     8
 79
     2
140
3.200000000000001
141
0.0
143
0.0393701
146
0.71
147
1.5
176
   256
177
   256
178
     2
271
     1
272
     1
283
     0
284
     8
288
     1
340
11
342
A66
371
    -1
372
    -1
1001
ACAD_DSTYLE_DIMJOGGED_JOGANGLE_SYMBOL
1070
   384
1040
0.7853981633974483
1001
ACAD_DSTYLE_DIMARC_LENGTH_SYMBOL
1070
   379
1070
     1
  0
DIMSTYLE
105
2517
330
A
100
AcDbSymbolTableRecord
100
AcDbDimStyleTableRecord
  2
SYS$4
 70
     0
  4
"
 41
2.0
 42
1.0
 43
10.0
 44
1.0
 47
0.1
 48
0.1
 73
     0
 74
     0
 77
     1
 78
     8
 79
     2
140
3.2
141
0.0
143
0.0393701
146
0.71
147
1.5
173
     1
176
   256
177
   256
178
     2
271
     2
272
     2
283
     0
284
     8
288
     1
340
11
344
A66
371
    -1
372
    -1
1001
ACAD_DSTYLE_DIMJOGGED_JOGANGLE_SYMBOL
1070
   384
1040
0.7853981633974483
1001
ACAD_DSTYLE_DIMARC_LENGTH_SYMBOL
1070
   379
1070
     1
  0
DIMSTYLE
105
2518
330
A
100
AcDbSymbolTableRecord
100
AcDbDimStyleTableRecord
  2
SYS$6
 70
     0
  4
"
 41
2.0
 42
1.0
 43
10.0
 44
1.0
 47
0.1
 48
0.1
 73
     0
 74
     0
 78
     8
 79
     2
140
3.2
141
0.0
143
0.0393701
146
0.71
147
1.5
172
     1
176
   256
177
   256
178
     2
271
     2
272
     2
283
     0
284
     8
340
11
341
A66
371
    -1
372
    -1
1001
ACAD_DSTYLE_DIMJOGGED_JOGANGLE_SYMBOL
1070
   384
1040
0.7853981633974483
1001
ACAD_DSTYLE_DIMARC_LENGTH_SYMBOL
1070
   379
1070
     1
  0
DIMSTYLE
105
2519
330
A
100
AcDbSymbolTableRecord
100
AcDbDimStyleTableRecord
  2
SYS$7
 70
     0
  4
"
 41
2.0
 42
1.5
 43
10.0
 44
1.0
 47
0.1
 48
0.1
 73
     0
 74
     0
 77
     1
 78
     8
 79
     2
140
3.2
141
0.0
143
0.0393701
146
0.71
147
1.5
172
     1
176
   256
177
   256
178
     2
271
     2
272
     2
283
     0
284
     8
340
11
341
A66
342
A66
371
    -1
372
    -1
1001
ACAD_DSTYLE_DIMJOGGED_JOGANGLE_SYMBOL
1070
   384
1040
0.7853981633974483
1001
ACAD_DSTYLE_DIMARC_LENGTH_SYMBOL
1070
   379
1070
     1
  0
DIMSTYLE
105
251A
330
A
100
AcDbSymbolTableRecord
100
AcDbDimStyleTableRecord
  2
SYS$SF
 70
     0
  4
"
 41
1.0
 42
1.0
 43
10.0
 44
1.0
 47
0.1
 48
0.1
 73
     0
 74
     0
 75
     1
 76
     1
 77
     1
 78
     8
 79
     2
140
3.2
141
0.0
143
0.0393701
146
0.71
147
1.5
172
     1
176
   256
177
   256
178
     2
271
     2
272
     2
283
     0
284
     8
340
11
341
6C4
342
6C4
371
    -1
372
    -1
1001
ACAD_DSTYLE_DIMJOGGED_JOGANGLE_SYMBOL
1070
   384
1040
0.7853981633974483
1001
ACAD_DSTYLE_DIMARC_LENGTH_SYMBOL
1070
   379
1070
     1
  0
DIMSTYLE
105
251B
330
A
100
AcDbSymbolTableRecord
100
AcDbDimStyleTableRecord
  2
SYS$SH
 70
     0
  4
"
 41
1.0
 42
1.0
 43
10.0
 44
1.0
 47
0.1
 48
0.1
 73
     0
 74
     0
 75
     1
 76
     1
 77
     1
 78
     8
 79
     2
140
3.2
141
0.0
143
0.0393701
144
2.0
146
0.71
147
1.5
172
     1
173
     1
176
   256
177
   256
178
     2
271
     2
272
     2
283
     0
284
     8
340
11
341
6C4
343
72
344
6C4
371
    -1
372
    -1
1001
ACAD_DSTYLE_DIMJOGGED_JOGANGLE_SYMBOL
1070
   384
1040
0.7853981633974483
1001
ACAD_DSTYLE_DIMARC_LENGTH_SYMBOL
1070
   379
1070
     1
  0
DIMSTYLE
105
2A59
330
A
100
AcDbSymbolTableRecord
100
AcDbDimStyleTableRecord
  2
SYS$2
 70
     0
  4
"
 41
1.0
 42
1.5
 43
10.0
 44
1.0
 47
0.1
 48
0.1
 73
     0
 74
     0
 77
     1
 78
     8
 79
     2
140
3.2
141
0.0
143
0.0393701
146
0.71
147
1.5
172
     1
176
   256
177
   256
178
     2
271
     2
272
     2
283
     0
284
     8
340
11
342
6C4
371
    -1
372
    -1
1001
ACAD_DSTYLE_DIMJOGGED_JOGANGLE_SYMBOL
1070
   384
1040
0.7853981633974483
1001
ACAD_DSTYLE_DIMARC_LENGTH_SYMBOL
1070
   379
1070
     1
  0
DIMSTYLE
105
2AAB
102
{ACAD_REACTORS
330
16D08
330
16D1F
330
16D35
330
16D4B
330
16D61
330
16D77
330
16DE4
330
16E03
330
16E19
330
16E2F
330
16E45
330
178BA
330
178BB
330
178BC
330
17B68
330
17B7F
330
17B96
330
17BAC
330
17BC3
102
}
330
A
100
AcDbSymbolTableRecord
100
AcDbDimStyleTableRecord
  2
SYS$0
 70
     0
  4
"
 41
1.0
 42
1.5
 43
10.0
 44
1.0
 47
0.1
 48
0.1
 73
     0
 74
     0
 77
     1
 78
     8
 79
     2
140
3.2
141
0.0
143
0.0393701
146
0.71
147
1.5
172
     1
176
   256
177
   256
178
     2
271
     1
272
     1
283
     0
284
     8
340
11
341
A66
342
6C4
371
    -1
372
    -1
1001
ACAD_DSTYLE_DIMJOGGED_JOGANGLE_SYMBOL
1070
   384
1040
0.7853981633974483
1001
ACAD_DSTYLE_DIMARC_LENGTH_SYMBOL
1070
   379
1070
     1
  0
DIMSTYLE
105
E333
330
A
100
AcDbSymbolTableRecord
100
AcDbDimStyleTableRecord
  2
SYMBOL
 70
     0
  4
"
 41
1.0
 42
1.0
 43
10.0
 44
1.0
 47
0.2
 48
0.2000000002
 71
     1
 73
     0
 74
     0
 77
     1
 78
     8
 79
     2
140
3.5
141
0.0
143
0.0393701
146
0.6
147
1.5
172
     1
176
   256
177
   256
178
     7
271
     2
272
     2
283
     0
284
     8
340
11
341
A66
342
6C4
371
    -1
372
    -1
  0
DIMSTYLE
105
E921
330
A
100
AcDbSymbolTableRecord
100
AcDbDimStyleTableRecord
  2
SYSORG1P25
 70
     0
  4
"
 41
1.0
 42
1.0
 43
10.0
 44
1.0
 47
0.2
 48
0.2000000002
 71
     1
 73
     0
 74
     0
 77
     1
 78
     8
 79
     2
140
3.5
141
0.0
143
0.0393701
144
1.25000317891954
146
0.6
147
1.5
172
     1
176
   256
177
   256
178
     7
271
     2
272
     2
283
     0
284
     8
340
11
341
A66
342
6C4
371
    -1
372
    -1
  0
DIMSTYLE
105
E922
330
A
100
AcDbSymbolTableRecord
100
AcDbDimStyleTableRecord
  2
SYSORG1P25$0
 70
     0
  4
"
 41
1.0
 42
1.5
 43
10.0
 44
1.0
 47
0.1
 48
0.1
 73
     0
 74
     0
 77
     1
 78
     8
 79
     2
140
3.2
141
0.0
143
0.0393701
144
1.25000317891954
146
0.71
147
1.5
172
     1
176
   256
177
   256
178
     2
271
     1
272
     1
283
     0
284
     8
340
11
341
A66
342
6C4
371
    -1
372
    -1
  0
DIMSTYLE
105
F629
330
A
100
AcDbSymbolTableRecord
100
AcDbDimStyleTableRecord
  2
SYSIS0P66667
 70
     0
  4
"
 40
0.6666666666666666
 41
1.0
 42
1.0
 43
10.0
 44
1.0
 47
0.2
 48
0.2000000002
 71
     1
 73
     0
 74
     0
 77
     1
 78
     8
 79
     2
140
3.5
141
0.0
143
0.0393701
144
0.66667
146
0.6
147
1.5
172
     1
176
   256
177
   256
178
     7
271
     2
272
     2
283
     0
284
     8
340
11
341
A66
342
6C4
371
    -1
372
    -1
  0
DIMSTYLE
105
F631
330
A
100
AcDbSymbolTableRecord
100
AcDbDimStyleTableRecord
  2
SYSSS0P8165
 70
     0
  4
"
 40
0.8164964717411271
 41
1.0
 42
1.0
 43
10.0
 44
1.0
 47
0.2
 48
0.2000000002
 71
     1
 73
     0
 74
     0
 77
     1
 78
     8
 79
     2
140
3.5
141
0.0
143
0.0393701
144
0.8164999999999999
146
0.6
147
1.5
172
     1
176
   256
177
   256
178
     7
271
     2
272
     2
283
     0
284
     8
340
11
341
A66
342
6C4
371
    -1
372
    -1
  0
DIMSTYLE
105
12DB4
330
A
100
AcDbSymbolTableRecord
100
AcDbDimStyleTableRecord
  2
AM_ISO
 70
     0
  4
"
 41
2.5
 42
1.0
 43
10.0
 44
1.0
 47
0.1
 48
0.1
 73
     0
 74
     0
 77
     1
 78
     8
140
3.5
141
0.0
143
0.0393701
146
0.71
147
1.5
172
     1
176
   256
177
   256
178
     2
271
     2
272
     2
279
     2
284
     8
285
     8
286
     8
340
11
  0
DIMSTYLE
105
15361
330
A
100
AcDbSymbolTableRecord
100
AcDbDimStyleTableRecord
  2
AM_omu1
 70
     0
  4
"
 41
1.0
 42
1.0
 43
10.0
 44
1.0
 47
0.1
 48
0.1
 73
     0
 77
     1
 78
     8
 79
     2
140
2.500000000000003
141
0.0
143
0.0393701
146
0.71
147
1.5
172
     1
176
   256
177
   256
178
     2
179
     1
271
     2
272
     2
283
     0
284
     8
340
11
341
101A0
342
101A0
371
    -1
372
    -1
  0
DIMSTYLE
105
15362
330
A
100
AcDbSymbolTableRecord
100
AcDbDimStyleTableRecord
  2
AM_omu1$0
 70
     0
  4
"
 41
1.0
 42
1.0
 43
10.0
 44
1.0
 47
0.1
 48
0.1
 73
     0
 77
     1
 78
     8
 79
     2
140
2.500000000000003
141
0.0
143
0.0393701
146
0.71
147
1.5
172
     1
176
   256
177
   256
178
     2
179
     1
271
     2
272
     2
283
     0
284
     8
340
11
341
101A0
342
101A0
371
    -1
372
    -1
  0
DIMSTYLE
105
15363
330
A
100
AcDbSymbolTableRecord
100
AcDbDimStyleTableRecord
  2
AM_omu1$2
 70
     0
  4
"
 41
1.0
 42
1.0
 43
10.0
 44
1.0
 47
0.1
 48
0.1
 73
     0
 77
     1
 78
     8
 79
     2
140
2.500000000000003
141
0.0
143
0.0393701
146
0.71
147
1.5
172
     1
176
   256
177
   256
178
     2
179
     1
271
     2
272
     2
283
     0
284
     8
340
11
341
101A0
342
101A0
371
    -1
372
    -1
  0
DIMSTYLE
105
15364
330
A
100
AcDbSymbolTableRecord
100
AcDbDimStyleTableRecord
  2
AM_omu1$3
 70
     0
  4
"
 41
1.0
 42
1.0
 43
10.0
 44
1.0
 47
0.1
 48
0.1
 73
     0
 77
     1
 78
     8
 79
     2
140
2.500000000000003
141
0.0
143
0.0393701
146
0.71
147
1.5
172
     1
176
   256
177
   256
178
     2
179
     1
271
     2
272
     2
283
     0
284
     8
340
11
341
101A0
342
101A0
371
    -1
372
    -1
  0
DIMSTYLE
105
15365
330
A
100
AcDbSymbolTableRecord
100
AcDbDimStyleTableRecord
  2
AM_omu1$4
 70
     0
  4
"
 41
1.0
 42
1.0
 43
10.0
 44
1.0
 47
0.1
 48
0.1
 73
     0
 77
     1
 78
     8
 79
     2
140
2.500000000000003
141
0.0
143
0.0393701
146
0.71
147
1.5
172
     1
173
     1
176
   256
177
   256
178
     2
179
     1
271
     2
272
     2
283
     0
284
     8
340
11
341
101A0
343
6C4
344
101A0
371
    -1
372
    -1
  0
DIMSTYLE
105
15366
330
A
100
AcDbSymbolTableRecord
100
AcDbDimStyleTableRecord
  2
AM_ISO$6
 70
     0
  4
"
 41
2.5
 42
1.0
 43
10.0
 44
1.0
 47
0.1
 48
0.1
 73
     0
 74
     0
 78
     8
 79
     2
140
3.5
141
0.0
143
0.0393701
146
0.71
147
1.5
172
     1
176
   256
177
   256
178
     2
271
     2
272
     2
283
     0
284
     8
340
11
341
101A0
371
    -1
372
    -1
1001
ACAD_DSTYLE_DIMJOGGED_JOGANGLE_SYMBOL
1070
   384
1040
0.7853981633974483
1001
ACAD_DSTYLE_DIMARC_LENGTH_SYMBOL
1070
   379
1070
     1
  0
DIMSTYLE
105
15367
330
A
100
AcDbSymbolTableRecord
100
AcDbDimStyleTableRecord
  2
AM_omu1$7
 70
     0
  4
"
 41
2.5
 42
1.0
 43
10.0
 44
1.0
 47
0.1
 48
0.1
 73
     0
 77
     1
 78
     8
 79
     2
140
5.0
141
0.0
143
0.0393701
146
0.71
147
1.5
172
     1
176
   256
177
   256
178
     2
179
     1
271
     2
272
     2
283
     0
284
     8
340
11
341
101A0
342
101A0
371
    -1
372
    -1
  0
DIMSTYLE
105
15368
330
A
100
AcDbSymbolTableRecord
100
AcDbDimStyleTableRecord
  2
AM_ISO$SF
 70
     0
  4
"
 41
2.5
 42
1.0
 43
10.0
 44
1.0
 47
0.1
 48
0.1
 73
     0
 74
     0
 75
     1
 76
     1
 77
     1
 78
     8
 79
     2
140
3.5
141
0.0
143
0.0393701
146
0.71
147
1.5
172
     1
176
   256
177
   256
178
     2
271
     2
272
     2
283
     0
284
     8
340
11
341
101A0
342
101A0
371
    -1
372
    -1
1001
ACAD_DSTYLE_DIMJOGGED_JOGANGLE_SYMBOL
1070
   384
1040
0.7853981633974483
1001
ACAD_DSTYLE_DIMARC_LENGTH_SYMBOL
1070
   379
1070
     1
  0
DIMSTYLE
105
15369
330
A
100
AcDbSymbolTableRecord
100
AcDbDimStyleTableRecord
  2
AM_ISO$SH
 70
     0
  4
"
 41
2.5
 42
1.0
 43
10.0
 44
1.0
 47
0.1
 48
0.1
 73
     0
 74
     0
 75
     1
 76
     1
 77
     1
 78
     8
 79
     2
140
3.5
141
0.0
143
0.0393701
144
2.0
146
0.71
147
1.5
172
     1
173
     1
176
   256
177
   256
178
     2
271
     2
272
     2
283
     0
284
     8
340
11
341
101A0
343
72
344
101A0
371
    -1
372
    -1
1001
ACAD_DSTYLE_DIMJOGGED_JOGANGLE_SYMBOL
1070
   384
1040
0.7853981633974483
1001
ACAD_DSTYLE_DIMARC_LENGTH_SYMBOL
1070
   379
1070
     1
  0
DIMSTYLE
105
17782
330
A
100
AcDbSymbolTableRecord
100
AcDbDimStyleTableRecord
  2
AM_ISO$3
 70
     0
  4
"
 41
0.8
 42
1.0
 43
10.0
 44
1.0
 47
0.1
 48
0.1
 73
     0
 77
     1
 78
     8
 79
     2
140
3.2
141
0.0
143
0.0393701
146
0.71
147
0.9999999999999996
176
   256
177
   256
178
     2
271
     2
272
     2
283
     0
284
     8
288
     1
289
     0
340
11
341
6C4
342
6C4
371
    -1
372
    -1
1001
ACAD_DSTYLE_DIMJOGGED_JOGANGLE_SYMBOL
1070
   384
1040
0.7853981633974483
1001
ACAD_DSTYLE_DIMARC_LENGTH_SYMBOL
1070
   379
1070
     1
  0
DIMSTYLE
105
17783
330
A
100
AcDbSymbolTableRecord
100
AcDbDimStyleTableRecord
  2
AM_ISO$4
 70
     0
  4
"
 41
0.8
 42
1.0
 43
10.0
 44
1.0
 47
0.1
 48
0.1
 73
     0
 77
     1
 78
     8
 79
     2
140
3.2
141
0.0
143
0.0393701
146
0.71
147
1.0
173
     1
176
   256
177
   256
178
     2
271
     2
272
     2
283
     0
284
     8
288
     1
289
     0
340
11
344
6C4
371
    -1
372
    -1
1001
ACAD_DSTYLE_DIMJOGGED_JOGANGLE_SYMBOL
1070
   384
1040
0.7853981633974483
1001
ACAD_DSTYLE_DIMARC_LENGTH_SYMBOL
1070
   379
1070
     1
  0
DIMSTYLE
105
17784
330
A
100
AcDbSymbolTableRecord
100
AcDbDimStyleTableRecord
  2
AM_ISO$7
 70
     0
  4
"
 41
0.8
 42
1.0
 43
10.0
 44
1.0
 47
0.1
 48
0.1
 73
     0
 74
     0
 77
     1
 78
     8
 79
     2
140
3.2
141
0.0
143
0.0393701
146
0.71
147
1.0
172
     1
176
   256
177
   256
178
     2
271
     2
272
     2
283
     0
284
     8
340
11
341
6C4
342
6C4
371
    -1
372
    -1
1001
ACAD_DSTYLE_DIMJOGGED_JOGANGLE_SYMBOL
1070
   384
1040
0.7853981633974483
1001
ACAD_DSTYLE_DIMARC_LENGTH_SYMBOL
1070
   379
1070
     1
  0
DIMSTYLE
105
17785
330
A
100
AcDbSymbolTableRecord
100
AcDbDimStyleTableRecord
  2
AM_ISO$0
 70
     0
  4
"
 41
0.8
 42
1.0
 43
10.0
 44
1.0
 47
0.1
 48
0.1
 73
     0
 74
     0
 77
     1
 78
     8
 79
     2
140
3.2
141
0.0
143
0.0393701
146
0.71
147
0.9999999999999996
172
     1
176
   256
177
   256
178
     2
271
     2
272
     2
283
     0
284
     8
340
11
341
6C4
342
6C4
371
    -1
372
    -1
1001
ACAD_DSTYLE_DIMJOGGED_JOGANGLE_SYMBOL
1070
   384
1040
0.7853981633974483
1001
ACAD_DSTYLE_DIMARC_LENGTH_SYMBOL
1070
   379
1070
     1
  0
DIMSTYLE
105
17786
330
A
100
AcDbSymbolTableRecord
100
AcDbDimStyleTableRecord
  2
AM_ISO$2
 70
     0
  4
"
 41
0.8
 42
1.0
 43
10.0
 44
1.0
 47
0.1
 48
0.1
 73
     0
 74
     0
 77
     3
 78
     8
 79
     2
140
3.200000000000001
141
0.0
143
0.0393701
146
0.71
147
0.9999999999999996
172
     1
176
   256
177
   256
178
     2
271
     2
272
     2
283
     0
284
     8
340
11
341
6C4
342
6C4
371
    -1
372
    -1
1001
ACAD_DSTYLE_DIMJOGGED_JOGANGLE_SYMBOL
1070
   384
1040
0.7853981633974483
1001
ACAD_DSTYLE_DIMARC_LENGTH_SYMBOL
1070
   379
1070
     1
  0
ENDTAB
  0
TABLE
  2
BLOCK_RECORD
  5
1
330
0
100
AcDbSymbolTable
 70
    40
  0
BLOCK_RECORD
  5
1F
102
{ACAD_XDICTIONARY
360
8A
102
}
330
1
100
AcDbSymbolTableRecord
100
AcDbBlockTableRecord
  2
*Model_Space
340
22
  0
BLOCK_RECORD
  5
1B
330
1
100
AcDbSymbolTableRecord
100
AcDbBlockTableRecord
  2
*Paper_Space
340
1E
  0
BLOCK_RECORD
  5
23
330
1
100
AcDbSymbolTableRecord
100
AcDbBlockTableRecord
  2
*Paper_Space0
340
26
  0
BLOCK_RECORD
  5
72
330
1
100
AcDbSymbolTableRecord
100
AcDbBlockTableRecord
  2
GENAXEH
340
0
  0
BLOCK_RECORD
  5
6C4
330
1
100
AcDbSymbolTableRecord
100
AcDbBlockTableRecord
  2
_Dot
340
0
102
{BLKREFS
331
17A69
331
17A73
331
17A74
331
17A81
331
17A82
331
17D2B
331
17D2C
331
17D3A
331
17D3B
331
17D42
331
17D43
331
17D4B
331
17D4C
331
17D54
331
17D55
331
17D5D
331
17D5E
331
17D66
331
17D67
331
18271
331
18272
331
1827A
331
1827B
331
1828C
331
1828D
331
182B0
331
182B1
331
182B9
331
182BA
331
182C2
331
182C3
331
182D4
331
182D5
331
182DD
331
182DE
331
182E6
331
182E7
102
}
  0
BLOCK_RECORD
  5
A66
330
1
100
AcDbSymbolTableRecord
100
AcDbBlockTableRecord
  2
_OPEN30
340
0
  0
BLOCK_RECORD
  5
101A0
330
1
100
AcDbSymbolTableRecord
100
AcDbBlockTableRecord
  2
_DotSmall
340
0
  0
BLOCK_RECORD
  5
16D09
330
1
100
AcDbSymbolTableRecord
100
AcDbBlockTableRecord
  2
*D5
340
0
  0
BLOCK_RECORD
  5
16D20
330
1
100
AcDbSymbolTableRecord
100
AcDbBlockTableRecord
  2
*D6
340
0
  0
BLOCK_RECORD
  5
16D36
330
1
100
AcDbSymbolTableRecord
100
AcDbBlockTableRecord
  2
*D7
340
0
  0
BLOCK_RECORD
  5
16D4C
330
1
100
AcDbSymbolTableRecord
100
AcDbBlockTableRecord
  2
*D8
340
0
  0
BLOCK_RECORD
  5
16D62
330
1
100
AcDbSymbolTableRecord
100
AcDbBlockTableRecord
  2
*D9
340
0
  0
BLOCK_RECORD
  5
16D78
330
1
100
AcDbSymbolTableRecord
100
AcDbBlockTableRecord
  2
*D10
340
0
  0
BLOCK_RECORD
  5
16DE5
330
1
100
AcDbSymbolTableRecord
100
AcDbBlockTableRecord
  2
*D11
340
0
  0
BLOCK_RECORD
  5
16E04
330
1
100
AcDbSymbolTableRecord
100
AcDbBlockTableRecord
  2
*D12
340
0
  0
BLOCK_RECORD
  5
16E1A
330
1
100
AcDbSymbolTableRecord
100
AcDbBlockTableRecord
  2
*D13
340
0
  0
BLOCK_RECORD
  5
16E30
330
1
100
AcDbSymbolTableRecord
100
AcDbBlockTableRecord
  2
*D14
340
0
  0
BLOCK_RECORD
  5
16E46
330
1
100
AcDbSymbolTableRecord
100
AcDbBlockTableRecord
  2
*D15
340
0
  0
BLOCK_RECORD
  5
17746
330
1
100
AcDbSymbolTableRecord
100
AcDbBlockTableRecord
  2
GENDOT
340
0
102
{BLKREFS
331
17A56
331
17A57
331
17A68
331
18306
331
18307
102
}
  0
BLOCK_RECORD
  5
1797F
330
1
100
AcDbSymbolTableRecord
100
AcDbBlockTableRecord
  2
*D17
340
0
  0
BLOCK_RECORD
  5
17995
330
1
100
AcDbSymbolTableRecord
100
AcDbBlockTableRecord
  2
*D18
340
0
  0
BLOCK_RECORD
  5
179A3
330
1
100
AcDbSymbolTableRecord
100
AcDbBlockTableRecord
  2
*D19
340
0
  0
BLOCK_RECORD
  5
179B1
330
1
100
AcDbSymbolTableRecord
100
AcDbBlockTableRecord
  2
*D20
340
0
  0
BLOCK_RECORD
  5
17B69
330
1
100
AcDbSymbolTableRecord
100
AcDbBlockTableRecord
  2
*D21
340
0
  0
BLOCK_RECORD
  5
17B80
330
1
100
AcDbSymbolTableRecord
100
AcDbBlockTableRecord
  2
*D22
340
0
  0
BLOCK_RECORD
  5
17B97
330
1
100
AcDbSymbolTableRecord
100
AcDbBlockTableRecord
  2
*D23
340
0
  0
BLOCK_RECORD
  5
17BAD
330
1
100
AcDbSymbolTableRecord
100
AcDbBlockTableRecord
  2
*D24
340
0
  0
BLOCK_RECORD
  5
17BC4
330
1
100
AcDbSymbolTableRecord
100
AcDbBlockTableRecord
  2
*D25
340
0
  0
BLOCK_RECORD
  5
17DAB
330
1
100
AcDbSymbolTableRecord
100
AcDbBlockTableRecord
  2
*D26
340
0
  0
BLOCK_RECORD
  5
180DB
330
1
100
AcDbSymbolTableRecord
100
AcDbBlockTableRecord
  2
*S2696227
340
0
102
{BLKREFS
331
167CA
102
}
  0
BLOCK_RECORD
  5
180E2
330
1
100
AcDbSymbolTableRecord
100
AcDbBlockTableRecord
  2
*S2706328
340
0
102
{BLKREFS
331
167CC
102
}
  0
BLOCK_RECORD
  5
180E9
330
1
100
AcDbSymbolTableRecord
100
AcDbBlockTableRecord
  2
*S2716429
340
0
102
{BLKREFS
331
167CE
102
}
  0
BLOCK_RECORD
  5
180F0
330
1
100
AcDbSymbolTableRecord
100
AcDbBlockTableRecord
  2
*S2726530
340
0
102
{BLKREFS
331
167D0
102
}
  0
BLOCK_RECORD
  5
180F7
330
1
100
AcDbSymbolTableRecord
100
AcDbBlockTableRecord
  2
*S2736631
340
0
102
{BLKREFS
331
167D2
102
}
  0
BLOCK_RECORD
  5
180FE
330
1
100
AcDbSymbolTableRecord
100
AcDbBlockTableRecord
  2
*S2746732
340
0
102
{BLKREFS
331
167D4
102
}
  0
BLOCK_RECORD
  5
18105
330
1
100
AcDbSymbolTableRecord
100
AcDbBlockTableRecord
  2
*S2756833
340
0
102
{BLKREFS
331
167DC
102
}
  0
BLOCK_RECORD
  5
1810C
330
1
100
AcDbSymbolTableRecord
100
AcDbBlockTableRecord
  2
*S2766934
340
0
102
{BLKREFS
331
16CFD
102
}
  0
BLOCK_RECORD
  5
18113
330
1
100
AcDbSymbolTableRecord
100
AcDbBlockTableRecord
  2
*S2777035
340
0
102
{BLKREFS
331
16CFE
102
}
  0
BLOCK_RECORD
  5
1811A
330
1
100
AcDbSymbolTableRecord
100
AcDbBlockTableRecord
  2
*S2787136
340
0
102
{BLKREFS
331
16CFF
102
}
  0
ENDTAB
  0
ENDSEC
  0
SECTION
  2
BLOCKS
  0
BLOCK
  5
20
330
1F
100
AcDbEntity
  8
0
100
AcDbBlockBegin
  2
*Model_Space
 70
     0
 10
0.0
 20
0.0
 30
0.0
  3
*Model_Space
  1

  0
ENDBLK
  5
21
330
1F
100
AcDbEntity
  8
0
100
AcDbBlockEnd
  0
BLOCK
  5
1C
330
1B
100
AcDbEntity
 67
     1
  8
0
100
AcDbBlockBegin
  2
*Paper_Space
 70
     0
 10
0.0
 20
0.0
 30
0.0
  3
*Paper_Space
  1

  0
ENDBLK
  5
1D
330
1B
100
AcDbEntity
 67
     1
  8
0
100
AcDbBlockEnd
  0
BLOCK
  5
24
330
23
100
AcDbEntity
 67
     1
  8
0
100
AcDbBlockBegin
  2
*Paper_Space0
 70
     0
 10
0.0
 20
0.0
 30
0.0
  3
*Paper_Space0
  1

  0
ENDBLK
  5
25
330
23
100
AcDbEntity
 67
     1
  8
0
100
AcDbBlockEnd
  0
BLOCK
  5
74
330
72
100
AcDbEntity
  8
0
100
AcDbBlockBegin
  2
GENAXEH
 70
     0
 10
0.0
 20
0.0
 30
0.0
  3
GENAXEH
  1

  0
LINE
  5
73
330
72
100
AcDbEntity
  8
0
100
AcDbLine
 10
-1.0
 20
0.0
 30
0.0
 11
1.0
 21
0.0
 31
0.0
  0
ENDBLK
  5
75
330
72
100
AcDbEntity
  8
0
100
AcDbBlockEnd
  0
BLOCK
  5
6C7
330
6C4
100
AcDbEntity
  8
0
100
AcDbBlockBegin
  2
_Dot
 70
     0
 10
0.0
 20
0.0
 30
0.0
  3
_Dot
  1

  0
LWPOLYLINE
  5
6C5
330
6C4
100
AcDbEntity
  8
0
  6
ByBlock
 62
     0
100
AcDbPolyline
 90
        2
 70
     1
 43
0.5
 10
-0.25
 20
0.0
 42
1.0
 10
0.25
 20
0.0
 42
1.0
  0
LINE
  5
6C6
330
6C4
100
AcDbEntity
  8
0
  6
ByBlock
 62
     0
370
    -2
100
AcDbLine
 10
-0.5
 20
0.0
 30
0.0
 11
-1.0
 21
0.0
 31
0.0
  0
ENDBLK
  5
6C8
330
6C4
100
AcDbEntity
  8
0
100
AcDbBlockEnd
  0
BLOCK
  5
A6A
330
A66
100
AcDbEntity
  8
0
100
AcDbBlockBegin
  2
_OPEN30
 70
     0
 10
0.0
 20
0.0
 30
0.0
  3
_OPEN30
  1

  0
LINE
  5
A67
330
A66
100
AcDbEntity
  8
0
  6
ByBlock
 62
     0
100
AcDbLine
 10
-1.0
 20
0.26794919
 30
0.0
 11
0.0
 21
0.0
 31
0.0
  0
LINE
  5
A68
330
A66
100
AcDbEntity
  8
0
  6
ByBlock
 62
     0
100
AcDbLine
 10
0.0
 20
0.0
 30
0.0
 11
-1.0
 21
-0.26794919
 31
0.0
  0
LINE
  5
A69
330
A66
100
AcDbEntity
  8
0
  6
ByBlock
 62
     0
100
AcDbLine
 10
0.0
 20
0.0
 30
0.0
 11
-1.0
 21
0.0
 31
0.0
  0
ENDBLK
  5
A6B
330
A66
100
AcDbEntity
  8
0
100
AcDbBlockEnd
  0
BLOCK
  5
101A2
330
101A0
100
AcDbEntity
  8
0
100
AcDbBlockBegin
  2
_DotSmall
 70
     0
 10
0.0
 20
0.0
 30
0.0
  3
_DotSmall
  1

  0
LWPOLYLINE
  5
101A1
330
101A0
100
AcDbEntity
  8
0
  6
ByBlock
 62
     0
100
AcDbPolyline
 90
        2
 70
     1
 43
0.5
 10
-0.0625
 20
0.0
 42
1.0
 10
0.0625
 20
0.0
 42
1.0
  0
ENDBLK
  5
101A3
330
101A0
100
AcDbEntity
  8
0
100
AcDbBlockEnd
  0
BLOCK
  5
16D14
330
16D09
100
AcDbEntity
  8
0
100
AcDbBlockBegin
  2
*D5
 70
     1
 10
0.0
 20
0.0
 30
0.0
  3
*D5
  1

  0
LINE
  5
182B6
330
16D09
100
AcDbEntity
  8
AM_5
100
AcDbLine
 10
895.0610501854731
 20
387.4718934927998
 30
0.0
 11
906.5610501854731
 21
387.4718934927998
 31
0.0
  0
LINE
  5
182B7
330
16D09
100
AcDbEntity
  8
AM_5
100
AcDbLine
 10
899.0610501854732
 20
375.4718934927999
 30
0.0
 11
906.5610501854731
 21
375.4718934927999
 31
0.0
  0
LINE
  5
182B8
330
16D09
100
AcDbEntity
  8
AM_5
100
AcDbLine
 10
905.5610501854731
 20
386.4718934927998
 30
0.0
 11
905.5610501854731
 21
376.4718934927999
 31
0.0
  0
INSERT
  5
182B9
330
16D09
100
AcDbEntity
  8
AM_5
100
AcDbBlockReference
  2
_Dot
 10
905.5610501854731
 20
387.4718934927998
 30
0.0
 50
90.0
  0
INSERT
  5
182BA
330
16D09
100
AcDbEntity
  8
AM_5
100
AcDbBlockReference
  2
_Dot
 10
905.5610501854731
 20
375.4718934927999
 30
0.0
 50
270.0
  0
MTEXT
  5
182BB
330
16D09
100
AcDbEntity
  8
AM_5
 62
     2
100
AcDbMText
 10
902.4610501854731
 20
381.4718934928
 30
0.0
 40
3.2
 41
0.0
 71
     5
 72
     1
  1
12
 11
0.0000000000000001
 21
1.0
 31
0.0
 73
     1
 44
1.0
1001
ACAD
1000
MTEXTBEGIN
1070
    73
1070
     1
1070
    44
1040
1.0
1070
    74
1070
     0
1000
MTEXTEND
  0
POINT
  5
182BC
330
16D09
100
AcDbEntity
  8
Defpoints
 62
     0
100
AcDbPoint
 10
893.5610501854732
 20
387.4718934927998
 30
0.0
  0
POINT
  5
182BD
330
16D09
100
AcDbEntity
  8
Defpoints
 62
     0
100
AcDbPoint
 10
897.5610501854731
 20
375.4718934927999
 30
0.0
  0
POINT
  5
182BE
330
16D09
100
AcDbEntity
  8
Defpoints
 62
     0
100
AcDbPoint
 10
905.5610501854731
 20
375.4718934927999
 30
0.0
  0
ENDBLK
  5
16D15
330
16D09
100
AcDbEntity
  8
0
100
AcDbBlockEnd
  0
BLOCK
  5
16D2A
330
16D20
100
AcDbEntity
  8
0
100
AcDbBlockBegin
  2
*D6
 70
     1
 10
0.0
 20
0.0
 30
0.0
  3
*D6
  1

  0
LINE
  5
182BF
330
16D20
100
AcDbEntity
  8
AM_5
100
AcDbLine
 10
899.0610501854732
 20
375.4718934927999
 30
0.0
 11
906.5610501854731
 21
375.4718934927999
 31
0.0
  0
LINE
  5
182C0
330
16D20
100
AcDbEntity
  8
AM_5
100
AcDbLine
 10
892.0610501854731
 20
356.9718934927998
 30
0.0
 11
906.5610501854731
 21
356.9718934927998
 31
0.0
  0
LINE
  5
182C1
330
16D20
100
AcDbEntity
  8
AM_5
100
AcDbLine
 10
905.5610501854731
 20
374.4718934927999
 30
0.0
 11
905.5610501854731
 21
357.9718934927998
 31
0.0
  0
INSERT
  5
182C2
330
16D20
100
AcDbEntity
  8
AM_5
100
AcDbBlockReference
  2
_Dot
 10
905.5610501854731
 20
375.4718934927999
 30
0.0
 50
90.0
  0
INSERT
  5
182C3
330
16D20
100
AcDbEntity
  8
AM_5
100
AcDbBlockReference
  2
_Dot
 10
905.5610501854731
 20
356.9718934927998
 30
0.0
 50
270.0
  0
MTEXT
  5
182C4
330
16D20
100
AcDbEntity
  8
AM_5
 62
     2
100
AcDbMText
 10
902.4610501854731
 20
366.2218934928
 30
0.0
 40
3.2
 41
0.0
 71
     5
 72
     1
  1
18.5
 11
0.0000000000000001
 21
1.0
 31
0.0
 73
     1
 44
1.0
1001
ACAD
1000
MTEXTBEGIN
1070
    73
1070
     1
1070
    44
1040
1.0
1070
    74
1070
     0
1000
MTEXTEND
  0
POINT
  5
182C5
330
16D20
100
AcDbEntity
  8
Defpoints
 62
     0
100
AcDbPoint
 10
897.5610501854731
 20
375.4718934927999
 30
0.0
  0
POINT
  5
182C6
330
16D20
100
AcDbEntity
  8
Defpoints
 62
     0
100
AcDbPoint
 10
890.5610501854731
 20
356.9718934927998
 30
0.0
  0
POINT
  5
182C7
330
16D20
100
AcDbEntity
  8
Defpoints
 62
     0
100
AcDbPoint
 10
905.5610501854731
 20
356.9718934927998
 30
0.0
  0
ENDBLK
  5
16D2B
330
16D20
100
AcDbEntity
  8
0
100
AcDbBlockEnd
  0
BLOCK
  5
16D40
330
16D36
100
AcDbEntity
  8
0
100
AcDbBlockBegin
  2
*D7
 70
     1
 10
0.0
 20
0.0
 30
0.0
  3
*D7
  1

  0
LINE
  5
182AD
330
16D36
100
AcDbEntity
  8
AM_5
100
AcDbLine
 10
890.5610501854731
 20
356.9718934927998
 30
0.0
 11
906.5610501854731
 21
356.9718934927998
 31
0.0
  0
LINE
  5
182AE
330
16D36
100
AcDbEntity
  8
AM_5
100
AcDbLine
 10
898.5610501854731
 20
338.4718934927998
 30
0.0
 11
906.5610501854731
 21
338.4718934927998
 31
0.0
  0
LINE
  5
182AF
330
16D36
100
AcDbEntity
  8
AM_5
100
AcDbLine
 10
905.5610501854731
 20
355.9718934927998
 30
0.0
 11
905.5610501854731
 21
339.4718934927998
 31
0.0
  0
INSERT
  5
182B0
330
16D36
100
AcDbEntity
  8
AM_5
100
AcDbBlockReference
  2
_Dot
 10
905.5610501854731
 20
356.9718934927998
 30
0.0
 50
90.0
  0
INSERT
  5
182B1
330
16D36
100
AcDbEntity
  8
AM_5
100
AcDbBlockReference
  2
_Dot
 10
905.5610501854731
 20
338.4718934927998
 30
0.0
 50
270.0
  0
MTEXT
  5
182B2
330
16D36
100
AcDbEntity
  8
AM_5
 62
     2
100
AcDbMText
 10
902.4610501854731
 20
347.7218934928
 30
0.0
 40
3.2
 41
0.0
 71
     5
 72
     1
  1
18.5
 11
0.0000000000000001
 21
1.0
 31
0.0
 73
     1
 44
1.0
1001
ACAD
1000
MTEXTBEGIN
1070
    73
1070
     1
1070
    44
1040
1.0
1070
    74
1070
     0
1000
MTEXTEND
  0
POINT
  5
182B3
330
16D36
100
AcDbEntity
  8
Defpoints
 62
     0
100
AcDbPoint
 10
889.0610501854732
 20
356.9718934927998
 30
0.0
  0
POINT
  5
182B4
330
16D36
100
AcDbEntity
  8
Defpoints
 62
     0
100
AcDbPoint
 10
897.0610501854732
 20
338.4718934927998
 30
0.0
  0
POINT
  5
182B5
330
16D36
100
AcDbEntity
  8
Defpoints
 62
     0
100
AcDbPoint
 10
905.5610501854731
 20
338.4718934927998
 30
0.0
  0
ENDBLK
  5
16D41
330
16D36
100
AcDbEntity
  8
0
100
AcDbBlockEnd
  0
BLOCK
  5
16D56
330
16D4C
100
AcDbEntity
  8
0
100
AcDbBlockBegin
  2
*D8
 70
     1
 10
0.0
 20
0.0
 30
0.0
  3
*D8
  1

  0
LINE
  5
18289
330
16D4C
100
AcDbEntity
  8
AM_5
100
AcDbLine
 10
899.0610501854732
 20
338.4718934927998
 30
0.0
 11
906.5610501854731
 21
338.4718934927998
 31
0.0
  0
LINE
  5
1828A
330
16D4C
100
AcDbEntity
  8
AM_5
100
AcDbLine
 10
895.0610501854731
 20
312.9718934927999
 30
0.0
 11
906.5610501854731
 21
312.9718934927999
 31
0.0
  0
LINE
  5
1828B
330
16D4C
100
AcDbEntity
  8
AM_5
100
AcDbLine
 10
905.5610501854731
 20
337.4718934927998
 30
0.0
 11
905.5610501854731
 21
313.9718934927998
 31
0.0
  0
INSERT
  5
1828C
330
16D4C
100
AcDbEntity
  8
AM_5
100
AcDbBlockReference
  2
_Dot
 10
905.5610501854731
 20
338.4718934927998
 30
0.0
 50
90.0
  0
INSERT
  5
1828D
330
16D4C
100
AcDbEntity
  8
AM_5
100
AcDbBlockReference
  2
_Dot
 10
905.5610501854731
 20
312.9718934927999
 30
0.0
 50
270.0
  0
MTEXT
  5
1828E
330
16D4C
100
AcDbEntity
  8
AM_5
 62
     2
100
AcDbMText
 10
902.4610501854731
 20
325.7218934928
 30
0.0
 40
3.2
 41
0.0
 71
     5
 72
     1
  1
25.5
 11
0.0000000000000001
 21
1.0
 31
0.0
 73
     1
 44
1.0
1001
ACAD
1000
MTEXTBEGIN
1070
    73
1070
     1
1070
    44
1040
1.0
1070
    74
1070
     0
1000
MTEXTEND
  0
POINT
  5
1828F
330
16D4C
100
AcDbEntity
  8
Defpoints
 62
     0
100
AcDbPoint
 10
897.5610501854731
 20
338.4718934927998
 30
0.0
  0
POINT
  5
18290
330
16D4C
100
AcDbEntity
  8
Defpoints
 62
     0
100
AcDbPoint
 10
893.5610501854732
 20
312.9718934927999
 30
0.0
  0
POINT
  5
18291
330
16D4C
100
AcDbEntity
  8
Defpoints
 62
     0
100
AcDbPoint
 10
905.5610501854731
 20
312.9718934927999
 30
0.0
  0
ENDBLK
  5
16D57
330
16D4C
100
AcDbEntity
  8
0
100
AcDbBlockEnd
  0
BLOCK
  5
16D6C
330
16D62
100
AcDbEntity
  8
0
100
AcDbBlockBegin
  2
*D9
 70
     1
 10
0.0
 20
0.0
 30
0.0
  3
*D9
  1

  0
LINE
  5
17D28
330
16D62
100
AcDbEntity
  8
AM_5
100
AcDbLine
 10
895.0610501854731
 20
387.4718934927998
 30
0.0
 11
916.5610501854731
 21
387.4718934927998
 31
0.0
  0
LINE
  5
17D29
330
16D62
100
AcDbEntity
  8
AM_5
100
AcDbLine
 10
895.0610501854731
 20
312.9718934927999
 30
0.0
 11
916.5610501854731
 21
312.9718934927999
 31
0.0
  0
LINE
  5
17D2A
330
16D62
100
AcDbEntity
  8
AM_5
100
AcDbLine
 10
915.5610501854731
 20
386.4718934927998
 30
0.0
 11
915.5610501854731
 21
313.9718934927999
 31
0.0
  0
INSERT
  5
17D2B
330
16D62
100
AcDbEntity
  8
AM_5
100
AcDbBlockReference
  2
_Dot
 10
915.5610501854731
 20
387.4718934927998
 30
0.0
 50
90.0
  0
INSERT
  5
17D2C
330
16D62
100
AcDbEntity
  8
AM_5
100
AcDbBlockReference
  2
_Dot
 10
915.5610501854731
 20
312.9718934927999
 30
0.0
 50
270.0
  0
MTEXT
  5
17D2D
330
16D62
100
AcDbEntity
  8
AM_5
 62
     2
100
AcDbMText
 10
912.461050185473
 20
350.2218934928
 30
0.0
 40
3.2
 41
0.0
 71
     5
 72
     1
  1
74.5
 11
0.0000000000000001
 21
1.0
 31
0.0
 73
     1
 44
1.0
1001
ACAD
1000
MTEXTBEGIN
1070
    73
1070
     1
1070
    44
1040
1.0
1070
    74
1070
     0
1000
MTEXTEND
  0
POINT
  5
17D2E
330
16D62
100
AcDbEntity
  8
Defpoints
 62
     0
100
AcDbPoint
 10
893.5610501854732
 20
387.4718934927998
 30
0.0
  0
POINT
  5
17D2F
330
16D62
100
AcDbEntity
  8
Defpoints
 62
     0
100
AcDbPoint
 10
893.5610501854732
 20
312.9718934927999
 30
0.0
  0
POINT
  5
17D30
330
16D62
100
AcDbEntity
  8
Defpoints
 62
     0
100
AcDbPoint
 10
915.5610501854731
 20
312.9718934927999
 30
0.0
  0
ENDBLK
  5
16D6D
330
16D62
100
AcDbEntity
  8
0
100
AcDbBlockEnd
  0
BLOCK
  5
16D84
330
16D78
100
AcDbEntity
  8
0
100
AcDbBlockBegin
  2
*D10
 70
     1
 10
0.0
 20
0.0
 30
0.0
  3
*D10
  1

  0
LINE
  5
17D31
330
16D78
100
AcDbEntity
  8
AM_5
100
AcDbLine
 10
860.0610501854735
 20
390.4718934927998
 30
0.0
 11
916.5610501854731
 21
390.4718934927997
 31
0.0
  0
LINE
  5
17D32
330
16D78
100
AcDbEntity
  8
AM_5
100
AcDbLine
 10
895.0610501854731
 20
387.4718934927998
 30
0.0
 11
916.5610501854731
 21
387.4718934927998
 31
0.0
  0
LINE
  5
17D33
330
16D78
100
AcDbEntity
  8
AM_5
100
AcDbLine
 10
915.5610501854731
 20
391.4718934927997
 30
0.0
 11
915.5610501854731
 21
392.4718934927997
 31
0.0
  0
LINE
  5
17D34
330
16D78
100
AcDbEntity
  8
AM_5
100
AcDbLine
 10
915.5610501854731
 20
386.4718934927998
 30
0.0
 11
915.5610501854731
 21
385.4718934927999
 31
0.0
  0
LINE
  5
17D35
330
16D78
100
AcDbEntity
  8
AM_5
100
AcDbLine
 10
915.5610501854731
 20
388.9718934927998
 30
0.0
 11
909.7970598894574
 21
394.0265793470399
 31
0.0
  0
LINE
  5
17D36
330
16D78
100
AcDbEntity
  8
AM_5
100
AcDbLine
 10
909.7970598894574
 20
394.0265793470399
 30
0.0
 11
909.7970598894574
 21
398.5199126803733
 31
0.0
  0
MTEXT
  5
17D37
330
16D78
100
AcDbEntity
  8
AM_5
 62
     2
100
AcDbMText
 10
906.6970598894576
 20
396.2732460137067
 30
0.0
 40
3.2
 41
0.0
 71
     5
 72
     1
  1
3
 11
0.0000000000000001
 21
1.0
 31
0.0
 73
     1
 44
1.0
1001
ACAD
1000
MTEXTBEGIN
1070
    73
1070
     1
1070
    44
1040
1.0
1070
    74
1070
     0
1000
MTEXTEND
  0
LINE
  5
17D38
330
16D78
100
AcDbEntity
  8
AM_5
100
AcDbLine
 10
915.5610501854731
 20
390.4718934927997
 30
0.0
 11
915.5610501854731
 21
387.4718934927998
 31
0.0
  0
LINE
  5
17D39
330
16D78
100
AcDbEntity
  8
AM_5
100
AcDbLine
 10
915.5610501854731
 20
390.4718934927997
 30
0.0
 11
915.5610501854731
 21
387.4718934927998
 31
0.0
  0
INSERT
  5
17D3A
330
16D78
100
AcDbEntity
  8
AM_5
100
AcDbBlockReference
  2
_Dot
 10
915.5610501854731
 20
390.4718934927997
 30
0.0
 50
270.0
  0
INSERT
  5
17D3B
330
16D78
100
AcDbEntity
  8
AM_5
100
AcDbBlockReference
  2
_Dot
 10
915.5610501854731
 20
387.4718934927998
 30
0.0
 50
90.0
  0
POINT
  5
17D3C
330
16D78
100
AcDbEntity
  8
Defpoints
 62
     0
100
AcDbPoint
 10
858.5610501854731
 20
390.4718934927998
 30
0.0
  0
POINT
  5
17D3D
330
16D78
100
AcDbEntity
  8
Defpoints
 62
     0
100
AcDbPoint
 10
893.5610501854732
 20
387.4718934927998
 30
0.0
  0
POINT
  5
17D3E
330
16D78
100
AcDbEntity
  8
Defpoints
 62
     0
100
AcDbPoint
 10
915.5610501854731
 20
387.4718934927998
 30
0.0
  0
ENDBLK
  5
16D85
330
16D78
100
AcDbEntity
  8
0
100
AcDbBlockEnd
  0
BLOCK
  5
16DEF
330
16DE5
100
AcDbEntity
  8
0
100
AcDbBlockBegin
  2
*D11
 70
     1
 10
0.0
 20
0.0
 30
0.0
  3
*D11
  1

  0
LINE
  5
17D3F
330
16DE5
100
AcDbEntity
  8
AM_5
100
AcDbLine
 10
860.0610501854735
 20
390.4718934927998
 30
0.0
 11
916.5610501854727
 21
390.4718934927997
 31
0.0
  0
LINE
  5
17D40
330
16DE5
100
AcDbEntity
  8
AM_5
100
AcDbLine
 10
860.0610501854735
 20
464.9718934927998
 30
0.0
 11
916.5610501854727
 21
464.9718934927998
 31
0.0
  0
LINE
  5
17D41
330
16DE5
100
AcDbEntity
  8
AM_5
100
AcDbLine
 10
915.5610501854727
 20
391.4718934927997
 30
0.0
 11
915.5610501854727
 21
463.9718934927996
 31
0.0
  0
INSERT
  5
17D42
330
16DE5
100
AcDbEntity
  8
AM_5
100
AcDbBlockReference
  2
_Dot
 10
915.5610501854727
 20
390.4718934927997
 30
0.0
 50
270.0
  0
INSERT
  5
17D43
330
16DE5
100
AcDbEntity
  8
AM_5
100
AcDbBlockReference
  2
_Dot
 10
915.5610501854727
 20
464.9718934927998
 30
0.0
 50
90.0
  0
MTEXT
  5
17D44
330
16DE5
100
AcDbEntity
  8
AM_5
 62
     2
100
AcDbMText
 10
912.4610501854727
 20
427.7218934927999
 30
0.0
 40
3.2
 41
0.0
 71
     5
 72
     1
  1
74.5
 11
0.0000000000000001
 21
1.0
 31
0.0
 73
     1
 44
1.0
1001
ACAD
1000
MTEXTBEGIN
1070
    73
1070
     1
1070
    44
1040
1.0
1070
    74
1070
     0
1000
MTEXTEND
  0
POINT
  5
17D45
330
16DE5
100
AcDbEntity
  8
Defpoints
 62
     0
100
AcDbPoint
 10
858.5610501854731
 20
390.4718934927998
 30
0.0
  0
POINT
  5
17D46
330
16DE5
100
AcDbEntity
  8
Defpoints
 62
     0
100
AcDbPoint
 10
858.5610501854731
 20
464.9718934927998
 30
0.0
  0
POINT
  5
17D47
330
16DE5
100
AcDbEntity
  8
Defpoints
 62
     0
100
AcDbPoint
 10
915.5610501854727
 20
464.9718934927998
 30
0.0
  0
ENDBLK
  5
16DF0
330
16DE5
100
AcDbEntity
  8
0
100
AcDbBlockEnd
  0
BLOCK
  5
16E0E
330
16E04
100
AcDbEntity
  8
0
100
AcDbBlockBegin
  2
*D12
 70
     1
 10
0.0
 20
0.0
 30
0.0
  3
*D12
  1

  0
LINE
  5
17D48
330
16E04
100
AcDbEntity
  8
AM_5
100
AcDbLine
 10
860.0610501854735
 20
464.9718934927998
 30
0.0
 11
931.80123754336
 21
464.9718934927998
 31
0.0
  0
LINE
  5
17D49
330
16E04
100
AcDbEntity
  8
AM_5
100
AcDbLine
 10
895.0610501854731
 20
312.9718934927999
 30
0.0
 11
931.80123754336
 21
312.9718934927999
 31
0.0
  0
LINE
  5
17D4A
330
16E04
100
AcDbEntity
  8
AM_5
100
AcDbLine
 10
930.8012375433603
 20
463.9718934927996
 30
0.0
 11
930.8012375433603
 21
313.9718934927999
 31
0.0
  0
INSERT
  5
17D4B
330
16E04
100
AcDbEntity
  8
AM_5
100
AcDbBlockReference
  2
_Dot
 10
930.8012375433603
 20
464.9718934927998
 30
0.0
 50
90.0
  0
INSERT
  5
17D4C
330
16E04
100
AcDbEntity
  8
AM_5
100
AcDbBlockReference
  2
_Dot
 10
930.8012375433603
 20
312.9718934927999
 30
0.0
 50
270.0
  0
MTEXT
  5
17D4D
330
16E04
100
AcDbEntity
  8
AM_5
 62
     2
100
AcDbMText
 10
927.7012375433599
 20
388.9718934928
 30
0.0
 40
3.2
 41
0.0
 71
     5
 72
     1
  1
152
 11
0.0000000000000001
 21
1.0
 31
0.0
 73
     1
 44
1.0
1001
ACAD
1000
MTEXTBEGIN
1070
    73
1070
     1
1070
    44
1040
1.0
1070
    74
1070
     0
1000
MTEXTEND
  0
POINT
  5
17D4E
330
16E04
100
AcDbEntity
  8
Defpoints
 62
     0
100
AcDbPoint
 10
858.5610501854731
 20
464.9718934927998
 30
0.0
  0
POINT
  5
17D4F
330
16E04
100
AcDbEntity
  8
Defpoints
 62
     0
100
AcDbPoint
 10
893.5610501854732
 20
312.9718934927999
 30
0.0
  0
POINT
  5
17D50
330
16E04
100
AcDbEntity
  8
Defpoints
 62
     0
100
AcDbPoint
 10
930.8012375433603
 20
312.9718934927999
 30
0.0
  0
ENDBLK
  5
16E0F
330
16E04
100
AcDbEntity
  8
0
100
AcDbBlockEnd
  0
BLOCK
  5
16E24
330
16E1A
100
AcDbEntity
  8
0
100
AcDbBlockBegin
  2
*D13
 70
     1
 10
0.0
 20
0.0
 30
0.0
  3
*D13
  1

  0
LINE
  5
17D51
330
16E1A
100
AcDbEntity
  8
AM_5
100
AcDbLine
 10
898.5610501854731
 20
386.0426077070713
 30
0.0
 11
898.5610501854731
 21
478.9718944928001
 31
0.0
  0
LINE
  5
17D52
330
16E1A
100
AcDbEntity
  8
AM_5
100
AcDbLine
 10
848.5610501854731
 20
472.4718934927998
 30
0.0
 11
848.5610501854731
 21
478.9718944928001
 31
0.0
  0
LINE
  5
17D53
330
16E1A
100
AcDbEntity
  8
AM_5
100
AcDbLine
 10
897.5610501854731
 20
477.9718944928001
 30
0.0
 11
849.5610501854731
 21
477.9718944928001
 31
0.0
  0
INSERT
  5
17D54
330
16E1A
100
AcDbEntity
  8
AM_5
100
AcDbBlockReference
  2
_Dot
 10
898.5610501854731
 20
477.9718944928001
 30
0.0
  0
INSERT
  5
17D55
330
16E1A
100
AcDbEntity
  8
AM_5
100
AcDbBlockReference
  2
_Dot
 10
848.5610501854731
 20
477.9718944928001
 30
0.0
 50
180.0
  0
MTEXT
  5
17D56
330
16E1A
100
AcDbEntity
  8
AM_5
 62
     2
100
AcDbMText
 10
873.5610501854731
 20
481.0718944928001
 30
0.0
 40
3.2
 41
0.0
 71
     5
 72
     1
  1
50
 73
     1
 44
1.0
1001
ACAD
1000
MTEXTBEGIN
1070
    73
1070
     1
1070
    44
1040
1.0
1070
    74
1070
     0
1000
MTEXTEND
  0
POINT
  5
17D57
330
16E1A
100
AcDbEntity
  8
Defpoints
 62
     0
100
AcDbPoint
 10
898.5610501854731
 20
384.5426077070713
 30
0.0
  0
POINT
  5
17D58
330
16E1A
100
AcDbEntity
  8
Defpoints
 62
     0
100
AcDbPoint
 10
848.5610501854731
 20
470.9718934927998
 30
0.0
  0
POINT
  5
17D59
330
16E1A
100
AcDbEntity
  8
Defpoints
 62
     0
100
AcDbPoint
 10
848.5610501854731
 20
477.9718944928001
 30
0.0
  0
ENDBLK
  5
16E25
330
16E1A
100
AcDbEntity
  8
0
100
AcDbBlockEnd
  0
BLOCK
  5
16E3A
330
16E30
100
AcDbEntity
  8
0
100
AcDbBlockBegin
  2
*D14
 70
     1
 10
0.0
 20
0.0
 30
0.0
  3
*D14
  1

  0
LINE
  5
17D5A
330
16E30
100
AcDbEntity
  8
AM_5
100
AcDbLine
 10
848.5610501854731
 20
472.4718934927998
 30
0.0
 11
848.5610501854731
 21
478.9718944927995
 31
0.0
  0
LINE
  5
17D5B
330
16E30
100
AcDbEntity
  8
AM_5
100
AcDbLine
 10
798.5610501854737
 20
463.5426077070714
 30
0.0
 11
798.5610501854737
 21
478.9718944927995
 31
0.0
  0
LINE
  5
17D5C
330
16E30
100
AcDbEntity
  8
AM_5
100
AcDbLine
 10
847.5610501854731
 20
477.9718944927997
 30
0.0
 11
799.5610501854737
 21
477.9718944927997
 31
0.0
  0
INSERT
  5
17D5D
330
16E30
100
AcDbEntity
  8
AM_5
100
AcDbBlockReference
  2
_Dot
 10
848.5610501854731
 20
477.9718944927997
 30
0.0
  0
INSERT
  5
17D5E
330
16E30
100
AcDbEntity
  8
AM_5
100
AcDbBlockReference
  2
_Dot
 10
798.5610501854737
 20
477.9718944927997
 30
0.0
 50
180.0
  0
MTEXT
  5
17D5F
330
16E30
100
AcDbEntity
  8
AM_5
 62
     2
100
AcDbMText
 10
823.5610501854731
 20
481.0718944927996
 30
0.0
 40
3.2
 41
0.0
 71
     5
 72
     1
  1
50
 73
     1
 44
1.0
1001
ACAD
1000
MTEXTBEGIN
1070
    73
1070
     1
1070
    44
1040
1.0
1070
    74
1070
     0
1000
MTEXTEND
  0
POINT
  5
17D60
330
16E30
100
AcDbEntity
  8
Defpoints
 62
     0
100
AcDbPoint
 10
848.5610501854731
 20
470.9718934927998
 30
0.0
  0
POINT
  5
17D61
330
16E30
100
AcDbEntity
  8
Defpoints
 62
     0
100
AcDbPoint
 10
798.5610501854737
 20
462.0426077070714
 30
0.0
  0
POINT
  5
17D62
330
16E30
100
AcDbEntity
  8
Defpoints
 62
     0
100
AcDbPoint
 10
798.5610501854737
 20
477.9718944927997
 30
0.0
  0
ENDBLK
  5
16E3B
330
16E30
100
AcDbEntity
  8
0
100
AcDbBlockEnd
  0
BLOCK
  5
16E50
330
16E46
100
AcDbEntity
  8
0
100
AcDbBlockBegin
  2
*D15
 70
     1
 10
0.0
 20
0.0
 30
0.0
  3
*D15
  1

  0
LINE
  5
17D63
330
16E46
100
AcDbEntity
  8
AM_5
100
AcDbLine
 10
798.5610501854737
 20
463.5426077070714
 30
0.0
 11
798.5610501854737
 21
488.9718944927996
 31
0.0
  0
LINE
  5
17D64
330
16E46
100
AcDbEntity
  8
AM_5
100
AcDbLine
 10
898.5610501854731
 20
386.0426077070712
 30
0.0
 11
898.5610501854731
 21
488.9718944927996
 31
0.0
  0
LINE
  5
17D65
330
16E46
100
AcDbEntity
  8
AM_5
100
AcDbLine
 10
799.5610501854737
 20
487.9718944927995
 30
0.0
 11
897.5610501854731
 21
487.9718944927995
 31
0.0
  0
INSERT
  5
17D66
330
16E46
100
AcDbEntity
  8
AM_5
100
AcDbBlockReference
  2
_Dot
 10
798.5610501854737
 20
487.9718944927995
 30
0.0
 50
180.0
  0
INSERT
  5
17D67
330
16E46
100
AcDbEntity
  8
AM_5
100
AcDbBlockReference
  2
_Dot
 10
898.5610501854731
 20
487.9718944927995
 30
0.0
  0
MTEXT
  5
17D68
330
16E46
100
AcDbEntity
  8
AM_5
 62
     2
100
AcDbMText
 10
848.5610501854731
 20
491.0718944927997
 30
0.0
 40
3.2
 41
0.0
 71
     5
 72
     1
  1
100
 73
     1
 44
1.0
1001
ACAD
1000
MTEXTBEGIN
1070
    73
1070
     1
1070
    44
1040
1.0
1070
    74
1070
     0
1000
MTEXTEND
  0
POINT
  5
17D69
330
16E46
100
AcDbEntity
  8
Defpoints
 62
     0
100
AcDbPoint
 10
798.5610501854737
 20
462.0426077070714
 30
0.0
  0
POINT
  5
17D6A
330
16E46
100
AcDbEntity
  8
Defpoints
 62
     0
100
AcDbPoint
 10
898.5610501854731
 20
384.542607707071
 30
0.0
  0
POINT
  5
17D6B
330
16E46
100
AcDbEntity
  8
Defpoints
 62
     0
100
AcDbPoint
 10
898.5610501854731
 20
487.9718944927995
 30
0.0
  0
ENDBLK
  5
16E51
330
16E46
100
AcDbEntity
  8
0
100
AcDbBlockEnd
  0
BLOCK
  5
17747
330
17746
100
AcDbEntity
  8
0
100
AcDbBlockBegin
  2
GENDOT
 70
     0
 10
0.0
 20
0.0
 30
0.0
  3
GENDOT
  1

  0
LINE
  5
17748
330
17746
100
AcDbEntity
  8
0
100
AcDbLine
 10
0.0
 20
0.0
 30
0.0
 11
-1.0
 21
0.0
 31
0.0
  0
LWPOLYLINE
  5
17749
330
17746
100
AcDbEntity
  8
0
100
AcDbPolyline
 90
        2
 70
     1
 43
0.25
 10
-0.125
 20
0.0
 42
1.0
 10
0.125
 20
0.0
 42
1.0
  0
ENDBLK
  5
1774A
330
17746
100
AcDbEntity
  8
0
100
AcDbBlockEnd
  0
BLOCK
  5
17988
330
1797F
100
AcDbEntity
  8
0
100
AcDbBlockBegin
  2
*D17
 70
     1
 10
0.0
 20
0.0
 30
0.0
  3
*D17
  1

  0
LINE
  5
17A53
330
1797F
100
AcDbEntity
  8
AM_5
100
AcDbLine
 10
853.4496521959857
 20
528.4425486201828
 30
0.0
 11
843.6724481749594
 21
515.7773884738896
 31
0.0
  0
LINE
  5
17A54
330
1797F
100
AcDbEntity
  8
AM_5
100
AcDbLine
 10
842.4502976723314
 20
514.1942434556032
 30
0.0
 11
831.795111823083
 21
500.3917662976103
 31
0.0
  0
LINE
  5
17A55
330
1797F
100
AcDbEntity
  8
AM_5
100
AcDbLine
 10
831.795111823083
 20
500.3917662976103
 30
0.0
 11
824.6417784897497
 21
500.3917662976106
 31
0.0
  0
INSERT
  5
17A56
330
1797F
100
AcDbEntity
  8
AM_5
100
AcDbBlockReference
  2
GENDOT
 10
854.6718026986139
 20
530.0256936384694
 30
0.0
 41
2.0
 42
2.0
 43
2.0
 50
52.33270869295751
  0
INSERT
  5
17A57
330
1797F
100
AcDbEntity
  8
AM_5
100
AcDbBlockReference
  2
GENDOT
 10
842.4502976723314
 20
514.1942434556032
 30
0.0
 41
2.0
 42
2.0
 43
2.0
 50
232.3327086929575
  0
MTEXT
  5
17A58
330
1797F
100
AcDbEntity
  8
AM_5
 62
     2
100
AcDbMText
 10
827.4684451564164
 20
503.4917662976105
 30
0.0
 40
3.200000000000001
 41
0.0
 71
     5
 72
     1
  1
\U+220520
 73
     1
 44
1.0
1001
ACAD
1000
MTEXTBEGIN
1070
    73
1070
     1
1070
    44
1040
1.0
1070
    74
1070
     0
1000
MTEXTEND
  0
POINT
  5
17A59
330
1797F
100
AcDbEntity
  8
Defpoints
 62
     0
100
AcDbPoint
 10
842.4502976723314
 20
514.1942434556032
 30
0.0
  0
POINT
  5
17A5A
330
1797F
100
AcDbEntity
  8
Defpoints
 62
     0
100
AcDbPoint
 10
854.6718026986139
 20
530.0256936384694
 30
0.0
  0
ENDBLK
  5
17989
330
1797F
100
AcDbEntity
  8
0
100
AcDbBlockEnd
  0
BLOCK
  5
179A1
330
17995
100
AcDbEntity
  8
0
100
AcDbBlockBegin
  2
*D18
 70
     1
 10
0.0
 20
0.0
 30
0.0
  3
*D18
  1

  0
LINE
  5
17A63
330
17995
100
AcDbEntity
  8
AM_5
100
AcDbLine
 10
903.0610501854731
 20
522.109968547036
 30
0.0
 11
911.5610511854731
 21
522.109968547036
 31
0.0
  0
LINE
  5
17A64
330
17995
100
AcDbEntity
  8
AM_5
100
AcDbLine
 10
900.0610501854731
 20
520.609968547036
 30
0.0
 11
911.5610511854731
 21
520.609968547036
 31
0.0
  0
LINE
  5
17A65
330
17995
100
AcDbEntity
  8
AM_5
100
AcDbLine
 10
910.5610511854731
 20
523.109968547036
 30
0.0
 11
910.5610511854731
 21
524.109968547036
 31
0.0
  0
LINE
  5
17A66
330
17995
100
AcDbEntity
  8
AM_5
100
AcDbLine
 10
910.5610511854731
 20
519.609968547036
 30
0.0
 11
910.5610511854731
 21
511.2366352137026
 31
0.0
  0
LINE
  5
17A67
330
17995
100
AcDbEntity
  8
AM_5
100
AcDbLine
 10
910.5610511854731
 20
522.109968547036
 30
0.0
 11
910.5610511854731
 21
520.609968547036
 31
0.0
  0
INSERT
  5
17A68
330
17995
100
AcDbEntity
  8
AM_5
100
AcDbBlockReference
  2
GENDOT
 10
910.5610511854731
 20
522.109968547036
 30
0.0
 50
270.0
  0
INSERT
  5
17A69
330
17995
100
AcDbEntity
  8
AM_5
100
AcDbBlockReference
  2
_Dot
 10
910.5610511854731
 20
520.609968547036
 30
0.0
 50
90.0
  0
MTEXT
  5
17A6A
330
17995
100
AcDbEntity
  8
AM_5
 62
     2
100
AcDbMText
 10
907.461051185473
 20
514.9233018803696
 30
0.0
 40
3.2
 41
0.0
 71
     5
 72
     1
  1
1.5
 11
0.0000000000000001
 21
1.0
 31
0.0
 73
     1
 44
1.0
1001
ACAD
1000
MTEXTBEGIN
1070
    73
1070
     1
1070
    44
1040
1.0
1070
    74
1070
     0
1000
MTEXTEND
  0
POINT
  5
17A6B
330
17995
100
AcDbEntity
  8
Defpoints
 62
     0
100
AcDbPoint
 10
901.5610501854732
 20
522.109968547036
 30
0.0
  0
POINT
  5
17A6C
330
17995
100
AcDbEntity
  8
Defpoints
 62
     0
100
AcDbPoint
 10
898.5610501854731
 20
520.609968547036
 30
0.0
  0
POINT
  5
17A6D
330
17995
100
AcDbEntity
  8
Defpoints
 62
     0
100
AcDbPoint
 10
910.5610511854731
 20
520.609968547036
 30
0.0
  0
ENDBLK
  5
179A2
330
17995
100
AcDbEntity
  8
0
100
AcDbBlockEnd
  0
BLOCK
  5
179AF
330
179A3
100
AcDbEntity
  8
0
100
AcDbBlockBegin
  2
*D19
 70
     1
 10
0.0
 20
0.0
 30
0.0
  3
*D19
  1

  0
LINE
  5
17A6E
330
179A3
100
AcDbEntity
  8
AM_5
100
AcDbLine
 10
903.0610501854731
 20
522.109968547036
 30
0.0
 11
911.5610511854731
 21
522.109968547036
 31
0.0
  0
LINE
  5
17A6F
330
179A3
100
AcDbEntity
  8
AM_5
100
AcDbLine
 10
900.0610501854731
 20
524.609968547036
 30
0.0
 11
911.5610511854731
 21
524.609968547036
 31
0.0
  0
LINE
  5
17A70
330
179A3
100
AcDbEntity
  8
AM_5
100
AcDbLine
 10
910.5610511854731
 20
521.109968547036
 30
0.0
 11
910.5610511854731
 21
520.109968547036
 31
0.0
  0
LINE
  5
17A71
330
179A3
100
AcDbEntity
  8
AM_5
100
AcDbLine
 10
910.5610511854731
 20
525.609968547036
 30
0.0
 11
910.5610511854731
 21
534.3033018803692
 31
0.0
  0
LINE
  5
17A72
330
179A3
100
AcDbEntity
  8
AM_5
100
AcDbLine
 10
910.5610511854731
 20
522.109968547036
 30
0.0
 11
910.5610511854731
 21
524.609968547036
 31
0.0
  0
INSERT
  5
17A73
330
179A3
100
AcDbEntity
  8
AM_5
100
AcDbBlockReference
  2
_Dot
 10
910.5610511854731
 20
522.109968547036
 30
0.0
 50
90.0
  0
INSERT
  5
17A74
330
179A3
100
AcDbEntity
  8
AM_5
100
AcDbBlockReference
  2
_Dot
 10
910.5610511854731
 20
524.609968547036
 30
0.0
 50
270.0
  0
MTEXT
  5
17A75
330
179A3
100
AcDbEntity
  8
AM_5
 62
     2
100
AcDbMText
 10
907.461051185473
 20
530.4566352137028
 30
0.0
 40
3.2
 41
0.0
 71
     5
 72
     1
  1
2.5
 11
0.0000000000000001
 21
1.0
 31
0.0
 73
     1
 44
1.0
1001
ACAD
1000
MTEXTBEGIN
1070
    73
1070
     1
1070
    44
1040
1.0
1070
    74
1070
     0
1000
MTEXTEND
  0
POINT
  5
17A76
330
179A3
100
AcDbEntity
  8
Defpoints
 62
     0
100
AcDbPoint
 10
901.5610501854732
 20
522.109968547036
 30
0.0
  0
POINT
  5
17A77
330
179A3
100
AcDbEntity
  8
Defpoints
 62
     0
100
AcDbPoint
 10
898.5610501854731
 20
524.609968547036
 30
0.0
  0
POINT
  5
17A78
330
179A3
100
AcDbEntity
  8
Defpoints
 62
     0
100
AcDbPoint
 10
910.5610511854731
 20
524.609968547036
 30
0.0
  0
ENDBLK
  5
179B0
330
179A3
100
AcDbEntity
  8
0
100
AcDbBlockEnd
  0
BLOCK
  5
179BF
330
179B1
100
AcDbEntity
  8
0
100
AcDbBlockBegin
  2
*D20
 70
     1
 10
0.0
 20
0.0
 30
0.0
  3
*D20
  1

  0
LINE
  5
17A79
330
179B1
100
AcDbEntity
  8
AM_5
100
AcDbLine
 10
900.0610501854731
 20
524.609968547036
 30
0.0
 11
921.5610511854732
 21
524.609968547036
 31
0.0
  0
LINE
  5
17A7A
330
179B1
100
AcDbEntity
  8
AM_5
100
AcDbLine
 10
900.0610501854731
 20
520.609968547036
 30
0.0
 11
921.5610511854732
 21
520.609968547036
 31
0.0
  0
LINE
  5
17A7B
330
179B1
100
AcDbEntity
  8
AM_5
100
AcDbLine
 10
920.5610511854731
 20
525.609968547036
 30
0.0
 11
920.5610511854731
 21
526.609968547036
 31
0.0
  0
LINE
  5
17A7C
330
179B1
100
AcDbEntity
  8
AM_5
100
AcDbLine
 10
920.5610511854731
 20
519.609968547036
 30
0.0
 11
920.5610511854731
 21
518.609968547036
 31
0.0
  0
LINE
  5
17A7D
330
179B1
100
AcDbEntity
  8
AM_5
100
AcDbLine
 10
920.5610511854731
 20
531.8933415468882
 30
0.0
 11
920.5610511854731
 21
524.609968547036
 31
0.0
  0
MTEXT
  5
17A7E
330
179B1
100
AcDbEntity
  8
AM_5
 62
     2
100
AcDbMText
 10
917.4610511854732
 20
529.5933415468886
 30
0.0
 40
3.2
 41
0.0
 71
     5
 72
     1
  1
4
 11
0.0000000000000001
 21
1.0
 31
0.0
 73
     1
 44
1.0
1001
ACAD
1000
MTEXTBEGIN
1070
    73
1070
     1
1070
    44
1040
1.0
1070
    74
1070
     0
1000
MTEXTEND
  0
LINE
  5
17A7F
330
179B1
100
AcDbEntity
  8
AM_5
100
AcDbLine
 10
920.5610511854731
 20
524.609968547036
 30
0.0
 11
920.5610511854731
 21
520.609968547036
 31
0.0
  0
LINE
  5
17A80
330
179B1
100
AcDbEntity
  8
AM_5
100
AcDbLine
 10
920.5610511854731
 20
524.609968547036
 30
0.0
 11
920.5610511854731
 21
520.609968547036
 31
0.0
  0
INSERT
  5
17A81
330
179B1
100
AcDbEntity
  8
AM_5
100
AcDbBlockReference
  2
_Dot
 10
920.5610511854731
 20
524.609968547036
 30
0.0
 50
270.0
  0
INSERT
  5
17A82
330
179B1
100
AcDbEntity
  8
AM_5
100
AcDbBlockReference
  2
_Dot
 10
920.5610511854731
 20
520.609968547036
 30
0.0
 50
90.0
  0
POINT
  5
17A83
330
179B1
100
AcDbEntity
  8
Defpoints
 62
     0
100
AcDbPoint
 10
898.5610501854731
 20
524.609968547036
 30
0.0
  0
POINT
  5
17A84
330
179B1
100
AcDbEntity
  8
Defpoints
 62
     0
100
AcDbPoint
 10
898.5610501854731
 20
520.609968547036
 30
0.0
  0
POINT
  5
17A85
330
179B1
100
AcDbEntity
  8
Defpoints
 62
     0
100
AcDbPoint
 10
920.5610511854731
 20
520.609968547036
 30
0.0
  0
ENDBLK
  5
179C0
330
179B1
100
AcDbEntity
  8
0
100
AcDbBlockEnd
  0
BLOCK
  5
17B74
330
17B69
100
AcDbEntity
  8
0
100
AcDbBlockBegin
  2
*D21
 70
     1
 10
0.0
 20
0.0
 30
0.0
  3
*D21
  1

  0
LINE
  5
182D1
330
17B69
100
AcDbEntity
  8
AM_5
100
AcDbLine
 10
892.5610501854732
 20
332.05373400794
 30
0.0
 11
892.5610501854732
 21
304.9011782785286
 31
0.0
  0
LINE
  5
182D2
330
17B69
100
AcDbEntity
  8
AM_5
100
AcDbLine
 10
884.5610501854732
 20
350.4718934927999
 30
0.0
 11
884.5610501854732
 21
304.9011782785286
 31
0.0
  0
LINE
  5
182D3
330
17B69
100
AcDbEntity
  8
AM_5
100
AcDbLine
 10
891.5610501854731
 20
305.9011782785286
 30
0.0
 11
885.5610501854732
 21
305.9011782785286
 31
0.0
  0
INSERT
  5
182D4
330
17B69
100
AcDbEntity
  8
AM_5
100
AcDbBlockReference
  2
_Dot
 10
892.5610501854732
 20
305.9011782785286
 30
0.0
  0
INSERT
  5
182D5
330
17B69
100
AcDbEntity
  8
AM_5
100
AcDbBlockReference
  2
_Dot
 10
884.5610501854732
 20
305.9011782785286
 30
0.0
 50
180.0
  0
MTEXT
  5
182D6
330
17B69
100
AcDbEntity
  8
AM_5
 62
     2
100
AcDbMText
 10
888.5610501854731
 20
309.0011782785286
 30
0.0
 40
3.2
 41
0.0
 71
     5
 72
     1
  1
8
 73
     1
 44
1.0
1001
ACAD
1000
MTEXTBEGIN
1070
    73
1070
     1
1070
    44
1040
1.0
1070
    74
1070
     0
1000
MTEXTEND
  0
POINT
  5
182D7
330
17B69
100
AcDbEntity
  8
Defpoints
 62
     0
100
AcDbPoint
 10
892.5610501854732
 20
333.55373400794
 30
0.0
  0
POINT
  5
182D8
330
17B69
100
AcDbEntity
  8
Defpoints
 62
     0
100
AcDbPoint
 10
884.5610501854732
 20
351.9718934927998
 30
0.0
  0
POINT
  5
182D9
330
17B69
100
AcDbEntity
  8
Defpoints
 62
     0
100
AcDbPoint
 10
884.5610501854732
 20
305.9011782785286
 30
0.0
  0
ENDBLK
  5
17B75
330
17B69
100
AcDbEntity
  8
0
100
AcDbBlockEnd
  0
BLOCK
  5
17B8B
330
17B80
100
AcDbEntity
  8
0
100
AcDbBlockBegin
  2
*D22
 70
     1
 10
0.0
 20
0.0
 30
0.0
  3
*D22
  1

  0
LINE
  5
1826E
330
17B80
100
AcDbEntity
  8
AM_5
100
AcDbLine
 10
884.5610501854732
 20
350.4718934927999
 30
0.0
 11
884.5610501854732
 21
304.901178278528
 31
0.0
  0
LINE
  5
1826F
330
17B80
100
AcDbEntity
  8
AM_5
100
AcDbLine
 10
876.5610501854732
 20
331.9718934927999
 30
0.0
 11
876.5610501854732
 21
304.901178278528
 31
0.0
  0
LINE
  5
18270
330
17B80
100
AcDbEntity
  8
AM_5
100
AcDbLine
 10
883.5610501854731
 20
305.901178278528
 30
0.0
 11
877.5610501854732
 21
305.901178278528
 31
0.0
  0
INSERT
  5
18271
330
17B80
100
AcDbEntity
  8
AM_5
100
AcDbBlockReference
  2
_Dot
 10
884.5610501854732
 20
305.901178278528
 30
0.0
  0
INSERT
  5
18272
330
17B80
100
AcDbEntity
  8
AM_5
100
AcDbBlockReference
  2
_Dot
 10
876.5610501854732
 20
305.901178278528
 30
0.0
 50
180.0
  0
MTEXT
  5
18273
330
17B80
100
AcDbEntity
  8
AM_5
 62
     2
100
AcDbMText
 10
880.5610501854731
 20
309.001178278528
 30
0.0
 40
3.2
 41
0.0
 71
     5
 72
     1
  1
8
 73
     1
 44
1.0
1001
ACAD
1000
MTEXTBEGIN
1070
    73
1070
     1
1070
    44
1040
1.0
1070
    74
1070
     0
1000
MTEXTEND
  0
POINT
  5
18274
330
17B80
100
AcDbEntity
  8
Defpoints
 62
     0
100
AcDbPoint
 10
884.5610501854732
 20
351.9718934927998
 30
0.0
  0
POINT
  5
18275
330
17B80
100
AcDbEntity
  8
Defpoints
 62
     0
100
AcDbPoint
 10
876.5610501854732
 20
333.4718934927999
 30
0.0
  0
POINT
  5
18276
330
17B80
100
AcDbEntity
  8
Defpoints
 62
     0
100
AcDbPoint
 10
876.5610501854732
 20
305.901178278528
 30
0.0
  0
ENDBLK
  5
17B8C
330
17B80
100
AcDbEntity
  8
0
100
AcDbBlockEnd
  0
BLOCK
  5
17BA1
330
17B97
100
AcDbEntity
  8
0
100
AcDbBlockBegin
  2
*D23
 70
     1
 10
0.0
 20
0.0
 30
0.0
  3
*D23
  1

  0
LINE
  5
18277
330
17B97
100
AcDbEntity
  8
AM_5
100
AcDbLine
 10
892.5610501854732
 20
332.05373400794
 30
0.0
 11
892.5610501854732
 21
294.9011782785273
 31
0.0
  0
LINE
  5
18278
330
17B97
100
AcDbEntity
  8
AM_5
100
AcDbLine
 10
876.5610501854732
 20
331.9718934927999
 30
0.0
 11
876.5610501854732
 21
294.9011782785273
 31
0.0
  0
LINE
  5
18279
330
17B97
100
AcDbEntity
  8
AM_5
100
AcDbLine
 10
891.5610501854731
 20
295.9011782785273
 30
0.0
 11
877.5610501854732
 21
295.9011782785273
 31
0.0
  0
INSERT
  5
1827A
330
17B97
100
AcDbEntity
  8
AM_5
100
AcDbBlockReference
  2
_Dot
 10
892.5610501854732
 20
295.9011782785273
 30
0.0
  0
INSERT
  5
1827B
330
17B97
100
AcDbEntity
  8
AM_5
100
AcDbBlockReference
  2
_Dot
 10
876.5610501854732
 20
295.9011782785273
 30
0.0
 50
180.0
  0
MTEXT
  5
1827C
330
17B97
100
AcDbEntity
  8
AM_5
 62
     2
100
AcDbMText
 10
884.5610501854732
 20
299.0011782785273
 30
0.0
 40
3.2
 41
0.0
 71
     5
 72
     1
  1
16
 73
     1
 44
1.0
1001
ACAD
1000
MTEXTBEGIN
1070
    73
1070
     1
1070
    44
1040
1.0
1070
    74
1070
     0
1000
MTEXTEND
  0
POINT
  5
1827D
330
17B97
100
AcDbEntity
  8
Defpoints
 62
     0
100
AcDbPoint
 10
892.5610501854732
 20
333.55373400794
 30
0.0
  0
POINT
  5
1827E
330
17B97
100
AcDbEntity
  8
Defpoints
 62
     0
100
AcDbPoint
 10
876.5610501854732
 20
333.4718934927999
 30
0.0
  0
POINT
  5
1827F
330
17B97
100
AcDbEntity
  8
Defpoints
 62
     0
100
AcDbPoint
 10
876.5610501854732
 20
295.9011782785273
 30
0.0
  0
ENDBLK
  5
17BA2
330
17B97
100
AcDbEntity
  8
0
100
AcDbBlockEnd
  0
BLOCK
  5
17BB8
330
17BAD
100
AcDbEntity
  8
0
100
AcDbBlockBegin
  2
*D24
 70
     1
 10
0.0
 20
0.0
 30
0.0
  3
*D24
  1

  0
LINE
  5
182DA
330
17BAD
100
AcDbEntity
  8
AM_5
100
AcDbLine
 10
898.5610501854731
 20
314.4011792785286
 30
0.0
 11
898.5610501854731
 21
294.9011782785267
 31
0.0
  0
LINE
  5
182DB
330
17BAD
100
AcDbEntity
  8
AM_5
100
AcDbLine
 10
892.5610501854732
 20
332.05373400794
 30
0.0
 11
892.5610501854732
 21
294.9011782785267
 31
0.0
  0
LINE
  5
182DC
330
17BAD
100
AcDbEntity
  8
AM_5
100
AcDbLine
 10
897.5610501854731
 20
295.9011782785267
 30
0.0
 11
893.5610501854732
 21
295.9011782785267
 31
0.0
  0
INSERT
  5
182DD
330
17BAD
100
AcDbEntity
  8
AM_5
100
AcDbBlockReference
  2
_Dot
 10
898.5610501854731
 20
295.9011782785267
 30
0.0
  0
INSERT
  5
182DE
330
17BAD
100
AcDbEntity
  8
AM_5
100
AcDbBlockReference
  2
_Dot
 10
892.5610501854732
 20
295.9011782785267
 30
0.0
 50
180.0
  0
MTEXT
  5
182DF
330
17BAD
100
AcDbEntity
  8
AM_5
 62
     2
100
AcDbMText
 10
895.5610501854732
 20
299.0011782785267
 30
0.0
 40
3.2
 41
0.0
 71
     5
 72
     1
  1
6
 73
     1
 44
1.0
1001
ACAD
1000
MTEXTBEGIN
1070
    73
1070
     1
1070
    44
1040
1.0
1070
    74
1070
     0
1000
MTEXTEND
  0
POINT
  5
182E0
330
17BAD
100
AcDbEntity
  8
Defpoints
 62
     0
100
AcDbPoint
 10
898.5610501854731
 20
315.9011792785286
 30
0.0
  0
POINT
  5
182E1
330
17BAD
100
AcDbEntity
  8
Defpoints
 62
     0
100
AcDbPoint
 10
892.5610501854732
 20
333.55373400794
 30
0.0
  0
POINT
  5
182E2
330
17BAD
100
AcDbEntity
  8
Defpoints
 62
     0
100
AcDbPoint
 10
892.5610501854732
 20
295.9011782785267
 30
0.0
  0
ENDBLK
  5
17BB9
330
17BAD
100
AcDbEntity
  8
0
100
AcDbBlockEnd
  0
BLOCK
  5
17BCE
330
17BC4
100
AcDbEntity
  8
0
100
AcDbBlockBegin
  2
*D25
 70
     1
 10
0.0
 20
0.0
 30
0.0
  3
*D25
  1

  0
LINE
  5
182E3
330
17BC4
100
AcDbEntity
  8
AM_5
100
AcDbLine
 10
876.5610501854732
 20
331.9718934927999
 30
0.0
 11
876.5610501854732
 21
294.9011782785267
 31
0.0
  0
LINE
  5
182E4
330
17BC4
100
AcDbEntity
  8
AM_5
100
AcDbLine
 10
848.5610501854731
 20
305.4718934927999
 30
0.0
 11
848.5610501854731
 21
294.9011782785267
 31
0.0
  0
LINE
  5
182E5
330
17BC4
100
AcDbEntity
  8
AM_5
100
AcDbLine
 10
875.561050185473
 20
295.9011782785267
 30
0.0
 11
849.5610501854731
 21
295.9011782785267
 31
0.0
  0
INSERT
  5
182E6
330
17BC4
100
AcDbEntity
  8
AM_5
100
AcDbBlockReference
  2
_Dot
 10
876.5610501854732
 20
295.9011782785267
 30
0.0
  0
INSERT
  5
182E7
330
17BC4
100
AcDbEntity
  8
AM_5
100
AcDbBlockReference
  2
_Dot
 10
848.5610501854731
 20
295.9011782785267
 30
0.0
 50
180.0
  0
MTEXT
  5
182E8
330
17BC4
100
AcDbEntity
  8
AM_5
 62
     2
100
AcDbMText
 10
862.5610501854731
 20
299.0011782785267
 30
0.0
 40
3.2
 41
0.0
 71
     5
 72
     1
  1
28
 73
     1
 44
1.0
1001
ACAD
1000
MTEXTBEGIN
1070
    73
1070
     1
1070
    44
1040
1.0
1070
    74
1070
     0
1000
MTEXTEND
  0
POINT
  5
182E9
330
17BC4
100
AcDbEntity
  8
Defpoints
 62
     0
100
AcDbPoint
 10
876.5610501854732
 20
333.4718934927999
 30
0.0
  0
POINT
  5
182EA
330
17BC4
100
AcDbEntity
  8
Defpoints
 62
     0
100
AcDbPoint
 10
848.5610501854731
 20
306.9718934927999
 30
0.0
  0
POINT
  5
182EB
330
17BC4
100
AcDbEntity
  8
Defpoints
 62
     0
100
AcDbPoint
 10
848.5610501854731
 20
295.9011782785267
 30
0.0
  0
ENDBLK
  5
17BCF
330
17BC4
100
AcDbEntity
  8
0
100
AcDbBlockEnd
  0
BLOCK
  5
17DB4
330
17DAB
100
AcDbEntity
  8
0
100
AcDbBlockBegin
  2
*D26
 70
     1
 10
0.0
 20
0.0
 30
0.0
  3
*D26
  1

  0
LINE
  5
18303
330
17DAB
100
AcDbEntity
  8
AM_5
100
AcDbLine
 10
878.389309723348
 20
376.7833686401709
 30
0.0
 11
874.7327906475979
 21
374.1604183454289
 31
0.0
  0
LINE
  5
18304
330
17DAB
100
AcDbEntity
  8
AM_5
100
AcDbLine
 10
873.107671058376
 20
372.9946626588772
 30
0.0
 11
823.9909188180895
 21
337.7614812925261
 31
0.0
  0
LINE
  5
18305
330
17DAB
100
AcDbEntity
  8
AM_5
100
AcDbLine
 10
823.9909188180895
 20
337.7614812925261
 30
0.0
 11
807.0882521514228
 21
337.7614812925262
 31
0.0
  0
INSERT
  5
18306
330
17DAB
100
AcDbEntity
  8
AM_5
100
AcDbBlockReference
  2
GENDOT
 10
880.0144293125699
 20
377.9491243267226
 30
0.0
 41
2.0
 42
2.0
 43
2.0
 50
35.65321042022061
  0
INSERT
  5
18307
330
17DAB
100
AcDbEntity
  8
AM_5
100
AcDbBlockReference
  2
GENDOT
 10
873.107671058376
 20
372.9946626588772
 30
0.0
 41
2.0
 42
2.0
 43
2.0
 50
215.6532104202206
  0
MTEXT
  5
18308
330
17DAB
100
AcDbEntity
  8
AM_5
 62
     2
100
AcDbMText
 10
814.7895854847561
 20
343.5281479591925
 30
0.0
 40
3.200000000000001
 41
0.0
 71
     5
 72
     1
  1
10-%%c5.5×\P\U+22058.5サラ
 73
     1
 44
1.0
1001
ACAD
1000
MTEXTBEGIN
1070
    73
1070
     1
1070
    44
1040
1.0
1070
    74
1070
     0
1000
MTEXTEND
  0
POINT
  5
18309
330
17DAB
100
AcDbEntity
  8
Defpoints
 62
     0
100
AcDbPoint
 10
873.107671058376
 20
372.9946626588772
 30
0.0
  0
POINT
  5
1830A
330
17DAB
100
AcDbEntity
  8
Defpoints
 62
     0
100
AcDbPoint
 10
880.0144293125699
 20
377.9491243267226
 30
0.0
  0
ENDBLK
  5
17DB5
330
17DAB
100
AcDbEntity
  8
0
100
AcDbBlockEnd
  0
BLOCK
  5
180DF
330
180DB
100
AcDbEntity
  8
0
100
AcDbBlockBegin
  2
*S2696227
 70
     1
 10
0.0
 20
0.0
 30
0.0
  3
*S2696227
  1

  0
CIRCLE
  5
180DC
330
180DB
100
AcDbEntity
  8
AM_12
 62
     4
100
AcDbCircle
 10
862.7167692171111
 20
333.645014802181
 30
0.0
 40
1.75
  0
LINE
  5
180DD
330
180DB
100
AcDbEntity
  8
AM_12
 62
     4
100
AcDbLine
 10
864.4667692171109
 20
331.895014802181
 30
0.0
 11
860.9667692171111
 21
335.3950148021811
 31
0.0
  0
LINE
  5
180DE
330
180DB
100
AcDbEntity
  8
AM_12
 62
     4
100
AcDbLine
 10
860.9667692171111
 20
331.895014802181
 30
0.0
 11
864.4667692171109
 21
335.3950148021811
 31
0.0
  0
ENDBLK
  5
180E0
330
180DB
100
AcDbEntity
  8
0
100
AcDbBlockEnd
  0
BLOCK
  5
180E6
330
180E2
100
AcDbEntity
  8
0
100
AcDbBlockBegin
  2
*S2706328
 70
     1
 10
0.0
 20
0.0
 30
0.0
  3
*S2706328
  1

  0
CIRCLE
  5
180E3
330
180E2
100
AcDbEntity
  8
AM_12
 62
     4
100
AcDbCircle
 10
861.6564151304842
 20
465.9060840836962
 30
0.0
 40
1.75
  0
LINE
  5
180E4
330
180E2
100
AcDbEntity
  8
AM_12
 62
     4
100
AcDbLine
 10
863.4064151304842
 20
464.1560840836961
 30
0.0
 11
859.9064151304842
 21
467.6560840836962
 31
0.0
  0
LINE
  5
180E5
330
180E2
100
AcDbEntity
  8
AM_12
 62
     4
100
AcDbLine
 10
859.9064151304842
 20
464.1560840836961
 30
0.0
 11
863.4064151304842
 21
467.6560840836962
 31
0.0
  0
ENDBLK
  5
180E7
330
180E2
100
AcDbEntity
  8
0
100
AcDbBlockEnd
  0
BLOCK
  5
180ED
330
180E9
100
AcDbEntity
  8
0
100
AcDbBlockBegin
  2
*S2716429
 70
     1
 10
0.0
 20
0.0
 30
0.0
  3
*S2716429
  1

  0
CIRCLE
  5
180EA
330
180E9
100
AcDbEntity
  8
AM_12
 62
     4
100
AcDbCircle
 10
842.4257413454139
 20
311.6728320110904
 30
0.0
 40
1.75
  0
LINE
  5
180EB
330
180E9
100
AcDbEntity
  8
AM_12
 62
     4
100
AcDbLine
 10
844.1757413454137
 20
309.9228320110904
 30
0.0
 11
840.6757413454139
 21
313.4228320110903
 31
0.0
  0
LINE
  5
180EC
330
180E9
100
AcDbEntity
  8
AM_12
 62
     4
100
AcDbLine
 10
840.6757413454139
 20
309.9228320110904
 30
0.0
 11
844.1757413454137
 21
313.4228320110903
 31
0.0
  0
ENDBLK
  5
180EE
330
180E9
100
AcDbEntity
  8
0
100
AcDbBlockEnd
  0
BLOCK
  5
180F4
330
180F0
100
AcDbEntity
  8
0
100
AcDbBlockBegin
  2
*S2726530
 70
     1
 10
0.0
 20
0.0
 30
0.0
  3
*S2726530
  1

  0
CIRCLE
  5
180F1
330
180F0
100
AcDbEntity
  8
AM_12
 62
     4
100
AcDbCircle
 10
843.4952150265186
 20
466.4986296754692
 30
0.0
 40
1.75
  0
LINE
  5
180F2
330
180F0
100
AcDbEntity
  8
AM_12
 62
     4
100
AcDbLine
 10
845.2452150265184
 20
464.7486296754692
 30
0.0
 11
841.7452150265186
 21
468.2486296754692
 31
0.0
  0
LINE
  5
180F3
330
180F0
100
AcDbEntity
  8
AM_12
 62
     4
100
AcDbLine
 10
841.7452150265186
 20
464.7486296754692
 30
0.0
 11
845.2452150265184
 21
468.2486296754692
 31
0.0
  0
ENDBLK
  5
180F5
330
180F0
100
AcDbEntity
  8
0
100
AcDbBlockEnd
  0
BLOCK
  5
180FB
330
180F7
100
AcDbEntity
  8
0
100
AcDbBlockBegin
  2
*S2736631
 70
     1
 10
0.0
 20
0.0
 30
0.0
  3
*S2736631
  1

  0
CIRCLE
  5
180F8
330
180F7
100
AcDbEntity
  8
AM_12
 62
     4
100
AcDbCircle
 10
845.3707514630831
 20
401.0624735019733
 30
0.0
 40
1.75
  0
LINE
  5
180F9
330
180F7
100
AcDbEntity
  8
AM_12
 62
     4
100
AcDbLine
 10
847.1207514630831
 20
399.3124735019735
 30
0.0
 11
843.6207514630831
 21
402.8124735019733
 31
0.0
  0
LINE
  5
180FA
330
180F7
100
AcDbEntity
  8
AM_12
 62
     4
100
AcDbLine
 10
843.6207514630831
 20
399.3124735019735
 30
0.0
 11
847.1207514630831
 21
402.8124735019733
 31
0.0
  0
ENDBLK
  5
180FC
330
180F7
100
AcDbEntity
  8
0
100
AcDbBlockEnd
  0
BLOCK
  5
18102
330
180FE
100
AcDbEntity
  8
0
100
AcDbBlockBegin
  2
*S2746732
 70
     1
 10
0.0
 20
0.0
 30
0.0
  3
*S2746732
  1

  0
CIRCLE
  5
180FF
330
180FE
100
AcDbEntity
  8
AM_12
 62
     4
100
AcDbCircle
 10
845.5535063938281
 20
389.8894939642675
 30
0.0
 40
1.75
  0
LINE
  5
18100
330
180FE
100
AcDbEntity
  8
AM_12
 62
     4
100
AcDbLine
 10
847.3035063938281
 20
388.1394939642675
 30
0.0
 11
843.8035063938281
 21
391.6394939642677
 31
0.0
  0
LINE
  5
18101
330
180FE
100
AcDbEntity
  8
AM_12
 62
     4
100
AcDbLine
 10
843.8035063938281
 20
388.1394939642675
 30
0.0
 11
847.3035063938281
 21
391.6394939642677
 31
0.0
  0
ENDBLK
  5
18103
330
180FE
100
AcDbEntity
  8
0
100
AcDbBlockEnd
  0
BLOCK
  5
18109
330
18105
100
AcDbEntity
  8
0
100
AcDbBlockBegin
  2
*S2756833
 70
     1
 10
0.0
 20
0.0
 30
0.0
  3
*S2756833
  1

  0
CIRCLE
  5
18106
330
18105
100
AcDbEntity
  8
AM_12
 62
     4
100
AcDbCircle
 10
843.4952150265186
 20
311.4451573101305
 30
0.0
 40
1.75
  0
LINE
  5
18107
330
18105
100
AcDbEntity
  8
AM_12
 62
     4
100
AcDbLine
 10
845.2452150265184
 20
313.1951573101305
 30
0.0
 11
841.7452150265186
 21
309.6951573101305
 31
0.0
  0
LINE
  5
18108
330
18105
100
AcDbEntity
  8
AM_12
 62
     4
100
AcDbLine
 10
841.7452150265186
 20
313.1951573101305
 30
0.0
 11
845.2452150265184
 21
309.6951573101305
 31
0.0
  0
ENDBLK
  5
1810A
330
18105
100
AcDbEntity
  8
0
100
AcDbBlockEnd
  0
BLOCK
  5
18110
330
1810C
100
AcDbEntity
  8
0
100
AcDbBlockBegin
  2
*S2766934
 70
     1
 10
0.0
 20
0.0
 30
0.0
  3
*S2766934
  1

  0
CIRCLE
  5
1810D
330
1810C
100
AcDbEntity
  8
AM_12
 62
     4
100
AcDbCircle
 10
835.4656852404625
 20
465.9060840836962
 30
0.0
 40
1.75
  0
LINE
  5
1810E
330
1810C
100
AcDbEntity
  8
AM_12
 62
     4
100
AcDbLine
 10
833.7156852404625
 20
464.1560840836961
 30
0.0
 11
837.2156852404625
 21
467.6560840836962
 31
0.0
  0
LINE
  5
1810F
330
1810C
100
AcDbEntity
  8
AM_12
 62
     4
100
AcDbLine
 10
837.2156852404625
 20
464.1560840836961
 30
0.0
 11
833.7156852404625
 21
467.6560840836962
 31
0.0
  0
ENDBLK
  5
18111
330
1810C
100
AcDbEntity
  8
0
100
AcDbBlockEnd
  0
BLOCK
  5
18117
330
18113
100
AcDbEntity
  8
0
100
AcDbBlockBegin
  2
*S2777035
 70
     1
 10
0.0
 20
0.0
 30
0.0
  3
*S2777035
  1

  0
CIRCLE
  5
18114
330
18113
100
AcDbEntity
  8
AM_12
 62
     4
100
AcDbCircle
 10
853.6268853444282
 20
466.4986296754691
 30
0.0
 40
1.75
  0
LINE
  5
18115
330
18113
100
AcDbEntity
  8
AM_12
 62
     4
100
AcDbLine
 10
851.8768853444282
 20
464.7486296754691
 30
0.0
 11
855.3768853444282
 21
468.2486296754691
 31
0.0
  0
LINE
  5
18116
330
18113
100
AcDbEntity
  8
AM_12
 62
     4
100
AcDbLine
 10
855.3768853444282
 20
464.7486296754691
 30
0.0
 11
851.8768853444282
 21
468.2486296754691
 31
0.0
  0
ENDBLK
  5
18118
330
18113
100
AcDbEntity
  8
0
100
AcDbBlockEnd
  0
BLOCK
  5
1811E
330
1811A
100
AcDbEntity
  8
0
100
AcDbBlockBegin
  2
*S2787136
 70
     1
 10
0.0
 20
0.0
 30
0.0
  3
*S2787136
  1

  0
CIRCLE
  5
1811B
330
1811A
100
AcDbEntity
  8
AM_12
 62
     4
100
AcDbCircle
 10
851.7513489078632
 20
401.0624735019733
 30
0.0
 40
1.75
  0
LINE
  5
1811C
330
1811A
100
AcDbEntity
  8
AM_12
 62
     4
100
AcDbLine
 10
850.0013489078632
 20
399.3124735019735
 30
0.0
 11
853.5013489078632
 21
402.8124735019733
 31
0.0
  0
LINE
  5
1811D
330
1811A
100
AcDbEntity
  8
AM_12
 62
     4
100
AcDbLine
 10
853.5013489078632
 20
399.3124735019735
 30
0.0
 11
850.0013489078632
 21
402.8124735019733
 31
0.0
  0
ENDBLK
  5
1811F
330
1811A
100
AcDbEntity
  8
0
100
AcDbBlockEnd
  0
ENDSEC
  0
SECTION
  2
ENTITIES
  0
AMDTACMWBLOCKBOMENTITY
  5
1311C
330
1F
100
AcDbEntity
  8
AM_5
 92
        8
310
0800000000000000
  0
AMDTACMWBLOCKBOMENTITY
  5
1311D
330
1F
100
AcDbEntity
  8
AM_5
 92
        8
310
0800000000000000
  0
AMDTACMWBLOCKBOMENTITY
  5
1311E
330
1F
100
AcDbEntity
  8
AM_5
 92
        8
310
0800000000000000
  0
AMDTACMWBLOCKBOMENTITY
  5
1311F
330
1F
100
AcDbEntity
  8
AM_5
 92
        8
310
0800000000000000
  0
AMDTACMWBLOCKBOMENTITY
  5
13120
330
1F
100
AcDbEntity
  8
AM_5
 92
        8
310
0800000000000000
  0
AMDTACMWBLOCKBOMENTITY
  5
13121
330
1F
100
AcDbEntity
  8
AM_5
 92
        8
310
0800000000000000
  0
AMDTACMWBLOCKBOMENTITY
  5
13A60
330
1F
100
AcDbEntity
  8
AM_5
 92
        8
310
0800000000000000
  0
AMDTACMWBLOCKBOMENTITY
  5
13A61
330
1F
100
AcDbEntity
  8
AM_5
 92
        8
310
0800000000000000
  0
AMDTACMWBLOCKBOMENTITY
  5
13A62
330
1F
100
AcDbEntity
  8
AM_5
 92
        8
310
0800000000000000
  0
AMDTACMWBLOCKBOMENTITY
  5
13A63
330
1F
100
AcDbEntity
  8
AM_5
 92
        8
310
0800000000000000
  0
AMDTACMWBLOCKBOMENTITY
  5
13A64
330
1F
100
AcDbEntity
  8
AM_5
 92
        8
310
0800000000000000
  0
AMDTACMWBLOCKBOMENTITY
  5
14222
330
1F
100
AcDbEntity
  8
AM_5
 92
        8
310
0800000000000000
  0
AMDTACMWBLOCKBOMENTITY
  5
14224
330
1F
100
AcDbEntity
  8
AM_5
 92
        8
310
0800000000000000
  0
AMDTACMWBLOCKBOMENTITY
  5
14226
330
1F
100
AcDbEntity
  8
AM_5
 92
        8
310
0800000000000000
  0
AMDTACMWBLOCKBOMENTITY
  5
14228
330
1F
100
AcDbEntity
  8
AM_5
 92
        8
310
0800000000000000
  0
AMDTACMWBLOCKBOMENTITY
  5
1422A
330
1F
100
AcDbEntity
  8
AM_5
 92
        8
310
0800000000000000
  0
AMDTACMWBLOCKBOMENTITY
  5
1422C
330
1F
100
AcDbEntity
  8
AM_5
 92
        8
310
0800000000000000
  0
AMDTACMWBLOCKBOMENTITY
  5
14B93
330
1F
100
AcDbEntity
  8
AM_5
 92
        8
310
0800000000000000
  0
AMDTACMWBLOCKBOMENTITY
  5
14B94
330
1F
100
AcDbEntity
  8
AM_5
 92
        8
310
0800000000000000
  0
AMDTACMWBLOCKBOMENTITY
  5
14B95
330
1F
100
AcDbEntity
  8
AM_5
 92
        8
310
0800000000000000
  0
AMDTACMWBLOCKBOMENTITY
  5
14B96
330
1F
100
AcDbEntity
  8
AM_5
 92
        8
310
0800000000000000
  0
AMDTACMWBLOCKBOMENTITY
  5
14B97
330
1F
100
AcDbEntity
  8
AM_5
 92
        8
310
0800000000000000
  0
AMDTACMWBLOCKBOMENTITY
  5
14B98
330
1F
100
AcDbEntity
  8
AM_5
 92
        8
310
0800000000000000
  0
LINE
  5
16769
330
1F
100
AcDbEntity
  8
AM_0
100
AcDbLine
 10
838.5610501854731
 20
312.9718934927999
 30
0.0
 11
893.5610501854732
 21
312.9718934927999
 31
0.0
  0
LINE
  5
1676B
330
1F
100
AcDbEntity
  8
AM_0
100
AcDbLine
 10
838.5610501854731
 20
387.4718934927998
 30
0.0
 11
893.5610501854732
 21
387.4718934927998
 31
0.0
  0
LINE
  5
1676F
330
1F
100
AcDbEntity
  8
AM_0
 48
0.5
100
AcDbLine
 10
840.0610501854732
 20
467.9718934928001
 30
0.0
 11
857.0610501854732
 21
467.9718934927998
 31
0.0
  0
LINE
  5
16770
330
1F
100
AcDbEntity
  8
AM_0
100
AcDbLine
 10
838.5610501854731
 20
312.9718934927999
 30
0.0
 11
838.5610501854731
 21
464.9718934927999
 31
0.0
  0
LINE
  5
16771
330
1F
100
AcDbEntity
  8
AM_0
 48
0.5
100
AcDbLine
 10
840.0610501854732
 20
464.9718934927999
 30
0.0
 11
840.0610501854732
 21
467.9718934928001
 31
0.0
  0
LINE
  5
16772
330
1F
100
AcDbEntity
  8
AM_0
100
AcDbLine
 10
898.5610501854731
 20
315.9011792785286
 30
0.0
 11
898.5610501854731
 21
384.5426077070713
 31
0.0
  0
LINE
  5
16773
330
1F
100
AcDbEntity
  8
AM_7
 48
0.5
100
AcDbLine
 10
892.5610501854732
 20
333.55373400794
 30
0.0
 11
892.5610501854732
 21
343.4718934927998
 31
0.0
  0
LINE
  5
16774
330
1F
100
AcDbEntity
  8
AM_7
 48
0.5
100
AcDbLine
 10
876.5610501854732
 20
333.4718934927999
 30
0.0
 11
876.5610501854732
 21
343.4718934927998
 31
0.0
  0
LINE
  5
16775
330
1F
100
AcDbEntity
  8
AM_7
 48
0.5
100
AcDbLine
 10
884.5610501854732
 20
351.9718934927998
 30
0.0
 11
884.5610501854732
 21
361.9718934927998
 31
0.0
  0
LINE
  5
16776
330
1F
100
AcDbEntity
  8
AM_7
 48
0.5
100
AcDbLine
 10
892.5610501854732
 20
370.4718934927998
 30
0.0
 11
892.5610501854732
 21
380.4718934927998
 31
0.0
  0
LINE
  5
16777
330
1F
100
AcDbEntity
  8
AM_7
 48
0.5
100
AcDbLine
 10
874.5610501854731
 20
370.4718934927998
 30
0.0
 11
874.5610501854731
 21
380.4718934927998
 31
0.0
  0
LINE
  5
1677D
330
1F
100
AcDbEntity
  8
AM_7
 48
0.5
100
AcDbLine
 10
871.5610501854731
 20
338.4718934927998
 30
0.0
 11
881.5610501854731
 21
338.4718934927998
 31
0.0
  0
LINE
  5
1677E
330
1F
100
AcDbEntity
  8
AM_7
 48
0.5
100
AcDbLine
 10
879.5610501854731
 20
356.9718934927998
 30
0.0
 11
889.5610501854731
 21
356.9718934927998
 31
0.0
  0
LINE
  5
1677F
330
1F
100
AcDbEntity
  8
AM_7
 48
0.5
100
AcDbLine
 10
871.5610501854731
 20
375.4718934927999
 30
0.0
 11
881.5610501854731
 21
375.4718934927999
 31
0.0
  0
LINE
  5
16782
330
1F
100
AcDbEntity
  8
AM_7
 48
0.5
100
AcDbLine
 10
887.5610501854731
 20
338.4718934927998
 30
0.0
 11
897.5610501854731
 21
338.4718934927998
 31
0.0
  0
LINE
  5
16783
330
1F
100
AcDbEntity
  8
AM_7
 48
0.5
100
AcDbLine
 10
887.5610501854731
 20
375.4718934927999
 30
0.0
 11
897.5610501854731
 21
375.4718934927999
 31
0.0
  0
CIRCLE
  5
1679E
330
1F
100
AcDbEntity
  8
AM_0
 48
0.5
100
AcDbCircle
 10
892.5610501854732
 20
338.4718934927998
 30
0.0
 40
2.75
  0
CIRCLE
  5
1679F
330
1F
100
AcDbEntity
  8
AM_0
 48
0.5
100
AcDbCircle
 10
876.5610501854732
 20
338.4718934927998
 30
0.0
 40
2.75
  0
CIRCLE
  5
167A0
330
1F
100
AcDbEntity
  8
AM_0
 48
0.5
100
AcDbCircle
 10
884.5610501854732
 20
356.9718934927998
 30
0.0
 40
2.75
  0
CIRCLE
  5
167A1
330
1F
100
AcDbEntity
  8
AM_0
 48
0.5
100
AcDbCircle
 10
876.5610501854732
 20
375.4718934927999
 30
0.0
 40
2.75
  0
CIRCLE
  5
167A2
330
1F
100
AcDbEntity
  8
AM_0
 48
0.5
100
AcDbCircle
 10
892.5610501854732
 20
375.4718934927999
 30
0.0
 40
2.75
  0
CIRCLE
  5
167A7
330
1F
100
AcDbEntity
  8
AM_0
 48
0.5
100
AcDbCircle
 10
884.5610501854732
 20
356.9718934927998
 30
0.0
 40
4.25
  0
CIRCLE
  5
167A8
330
1F
100
AcDbEntity
  8
AM_0
 48
0.5
100
AcDbCircle
 10
876.5610501854732
 20
338.4718934927998
 30
0.0
 40
4.25
  0
CIRCLE
  5
167A9
330
1F
100
AcDbEntity
  8
AM_0
 48
0.5
100
AcDbCircle
 10
892.5610501854732
 20
338.4718934927998
 30
0.0
 40
4.25
  0
CIRCLE
  5
167AA
330
1F
100
AcDbEntity
  8
AM_0
 48
0.5
100
AcDbCircle
 10
876.5610501854732
 20
375.4718934927999
 30
0.0
 40
4.25
  0
CIRCLE
  5
167AB
330
1F
100
AcDbEntity
  8
AM_0
 48
0.5
100
AcDbCircle
 10
892.5610501854732
 20
375.4718934927999
 30
0.0
 40
4.25
  0
LINE
  5
167C4
330
1F
100
AcDbEntity
  8
AM_0
 48
0.5
100
AcDbLine
 10
857.0610501854732
 20
464.9718934927998
 30
0.0
 11
857.0610501854732
 21
467.9718934927998
 31
0.0
  0
LINE
  5
167C5
330
1F
100
AcDbEntity
  8
AM_0
100
AcDbLine
 10
858.5610501854731
 20
312.9718934927999
 30
0.0
 11
858.5610501854731
 21
390.4718934927998
 31
0.0
  0
LINE
  5
167C7
330
1F
100
AcDbEntity
  8
AM_7
 48
0.6
100
AcDbLine
 10
848.5610501854731
 20
470.9718934927998
 30
0.0
 11
848.5610501854731
 21
306.9718934927999
 31
0.0
1001
GENIUS_GENODEF_13
1002
{
1000
HIER
1070
     0
1002
}
1002
{
1000
MANEDIT
1070
     0
1002
}
1002
{
1000
NOSEL
1070
     0
1002
}
1002
{
1000
BEHIND
1070
     0
1002
}
1002
{
1000
OTHER
1070
     0
1002
}
1002
{
1000
REACTOR
1002
}
1001
GENIUS_GENOBJ-N-CEN_13
1002
{
1000
OWNER
1000
GEN
1002
}
  0
INSERT
  5
167CA
330
1F
100
AcDbEntity
  8
AM_12
100
AcDbBlockReference
  2
*S2696227
 10
0.0
 20
0.0
 30
0.0
  0
INSERT
  5
167CC
330
1F
100
AcDbEntity
  8
AM_12
100
AcDbBlockReference
  2
*S2706328
 10
0.0
 20
0.0
 30
0.0
  0
INSERT
  5
167CE
330
1F
100
AcDbEntity
  8
AM_12
100
AcDbBlockReference
  2
*S2716429
 10
0.0
 20
0.0
 30
0.0
  0
INSERT
  5
167D0
330
1F
100
AcDbEntity
  8
AM_12
100
AcDbBlockReference
  2
*S2726530
 10
0.0
 20
0.0
 30
0.0
  0
INSERT
  5
167D2
330
1F
100
AcDbEntity
  8
AM_12
100
AcDbBlockReference
  2
*S2736631
 10
0.0
 20
0.0
 30
0.0
  0
INSERT
  5
167D4
330
1F
100
AcDbEntity
  8
AM_12
100
AcDbBlockReference
  2
*S2746732
 10
0.0
 20
0.0
 30
0.0
  0
LINE
  5
167D9
330
1F
100
AcDbEntity
  8
AM_0
 48
0.5
100
AcDbLine
 10
840.0610501854732
 20
309.9718934928
 30
0.0
 11
857.0610501854732
 21
309.9718934928
 31
0.0
  0
LINE
  5
167DA
330
1F
100
AcDbEntity
  8
AM_0
 48
0.5
100
AcDbLine
 10
857.0610501854732
 20
312.9718934928001
 30
0.0
 11
857.0610501854732
 21
309.9718934928
 31
0.0
  0
LINE
  5
167DB
330
1F
100
AcDbEntity
  8
AM_0
 48
0.5
100
AcDbLine
 10
840.0610501854732
 20
312.9718934928001
 30
0.0
 11
840.0610501854732
 21
309.9718934928
 31
0.0
  0
INSERT
  5
167DC
330
1F
100
AcDbEntity
  8
AM_12
100
AcDbBlockReference
  2
*S2756833
 10
0.0
 20
0.0
 30
0.0
  0
ARC
  5
16807
330
1F
100
AcDbEntity
  8
AM_0
100
AcDbCircle
 10
893.5610501854732
 20
382.4718934927998
 30
0.0
 40
5.0
100
AcDbArc
 50
45.57299599919079
 51
90.0
1001
GENIUS_GENREC_14
1002
{
1000
PYDIR
1011
806.5610501854731
1021
387.4718934927998
1031
0.0
1002
}
1002
{
1000
PXDIR
1011
898.5610501854731
1021
325.4718934927999
1031
0.0
1002
}
1002
{
1000
PORI
1011
898.5610501854731
1021
387.4718934927998
1031
0.0
1002
}
1002
{
1000
PINS
1011
852.5610501854732
1021
356.4718934927999
1031
0.0
1002
}
1002
{
1000
HVAL
1000
92
1002
}
1002
{
1000
H
1070
     2
1002
}
1002
{
1000
WVAL
1000
62
1002
}
1002
{
1000
W
1070
     2
1002
}
1002
{
1000
C
1070
     4
1002
}
1001
GENIUS_GENODEF_13
1002
{
1000
HIER
1070
     0
1002
}
1002
{
1000
MANEDIT
1070
     0
1002
}
1002
{
1000
NOSEL
1070
     0
1002
}
1002
{
1000
BEHIND
1070
     0
1002
}
1002
{
1000
OTHER
1070
     0
1002
}
1002
{
1000
REACTOR
1002
}
1001
GENIUS_GENOBJ-N-REC_13
1002
{
1000
OWNER
1000
GEN
1002
}
  0
LINE
  5
16808
330
1F
100
AcDbEntity
  8
AM_0
100
AcDbLine
 10
898.5610501854731
 20
384.5426077070713
 30
0.0
 11
897.0610501854732
 21
386.0426077070715
 31
0.0
  0
ARC
  5
16809
330
1F
100
AcDbEntity
  8
AM_0
100
AcDbCircle
 10
893.5610501854732
 20
317.9718934928001
 30
0.0
 40
5.0
100
AcDbArc
 50
270.0
 51
314.4270040008092
1001
GENIUS_GENREC_14
1002
{
1000
PYDIR
1011
806.5610501854731
1021
312.9718934928001
1031
0.0
1002
}
1002
{
1000
PXDIR
1011
898.5610501854731
1021
374.9718934928001
1031
0.0
1002
}
1002
{
1000
PORI
1011
898.5610501854731
1021
312.9718934928001
1031
0.0
1002
}
1002
{
1000
PINS
1011
852.5610501854732
1021
343.9718934928001
1031
0.0
1002
}
1002
{
1000
HVAL
1000
92
1002
}
1002
{
1000
H
1070
     2
1002
}
1002
{
1000
WVAL
1000
62
1002
}
1002
{
1000
W
1070
     2
1002
}
1002
{
1000
C
1070
     4
1002
}
1001
GENIUS_GENODEF_13
1002
{
1000
HIER
1070
     0
1002
}
1002
{
1000
MANEDIT
1070
     0
1002
}
1002
{
1000
NOSEL
1070
     0
1002
}
1002
{
1000
BEHIND
1070
     0
1002
}
1002
{
1000
OTHER
1070
     0
1002
}
1002
{
1000
REACTOR
1002
}
1001
GENIUS_GENOBJ-N-REC_13
1002
{
1000
OWNER
1000
GEN
1002
}
  0
LINE
  5
1680A
330
1F
100
AcDbEntity
  8
AM_0
100
AcDbLine
 10
898.5610501854731
 20
315.9011792785286
 30
0.0
 11
897.0610501854732
 21
314.4011792785284
 31
0.0
  0
LINE
  5
16CE2
330
1F
100
AcDbEntity
  8
AM_0
100
AcDbLine
 10
858.5610501854731
 20
464.9718934927998
 30
0.0
 11
803.5610501854735
 21
464.9718934927999
 31
0.0
  0
LINE
  5
16CE3
330
1F
100
AcDbEntity
  8
AM_0
100
AcDbLine
 10
858.5610501854731
 20
390.4718934927998
 30
0.0
 11
803.5610501854732
 21
390.4718934928002
 31
0.0
  0
LINE
  5
16CE4
330
1F
100
AcDbEntity
  8
AM_0
100
AcDbLine
 10
798.5610501854731
 20
393.4011792785286
 30
0.0
 11
798.5610501854731
 21
462.0426077070714
 31
0.0
  0
LINE
  5
16CE5
330
1F
100
AcDbEntity
  8
AM_0
 48
0.5
100
AcDbLine
 10
857.0610501854735
 20
467.9718934928001
 30
0.0
 11
840.0610501854735
 21
467.9718934927998
 31
0.0
  0
LINE
  5
16CE6
330
1F
100
AcDbEntity
  8
AM_0
 48
0.5
100
AcDbLine
 10
857.0610501854735
 20
464.9718934927998
 30
0.0
 11
857.0610501854735
 21
467.9718934928001
 31
0.0
  0
LINE
  5
16CE7
330
1F
100
AcDbEntity
  8
AM_7
 48
0.5
100
AcDbLine
 10
820.5610501854732
 20
397.4718934927999
 30
0.0
 11
820.5610501854732
 21
407.4718934927998
 31
0.0
  0
LINE
  5
16CE8
330
1F
100
AcDbEntity
  8
AM_7
 48
0.5
100
AcDbLine
 10
804.5610501854731
 20
397.4718934928
 30
0.0
 11
804.5610501854731
 21
407.4718934927998
 31
0.0
  0
LINE
  5
16CE9
330
1F
100
AcDbEntity
  8
AM_7
 48
0.5
100
AcDbLine
 10
812.5610501854731
 20
415.9718934927998
 30
0.0
 11
812.5610501854731
 21
425.9718934927999
 31
0.0
  0
LINE
  5
16CEA
330
1F
100
AcDbEntity
  8
AM_7
 48
0.5
100
AcDbLine
 10
820.5610501854735
 20
434.4718934927999
 30
0.0
 11
820.5610501854735
 21
444.4718934927998
 31
0.0
  0
LINE
  5
16CEB
330
1F
100
AcDbEntity
  8
AM_7
 48
0.5
100
AcDbLine
 10
804.5610501854735
 20
434.4718934927999
 30
0.0
 11
804.5610501854735
 21
444.4718934927998
 31
0.0
  0
LINE
  5
16CEC
330
1F
100
AcDbEntity
  8
AM_7
 48
0.5
100
AcDbLine
 10
825.561050185473
 20
402.4718934927999
 30
0.0
 11
815.5610501854731
 21
402.4718934927999
 31
0.0
  0
LINE
  5
16CED
330
1F
100
AcDbEntity
  8
AM_7
 48
0.5
100
AcDbLine
 10
825.5610501854734
 20
439.4718934927999
 30
0.0
 11
815.5610501854731
 21
439.4718934928
 31
0.0
  0
LINE
  5
16CEE
330
1F
100
AcDbEntity
  8
AM_7
 48
0.5
100
AcDbLine
 10
809.5610501854732
 20
402.4718934927999
 30
0.0
 11
799.5610501854732
 21
402.4718934927999
 31
0.0
  0
LINE
  5
16CEF
330
1F
100
AcDbEntity
  8
AM_7
 48
0.5
100
AcDbLine
 10
809.5610501854734
 20
439.4718934928
 30
0.0
 11
799.5610501854732
 21
439.4718934928
 31
0.0
  0
LINE
  5
16CF0
330
1F
100
AcDbEntity
  8
AM_7
 48
0.5
100
AcDbLine
 10
817.561050185473
 20
420.9718934927998
 30
0.0
 11
812.5610501854731
 21
420.9718934927998
 31
0.0
  0
CIRCLE
  5
16CF1
330
1F
100
AcDbEntity
  8
AM_0
 48
0.5
100
AcDbCircle
 10
820.5610501854732
 20
402.4718934927999
 30
0.0
 40
2.75
  0
CIRCLE
  5
16CF2
330
1F
100
AcDbEntity
  8
AM_0
 48
0.5
100
AcDbCircle
 10
820.5610501854735
 20
439.4718934927999
 30
0.0
 40
2.75
  0
CIRCLE
  5
16CF3
330
1F
100
AcDbEntity
  8
AM_0
 48
0.5
100
AcDbCircle
 10
804.5610501854735
 20
439.4718934928
 30
0.0
 40
2.75
  0
CIRCLE
  5
16CF4
330
1F
100
AcDbEntity
  8
AM_0
 48
0.5
100
AcDbCircle
 10
804.5610501854731
 20
402.4718934927999
 30
0.0
 40
2.75
  0
CIRCLE
  5
16CF5
330
1F
100
AcDbEntity
  8
AM_0
 48
0.5
100
AcDbCircle
 10
804.5610501854731
 20
402.4718934927999
 30
0.0
 40
4.25
  0
CIRCLE
  5
16CF6
330
1F
100
AcDbEntity
  8
AM_0
 48
0.5
100
AcDbCircle
 10
820.5610501854732
 20
402.4718934927999
 30
0.0
 40
4.25
  0
CIRCLE
  5
16CF7
330
1F
100
AcDbEntity
  8
AM_0
 48
0.5
100
AcDbCircle
 10
820.5610501854735
 20
439.4718934927999
 30
0.0
 40
4.25
  0
CIRCLE
  5
16CF8
330
1F
100
AcDbEntity
  8
AM_0
 48
0.5
100
AcDbCircle
 10
804.5610501854735
 20
439.4718934928
 30
0.0
 40
4.25
  0
CIRCLE
  5
16CF9
330
1F
100
AcDbEntity
  8
AM_0
 48
0.5
100
AcDbCircle
 10
812.5610501854731
 20
420.9718934927998
 30
0.0
 40
4.25
  0
CIRCLE
  5
16CFA
330
1F
100
AcDbEntity
  8
AM_0
 48
0.5
100
AcDbCircle
 10
812.5610501854731
 20
420.9718934927998
 30
0.0
 40
2.75
  0
LINE
  5
16CFB
330
1F
100
AcDbEntity
  8
AM_0
 48
0.5
100
AcDbLine
 10
840.0610501854735
 20
464.9718934927998
 30
0.0
 11
840.0610501854735
 21
467.9718934927998
 31
0.0
  0
LINE
  5
16CFC
330
1F
100
AcDbEntity
  8
AM_7
 48
0.5
100
AcDbLine
 10
817.561050185473
 20
420.9718934927998
 30
0.0
 11
807.5610501854731
 21
420.9718934927998
 31
0.0
  0
INSERT
  5
16CFD
330
1F
100
AcDbEntity
  8
AM_12
100
AcDbBlockReference
  2
*S2766934
 10
0.0
 20
0.0
 30
0.0
  0
INSERT
  5
16CFE
330
1F
100
AcDbEntity
  8
AM_12
100
AcDbBlockReference
  2
*S2777035
 10
0.0
 20
0.0
 30
0.0
  0
INSERT
  5
16CFF
330
1F
100
AcDbEntity
  8
AM_12
100
AcDbBlockReference
  2
*S2787136
 10
0.0
 20
0.0
 30
0.0
  0
LINE
  5
16D00
330
1F
100
AcDbEntity
  8
AM_0
100
AcDbLine
 10
798.5610501854737
 20
459.9718934928002
 30
0.0
 11
798.5610501854737
 21
462.0426077070714
 31
0.0
  0
ARC
  5
16D01
330
1F
100
AcDbEntity
  8
AM_0
100
AcDbCircle
 10
803.5610501854737
 20
459.9718934927999
 30
0.0
 40
5.0
100
AcDbArc
 50
90.0
 51
134.4270040008092
1001
GENIUS_GENREC_14
1002
{
1000
PYDIR
1011
890.5610501854736
1021
464.9718934927996
1031
0.0
1002
}
1002
{
1000
PXDIR
1011
798.5610501854736
1021
402.9718934927998
1031
0.0
1002
}
1002
{
1000
PORI
1011
798.5610501854737
1021
464.9718934927999
1031
0.0
1002
}
1002
{
1000
PINS
1011
844.5610501854737
1021
433.9718934927998
1031
0.0
1002
}
1002
{
1000
HVAL
1000
92
1002
}
1002
{
1000
H
1070
     2
1002
}
1002
{
1000
WVAL
1000
62
1002
}
1002
{
1000
W
1070
     2
1002
}
1002
{
1000
C
1070
     4
1002
}
1001
GENIUS_GENODEF_13
1002
{
1000
HIER
1070
     0
1002
}
1002
{
1000
MANEDIT
1070
     0
1002
}
1002
{
1000
NOSEL
1070
     0
1002
}
1002
{
1000
BEHIND
1070
     0
1002
}
1002
{
1000
OTHER
1070
     0
1002
}
1002
{
1000
REACTOR
1002
}
1001
GENIUS_GENOBJ-N-REC_13
1002
{
1000
OWNER
1000
GEN
1002
}
  0
LINE
  5
16D02
330
1F
100
AcDbEntity
  8
AM_0
100
AcDbLine
 10
798.5610501854737
 20
459.9718934927999
 30
0.0
 11
798.5610501854737
 21
460.9445314957183
 31
0.0
  0
LINE
  5
16D03
330
1F
100
AcDbEntity
  8
AM_0
100
AcDbLine
 10
798.5610501854737
 20
462.0426077070714
 30
0.0
 11
800.0610501854737
 21
463.5426077070716
 31
0.0
  0
ARC
  5
16D04
330
1F
100
AcDbEntity
  8
AM_0
100
AcDbCircle
 10
803.5610501854735
 20
395.4718934927999
 30
0.0
 40
5.0
100
AcDbArc
 50
225.5729959991908
 51
270.0
1001
GENIUS_GENREC_14
1002
{
1000
PYDIR
1011
890.5610501854731
1021
390.4718934927997
1031
0.0
1002
}
1002
{
1000
PXDIR
1011
798.5610501854737
1021
452.4718934927999
1031
0.0
1002
}
1002
{
1000
PORI
1011
798.5610501854731
1021
390.4718934928
1031
0.0
1002
}
1002
{
1000
PINS
1011
844.5610501854735
1021
421.4718934927998
1031
0.0
1002
}
1002
{
1000
HVAL
1000
92
1002
}
1002
{
1000
H
1070
     2
1002
}
1002
{
1000
WVAL
1000
62
1002
}
1002
{
1000
W
1070
     2
1002
}
1002
{
1000
C
1070
     4
1002
}
1001
GENIUS_GENODEF_13
1002
{
1000
HIER
1070
     0
1002
}
1002
{
1000
MANEDIT
1070
     0
1002
}
1002
{
1000
NOSEL
1070
     0
1002
}
1002
{
1000
BEHIND
1070
     0
1002
}
1002
{
1000
OTHER
1070
     0
1002
}
1002
{
1000
REACTOR
1002
}
1001
GENIUS_GENOBJ-N-REC_13
1002
{
1000
OWNER
1000
GEN
1002
}
  0
LINE
  5
16D05
330
1F
100
AcDbEntity
  8
AM_0
100
AcDbLine
 10
798.5610501854736
 20
393.4011792785286
 30
0.0
 11
800.0610501854735
 21
391.9011792785285
 31
0.0
  0
LINE
  5
16D06
330
1F
100
AcDbEntity
  8
AM_0
100
AcDbLine
 10
858.5610501854731
 20
464.9718934927998
 30
0.0
 11
858.5610501854731
 21
390.4718934927998
 31
0.0
  0
DIMENSION
  5
16D08
330
1F
100
AcDbEntity
  8
AM_5
100
AcDbDimension
  2
*D5
 10
905.5610501854731
 20
375.4718934927999
 30
0.0
 11
902.4610501854731
 21
381.4718934928
 31
0.0
 70
    32
 71
     5
 42
11.99999999999988
  3
SYS$0
100
AcDbAlignedDimension
 13
893.5610501854732
 23
387.4718934927998
 33
0.0
 14
897.5610501854731
 24
375.4718934927999
 34
0.0
 50
90.0
100
AcDbRotatedDimension
1001
ACAD
1000
DSTYLE
1002
{
1070
    48
1040
0.2
1070
   173
1070
     1
1070
   271
1070
     0
1070
   272
1070
     1
1002
}
  0
DIMENSION
  5
16D1F
330
1F
100
AcDbEntity
  8
AM_5
100
AcDbDimension
  2
*D6
 10
905.5610501854731
 20
356.9718934927998
 30
0.0
 11
902.4610501854731
 21
366.2218934928
 31
0.0
 70
    32
 71
     5
 42
18.50000000000011
  3
SYS$0
100
AcDbAlignedDimension
 13
897.5610501854731
 23
375.4718934927999
 33
0.0
 14
890.5610501854731
 24
356.9718934927998
 34
0.0
 50
90.0
100
AcDbRotatedDimension
1001
ACAD
1000
DSTYLE
1002
{
1070
    48
1040
0.2
1070
   173
1070
     1
1002
}
  0
DIMENSION
  5
16D35
330
1F
100
AcDbEntity
  8
AM_5
100
AcDbDimension
  2
*D7
 10
905.5610501854731
 20
338.4718934927998
 30
0.0
 11
902.4610501854731
 21
347.7218934928
 31
0.0
 70
    32
 71
     5
 42
18.5
  3
SYS$0
100
AcDbAlignedDimension
 13
889.0610501854732
 23
356.9718934927998
 33
0.0
 14
897.0610501854732
 24
338.4718934927998
 34
0.0
 50
90.0
100
AcDbRotatedDimension
1001
ACAD
1000
DSTYLE
1002
{
1070
    48
1040
0.2
1070
   173
1070
     1
1002
}
  0
DIMENSION
  5
16D4B
330
1F
100
AcDbEntity
  8
AM_5
100
AcDbDimension
  2
*D8
 10
905.5610501854731
 20
312.9718934927999
 30
0.0
 11
902.4610501854731
 21
325.7218934928
 31
0.0
 70
    32
 71
     5
 42
25.49999999999994
  3
SYS$0
100
AcDbAlignedDimension
 13
897.5610501854731
 23
338.4718934927998
 33
0.0
 14
893.5610501854732
 24
312.9718934927999
 34
0.0
 50
90.0
100
AcDbRotatedDimension
1001
ACAD
1000
DSTYLE
1002
{
1070
    48
1040
0.2
1070
   173
1070
     1
1002
}
  0
DIMENSION
  5
16D61
330
1F
100
AcDbEntity
  8
AM_5
100
AcDbDimension
  2
*D9
 10
915.5610501854731
 20
312.9718934927999
 30
0.0
 11
912.461050185473
 21
350.2218934928
 31
0.0
 70
    32
 71
     5
 42
74.49999999999987
  3
SYS$0
100
AcDbAlignedDimension
 13
893.5610501854732
 23
387.4718934927998
 33
0.0
 14
893.5610501854732
 24
312.9718934927999
 34
0.0
 50
90.0
100
AcDbRotatedDimension
1001
ACAD
1000
DSTYLE
1002
{
1070
    48
1040
0.2
1070
   173
1070
     1
1002
}
  0
DIMENSION
  5
16D77
330
1F
100
AcDbEntity
  8
AM_5
100
AcDbDimension
  2
*D10
 10
915.5610501854731
 20
387.4718934927998
 30
0.0
 11
909.7970598894574
 21
395.5265793470401
 31
0.0
 70
   160
 71
     5
 42
2.999999999999943
  3
SYS$0
100
AcDbAlignedDimension
 13
858.5610501854731
 23
390.4718934927998
 33
0.0
 14
893.5610501854732
 24
387.4718934927998
 34
0.0
 50
90.0
100
AcDbRotatedDimension
1001
ACAD
1000
DSTYLE
1002
{
1070
    48
1040
0.2
1070
   173
1070
     1
1070
   271
1070
     0
1070
   279
1070
     1
1002
}
  0
DIMENSION
  5
16DE4
330
1F
100
AcDbEntity
  8
AM_5
100
AcDbDimension
  2
*D11
 10
915.5610501854727
 20
464.9718934927998
 30
0.0
 11
912.4610501854727
 21
427.7218934927999
 31
0.0
 70
    32
 71
     5
 42
74.50000000000007
  3
SYS$0
100
AcDbAlignedDimension
 13
858.5610501854731
 23
390.4718934927998
 33
0.0
 14
858.5610501854731
 24
464.9718934927998
 34
0.0
 50
90.0
100
AcDbRotatedDimension
1001
ACAD
1000
DSTYLE
1002
{
1070
    48
1040
0.2
1070
   173
1070
     1
1002
}
  0
DIMENSION
  5
16E03
330
1F
100
AcDbEntity
  8
AM_5
100
AcDbDimension
  2
*D12
 10
930.8012375433603
 20
312.9718934927999
 30
0.0
 11
927.7012375433599
 21
388.9718934928
 31
0.0
 70
    32
 71
     5
 42
151.9999999999999
  3
SYS$0
100
AcDbAlignedDimension
 13
858.5610501854731
 23
464.9718934927998
 33
0.0
 14
893.5610501854732
 24
312.9718934927999
 34
0.0
 50
90.0
100
AcDbRotatedDimension
1001
ACAD
1000
DSTYLE
1002
{
1070
    48
1040
0.2
1070
   173
1070
     1
1070
   271
1070
     1
1070
   272
1070
     1
1002
}
  0
DIMENSION
  5
16E19
330
1F
100
AcDbEntity
  8
AM_5
100
AcDbDimension
  2
*D13
 10
848.5610501854731
 20
477.9718944928001
 30
0.0
 11
873.5610501854731
 21
481.0718944928001
 31
0.0
 70
    32
 71
     5
 42
50.0
  3
SYS$0
100
AcDbAlignedDimension
 13
898.5610501854731
 23
384.5426077070713
 33
0.0
 14
848.5610501854731
 24
470.9718934927998
 34
0.0
100
AcDbRotatedDimension
1001
ACAD
1000
DSTYLE
1002
{
1070
    48
1040
0.2
1070
   173
1070
     1
1070
   271
1070
     1
1070
   272
1070
     1
1002
}
  0
DIMENSION
  5
16E2F
330
1F
100
AcDbEntity
  8
AM_5
100
AcDbDimension
  2
*D14
 10
798.5610501854737
 20
477.9718944927997
 30
0.0
 11
823.5610501854731
 21
481.0718944927996
 31
0.0
 70
    32
 71
     5
 42
49.99999999999966
  3
SYS$0
100
AcDbAlignedDimension
 13
848.5610501854731
 23
470.9718934927998
 33
0.0
 14
798.5610501854737
 24
462.0426077070714
 34
0.0
100
AcDbRotatedDimension
1001
ACAD
1000
DSTYLE
1002
{
1070
    48
1040
0.2
1070
   173
1070
     1
1070
   271
1070
     1
1070
   272
1070
     1
1002
}
  0
DIMENSION
  5
16E45
330
1F
100
AcDbEntity
  8
AM_5
100
AcDbDimension
  2
*D15
 10
898.5610501854731
 20
487.9718944927995
 30
0.0
 11
848.5610501854731
 21
491.0718944927997
 31
0.0
 70
    32
 71
     5
 42
99.99999999999966
  3
SYS$0
100
AcDbAlignedDimension
 13
798.5610501854737
 23
462.0426077070714
 33
0.0
 14
898.5610501854731
 24
384.542607707071
 34
0.0
100
AcDbRotatedDimension
1001
ACAD
1000
DSTYLE
1002
{
1070
    48
1040
0.2
1070
   173
1070
     1
1070
   271
1070
     1
1070
   272
1070
     1
1002
}
  0
AMDTACMWBLOCKBOMENTITY
  5
17357
330
1F
100
AcDbEntity
  8
AM_5
 92
        8
310
0800000000000000
  0
AMDTACMWBLOCKBOMENTITY
  5
17358
330
1F
100
AcDbEntity
  8
AM_5
 92
        8
310
0800000000000000
  0
AMDTACMWBLOCKBOMENTITY
  5
17359
330
1F
100
AcDbEntity
  8
AM_5
 92
        8
310
0800000000000000
  0
AMDTACMWBLOCKBOMENTITY
  5
1735A
330
1F
100
AcDbEntity
  8
AM_5
 92
        8
310
0800000000000000
  0
AMDTACMWBLOCKBOMENTITY
  5
1735B
330
1F
100
AcDbEntity
  8
AM_5
 92
        8
310
0800000000000000
  0
AMDTACMWBLOCKBOMENTITY
  5
1735C
330
1F
100
AcDbEntity
  8
AM_5
 92
        8
310
0800000000000000
  0
LINE
  5
17825
330
1F
100
AcDbEntity
  8
0
  6
Continuous
 62
     7
100
AcDbLine
 10
1014.154713138579
 20
564.2409525956197
 30
0.0
 11
1014.154713138579
 21
291.2409525956199
 31
0.0
  0
LINE
  5
17826
330
1F
100
AcDbEntity
  8
0
  6
Continuous
 62
     7
100
AcDbLine
 10
633.1547131385795
 20
291.2409525956199
 30
0.0
 11
1014.154713138579
 21
291.2409525956199
 31
0.0
  0
LINE
  5
17827
330
1F
100
AcDbEntity
  8
0
  6
Continuous
 62
     7
100
AcDbLine
 10
633.1547131385795
 20
564.2409525956197
 30
0.0
 11
1014.154713138579
 21
564.2409525956197
 31
0.0
  0
LINE
  5
17828
330
1F
100
AcDbEntity
  8
0
  6
Continuous
 62
     7
100
AcDbLine
 10
633.1547131385795
 20
564.2409525956197
 30
0.0
 11
633.1547131385795
 21
291.2409525956199
 31
0.0
  0
LINE
  5
17829
330
1F
100
AcDbEntity
  8
0
  6
Continuous
 62
     7
100
AcDbLine
 10
653.1547131385795
 20
564.2409525956197
 30
0.0
 11
653.1547131385795
 21
484.2409525956196
 31
0.0
  0
LINE
  5
1782A
330
1F
100
AcDbEntity
  8
0
  6
Continuous
 62
     7
100
AcDbLine
 10
633.1547131385795
 20
556.2409525956196
 30
0.0
 11
743.1547131385793
 21
556.2409525956196
 31
0.0
  0
LINE
  5
1782B
330
1F
100
AcDbEntity
  8
0
  6
Continuous
 62
     7
100
AcDbLine
 10
633.1547131385795
 20
548.2409525956196
 30
0.0
 11
743.1547131385793
 21
548.2409525956196
 31
0.0
  0
LINE
  5
1782C
330
1F
100
AcDbEntity
  8
0
  6
Continuous
 62
     7
100
AcDbLine
 10
633.1547131385795
 20
540.2409525956198
 30
0.0
 11
743.1547131385793
 21
540.2409525956198
 31
0.0
  0
LINE
  5
1782D
330
1F
100
AcDbEntity
  8
0
  6
Continuous
 62
     7
100
AcDbLine
 10
633.1547131385795
 20
532.2409525956198
 30
0.0
 11
743.1547131385793
 21
532.2409525956198
 31
0.0
  0
LINE
  5
1782E
330
1F
100
AcDbEntity
  8
0
  6
Continuous
 62
     7
100
AcDbLine
 10
653.1547131385795
 20
524.2409525956198
 30
0.0
 11
743.1547131385793
 21
524.2409525956198
 31
0.0
  0
LINE
  5
1782F
330
1F
100
AcDbEntity
  8
0
  6
Continuous
 62
     7
100
AcDbLine
 10
653.1547131385795
 20
516.2409525956197
 30
0.0
 11
743.1547131385793
 21
516.2409525956197
 31
0.0
  0
LINE
  5
17830
330
1F
100
AcDbEntity
  8
0
  6
Continuous
 62
     7
100
AcDbLine
 10
633.1547131385795
 20
508.2409525956196
 30
0.0
 11
743.1547131385793
 21
508.2409525956196
 31
0.0
  0
LINE
  5
17831
330
1F
100
AcDbEntity
  8
0
  6
Continuous
 62
     7
100
AcDbLine
 10
653.1547131385795
 20
500.2409525956196
 30
0.0
 11
743.1547131385793
 21
500.2409525956196
 31
0.0
  0
LINE
  5
17832
330
1F
100
AcDbEntity
  8
0
  6
Continuous
 62
     7
100
AcDbLine
 10
653.1547131385795
 20
492.2409525956196
 30
0.0
 11
743.1547131385793
 21
492.2409525956196
 31
0.0
  0
LINE
  5
17833
330
1F
100
AcDbEntity
  8
0
  6
Continuous
 62
     7
100
AcDbLine
 10
633.1547131385795
 20
484.2409525956196
 30
0.0
 11
743.1547131385793
 21
484.2409525956196
 31
0.0
  0
LINE
  5
17834
330
1F
100
AcDbEntity
  8
0
  6
Continuous
 62
     7
100
AcDbLine
 10
633.1547131385795
 20
564.2409525956197
 30
0.0
 11
633.1547131385795
 21
468.2409525956196
 31
0.0
  0
LINE
  5
17835
330
1F
100
AcDbEntity
  8
0
  6
Continuous
 62
     7
100
AcDbLine
 10
633.1547131385795
 20
564.2409525956197
 30
0.0
 11
743.1547131385793
 21
564.2409525956197
 31
0.0
  0
LINE
  5
17836
330
1F
100
AcDbEntity
  8
0
  6
Continuous
 62
     7
100
AcDbLine
 10
743.1547131385793
 20
564.2409525956197
 30
0.0
 11
743.1547131385793
 21
484.2409525956196
 31
0.0
  0
LINE
  5
17837
330
1F
100
AcDbEntity
  8
0
  6
Continuous
 62
     7
100
AcDbLine
 10
633.1547131385795
 20
532.2409525956198
 30
0.0
 11
743.1547131385793
 21
532.2409525956198
 31
0.0
  0
LINE
  5
17838
330
1F
100
AcDbEntity
  8
0
  6
Continuous
 62
     7
100
AcDbLine
 10
653.1547131385795
 20
524.2409525956198
 30
0.0
 11
743.1547131385793
 21
524.2409525956198
 31
0.0
  0
TEXT
  5
17839
330
1F
100
AcDbEntity
  8
0
  6
Continuous
 62
     7
100
AcDbText
 10
638.8117131385794
 20
558.6409525956196
 30
0.0
 40
3.2
  1
品　名
 41
0.85537027
100
AcDbText
  0
TEXT
  5
1783A
330
1F
100
AcDbEntity
  8
0
  6
Continuous
 62
     7
100
AcDbText
 10
638.8117131385794
 20
550.6409525956196
 30
0.0
 40
3.2
  1
品　番
 41
0.85537027
100
AcDbText
  0
TEXT
  5
1783B
330
1F
100
AcDbEntity
  8
0
  6
Continuous
 62
     7
100
AcDbText
 10
656.0117131385792
 20
494.6409525956196
 30
0.0
 40
3.2
  1
＊左勝手
 41
0.90047268
100
AcDbText
  0
TEXT
  5
1783C
330
1F
100
AcDbEntity
  8
0
  6
Continuous
 62
     7
100
AcDbText
 10
656.0117131385792
 20
486.6409525956196
 30
0.0
 40
3.2
  1
＊
 41
0.90047268
100
AcDbText
  0
TEXT
  5
1783D
330
1F
100
AcDbEntity
  8
0
  6
Continuous
 62
     7
100
AcDbText
 10
638.8117131385794
 20
542.6409525956196
 30
0.0
 40
3.2
  1
材　質
 41
0.85537027
100
AcDbText
  0
TEXT
  5
1783E
330
1F
100
AcDbEntity
  8
0
  6
Continuous
 62
     7
100
AcDbText
 10
638.8117131385794
 20
534.6409525956196
 30
0.0
 40
3.2
  1
仕上げ
 41
0.85537027
100
AcDbText
  0
TEXT
  5
1783F
330
1F
100
AcDbEntity
  8
0
  6
Continuous
 62
     7
100
AcDbText
 10
656.0117131385792
 20
510.6409525956196
 30
0.0
 40
3.2
  1
＊
 41
0.90047268
100
AcDbText
  0
TEXT
  5
17840
330
1F
100
AcDbEntity
  8
0
  6
Continuous
 62
     7
100
AcDbText
 10
656.0117131385792
 20
518.6409525956198
 30
0.0
 40
3.2
  1
＊
 41
0.90047268
100
AcDbText
  0
TEXT
  5
17841
330
1F
100
AcDbEntity
  8
0
  6
Continuous
 62
     7
100
AcDbText
 10
635.6117131385794
 20
526.6409525956198
 30
0.0
 40
3.2
  1
セットビス
 41
0.84892707
100
AcDbText
  0
TEXT
  5
17842
330
1F
100
AcDbEntity
  8
0
  6
Continuous
 62
     7
100
AcDbText
 10
656.0117131385792
 20
526.6409525956198
 30
0.0
 40
3.2
  1
＊
 41
0.90047268
100
AcDbText
  0
TEXT
  5
17843
330
1F
100
AcDbEntity
  8
0
  6
Continuous
 62
     7
100
AcDbText
 10
640.4117131385792
 20
502.6409525956196
 30
0.0
 40
3.2
  1
備考
 41
0.8643907499999999
100
AcDbText
  0
TEXT
  5
17844
330
1F
100
AcDbEntity
  8
0
  6
Continuous
 62
     7
100
AcDbText
 10
656.0117131385792
 20
558.6409525956196
 30
0.0
 40
3.2
  1
旗丁番
 41
0.85537027
100
AcDbText
  0
TEXT
  5
17845
330
1F
100
AcDbEntity
  8
0
  6
Continuous
 62
     7
100
AcDbText
 10
656.0117131385792
 20
550.6409525956196
 30
0.0
 40
3.2
  1
DH-606S
 41
0.84496202
100
AcDbText
  0
TEXT
  5
17846
330
1F
100
AcDbEntity
  8
0
  6
Continuous
 62
     7
100
AcDbText
 10
656.0117131385792
 20
542.6409525956196
 30
0.0
 40
3.2
  1
羽根：ステンレス／軸：ステンレス
 41
0.8428951399999997
100
AcDbText
  0
TEXT
  5
17847
330
1F
100
AcDbEntity
  8
0
  6
Continuous
 62
     7
100
AcDbText
 10
656.0117131385792
 20
534.6409525956196
 30
0.0
 40
3.2
  1
羽根：ヘアーライン／軸：生地
 41
0.84326962
100
AcDbText
  0
TEXT
  5
17848
330
1F
100
AcDbEntity
  8
0
  6
Continuous
 62
     7
100
AcDbText
 10
656.0117131385792
 20
502.6409525956196
 30
0.0
 40
3.2
  1
＊丁番係数：27
 41
0.90047268
100
AcDbText
  0
LINE
  5
1785B
330
1F
100
AcDbEntity
  8
AM_7
 48
0.5
100
AcDbLine
 10
848.5610501854731
 20
510.109968547036
 30
0.0
 11
848.5610501854731
 21
534.109968547036
 31
0.0
  0
LINE
  5
1785C
330
1F
100
AcDbEntity
  8
AM_0
100
AcDbLine
 10
858.4479101521157
 20
524.609968547036
 30
0.0
 11
898.5610501854731
 21
524.609968547036
 31
0.0
  0
LINE
  5
1785D
330
1F
100
AcDbEntity
  8
AM_0
100
AcDbLine
 10
858.3590091566057
 20
520.609968547036
 30
0.0
 11
898.5610501854731
 21
520.609968547036
 31
0.0
  0
LINE
  5
1785E
330
1F
100
AcDbEntity
  8
AM_7
 48
0.5
100
AcDbLine
 10
874.5610501854731
 20
517.1099685470359
 30
0.0
 11
874.5610501854731
 21
527.109968547036
 31
0.0
  0
LINE
  5
1785F
330
1F
100
AcDbEntity
  8
AM_7
 48
0.5
100
AcDbLine
 10
890.5610501854731
 20
517.1099685470359
 30
0.0
 11
890.5610501854731
 21
527.109968547036
 31
0.0
  0
LINE
  5
17860
330
1F
100
AcDbEntity
  8
AM_7
 48
0.5
100
AcDbLine
 10
882.5610501854731
 20
517.1099685470359
 30
0.0
 11
882.5610501854731
 21
527.109968547036
 31
0.0
  0
ARC
  5
1786B
330
1F
100
AcDbEntity
  8
AM_0
100
AcDbCircle
 10
848.5610501854772
 20
522.1099685470436
 30
0.0
 40
9.99999999999499
100
AcDbArc
 50
9.000119143449202
 51
8.626926558644422
  0
CIRCLE
  5
17872
330
1F
100
AcDbEntity
  8
AM_0
100
AcDbCircle
 10
848.5610501854731
 20
522.109968547036
 30
0.0
 40
8.500000000000026
  0
LINE
  5
178A4
330
1F
100
AcDbEntity
  8
AM_0
 48
0.5
100
AcDbLine
 10
798.5610501854731
 20
520.609968547036
 30
0.0
 11
798.5610501854731
 21
524.609968547036
 31
0.0
  0
LINE
  5
178A5
330
1F
100
AcDbEntity
  8
AM_0
100
AcDbLine
 10
838.6741902188305
 20
524.609968547036
 30
0.0
 11
798.5610501854731
 21
524.609968547036
 31
0.0
  0
LINE
  5
178A6
330
1F
100
AcDbEntity
  8
AM_0
100
AcDbLine
 10
838.6741902188305
 20
520.609968547036
 30
0.0
 11
798.5610501854731
 21
520.609968547036
 31
0.0
  0
LINE
  5
178A7
330
1F
100
AcDbEntity
  8
AM_0
100
AcDbLine
 10
898.5610501854731
 20
524.609968547036
 30
0.0
 11
898.5610501854731
 21
520.609968547036
 31
0.0
  0
LINE
  5
178A8
330
1F
100
AcDbEntity
  8
AM_7
100
AcDbLine
 10
901.5610501854732
 20
522.109968547036
 30
0.0
 11
795.5610501854732
 21
522.109968547036
 31
0.0
1001
GENIUS_GENODEF_13
1002
{
1000
HIER
1070
     0
1002
}
1002
{
1000
MANEDIT
1070
     0
1002
}
1002
{
1000
NOSEL
1070
     0
1002
}
1002
{
1000
BEHIND
1070
     0
1002
}
1002
{
1000
OTHER
1070
     0
1002
}
1002
{
1000
REACTOR
1002
}
1001
GENIUS_GENOBJ-N-CEN_13
1002
{
1000
OWNER
1000
GEN
1002
}
1001
GENIUS_GENCEN_19
1002
{
1040
3.0
1002
}
  0
LINE
  5
178A9
330
1F
100
AcDbEntity
  8
AM_7
 48
0.5
100
AcDbLine
 10
822.5610501854731
 20
517.1099685470359
 30
0.0
 11
822.5610501854731
 21
527.109968547036
 31
0.0
  0
LINE
  5
178AA
330
1F
100
AcDbEntity
  8
AM_7
 48
0.5
100
AcDbLine
 10
806.5610501854731
 20
517.1099685470359
 30
0.0
 11
806.5610501854731
 21
527.109968547036
 31
0.0
  0
LINE
  5
178AB
330
1F
100
AcDbEntity
  8
AM_7
 48
0.5
100
AcDbLine
 10
814.5610501854731
 20
517.1099685470359
 30
0.0
 11
814.5610501854731
 21
527.109968547036
 31
0.0
  0
DIMENSION
  5
178B8
330
1F
100
AcDbEntity
  8
AM_5
100
AcDbDimension
  2
*D17
 10
854.6718026986139
 20
530.0256936384694
 30
0.0
 11
827.4684451564164
 21
500.3917662976103
 31
0.0
 70
   163
 71
     5
 42
20.00000000000034
  3
SYS$3
100
AcDbDiametricDimension
 15
842.4502976723314
 25
514.1942434556032
 35
0.0
 40
0.0
1001
ACAD
1000
DSTYLE
1002
{
1070
    48
1040
0.2
1070
    74
1070
     1
1070
   172
1070
     1
1070
   289
1070
     2
1070
   342
1005
17746
1002
}
  0
DIMENSION
  5
178BA
330
1F
100
AcDbEntity
  8
AM_5
100
AcDbDimension
  2
*D18
 10
910.5610511854731
 20
520.609968547036
 30
0.0
 11
907.461051185473
 21
514.9233018803696
 31
0.0
 70
    32
 71
     5
 42
1.5
  3
SYS$0
100
AcDbAlignedDimension
 13
901.5610501854732
 23
522.109968547036
 33
0.0
 14
898.5610501854731
 24
520.609968547036
 34
0.0
 50
90.0
100
AcDbRotatedDimension
1001
ACAD
1000
DSTYLE
1002
{
1070
    48
1040
0.2
1070
   173
1070
     1
1070
   343
1005
17746
1070
   344
1005
6C4
1002
}
  0
DIMENSION
  5
178BB
330
1F
100
AcDbEntity
  8
AM_5
100
AcDbDimension
  2
*D19
 10
910.5610511854731
 20
524.609968547036
 30
0.0
 11
907.461051185473
 21
530.4566352137028
 31
0.0
 70
    32
 71
     5
 42
2.5
  3
SYS$0
100
AcDbAlignedDimension
 13
901.5610501854732
 23
522.109968547036
 33
0.0
 14
898.5610501854731
 24
524.609968547036
 34
0.0
 50
90.0
100
AcDbRotatedDimension
1001
ACAD
1000
DSTYLE
1002
{
1070
    48
1040
0.2
1070
   173
1070
     1
1002
}
  0
DIMENSION
  5
178BC
330
1F
100
AcDbEntity
  8
AM_5
100
AcDbDimension
  2
*D20
 10
920.5610511854731
 20
520.609968547036
 30
0.0
 11
920.1925247624467
 21
529.5933415468886
 31
0.0
 70
   160
 71
     5
 42
4.0
  3
SYS$0
100
AcDbAlignedDimension
 13
898.5610501854731
 23
524.609968547036
 33
0.0
 14
898.5610501854731
 24
520.609968547036
 34
0.0
 50
90.0
100
AcDbRotatedDimension
1001
ACAD
1000
DSTYLE
1002
{
1070
    48
1040
0.2
1070
   173
1070
     1
1070
   279
1070
     1
1002
}
  0
DIMENSION
  5
17B68
330
1F
100
AcDbEntity
  8
AM_5
100
AcDbDimension
  2
*D21
 10
884.5610501854732
 20
305.9011782785286
 30
0.0
 11
888.5610501854731
 21
309.0011782785286
 31
0.0
 70
    32
 71
     5
 42
8.0
  3
SYS$0
100
AcDbAlignedDimension
 13
892.5610501854732
 23
333.55373400794
 33
0.0
 14
884.5610501854732
 24
351.9718934927998
 34
0.0
100
AcDbRotatedDimension
1001
ACAD
1000
DSTYLE
1002
{
1070
    48
1040
0.2
1070
   173
1070
     1
1070
   271
1070
     1
1070
   272
1070
     1
1002
}
  0
DIMENSION
  5
17B7F
330
1F
100
AcDbEntity
  8
AM_5
100
AcDbDimension
  2
*D22
 10
876.5610501854732
 20
305.901178278528
 30
0.0
 11
880.5610501854731
 21
309.001178278528
 31
0.0
 70
    32
 71
     5
 42
8.0
  3
SYS$0
100
AcDbAlignedDimension
 13
884.5610501854732
 23
351.9718934927998
 33
0.0
 14
876.5610501854732
 24
333.4718934927999
 34
0.0
100
AcDbRotatedDimension
1001
ACAD
1000
DSTYLE
1002
{
1070
    48
1040
0.2
1070
   173
1070
     1
1070
   271
1070
     1
1070
   272
1070
     1
1002
}
  0
DIMENSION
  5
17B96
330
1F
100
AcDbEntity
  8
AM_5
100
AcDbDimension
  2
*D23
 10
876.5610501854732
 20
295.9011782785273
 30
0.0
 11
884.5610501854732
 21
299.0011782785273
 31
0.0
 70
    32
 71
     5
 42
16.0
  3
SYS$0
100
AcDbAlignedDimension
 13
892.5610501854732
 23
333.55373400794
 33
0.0
 14
876.5610501854732
 24
333.4718934927999
 34
0.0
100
AcDbRotatedDimension
1001
ACAD
1000
DSTYLE
1002
{
1070
    48
1040
0.2
1070
   173
1070
     1
1070
   271
1070
     1
1070
   272
1070
     1
1002
}
  0
DIMENSION
  5
17BAC
330
1F
100
AcDbEntity
  8
AM_5
100
AcDbDimension
  2
*D24
 10
892.5610501854732
 20
295.9011782785267
 30
0.0
 11
895.5610501854732
 21
299.0011782785267
 31
0.0
 70
    32
 71
     5
 42
6.0
  3
SYS$0
100
AcDbAlignedDimension
 13
898.5610501854731
 23
315.9011792785286
 33
0.0
 14
892.5610501854732
 24
333.55373400794
 34
0.0
100
AcDbRotatedDimension
1001
ACAD
1000
DSTYLE
1002
{
1070
    48
1040
0.2
1070
   173
1070
     1
1070
   271
1070
     1
1070
   272
1070
     1
1002
}
  0
DIMENSION
  5
17BC3
330
1F
100
AcDbEntity
  8
AM_5
100
AcDbDimension
  2
*D25
 10
848.5610501854731
 20
295.9011782785267
 30
0.0
 11
862.5610501854731
 21
299.0011782785267
 31
0.0
 70
    32
 71
     5
 42
28.0
  3
SYS$0
100
AcDbAlignedDimension
 13
876.5610501854732
 23
333.4718934927999
 33
0.0
 14
848.5610501854731
 24
306.9718934927999
 34
0.0
100
AcDbRotatedDimension
1001
ACAD
1000
DSTYLE
1002
{
1070
    48
1040
0.2
1070
   173
1070
     1
1070
   271
1070
     1
1070
   272
1070
     1
1002
}
  0
DIMENSION
  5
17DAA
330
1F
100
AcDbEntity
  8
AM_5
100
AcDbDimension
  2
*D26
 10
880.0144293125699
 20
377.9491243267226
 30
0.0
 11
814.7895854847561
 21
337.7614812925259
 31
0.0
 70
   163
  1
10-%%c5.5×\P<>サラ
 71
     5
 42
8.500000000001136
  3
SYS$3
100
AcDbDiametricDimension
 15
873.107671058376
 25
372.9946626588772
 35
0.0
 40
0.0
1001
ACAD
1000
DSTYLE
1002
{
1070
    48
1040
0.2
1070
    74
1070
     1
1070
   172
1070
     1
1070
   289
1070
     2
1070
   342
1005
17746
1002
}
  0
ENDSEC
  0
SECTION
  2
OBJECTS
  0
DICTIONARY
  5
C
330
0
100
AcDbDictionary
281
     1
  3
ACAD_2007HEADERVARS_RT
350
18339
  3
ACAD_COLOR
350
128FC
  3
ACAD_GROUP
350
D
  3
ACAD_LAYOUT
350
1A
  3
ACAD_MATERIAL
350
128FB
  3
ACAD_MLINESTYLE
350
17
  3
ACAD_PLOTSETTINGS
350
19
  3
ACAD_PLOTSTYLENAME
350
E
  3
ACAD_TABLESTYLE
350
128FD
  3
ACAD_VISUALSTYLE
350
16491
  3
AcAsAppObject
350
3DA1
  3
ACASGREF_MASTER
350
3DE9
  3
AcDbVariableDictionary
350
34
  3
AcmDictionary
350
47
  3
AD_GREF_MODULE
350
3DEA
  3
AD_MAPI_MODULE
350
3E06
  3
AMG
350
2B
  3
AMGSNAPSETTINGS
350
7D
  3
ASE_INDEX_DICTIONARY
350
A0F3
  3
DWGPROPS
350
18338
  3
MAPISURF_MODULE
350
3DEB
  3
SAKAE_DICT
350
F639
  0
DICTIONARY
  5
3F95
330
2
100
AcDbDictionary
280
     1
281
     1
  3
ACAD_LAYERFILTERS
360
3F98
  3
ACAD_LAYERSTATES
360
3F96
  0
DICTIONARY
  5
8A
330
1F
100
AcDbDictionary
280
     1
281
     1
  3
ACAD_SORTENTS
360
14E13
  0
DICTIONARY
  5
18339
102
{ACAD_REACTORS
330
C
102
}
330
C
100
AcDbDictionary
281
     1
  3
DIMARCSYM
350
1833A
  0
DICTIONARY
  5
128FC
102
{ACAD_REACTORS
330
C
102
}
330
C
100
AcDbDictionary
281
     1
  0
DICTIONARY
  5
D
102
{ACAD_REACTORS
330
C
102
}
330
C
100
AcDbDictionary
281
     1
  0
DICTIONARY
  5
1A
102
{ACAD_REACTORS
330
C
102
}
330
C
100
AcDbDictionary
281
     1
  3
Model
350
22
  3
ﾚｲｱｳﾄ1
350
1E
  3
ﾚｲｱｳﾄ2
350
26
  0
DICTIONARY
  5
128FB
102
{ACAD_REACTORS
330
C
102
}
330
C
100
AcDbDictionary
281
     1
  3
ByBlock
350
1648F
  3
ByLayer
350
1648E
  3
Global
350
16490
  0
DICTIONARY
  5
17
102
{ACAD_REACTORS
330
C
102
}
330
C
100
AcDbDictionary
281
     1
  3
Standard
350
18
  0
DICTIONARY
  5
19
102
{ACAD_REACTORS
330
C
102
}
330
C
100
AcDbDictionary
281
     1
  3
０１　Ａ３　１：１
350
D3FB
  3
０２　Ａ４　１：１
350
D3FC
  3
０３　Ａ２をＡ３に
350
D3FD
  3
０４　Ａ２　１：１
350
D3FE
  3
０５　Ａ３をＡ４に
350
D3FF
  3
０６　Ａ２をＡ４に
350
D400
  0
ACDBDICTIONARYWDFLT
  5
E
102
{ACAD_REACTORS
330
C
102
}
330
C
100
AcDbDictionary
281
     1
  3
Normal
350
F
100
AcDbDictionaryWithDefault
340
F
  0
DICTIONARY
  5
128FD
102
{ACAD_REACTORS
330
C
102
}
330
C
100
AcDbDictionary
281
     1
  3
Standard
350
128FE
  0
DICTIONARY
  5
16491
102
{ACAD_REACTORS
330
C
102
}
330
C
100
AcDbDictionary
281
     1
  3
2dWireframe
350
16497
  3
3D Hidden
350
16499
  3
3dWireframe
350
16498
  3
Basic
350
16496
  3
Brighten
350
1649D
  3
ColorChange
350
164A1
  3
Conceptual
350
1649A
  3
Dim
350
1649C
  3
Facepattern
350
164A0
  3
Flat
350
16492
  3
FlatWithEdges
350
16493
  3
Gouraud
350
16494
  3
GouraudWithEdges
350
16495
  3
Linepattern
350
1649F
  3
Realistic
350
1649B
  3
Thicken
350
1649E
  0
ACAD_PROXY_OBJECT
  5
3DA1
102
{ACAD_REACTORS
330
C
102
}
330
C
100
AcDbProxyObject
 90
      499
 91
      576
 95
       23
 70
     0
 93
       10
310
407F
 94
        0
1001
ACAD
1000
AcRTDxfName
1000
ASAPP
1000
AcRTDxfName
1000
ASAPP
1000
AcRTDxfName
1000
ASAPP
  0
ACAD_PROXY_OBJECT
  5
3DE9
102
{ACAD_REACTORS
330
C
102
}
330
C
100
AcDbProxyObject
 90
      499
 91
      581
 95
       23
 70
     0
 93
       34
310
010000407F
 94
        0
1001
ACAD
1000
AcRTDxfName
1000
ACASGREFMASTER
1000
AcRTDxfName
1000
ACASGREFMASTER
1000
AcRTDxfName
1000
ACASGREFMASTER
  0
DICTIONARY
  5
34
102
{ACAD_REACTORS
330
C
102
}
330
C
100
AcDbDictionary
281
     1
  3
CTABLESTYLE
350
12946
  3
DIMASSOC
350
D350
  3
INDEXCTL
350
35
  3
SORTENTS
350
194C
  0
DICTIONARY
  5
47
102
{ACAD_REACTORS
330
C
102
}
330
C
100
AcDbDictionary
281
     1
  3
AcmBOM
350
7E8
  3
AcmStdDictionary
350
4C
  3
AMDTSECTSYM_ARROWCOLOR
350
1291C
  0
ACAD_PROXY_OBJECT
  5
3DEA
102
{ACAD_REACTORS
330
C
102
}
330
C
100
AcDbProxyObject
 90
      499
 91
      582
 95
       23
 70
     0
 93
      114
310
00000043800000000000000000003F
 94
        0
1001
ACAD
1000
AcRTDxfName
1000
ACADGREFMODULE
1000
AcRTDxfName
1000
ACADGREFMODULE
1000
AcRTDxfName
1000
ACADGREFMODULE
  0
ACAD_PROXY_OBJECT
  5
3E06
102
{ACAD_REACTORS
330
C
102
}
330
C
100
AcDbProxyObject
 90
      499
 91
      594
 95
       23
 70
     0
 93
       34
310
05000044FF
 94
        0
1001
ACAD
1000
AcRTDxfName
1000
MAPIADMODULE
1000
AcRTDxfName
1000
MAPIADMODULE
1000
AcRTDxfName
1000
MAPIADMODULE
  0
DICTIONARY
  5
2B
102
{ACAD_REACTORS
330
C
102
}
330
C
100
AcDbDictionary
281
     1
  0
DICTIONARY
  5
7D
102
{ACAD_REACTORS
330
C
102
}
330
C
100
AcDbDictionary
281
     1
  0
DICTIONARY
  5
A0F3
102
{ACAD_REACTORS
330
C
102
}
330
C
100
AcDbDictionary
281
     1
  3
ASEBlockHierarchyIndexRecord
350
A0F4
1001
DCO15
1040
1430562227.187
  0
XRECORD
  5
18338
102
{ACAD_REACTORS
330
C
102
}
330
C
100
AcDbXrecord
280
     1
  1
DWGPROPS COOKIE
  2

  3

  4

  6

  7

  8
Administrator
  9

300
AmdtFileType=84
301
=
302
=
303
=
304
=
305
=
306
=
307
=
308
=
309
=
 40
11.04963783564815
 41
2452002.615067627
 42
2455348.449141528
  1

 90
        1
  0
ACAD_PROXY_OBJECT
  5
3DEB
102
{ACAD_REACTORS
330
C
102
}
330
C
100
AcDbProxyObject
 90
      499
 91
      583
 95
       23
 70
     0
 93
        8
310
047E
 94
        0
1001
ACAD
1000
AcRTDxfName
1000
AMDTMAPISURFMOUDULE
1000
AcRTDxfName
1000
AMDTMAPISURFMOUDULE
1000
AcRTDxfName
1000
AMDTMAPISURFMOUDULE
  0
DICTIONARY
  5
F639
102
{ACAD_REACTORS
330
C
102
}
330
C
100
AcDbDictionary
281
     1
  3
XREC1
350
F63A
  0
DICTIONARY
  5
3F98
102
{ACAD_REACTORS
330
3F95
102
}
330
3F95
100
AcDbDictionary
280
     1
281
     1
  0
DICTIONARY
  5
3F96
102
{ACAD_REACTORS
330
3F95
102
}
330
3F95
100
AcDbDictionary
281
     1
  3
20011210
350
3FB7
  0
SORTENTSTABLE
  5
14E13
102
{ACAD_REACTORS
330
8A
102
}
330
8A
100
AcDbSortentsTable
330
1F
331
14224
  5
1422D
331
14B96
  5
14DC8
331
13A62
  5
1420B
331
1311D
  5
13A60
331
1422C
  5
14231
331
14222
  5
1422C
331
14B94
  5
14DC6
331
13120
  5
13A63
331
13A60
  5
14209
331
1422A
  5
14230
331
14B97
  5
14DC9
331
13A63
  5
1420C
331
1311E
  5
13A61
331
14228
  5
1422F
331
14B95
  5
14DC7
331
13121
  5
13A64
331
13A61
  5
1420A
331
14B98
  5
14DCB
331
1311C
  5
13121
331
14226
  5
1422E
331
14B93
  5
14B98
331
13A64
  5
1420D
331
1311F
  5
13A62
  0
XRECORD
  5
1833A
102
{ACAD_REACTORS
330
18339
102
}
330
18339
100
AcDbXrecord
280
     1
 70
     1
  0
LAYOUT
  5
22
102
{ACAD_XDICTIONARY
360
1833D
102
}
102
{ACAD_REACTORS
330
1A
102
}
330
1A
100
AcDbPlotSettings
  1

  2
RICOH imagio Wide 7040e RP-GL/2
  4
A3
  6
AM_VIEW1
 40
5.069416522979736
 41
7.22842264175415
 42
5.238739013671875
 43
7.05908203125
 44
419.9889831542968
 45
296.9683227539062
 46
-5.159586191177368
 47
-7.15959095954895
 48
219.4956354736258
 49
-100.0
140
639.4956354736257
141
197.0
142
1.0
143
1.0
 70
 11956
 72
     1
 73
     0
 74
     4
  7
monochrome.ctb
 75
    16
147
1.0
148
-219.4956354736258
149
100.0
100
AcDbLayout
  1
Model
 70
     1
 71
     0
 10
0.0
 20
0.0
 11
12.0
 21
9.0
 12
0.0
 22
0.0
 32
0.0
 14
0.0
 24
0.0
 34
0.0
 15
0.0
 25
0.0
 35
0.0
146
0.0
 13
0.0
 23
0.0
 33
0.0
 16
1.0
 26
0.0
 36
0.0
 17
0.0
 27
1.0
 37
0.0
 76
     0
330
1F
331
1648C
1001
ACAD_PSEXT
1000
RICOH imagio Wide 7040e RP-GL/2
1000
RICOH imagio Wide 7040e RP-GL/2
1000
192.200.51.212@imagioW7040e@
1000
RP-GL/2 Driver (Windows 2000/XP/Server 2003)
1070
     0
  0
LAYOUT
  5
1E
102
{ACAD_XDICTIONARY
360
1833B
102
}
102
{ACAD_REACTORS
330
1A
102
}
330
1A
100
AcDbPlotSettings
  1

  2
\\ML370\XEROX
  4
A4
  6

 40
3.174999952316282
 41
3.174999952316282
 42
3.175003051757812
 43
3.17498779296875
 44
209.8674926757813
 45
296.6719970703125
 46
0.0
 47
0.0
 48
0.0
 49
0.0
140
0.0
141
0.0
142
1.0
143
1.0
 70
   688
 72
     1
 73
     1
 74
     5
  7
monochrome.ctb
 75
    16
147
1.0
148
0.0
149
0.0
100
AcDbLayout
  1
ﾚｲｱｳﾄ1
 70
     1
 71
     1
 10
-3.17498779296875
 20
-3.174999952316282
 11
293.4970092773438
 21
206.692492723465
 12
0.0
 22
0.0
 32
0.0
 14
1.000000000000000E+20
 24
1.000000000000000E+20
 34
1.000000000000000E+20
 15
-1.000000000000000E+20
 25
-1.000000000000000E+20
 35
-1.000000000000000E+20
146
0.0
 13
0.0
 23
0.0
 33
0.0
 16
1.0
 26
0.0
 36
0.0
 17
0.0
 27
1.0
 37
0.0
 76
     0
330
1B
  0
LAYOUT
  5
26
102
{ACAD_XDICTIONARY
360
1833F
102
}
102
{ACAD_REACTORS
330
1A
102
}
330
1A
100
AcDbPlotSettings
  1

  2
\\ML370\XEROX
  4

  6

 40
0.0
 41
0.0
 42
0.0
 43
0.0
 44
0.0
 45
0.0
 46
0.0
 47
0.0
 48
0.0
 49
0.0
140
0.0
141
0.0
142
1.0
143
1.0
 70
   688
 72
     0
 73
     0
 74
     5
  7
monochrome.ctb
 75
    16
147
1.0
148
0.0
149
0.0
100
AcDbLayout
  1
ﾚｲｱｳﾄ2
 70
     1
 71
     2
 10
0.0
 20
0.0
 11
12.0
 21
9.0
 12
0.0
 22
0.0
 32
0.0
 14
0.0
 24
0.0
 34
0.0
 15
0.0
 25
0.0
 35
0.0
146
0.0
 13
0.0
 23
0.0
 33
0.0
 16
1.0
 26
0.0
 36
0.0
 17
0.0
 27
1.0
 37
0.0
 76
     0
330
23
  0
MATERIAL
  5
1648F
102
{ACAD_XDICTIONARY
360
1813A
102
}
102
{ACAD_REACTORS
330
128FB
102
}
330
128FB
100
AcDbMaterial
  1
ByBlock
  0
MATERIAL
  5
1648E
102
{ACAD_XDICTIONARY
360
18138
102
}
102
{ACAD_REACTORS
330
128FB
102
}
330
128FB
100
AcDbMaterial
  1
ByLayer
  0
MATERIAL
  5
16490
102
{ACAD_XDICTIONARY
360
1813C
102
}
102
{ACAD_REACTORS
330
128FB
102
}
330
128FB
100
AcDbMaterial
  1
Global
  0
MLINESTYLE
  5
18
102
{ACAD_REACTORS
330
17
102
}
330
17
100
AcDbMlineStyle
  2
STANDARD
 70
     0
  3

 62
   256
 51
90.0
 52
90.0
 71
     2
 49
0.5
 62
   256
  6
BYLAYER
 49
-0.5
 62
   256
  6
BYLAYER
  0
PLOTSETTINGS
  5
D3FB
102
{ACAD_XDICTIONARY
360
18341
102
}
102
{ACAD_REACTORS
330
19
102
}
330
19
100
AcDbPlotSettings
  1
０１　Ａ３　１：１
  2
Fuji Xerox BT9050
  4
A3
  6
AM_VIEW1
 40
3.174999952316282
 41
3.174999952316282
 42
3.17498779296875
 43
3.17498779296875
 44
296.6719970703125
 45
419.7984924316406
 46
-3.339999999999998
 47
-3.279999999999998
 48
214.3704939521119
 49
367.5855324241177
140
275.6727856380065
141
407.6291914078168
142
1.0
143
1.0
 70
  1716
 72
     1
 73
     1
 74
     2
  7
monochrome.ctb
 75
    16
147
1.0
148
0.0
149
0.0
  0
PLOTSETTINGS
  5
D3FC
102
{ACAD_XDICTIONARY
360
18343
102
}
102
{ACAD_REACTORS
330
19
102
}
330
19
100
AcDbPlotSettings
  1
０２　Ａ４　１：１
  2
Fuji Xerox BT9050
  4
A4
  6
AM_VIEW1
 40
3.174999952316282
 41
3.174999952316282
 42
3.175003051757812
 43
3.17498779296875
 44
209.8674926757813
 45
296.6719970703125
 46
-3.24
 47
-3.339999999999998
 48
214.3704939521119
 49
367.5855324241177
140
275.6727856380065
141
407.6291914078168
142
1.0
143
1.0
 70
  1716
 72
     1
 73
     1
 74
     2
  7
monochrome.ctb
 75
    16
147
1.0
148
-1753.413893958421
149
379.6629084990108
  0
PLOTSETTINGS
  5
D3FD
102
{ACAD_XDICTIONARY
360
18345
102
}
102
{ACAD_REACTORS
330
19
102
}
330
19
100
AcDbPlotSettings
  1
０３　Ａ２をＡ３に
  2
Fuji Xerox BT9050
  4
A3
  6
AM_VIEW1
 40
3.174999952316282
 41
3.174999952316282
 42
3.17498779296875
 43
3.17498779296875
 44
296.6719970703125
 45
419.7984924316406
 46
-0.6700000000000001
 47
0.47
 48
214.3704939521119
 49
367.5855324241177
140
275.6727856380065
141
407.6291914078168
142
1.0
143
1.439999999999999
 70
  1700
 72
     1
 73
     1
 74
     2
  7
monochrome.ctb
 75
     0
147
0.6944444444444447
148
-1022.592658137922
149
-190.0829775733665
  0
PLOTSETTINGS
  5
D3FE
102
{ACAD_XDICTIONARY
360
18347
102
}
102
{ACAD_REACTORS
330
19
102
}
330
19
100
AcDbPlotSettings
  1
０４　Ａ２　１：１
  2
Fuji Xerox BT9050
  4
User120
  6
AM_VIEW1
 40
3.174999952316282
 41
3.174999952316282
 42
3.17498779296875
 43
3.17498779296875
 44
420.0
 45
594.0
 46
-3.169999999999998
 47
-3.169999999999998
 48
214.3704939521119
 49
367.5855324241177
140
275.6727856380065
141
407.6291914078168
142
1.0
143
1.0
 70
  1716
 72
     1
 73
     1
 74
     2
  7
monochrome.ctb
 75
    16
147
1.0
148
-2162.975993882549
149
549.9788423436521
  0
PLOTSETTINGS
  5
D3FF
102
{ACAD_XDICTIONARY
360
18349
102
}
102
{ACAD_REACTORS
330
19
102
}
330
19
100
AcDbPlotSettings
  1
０５　Ａ３をＡ４に
  2
Fuji Xerox BT9050
  4
A4
  6
AM_VIEW1
 40
3.174999952316282
 41
3.174999952316282
 42
3.175003051757812
 43
3.17498779296875
 44
209.8674926757813
 45
296.6719970703125
 46
0.0
 47
1.26
 48
214.3704939521119
 49
367.5855324241177
140
275.6727856380065
141
407.6291914078168
142
1.0
143
1.45933403796936
 70
  1700
 72
     1
 73
     1
 74
     2
  7
monochrome.ctb
 75
     0
147
0.6852440729687112
148
0.0
149
0.0
  0
PLOTSETTINGS
  5
D400
102
{ACAD_XDICTIONARY
360
1834B
102
}
102
{ACAD_REACTORS
330
19
102
}
330
19
100
AcDbPlotSettings
  1
０６　Ａ２をＡ４に
  2
Fuji Xerox BT9050
  4
A4
  6
AM_VIEW1
 40
3.174999952316282
 41
3.174999952316282
 42
3.175003051757812
 43
3.17498779296875
 44
209.8674926757813
 45
296.6719970703125
 46
-3.24
 47
-3.339999999999998
 48
214.3704939521119
 49
367.5855324241177
140
275.6727856380065
141
407.6291914078168
142
1.0
143
2.0
 70
  1716
 72
     1
 73
     1
 74
     2
  7
monochrome.ctb
 75
    17
147
0.5
148
-2387.839592618423
149
409.4215764521081
  0
ACDBPLACEHOLDER
  5
F
102
{ACAD_REACTORS
330
E
102
}
330
E
  0
TABLESTYLE
  5
128FE
102
{ACAD_XDICTIONARY
360
1834D
102
}
102
{ACAD_REACTORS
330
128FD
102
}
330
128FD
100
AcDbTableStyle
  3
Standard
 70
     0
 71
     0
 40
1.5
 41
1.5
280
     0
281
     0
  7
STANDARD
140
4.5
170
     2
 62
     0
 63
     7
283
     0
274
    -2
284
     1
 64
     0
275
    -2
285
     1
 65
     0
276
    -2
286
     1
 66
     0
277
    -2
287
     1
 67
     0
278
    -2
288
     1
 68
     0
279
    -2
289
     1
 69
     0
  7
STANDARD
140
6.0
170
     5
 62
     0
 63
     7
283
     0
274
    -2
284
     1
 64
     0
275
    -2
285
     1
 65
     0
276
    -2
286
     1
 66
     0
277
    -2
287
     1
 67
     0
278
    -2
288
     1
 68
     0
279
    -2
289
     1
 69
     0
  7
STANDARD
140
4.5
170
     5
 62
     0
 63
     7
283
     0
274
    -2
284
     1
 64
     0
275
    -2
285
     1
 65
     0
276
    -2
286
     1
 66
     0
277
    -2
287
     1
 67
     0
278
    -2
288
     1
 68
     0
279
    -2
289
     1
 69
     0
  0
VISUALSTYLE
  5
16497
102
{ACAD_REACTORS
330
16491
102
}
330
16491
100
AcDbVisualStyle
  2
2dWireframe
 70
     4
 71
     0
 72
     2
 73
     0
 90
        0
 40
-0.6
 41
-30.0
 62
     5
 63
     7
 74
     1
 91
        4
 64
     7
 65
   257
 75
     1
175
     1
 42
1.0
 92
        0
 66
   257
 43
1.0
 76
     1
 77
     6
 78
     2
 67
     7
 79
     5
170
     0
171
     0
290
     0
174
     0
 93
        1
 44
0.0
173
     0
291
     0
 45
0.0
1001
ACAD
1000
AcDbSavedByObjectVersion
1070
     0
  0
VISUALSTYLE
  5
16499
102
{ACAD_REACTORS
330
16491
102
}
330
16491
100
AcDbVisualStyle
  2
3D Hidden
 70
     6
 71
     1
 72
     2
 73
     2
 90
        0
 40
-0.6
 41
-30.0
 62
     5
 63
     7
 74
     2
 91
        2
 64
     7
 65
   257
 75
     2
175
     1
 42
40.0
 92
        0
 66
   257
 43
1.0
 76
     1
 77
     6
 78
     2
 67
     7
 79
     3
170
     0
171
     0
290
     0
174
     0
 93
        1
 44
0.0
173
     0
291
     0
 45
0.0
1001
ACAD
1000
AcDbSavedByObjectVersion
1070
     0
  0
VISUALSTYLE
  5
16498
102
{ACAD_REACTORS
330
16491
102
}
330
16491
100
AcDbVisualStyle
  2
3dWireframe
 70
     5
 71
     0
 72
     2
 73
     0
 90
        0
 40
-0.6
 41
-30.0
 62
     5
 63
     7
 74
     1
 91
        4
 64
     7
 65
   257
 75
     1
175
     1
 42
1.0
 92
        0
 66
   257
 43
1.0
 76
     1
 77
     6
 78
     2
 67
     7
 79
     5
170
     0
171
     0
290
     0
174
     0
 93
        1
 44
0.0
173
     0
291
     0
 45
0.0
1001
ACAD
1000
AcDbSavedByObjectVersion
1070
     0
  0
VISUALSTYLE
  5
16496
102
{ACAD_REACTORS
330
16491
102
}
330
16491
100
AcDbVisualStyle
  2
Basic
 70
     7
 71
     1
 72
     0
 73
     1
 90
        0
 40
-0.6
 41
-30.0
 62
     5
 63
     7
 74
     0
 91
        4
 64
     7
 65
   257
 75
     1
175
     1
 42
1.0
 92
        8
 66
     7
 43
1.0
 76
     1
 77
     6
 78
     2
 67
     7
 79
     5
170
     0
171
     0
290
     0
174
     0
 93
        1
 44
0.0
173
     0
291
     1
 45
0.0
1001
ACAD
1000
AcDbSavedByObjectVersion
1070
     0
  0
VISUALSTYLE
  5
1649D
102
{ACAD_REACTORS
330
16491
102
}
330
16491
100
AcDbVisualStyle
  2
Brighten
 70
    12
 71
     2
 72
     2
 73
     0
 90
        0
 40
-0.6
 41
-30.0
 62
     5
 63
     7
 74
     1
 91
        4
 64
     7
 65
   257
 75
     1
175
     1
 42
1.0
 92
        8
 66
     7
 43
1.0
 76
     1
 77
     6
 78
     2
 67
     7
 79
     5
170
     0
171
     0
290
     0
174
     0
 93
        1
 44
50.0
173
     0
291
     1
 45
0.0
1001
ACAD
1000
AcDbSavedByObjectVersion
1070
     0
  0
VISUALSTYLE
  5
164A1
102
{ACAD_REACTORS
330
16491
102
}
330
16491
100
AcDbVisualStyle
  2
ColorChange
 70
    16
 71
     2
 72
     2
 73
     3
 90
        0
 40
-0.6
 41
-30.0
 62
     5
 63
     8
 74
     1
 91
        4
 64
     7
 65
   257
 75
     1
175
     1
 42
1.0
 92
        8
 66
     8
 43
1.0
 76
     1
 77
     6
 78
     2
 67
     7
 79
     5
170
     0
171
     0
290
     0
174
     0
 93
        1
 44
0.0
173
     0
291
     1
 45
0.0
1001
ACAD
1000
AcDbSavedByObjectVersion
1070
     0
  0
VISUALSTYLE
  5
1649A
102
{ACAD_REACTORS
330
16491
102
}
330
16491
100
AcDbVisualStyle
  2
Conceptual
 70
     9
 71
     3
 72
     2
 73
     0
 90
        0
 40
-0.6
 41
-30.0
 62
     5
 63
     7
 74
     2
 91
        2
 64
     7
 65
   257
 75
     1
175
     1
 42
40.0
 92
        8
 66
     7
 43
1.0
 76
     1
 77
     6
 78
     2
 67
     7
 79
     3
170
     0
171
     0
290
     0
174
     0
 93
        1
 44
0.0
173
     0
291
     0
 45
0.0
1001
ACAD
1000
AcDbSavedByObjectVersion
1070
     0
  0
VISUALSTYLE
  5
1649C
102
{ACAD_REACTORS
330
16491
102
}
330
16491
100
AcDbVisualStyle
  2
Dim
 70
    11
 71
     2
 72
     2
 73
     0
 90
        0
 40
-0.6
 41
-30.0
 62
     5
 63
     7
 74
     1
 91
        4
 64
     7
 65
   257
 75
     1
175
     1
 42
1.0
 92
        8
 66
     7
 43
1.0
 76
     1
 77
     6
 78
     2
 67
     7
 79
     5
170
     0
171
     0
290
     0
174
     0
 93
        1
 44
-50.0
173
     0
291
     1
 45
0.0
1001
ACAD
1000
AcDbSavedByObjectVersion
1070
     0
  0
VISUALSTYLE
  5
164A0
102
{ACAD_REACTORS
330
16491
102
}
330
16491
100
AcDbVisualStyle
  2
Facepattern
 70
    15
 71
     2
 72
     2
 73
     0
 90
        0
 40
-0.6
 41
-30.0
 62
     5
 63
     7
 74
     1
 91
        4
 64
     7
 65
   257
 75
     1
175
     1
 42
1.0
 92
        8
 66
     7
 43
1.0
 76
     1
 77
     6
 78
     2
 67
     7
 79
     5
170
     0
171
     0
290
     0
174
     0
 93
        1
 44
0.0
173
     0
291
     1
 45
0.0
1001
ACAD
1000
AcDbSavedByObjectVersion
1070
     0
  0
VISUALSTYLE
  5
16492
102
{ACAD_REACTORS
330
16491
102
}
330
16491
100
AcDbVisualStyle
  2
Flat
 70
     0
 71
     2
 72
     1
 73
     1
 90
        2
 40
-0.6
 41
30.0
 62
     5
 63
     7
 74
     0
 91
        4
 64
     7
 65
   257
 75
     1
175
     1
 42
1.0
 92
        8
 66
     7
 43
1.0
 76
     1
 77
     6
 78
     2
 67
     7
 79
     5
170
     0
171
     0
290
     0
174
     0
 93
       13
 44
0.0
173
     0
291
     1
 45
0.0
1001
ACAD
1000
AcDbSavedByObjectVersion
1070
     0
  0
VISUALSTYLE
  5
16493
102
{ACAD_REACTORS
330
16491
102
}
330
16491
100
AcDbVisualStyle
  2
FlatWithEdges
 70
     1
 71
     2
 72
     1
 73
     1
 90
        2
 40
-0.6
 41
30.0
 62
     5
 63
     7
 74
     1
 91
        4
 64
     7
 65
   257
 75
     1
175
     1
 42
1.0
 92
        0
 66
   257
 43
1.0
 76
     1
 77
     6
 78
     2
 67
     7
 79
     5
170
     0
171
     0
290
     0
174
     0
 93
       13
 44
0.0
173
     0
291
     1
 45
0.0
1001
ACAD
1000
AcDbSavedByObjectVersion
1070
     0
  0
VISUALSTYLE
  5
16494
102
{ACAD_REACTORS
330
16491
102
}
330
16491
100
AcDbVisualStyle
  2
Gouraud
 70
     2
 71
     2
 72
     2
 73
     1
 90
        2
 40
-0.6
 41
30.0
 62
     5
 63
     7
 74
     0
 91
        4
 64
     7
 65
   257
 75
     1
175
     1
 42
1.0
 92
        0
 66
     7
 43
1.0
 76
     1
 77
     6
 78
     2
 67
     7
 79
     5
170
     0
171
     0
290
     0
174
     0
 93
       13
 44
0.0
173
     0
291
     1
 45
0.0
1001
ACAD
1000
AcDbSavedByObjectVersion
1070
     0
  0
VISUALSTYLE
  5
16495
102
{ACAD_REACTORS
330
16491
102
}
330
16491
100
AcDbVisualStyle
  2
GouraudWithEdges
 70
     3
 71
     2
 72
     2
 73
     1
 90
        2
 40
-0.6
 41
30.0
 62
     5
 63
     7
 74
     1
 91
        4
 64
     7
 65
   257
 75
     1
175
     1
 42
1.0
 92
        0
 66
   257
 43
1.0
 76
     1
 77
     6
 78
     2
 67
     7
 79
     5
170
     0
171
     0
290
     0
174
     0
 93
       13
 44
0.0
173
     0
291
     1
 45
0.0
1001
ACAD
1000
AcDbSavedByObjectVersion
1070
     0
  0
VISUALSTYLE
  5
1649F
102
{ACAD_REACTORS
330
16491
102
}
330
16491
100
AcDbVisualStyle
  2
Linepattern
 70
    14
 71
     2
 72
     2
 73
     0
 90
        0
 40
-0.6
 41
-30.0
 62
     5
 63
     7
 74
     1
 91
        4
 64
     7
 65
   257
 75
     7
175
     7
 42
1.0
 92
        8
 66
     7
 43
1.0
 76
     1
 77
     6
 78
     2
 67
     7
 79
     5
170
     0
171
     0
290
     0
174
     0
 93
        1
 44
0.0
173
     0
291
     1
 45
0.0
1001
ACAD
1000
AcDbSavedByObjectVersion
1070
     0
  0
VISUALSTYLE
  5
1649B
102
{ACAD_REACTORS
330
16491
102
}
330
16491
100
AcDbVisualStyle
  2
Realistic
 70
     8
 71
     2
 72
     2
 73
     0
 90
        0
 40
-0.6
 41
-30.0
 62
     5
 63
     7
 74
     1
 91
        0
 64
     7
 65
   257
 75
     1
175
     1
 42
1.0
 92
        8
 66
     8
 43
1.0
 76
     1
 77
     6
 78
     2
 67
     7
 79
     5
170
     0
171
     0
290
     0
174
     0
 93
       13
 44
0.0
173
     0
291
     0
 45
0.0
1001
ACAD
1000
AcDbSavedByObjectVersion
1070
     0
  0
VISUALSTYLE
  5
1649E
102
{ACAD_REACTORS
330
16491
102
}
330
16491
100
AcDbVisualStyle
  2
Thicken
 70
    13
 71
     2
 72
     2
 73
     0
 90
        0
 40
-0.6
 41
-30.0
 62
     5
 63
     7
 74
     1
 91
        4
 64
     7
 65
   257
 75
     1
175
     1
 42
1.0
 92
       12
 66
     7
 43
1.0
 76
     1
 77
     6
 78
     2
 67
     7
 79
     5
170
     0
171
     0
290
     0
174
     0
 93
        1
 44
0.0
173
     0
291
     1
 45
0.0
1001
ACAD
1000
AcDbSavedByObjectVersion
1070
     0
  0
DICTIONARYVAR
  5
12946
102
{ACAD_REACTORS
330
34
102
}
330
34
100
DictionaryVariables
280
     0
  1
STANDARD
  0
DICTIONARYVAR
  5
D350
102
{ACAD_REACTORS
330
34
102
}
330
34
100
DictionaryVariables
280
     0
  1
1
  0
DICTIONARYVAR
  5
35
102
{ACAD_REACTORS
330
34
102
}
330
34
100
DictionaryVariables
280
     0
  1
0
  0
DICTIONARYVAR
  5
194C
102
{ACAD_REACTORS
330
34
102
}
330
34
100
DictionaryVariables
280
     0
  1
96
  0
DICTIONARY
  5
7E8
102
{ACAD_REACTORS
330
47
102
}
330
47
100
AcDbDictionary
281
     1
  0
DICTIONARY
  5
4C
102
{ACAD_REACTORS
330
47
102
}
330
47
100
AcDbDictionary
281
     1
  0
XRECORD
  5
1291C
102
{ACAD_REACTORS
330
47
102
}
330
47
100
AcDbXrecord
280
     1
 90
-1023410169
  0
XRECORD
  5
A0F4
102
{ACAD_REACTORS
330
A0F3
102
}
330
A0F3
100
AcDbXrecord
280
     1
330
0
330
0
330
0
330
0
330
0
330
0
330
0
330
0
  0
XRECORD
  5
F63A
102
{ACAD_REACTORS
330
F639
102
}
330
F639
100
AcDbXrecord
280
     1
  1
PV
 40
1.0
 50
-12089.40947726037
 51
-5729.577951308232
 52
9740.282517223997
 53
9912.169855763243
  0
XRECORD
  5
3FB7
102
{ACAD_REACTORS
330
3F96
102
}
330
3F96
100
AcDbXrecord
280
     1
 91
        3
330
A47
 90
        8
 62
     7
370
    40
331
16
  1
Color_7
330
A46
 90
        0
 62
    14
370
    -3
331
16
  1
Color_14
330
3A31
 90
        8
 62
     7
370
    20
331
16
  1
Color_7
330
6D1
 90
        0
 62
     7
370
    -3
331
16
  1
Color_7
330
0
 90
        8
 62
     7
370
    50
331
16
  1
Color_7
330
A48
 90
        8
 62
     2
370
    35
331
16
  1
Color_2
330
0
 90
        8
 62
     7
370
    -3
331
16
  1
Color_7
330
10
 90
        8
 62
     7
370
    -3
331
16
  1
Color_7
  0
DICTIONARY
  5
1833D
330
22
100
AcDbDictionary
280
     1
281
     1
  3
ACAD_XREC_ROUNDTRIP
360
1833E
  0
DICTIONARY
  5
1833B
330
1E
100
AcDbDictionary
280
     1
281
     1
  3
ACAD_XREC_ROUNDTRIP
360
1833C
  0
DICTIONARY
  5
1833F
330
26
100
AcDbDictionary
280
     1
281
     1
  3
ACAD_XREC_ROUNDTRIP
360
18340
  0
DICTIONARY
  5
1813A
330
1648F
100
AcDbDictionary
280
     1
281
     1
  3
ACAD_XREC_ROUNDTRIP
360
1813B
  0
DICTIONARY
  5
18138
330
1648E
100
AcDbDictionary
280
     1
281
     1
  3
ACAD_XREC_ROUNDTRIP
360
18139
  0
DICTIONARY
  5
1813C
330
16490
100
AcDbDictionary
280
     1
281
     1
  3
ACAD_XREC_ROUNDTRIP
360
1813D
  0
DICTIONARY
  5
18341
330
D3FB
100
AcDbDictionary
280
     1
281
     1
  3
ACAD_XREC_ROUNDTRIP
360
18342
  0
DICTIONARY
  5
18343
330
D3FC
100
AcDbDictionary
280
     1
281
     1
  3
ACAD_XREC_ROUNDTRIP
360
18344
  0
DICTIONARY
  5
18345
330
D3FD
100
AcDbDictionary
280
     1
281
     1
  3
ACAD_XREC_ROUNDTRIP
360
18346
  0
DICTIONARY
  5
18347
330
D3FE
100
AcDbDictionary
280
     1
281
     1
  3
ACAD_XREC_ROUNDTRIP
360
18348
  0
DICTIONARY
  5
18349
330
D3FF
100
AcDbDictionary
280
     1
281
     1
  3
ACAD_XREC_ROUNDTRIP
360
1834A
  0
DICTIONARY
  5
1834B
330
D400
100
AcDbDictionary
280
     1
281
     1
  3
ACAD_XREC_ROUNDTRIP
360
1834C
  0
DICTIONARY
  5
1834D
330
128FE
100
AcDbDictionary
280
     1
281
     1
  3
ACAD_XREC_ROUNDTRIP
360
1834E
  0
XRECORD
  5
1833E
102
{ACAD_REACTORS
330
1833D
102
}
330
1833D
100
AcDbXrecord
280
     1
102
SHADEPLOT
 70
     0
102
SHADEPLOTRESLEVEL
 70
     2
102
SHADEPLOTCUSTOMDPI
 70
   300
  0
XRECORD
  5
1833C
102
{ACAD_REACTORS
330
1833B
102
}
330
1833B
100
AcDbXrecord
280
     1
102
SHADEPLOT
 70
     0
102
SHADEPLOTRESLEVEL
 70
     2
102
SHADEPLOTCUSTOMDPI
 70
   300
  0
XRECORD
  5
18340
102
{ACAD_REACTORS
330
1833F
102
}
330
1833F
100
AcDbXrecord
280
     1
102
SHADEPLOT
 70
     0
102
SHADEPLOTRESLEVEL
 70
     2
102
SHADEPLOTCUSTOMDPI
 70
   300
  0
XRECORD
  5
1813B
102
{ACAD_REACTORS
330
1813A
102
}
330
1813A
100
AcDbXrecord
280
     1
102
MATERIAL
148
0.0
149
0.0
149
0.0
 93
        0
 94
       63
282
     0
 72
     1
 77
     1
171
     1
175
     1
179
     1
273
     0
  0
XRECORD
  5
18139
102
{ACAD_REACTORS
330
18138
102
}
330
18138
100
AcDbXrecord
280
     1
102
MATERIAL
148
0.0
149
0.0
149
0.0
 93
        0
 94
       63
282
     0
 72
     1
 77
     1
171
     1
175
     1
179
     1
273
     0
  0
XRECORD
  5
1813D
102
{ACAD_REACTORS
330
1813C
102
}
330
1813C
100
AcDbXrecord
280
     1
102
MATERIAL
148
0.0
149
0.0
149
0.0
 93
        0
 94
       63
282
     0
 72
     1
 77
     1
171
     1
175
     1
179
     1
273
     0
  0
XRECORD
  5
18342
102
{ACAD_REACTORS
330
18341
102
}
330
18341
100
AcDbXrecord
280
     1
102
SHADEPLOT
 70
     0
102
SHADEPLOTRESLEVEL
 70
     2
102
SHADEPLOTCUSTOMDPI
 70
   300
  0
XRECORD
  5
18344
102
{ACAD_REACTORS
330
18343
102
}
330
18343
100
AcDbXrecord
280
     1
102
SHADEPLOT
 70
     0
102
SHADEPLOTRESLEVEL
 70
     2
102
SHADEPLOTCUSTOMDPI
 70
   300
  0
XRECORD
  5
18346
102
{ACAD_REACTORS
330
18345
102
}
330
18345
100
AcDbXrecord
280
     1
102
SHADEPLOT
 70
     0
102
SHADEPLOTRESLEVEL
 70
     2
102
SHADEPLOTCUSTOMDPI
 70
   300
  0
XRECORD
  5
18348
102
{ACAD_REACTORS
330
18347
102
}
330
18347
100
AcDbXrecord
280
     1
102
SHADEPLOT
 70
     0
102
SHADEPLOTRESLEVEL
 70
     2
102
SHADEPLOTCUSTOMDPI
 70
   300
  0
XRECORD
  5
1834A
102
{ACAD_REACTORS
330
18349
102
}
330
18349
100
AcDbXrecord
280
     1
102
SHADEPLOT
 70
     0
102
SHADEPLOTRESLEVEL
 70
     2
102
SHADEPLOTCUSTOMDPI
 70
   300
  0
XRECORD
  5
1834C
102
{ACAD_REACTORS
330
1834B
102
}
330
1834B
100
AcDbXrecord
280
     1
102
SHADEPLOT
 70
     0
102
SHADEPLOTRESLEVEL
 70
     2
102
SHADEPLOTCUSTOMDPI
 70
   300
  0
XRECORD
  5
1834E
102
{ACAD_REACTORS
330
1834D
102
}
330
1834D
100
AcDbXrecord
280
     1
102
ACAD_ROUNDTRIP_PRE2007_TABLESTYLE
 90
        4
 91
        0
  1

 92
        4
 93
        0
  2

 94
        4
 95
        0
  3

  0
ENDSEC
  0
EOF
