  0
SECTION
  2
HEADER
  9
$ACADVER
  1
AC1018
  9
$ACADMAINTVER
 70
   104
  9
$DWGCODEPAGE
  3
ANSI_932
  9
$LASTSAVEDBY
  1
Administrator
  9
$INSBASE
 10
0.0
 20
0.0
 30
0.0
  9
$EXTMIN
 10
-385.0
 20
-100.0
 30
0.0
  9
$EXTMAX
 10
170.0
 20
294.5
 30
0.0
  9
$LIMMIN
 10
-385.0
 20
-100.0
  9
$LIMMAX
 10
170.0
 20
296.0
  9
$ORTHOMODE
 70
     0
  9
$REGENMODE
 70
     1
  9
$FILLMODE
 70
     1
  9
$QTEXTMODE
 70
     0
  9
$MIRRTEXT
 70
     0
  9
$LTSCALE
 40
1.0
  9
$ATTMODE
 70
     1
  9
$TEXTSIZE
 40
0.2
  9
$TRACEWID
 40
0.05
  9
$TEXTSTYLE
  7
STANDARD
  9
$CLAYER
  8
0
  9
$CELTYPE
  6
CONTINUOUS
  9
$CECOLOR
 62
   256
  9
$CELTSCALE
 40
1.0
  9
$DISPSILH
 70
     0
  9
$DIMSCALE
 40
1.0
  9
$DIMASZ
 40
1.0
  9
$DIMEXO
 40
2.54
  9
$DIMDLI
 40
0.38
  9
$DIMRND
 40
0.0
  9
$DIMDLE
 40
0.0
  9
$DIMEXE
 40
2.54
  9
$DIMTP
 40
0.0
  9
$DIMTM
 40
0.0
  9
$DIMTXT
 40
3.2
  9
$DIMCEN
 40
0.09
  9
$DIMTSZ
 40
0.0
  9
$DIMTOL
 70
     0
  9
$DIMLIM
 70
     0
  9
$DIMTIH
 70
     0
  9
$DIMTOH
 70
     0
  9
$DIMSE1
 70
     0
  9
$DIMSE2
 70
     0
  9
$DIMTAD
 70
     1
  9
$DIMZIN
 70
     0
  9
$DIMBLK
  1

  9
$DIMASO
 70
     1
  9
$DIMSHO
 70
     0
  9
$DIMPOST
  1

  9
$DIMAPOST
  1

  9
$DIMALT
 70
     0
  9
$DIMALTD
 70
     2
  9
$DIMALTF
 40
25.4
  9
$DIMLFAC
 40
1.0
  9
$DIMTOFL
 70
     0
  9
$DIMTVP
 40
1.0
  9
$DIMTIX
 70
     0
  9
$DIMSOXD
 70
     0
  9
$DIMSAH
 70
     1
  9
$DIMBLK1
  1

  9
$DIMBLK2
  1

  9
$DIMSTYLE
  2
DIMSTYLE
  9
$DIMCLRD
 70
     0
  9
$DIMCLRE
 70
     0
  9
$DIMCLRT
 70
     0
  9
$DIMTFAC
 40
1.0
  9
$DIMGAP
 40
1.6
  9
$DIMJUST
 70
     0
  9
$DIMSD1
 70
     0
  9
$DIMSD2
 70
     0
  9
$DIMTOLJ
 70
     1
  9
$DIMTZIN
 70
     0
  9
$DIMALTZ
 70
     0
  9
$DIMALTTZ
 70
     0
  9
$DIMUPT
 70
     0
  9
$DIMDEC
 70
     4
  9
$DIMTDEC
 70
     4
  9
$DIMALTU
 70
     2
  9
$DIMALTTD
 70
     2
  9
$DIMTXSTY
  7
STANDARD
  9
$DIMAUNIT
 70
     0
  9
$DIMADEC
 70
     0
  9
$DIMALTRND
 40
0.0
  9
$DIMAZIN
 70
     0
  9
$DIMDSEP
 70
    46
  9
$DIMATFIT
 70
     3
  9
$DIMFRAC
 70
     0
  9
$DIMLDRBLK
  1

  9
$DIMLUNIT
 70
     2
  9
$DIMLWD
 70
    -2
  9
$DIMLWE
 70
    -2
  9
$DIMTMOVE
 70
     0
  9
$LUNITS
 70
     2
  9
$LUPREC
 70
     4
  9
$SKETCHINC
 40
0.1
  9
$FILLETRAD
 40
0.0
  9
$AUNITS
 70
     0
  9
$AUPREC
 70
     0
  9
$MENU
  1
.
  9
$ELEVATION
 40
0.0
  9
$PELEVATION
 40
0.0
  9
$THICKNESS
 40
0.0
  9
$LIMCHECK
 70
     0
  9
$CHAMFERA
 40
0.0
  9
$CHAMFERB
 40
0.0
  9
$CHAMFERC
 40
0.0
  9
$CHAMFERD
 40
0.0
  9
$SKPOLY
 70
     0
  9
$TDCREATE
 40
2454475.453342188
  9
$TDUCREATE
 40
2454475.078342188
  9
$TDUPDATE
 40
2455457.590461690
  9
$TDUUPDATE
 40
2455457.215461690
  9
$TDINDWG
 40
0.0041541898
  9
$TDUSRTIMER
 40
0.0041541898
  9
$USRTIMER
 70
     1
  9
$ANGBASE
 50
0.0
  9
$ANGDIR
 70
     0
  9
$PDMODE
 70
     0
  9
$PDSIZE
 40
0.0
  9
$PLINEWID
 40
0.0
  9
$SPLFRAME
 70
     0
  9
$SPLINETYPE
 70
     6
  9
$SPLINESEGS
 70
     8
  9
$HANDSEED
  5
2D9
  9
$SURFTAB1
 70
     6
  9
$SURFTAB2
 70
     6
  9
$SURFTYPE
 70
     6
  9
$SURFU
 70
     6
  9
$SURFV
 70
     6
  9
$UCSBASE
  2

  9
$UCSNAME
  2

  9
$UCSORG
 10
0.0
 20
0.0
 30
0.0
  9
$UCSXDIR
 10
1.0
 20
0.0
 30
0.0
  9
$UCSYDIR
 10
0.0
 20
1.0
 30
0.0
  9
$UCSORTHOREF
  2

  9
$UCSORTHOVIEW
 70
     0
  9
$UCSORGTOP
 10
0.0
 20
0.0
 30
0.0
  9
$UCSORGBOTTOM
 10
0.0
 20
0.0
 30
0.0
  9
$UCSORGLEFT
 10
0.0
 20
0.0
 30
0.0
  9
$UCSORGRIGHT
 10
0.0
 20
0.0
 30
0.0
  9
$UCSORGFRONT
 10
0.0
 20
0.0
 30
0.0
  9
$UCSORGBACK
 10
0.0
 20
0.0
 30
0.0
  9
$PUCSBASE
  2

  9
$PUCSNAME
  2

  9
$PUCSORG
 10
0.0
 20
0.0
 30
0.0
  9
$PUCSXDIR
 10
1.0
 20
0.0
 30
0.0
  9
$PUCSYDIR
 10
0.0
 20
1.0
 30
0.0
  9
$PUCSORTHOREF
  2

  9
$PUCSORTHOVIEW
 70
     0
  9
$PUCSORGTOP
 10
0.0
 20
0.0
 30
0.0
  9
$PUCSORGBOTTOM
 10
0.0
 20
0.0
 30
0.0
  9
$PUCSORGLEFT
 10
0.0
 20
0.0
 30
0.0
  9
$PUCSORGRIGHT
 10
0.0
 20
0.0
 30
0.0
  9
$PUCSORGFRONT
 10
0.0
 20
0.0
 30
0.0
  9
$PUCSORGBACK
 10
0.0
 20
0.0
 30
0.0
  9
$USERI1
 70
     0
  9
$USERI2
 70
     0
  9
$USERI3
 70
     0
  9
$USERI4
 70
     0
  9
$USERI5
 70
     0
  9
$USERR1
 40
0.0
  9
$USERR2
 40
0.0
  9
$USERR3
 40
0.0
  9
$USERR4
 40
0.0
  9
$USERR5
 40
0.0
  9
$WORLDVIEW
 70
     1
  9
$SHADEDGE
 70
     3
  9
$SHADEDIF
 70
    70
  9
$TILEMODE
 70
     1
  9
$MAXACTVP
 70
    64
  9
$PINSBASE
 10
0.0
 20
0.0
 30
0.0
  9
$PLIMCHECK
 70
     0
  9
$PEXTMIN
 10
1.000000000000000E+20
 20
1.000000000000000E+20
 30
1.000000000000000E+20
  9
$PEXTMAX
 10
-1.000000000000000E+20
 20
-1.000000000000000E+20
 30
-1.000000000000000E+20
  9
$PLIMMIN
 10
-385.0
 20
-100.0
  9
$PLIMMAX
 10
170.0
 20
296.0
  9
$UNITMODE
 70
     0
  9
$VISRETAIN
 70
     1
  9
$PLINEGEN
 70
     0
  9
$PSLTSCALE
 70
     1
  9
$TREEDEPTH
 70
  3020
  9
$CMLSTYLE
  2
Standard
  9
$CMLJUST
 70
     0
  9
$CMLSCALE
 40
1.0
  9
$PROXYGRAPHICS
 70
     1
  9
$MEASUREMENT
 70
     0
  9
$CELWEIGHT
370
    -1
  9
$ENDCAPS
280
     0
  9
$JOINSTYLE
280
     0
  9
$LWDISPLAY
290
     0
  9
$INSUNITS
 70
     0
  9
$HYPERLINKBASE
  1

  9
$STYLESHEET
  1

  9
$XEDIT
290
     1
  9
$CEPSNTYPE
380
     0
  9
$PSTYLEMODE
290
     1
  9
$FINGERPRINTGUID
  2
{34656CC6-4BD7-4D1C-9035-7B500C05959F}
  9
$VERSIONGUID
  2
{4B101E6D-F900-4045-9D9D-55D337060F76}
  9
$EXTNAMES
290
     1
  9
$PSVPSCALE
 40
0.0
  9
$OLESTARTUP
290
     0
  9
$SORTENTS
280
   127
  9
$INDEXCTL
280
     0
  9
$HIDETEXT
280
     0
  9
$XCLIPFRAME
290
     0
  9
$HALOGAP
280
     0
  9
$OBSCOLOR
 70
   257
  9
$OBSLTYPE
280
     0
  9
$INTERSECTIONDISPLAY
280
     0
  9
$INTERSECTIONCOLOR
 70
   257
  9
$DIMASSOC
280
     1
  9
$PROJECTNAME
  1

  0
ENDSEC
  0
SECTION
  2
CLASSES
  0
CLASS
  1
ACDBDICTIONARYWDFLT
  2
AcDbDictionaryWithDefault
  3
ObjectDBX Classes
 90
        0
 91
        1
280
     0
281
     0
  0
CLASS
  1
MATERIAL
  2
AcDbMaterial
  3
ObjectDBX Classes
 90
     1024
 91
        3
280
     0
281
     0
  0
CLASS
  1
VISUALSTYLE
  2
AcDbVisualStyle
  3
ObjectDBX Classes
 90
     4095
 91
       16
280
     0
281
     0
  0
CLASS
  1
TABLESTYLE
  2
AcDbTableStyle
  3
ObjectDBX Classes
 90
     4095
 91
        1
280
     0
281
     0
  0
CLASS
  1
AMGSETTINGSOBJ
  2
AmgSettingsObj
  3
"AcadM|Product Description: AutoCAD Mechanical|Company: Autodesk"
 90
        0
 91
        2
280
     0
281
     0
  0
CLASS
  1
ACME_DOCUMENT
  2
AcMeDbDoc
  3
AcMeServices
 90
        0
 91
        2
280
     0
281
     0
  0
CLASS
  1
ACMESCOPE
  2
AcMeScope
  3
AcMeServices
 90
        0
 91
        1
280
     0
281
     0
  0
CLASS
  1
ACMECOMMANDHISTORY
  2
AcMeCommandHistory
  3
AcMeServices
 90
        0
 91
        1
280
     0
281
     0
  0
CLASS
  1
ACIMSYSVARMAN
  2
AcImSysVarManager
  3
AcMeServices
 90
        0
 91
        5
280
     0
281
     0
  0
CLASS
  1
ACIMINTSYSVAR
  2
AcImIntSysVar
  3
AcMeServices
 90
        0
 91
       27
280
     0
281
     0
  0
CLASS
  1
ACMEDRAWINGMAN
  2
AcMeDrawingMan
  3
AcMeServices
 90
        0
 91
        1
280
     0
281
     0
  0
CLASS
  1
ACMEVIEW
  2
AcMeView
  3
AcMeServices
 90
        0
 91
        1
280
     0
281
     0
  0
CLASS
  1
ACDBENTITYCACHE
  2
AcMeEntityCache
  3
AcMeServices
 90
        0
 91
        1
280
     0
281
     0
  0
CLASS
  1
GSMANAGER
  2
AcMeGSManager
  3
AcMeServices
 90
        0
 91
        1
280
     0
281
     0
  0
CLASS
  1
AMDTINTERNALREACTOR
  2
AmdtInternalReactor
  3
AcMeServices
 90
        0
 91
        2
280
     0
281
     0
  0
CLASS
  1
ACMESTATEMGR
  2
AcMeStateMgr
  3
AcMeServices
 90
        0
 91
        1
280
     0
281
     0
  0
CLASS
  1
ACGREFMASTER
  2
AcGrefMaster
  3
AcAttribServices
 90
        0
 91
        1
280
     0
281
     0
  0
CLASS
  1
AM_DRAWING_MGR
  2
AcDmDwgMgr
  3
AcMechDwgViewMgmt
 90
        0
 91
        1
280
     0
281
     0
  0
CLASS
  1
AM_DWG_DOCUMENT
  2
AcDmDwgDocument
  3
AcMechDwgViewMgmt
 90
        0
 91
        1
280
     0
281
     0
  0
CLASS
  1
AM_DWG_SHEET
  2
AcDmSheet
  3
AcMechDwgViewMgmt
 90
        0
 91
        1
280
     0
281
     0
  0
CLASS
  1
AM_VIEWDIMPARMAP
  2
AcDmViewDimParMap
  3
AcMechDwgViewMgmt
 90
        0
 91
        1
280
     0
281
     0
  0
CLASS
  1
ACIMREALSYSVAR
  2
AcImRealSysVar
  3
AcMeServices
 90
        0
 91
        1
280
     0
281
     0
  0
CLASS
  1
AM_DWGMGR_NAME
  2
AcDmDwgMgrName
  3
AcMechDwgViewMgmt
 90
        0
 91
        1
280
     0
281
     0
  0
CLASS
  1
ACME_DATABASE
  2
AcMeDbDatabase
  3
AcMeServices
 90
        0
 91
        1
280
     0
281
     0
  0
CLASS
  1
ACRFINSADJUSTERMGR
  2
AcRfInsAdjusterMgr
  3
AcMeServices
 90
        0
 91
        1
280
     0
281
     0
  0
CLASS
  1
ACGREFACADMASTER
  2
AcGrefacadMaster
  3
AcGrefServices
 90
        0
 91
        1
280
     0
281
     0
  0
CLASS
  1
AMDTMENUSTATEMGR
  2
AmdtMenuStateMgr
  3
McadcomServices
 90
        0
 91
        1
280
     0
281
     0
  0
CLASS
  1
AMDTMCOMMENUSTATE
  2
AmdtMcomMenuState
  3
McadcomServices
 90
        0
 91
        1
280
     0
281
     0
  0
CLASS
  1
AMIMASTER
  2
AmiMaster
  3
AmiServices
 90
        0
 91
        1
280
     0
281
     0
  0
CLASS
  1
MAPIAMMOUDLE
  2
MApiAmModule
  3
MApiAmServices
 90
        0
 91
        1
280
     0
281
     0
  0
CLASS
  1
ACIMSTRSYSVAR
  2
AcImStrSysVar
  3
AcMeServices
 90
        0
 91
        5
280
     0
281
     0
  0
CLASS
  1
AMDTADMENUSTATE
  2
AmdtAdMenuState
  3
DesignerServices
 90
        0
 91
        1
280
     0
281
     0
  0
CLASS
  1
ADAPPL
  2
AcAdAppl
  3
DesignerServices
 90
        0
 91
        1
280
     0
281
     0
  0
CLASS
  1
DEPMGR
  2
AcAdDepMgr
  3
DesignerServices
 90
        0
 91
        1
280
     0
281
     0
  0
CLASS
  1
PARAMMGR
  2
AcAdParamMgr
  3
DesignerServices
 90
        0
 91
        1
280
     0
281
     0
  0
CLASS
  1
PARAMSCOPE
  2
AcAdParamScope
  3
DesignerServices
 90
        0
 91
        1
280
     0
281
     0
  0
CLASS
  1
NAMEDAPPL
  2
AcAdNamedAppl
  3
DesignerServices
 90
        0
 91
        1
280
     0
281
     0
  0
CLASS
  1
AMDTDMMENUSTATE
  2
AmdtDmMenuState
  3
AcMechDwgViewMgmt
 90
        0
 91
        1
280
     0
281
     0
  0
CLASS
  1
AMDTAMMENUSTATE
  2
AmdtAmMenuState
  3
DesignerAssemblies
 90
        0
 91
        1
280
     0
281
     0
  0
CLASS
  1
ACAMPROJECT
  2
AcAmProject
  3
DesignerAssemblies
 90
        0
 91
        1
280
     0
281
     0
  0
CLASS
  1
ACAMGRCOMPDEF
  2
AcAmGrCompDef
  3
DesignerAssemblies
 90
        0
 91
        1
280
     0
281
     0
  0
CLASS
  1
ACCMCONTEXT
  2
AcCmContext
  3
DesignerAssemblies
 90
        0
 91
        1
280
     0
281
     0
  0
CLASS
  1
ACAMCOMPDEF
  2
AcAmCompDef
  3
DesignerAssemblies
 90
        0
 91
        1
280
     0
281
     0
  0
CLASS
  1
ACAMCOMPDEFMGR
  2
AcAmCompDefMgr
  3
DesignerAssemblies
 90
        0
 91
        1
280
     0
281
     0
  0
CLASS
  1
AMCONTEXTMGR
  2
AcAmContextMgr
  3
DesignerAssemblies
 90
        0
 91
        1
280
     0
281
     0
  0
CLASS
  1
ACAMCONTEXTMODELER
  2
AcAmContextModeler
  3
DesignerAssemblies
 90
        0
 91
        1
280
     0
281
     0
  0
CLASS
  1
ACMDATADICTIONARY
  2
AcmDataDictionary
  3
"AcmSymBB|Product Description: AutoCAD Mechanical|Company: Autodesk"
 90
        0
 91
        1
280
     0
281
     0
  0
CLASS
  1
CATALOGSTATE
  2
AcAmCatalogState
  3
DesignerAssemblies
 90
        0
 91
        1
280
     0
281
     0
  0
CLASS
  1
ACAMGRCOMPDEFSET
  2
AcAmGrCompDefSet
  3
DesignerAssemblies
 90
        0
 91
        1
280
     0
281
     0
  0
CLASS
  1
AMDTBROWSERDBTAB
  2
AmdtBrowserDbTab
  3
McadcomServices
 90
        0
 91
        1
280
     0
281
     0
  0
CLASS
  1
CBROWSERAPPOBJECT
  2
CBrowserAppObject
  3
McadcomServices
 90
        0
 91
        3
280
     0
281
     0
  0
CLASS
  1
DM_PLACEHOLDER
  2
AcDmSelsetPlaceholder
  3
AcMechDwgViewMgmt
 90
        0
 91
        1
280
     0
281
     0
  0
CLASS
  1
ACMSTANDARDANSI
  2
AcmStandardANSI
  3
"Amdt_StdImp|Product Description: AutoCAD Mechanical|Company: Autodesk"
 90
        0
 91
        1
280
     0
281
     0
  0
CLASS
  1
AMGOBJPROPCFG
  2
AmgObjPropCfg
  3
"AmgLay|Product Description: AutoCAD Mechanical|Company: Autodesk"
 90
        1
 91
        1
280
     0
281
     0
  0
CLASS
  1
ACMSURFSTANDARDANSI
  2
AcmSurfTextStdANSI
  3
"Amdt_StdImp|Product Description: AutoCAD Mechanical|Company: Autodesk"
 90
        0
 91
        1
280
     0
281
     0
  0
CLASS
  1
ACMFCFSTANDARDANSI
  2
AcmFCFStdANSI
  3
"Amdt_StdImp|Product Description: AutoCAD Mechanical|Company: Autodesk"
 90
        0
 91
        1
280
     0
281
     0
  0
CLASS
  1
ACMWELDSTANDARDANSI
  2
AcmWeldingStdANSI
  3
"Amdt_StdImp|Product Description: AutoCAD Mechanical|Company: Autodesk"
 90
        0
 91
        1
280
     0
281
     0
  0
CLASS
  1
ACMIDSTANDARDANSI
  2
AcmIdStdANSI
  3
"Amdt_StdImp|Product Description: AutoCAD Mechanical|Company: Autodesk"
 90
        0
 91
        1
280
     0
281
     0
  0
CLASS
  1
ACMDATUMSTANDARDANSI
  2
AcmDatumStdANSI
  3
"Amdt_StdImp|Product Description: AutoCAD Mechanical|Company: Autodesk"
 90
        0
 91
        1
280
     0
281
     0
  0
CLASS
  1
ACMBOMSTANDARDANSI
  2
AcmBOMStdANSI
  3
"Amdt_StdImp|Product Description: AutoCAD Mechanical|Company: Autodesk"
 90
        0
 91
        1
280
     0
281
     0
  0
CLASS
  1
ACMDETAILSTANDARDANSI
  2
AmdtDetailSymStdANSI
  3
"Amdt_StdImp|Product Description: AutoCAD Mechanical|Company: Autodesk"
 90
        0
 91
        1
280
     0
281
     0
  0
CLASS
  1
ACMSECTIONSTANDARDANSI
  2
AmdtSectionSymStdANSI
  3
"Amdt_StdImp|Product Description: AutoCAD Mechanical|Company: Autodesk"
 90
        0
 91
        1
280
     0
281
     0
  0
CLASS
  1
ACMCENTERLINESTANDARDANSI
  2
AmdtCenterLineStdANSI
  3
"Amdt_StdImp|Product Description: AutoCAD Mechanical|Company: Autodesk"
 90
        0
 91
        1
280
     0
281
     0
  0
CLASS
  1
ACMTHREADLINESTANDARDANSI
  2
AmdtThreadLineStdANSI
  3
"Amdt_StdImp|Product Description: AutoCAD Mechanical|Company: Autodesk"
 90
        0
 91
        1
280
     0
281
     0
  0
CLASS
  1
ACMNOTESTANDARDANSI
  2
AmdtNoteStdANSI
  3
"Amdt_StdImp|Product Description: AutoCAD Mechanical|Company: Autodesk"
 90
        0
 91
        1
280
     0
281
     0
  0
CLASS
  1
ACMTAPERSTANDARDANSI
  2
AcmTaperStdANSI
  3
"Amdt_StdImp|Product Description: AutoCAD Mechanical|Company: Autodesk"
 90
        0
 91
        1
280
     0
281
     0
  0
CLASS
  1
AMDTNOTETEMPLATEDB
  2
AmdtNoteTemplateDB
  3
AMDT_STDIMP_MODULE_NAME
 90
        0
 91
        6
280
     0
281
     0
  0
CLASS
  1
ACAMGLAYSTD
  2
AcAmgLayStd
  3
"AmgLay|Product Description: AutoCAD Mechanical|Company: Autodesk"
 90
        0
 91
        1
280
     0
281
     0
  0
CLASS
  1
ACAMGDIMSTD
  2
AcAmgDimStd
  3
"AmgDim|Product Description: AutoCAD Mechanical|Company: Autodesk"
 90
        0
 91
        1
280
     0
281
     0
  0
CLASS
  1
ACAMGHOLECHARTSTDANSI
  2
AcAmgHoleChartStdANSI
  3
ACMSYMBB_MODULE_NAME
 90
        0
 91
        1
280
     0
281
     0
  0
CLASS
  1
ACAMGTITLESTD
  2
AcAmgTitleStd
  3
"AmgTitle|Product Description: AutoCAD Mechanical|Company: Autodesk"
 90
        0
 91
        1
280
     0
281
     0
  0
CLASS
  1
ACAMGFILTERDAT
  2
AcAmgFilterDat
  3
"AcadM|Product Description: AutoCAD Mechanical|Company: Autodesk"
 90
        0
 91
        6
280
     0
281
     0
  0
CLASS
  1
CAMSSTRUCTBTNSTATE
  2
StructBtnState
  3
L"DesignerAssemblies"
 90
        0
 91
        1
280
     0
281
     0
  0
CLASS
  1
DICTIONARYVAR
  2
AcDbDictionaryVar
  3
ObjectDBX Classes
 90
        0
 91
        1
280
     0
281
     0
  0
ENDSEC
  0
SECTION
  2
TABLES
  0
TABLE
  2
VPORT
  5
8
330
0
100
AcDbSymbolTable
 70
     1
  0
VPORT
  5
43
330
8
100
AcDbSymbolTableRecord
100
AcDbViewportTableRecord
  2
*Active
 70
     0
 10
0.0
 20
0.0
 11
1.0
 21
1.0
 12
-328.6250835776672
 22
233.1499814581721
 13
0.0
 23
0.0
 14
1.0
 24
1.0
 15
0.0
 25
0.0
 16
0.0
 26
0.0
 36
1.0
 17
0.0
 27
0.0
 37
0.0
 40
24.06886834764919
 41
2.919431279620853
 42
50.0
 43
0.0
 44
0.0
 50
0.0
 51
0.0
 71
     0
 72
   100
 73
     1
 74
     1
 75
     0
 76
     0
 77
     0
 78
     0
281
     0
 65
     0
110
0.0
120
0.0
130
0.0
111
1.0
121
0.0
131
0.0
112
0.0
122
1.0
132
0.0
 79
     0
146
0.0
  0
ENDTAB
  0
TABLE
  2
LTYPE
  5
5
330
0
100
AcDbSymbolTable
 70
    19
  0
LTYPE
  5
28
330
5
100
AcDbSymbolTableRecord
100
AcDbLinetypeTableRecord
  2
ByBlock
 70
     0
  3

 72
    65
 73
     0
 40
0.0
  0
LTYPE
  5
29
330
5
100
AcDbSymbolTableRecord
100
AcDbLinetypeTableRecord
  2
ByLayer
 70
     0
  3

 72
    65
 73
     0
 40
0.0
  0
LTYPE
  5
2A
330
5
100
AcDbSymbolTableRecord
100
AcDbLinetypeTableRecord
  2
CONTINUOUS
 70
     0
  3
Solid line
 72
    65
 73
     0
 40
0.0
  0
LTYPE
  5
3A
330
5
100
AcDbSymbolTableRecord
100
AcDbLinetypeTableRecord
  2
DASHED
 70
     0
  3
__ __ __ __ __ __ __ __ __ __ __ __ __ __ __
 72
    65
 73
     2
 40
3.5
 49
2.0
 74
     0
 49
-1.5
 74
     0
  0
LTYPE
  5
3B
330
5
100
AcDbSymbolTableRecord
100
AcDbLinetypeTableRecord
  2
CENTER
 70
     0
  3
____ _ ____ _ ____ _ ____ _ ____ _ ____ _ ____
 72
    65
 73
     4
 40
17.5
 49
13.0
 74
     0
 49
-1.5
 74
     0
 49
1.5
 74
     0
 49
-1.5
 74
     0
  0
LTYPE
  5
3C
330
5
100
AcDbSymbolTableRecord
100
AcDbLinetypeTableRecord
  2
PHANTOM
 70
     0
  3
_____ _ _ _____ _ _ _____ _ _ _____ _ _ ____  
 72
    65
 73
     6
 40
15.5
 49
8.0
 74
     0
 49
-1.5
 74
     0
 49
1.5
 74
     0
 49
-1.5
 74
     0
 49
1.5
 74
     0
 49
-1.5
 74
     0
  0
LTYPE
  5
3D
330
5
100
AcDbSymbolTableRecord
100
AcDbLinetypeTableRecord
  2
DOT
 70
     0
  3
. . . . . . . . . . . . . . . . . . . . . . . .
 72
    65
 73
     2
 40
0.25
 49
0.0
 74
     0
 49
-0.25
 74
     0
  0
LTYPE
  5
3E
330
5
100
AcDbSymbolTableRecord
100
AcDbLinetypeTableRecord
  2
HIDDEN
 70
     0
  3
__ __ __ __ __ __ __ __ __ __ __ __ __ __ __
 72
    65
 73
     2
 40
3.5
 49
2.0
 74
     0
 49
-1.5
 74
     0
  0
LTYPE
  5
226
330
5
100
AcDbSymbolTableRecord
100
AcDbLinetypeTableRecord
  2
PHANTOM2
 70
     0
  3
Phantom (.5x) ___ _ _ ___ _ _ ___ _ _ ___ _ _
 72
    65
 73
     6
 40
1.25
 49
0.625
 74
     0
 49
-0.125
 74
     0
 49
0.125
 74
     0
 49
-0.125
 74
     0
 49
0.125
 74
     0
 49
-0.125
 74
     0
  0
LTYPE
  5
25B
330
5
100
AcDbSymbolTableRecord
100
AcDbLinetypeTableRecord
  2
AM_ISO02W050
 70
     0
  3
__ __ __ __ __ __ __ __ __ __ __ __ __ __ __
 72
    65
 73
     2
 40
7.5
 49
6.0
 74
     0
 49
-1.5
 74
     0
  0
LTYPE
  5
25C
330
5
100
AcDbSymbolTableRecord
100
AcDbLinetypeTableRecord
  2
AM_ISO08W050
 70
     0
  3
____ . ____ . ____ . ____ . ____ . ____ . ____
 72
    65
 73
     4
 40
18.0
 49
12.0
 74
     0
 49
-1.5
 74
     0
 49
3.0
 74
     0
 49
-1.5
 74
     0
  0
LTYPE
  5
25D
330
5
100
AcDbSymbolTableRecord
100
AcDbLinetypeTableRecord
  2
AM_ISO09W050
 70
     0
  3
_____ . . _____ . . _____ . . ____ .. ____
 72
    65
 73
     6
 40
22.5
 49
12.0
 74
     0
 49
-1.5
 74
     0
 49
3.0
 74
     0
 49
-1.5
 74
     0
 49
3.0
 74
     0
 49
-1.5
 74
     0
  0
LTYPE
  5
25E
330
5
100
AcDbSymbolTableRecord
100
AcDbLinetypeTableRecord
  2
Amconstr
 70
     0
  3
_______________________
 72
    65
 73
     2
 40
9999.0
 49
9999.0
 74
     0
 49
0.0
 74
     0
  0
LTYPE
  5
25F
330
5
100
AcDbSymbolTableRecord
100
AcDbLinetypeTableRecord
  2
AM_ISO08W050x2
 70
     0
  3
__ . __ . __ . __ . __ . __
 72
    65
 73
     4
 40
9.0
 49
6.0
 74
     0
 49
-0.75
 74
     0
 49
1.5
 74
     0
 49
-0.75
 74
     0
  0
LTYPE
  5
260
330
5
100
AcDbSymbolTableRecord
100
AcDbLinetypeTableRecord
  2
AM_ISO02W050x2
 70
     0
  3
 _ _ _ _ _ _ _ _ _ _ _ _
 72
    65
 73
     2
 40
3.75
 49
3.0
 74
     0
 49
-0.75
 74
     0
  0
LTYPE
  5
263
330
5
100
AcDbSymbolTableRecord
100
AcDbLinetypeTableRecord
  2
Amzigzag
 70
     0
  3
/\/-/\/-/\/-/\/-/\/-/\/
 72
    65
 73
     2
 40
11.0001
 49
0.0001
 74
     4
 75
   136
340
262
 46
0.04
 50
0.0
 44
0.0
 45
0.0
 49
-11.0
 74
     0
  0
LTYPE
  5
264
330
5
100
AcDbSymbolTableRecord
100
AcDbLinetypeTableRecord
  2
CENTER2
 70
     0
  3
Center (.5x) ___ _ ___ _ ___ _ ___ _ ___ _ ___
 72
    65
 73
     4
 40
1.125
 49
0.75
 74
     0
 49
-0.125
 74
     0
 49
0.125
 74
     0
 49
-0.125
 74
     0
  0
LTYPE
  5
265
330
5
100
AcDbSymbolTableRecord
100
AcDbLinetypeTableRecord
  2
HIDDEN2
 70
     0
  3
Hidden (.5x) _ _ _ _ _ _ _ _ _ _ _ _ _ _ _ _ _
 72
    65
 73
     2
 40
0.1875
 49
0.125
 74
     0
 49
-0.0625
 74
     0
  0
LTYPE
  5
266
330
5
100
AcDbSymbolTableRecord
100
AcDbLinetypeTableRecord
  2
Amzigzag2
 70
     0
  3
/\/-/\/-/\/-/\/-/\/-/\/
 72
    65
 73
     2
 40
0.4401
 49
0.0001
 74
     4
 75
   136
340
262
 46
0.0016
 50
0.0
 44
0.0
 45
0.0
 49
-0.4400000000000001
 74
     0
  0
LTYPE
  5
275
330
5
100
AcDbSymbolTableRecord
100
AcDbLinetypeTableRecord
  2
ACANSTGB
 70
     0
  3
__ . . __ . .
 72
    65
 73
     6
 40
0.35433070866
 49
0.15748031496
 74
     0
 49
-0.03937007874
 74
     0
 49
0.03937007874
 74
     0
 49
-0.03937007874
 74
     0
 49
0.03937007874
 74
     0
 49
-0.03937007874
 74
     0
  0
LTYPE
  5
276
330
5
100
AcDbSymbolTableRecord
100
AcDbLinetypeTableRecord
  2
ACANSTGL
 70
     0
  3
_ _ _ _ _
 72
    65
 73
     2
 40
0.11811023622
 49
0.07874015748
 74
     0
 49
-0.03937007874
 74
     0
  0
ENDTAB
  0
TABLE
  2
LAYER
  5
2
330
0
100
AcDbSymbolTable
 70
     2
  0
LAYER
  5
25
330
2
100
AcDbSymbolTableRecord
100
AcDbLayerTableRecord
  2
0
 70
     0
 62
     7
  6
CONTINUOUS
370
    -3
390
F
  0
LAYER
  5
3F
330
2
100
AcDbSymbolTableRecord
100
AcDbLayerTableRecord
  2
DEFPOINTS
 70
     0
 62
     7
  6
CONTINUOUS
290
     0
370
    -3
390
F
  0
ENDTAB
  0
TABLE
  2
STYLE
  5
3
330
0
100
AcDbSymbolTable
 70
     4
  0
STYLE
  5
26
330
3
100
AcDbSymbolTableRecord
100
AcDbTextStyleTableRecord
  2
STANDARD
 70
     0
 40
0.0
 41
1.0
 50
0.0
 71
     0
 42
0.2
  3
txt
  4
BIGFONT
  0
STYLE
  5
262
330
3
100
AcDbSymbolTableRecord
100
AcDbTextStyleTableRecord
  2

 70
     1
 40
0.0
 41
1.0
 50
0.0
 71
     0
 42
3.2
  3
genltshp.shx
  4

  0
STYLE
  5
267
330
3
100
AcDbSymbolTableRecord
100
AcDbTextStyleTableRecord
  2
ACANSTS
 70
     0
 40
1.0
 41
1.0
 50
0.0
 71
     0
 42
3.2
  3
romans.shx
  4
extfont.shx
  0
STYLE
  5
274
330
3
100
AcDbSymbolTableRecord
100
AcDbTextStyleTableRecord
  2
ACANSGDT
 70
     0
 40
0.0
 41
1.0
 50
0.0
 71
     0
 42
3.2
  3
amgdt.shx
  4

  0
ENDTAB
  0
TABLE
  2
VIEW
  5
6
330
0
100
AcDbSymbolTable
 70
     0
  0
ENDTAB
  0
TABLE
  2
UCS
  5
7
330
0
100
AcDbSymbolTable
 70
     0
  0
ENDTAB
  0
TABLE
  2
APPID
  5
9
330
0
100
AcDbSymbolTable
 70
     9
  0
APPID
  5
27
330
9
100
AcDbSymbolTableRecord
100
AcDbRegAppTableRecord
  2
ACAD
 70
     0
  0
APPID
  5
1F9
330
9
100
AcDbSymbolTableRecord
100
AcDbRegAppTableRecord
  2
MCAD_NO_VIS
 70
     0
  0
APPID
  5
1FA
330
9
100
AcDbSymbolTableRecord
100
AcDbRegAppTableRecord
  2
ACAD_TEMP_GRAPHIC
 70
     0
  0
APPID
  5
228
330
9
100
AcDbSymbolTableRecord
100
AcDbRegAppTableRecord
  2
AD_DRAW
 70
     0
  0
APPID
  5
22B
330
9
100
AcDbSymbolTableRecord
100
AcDbRegAppTableRecord
  2
ACATTRIBSERVICES
 70
     0
  0
APPID
  5
24C
330
9
100
AcDbSymbolTableRecord
100
AcDbRegAppTableRecord
  2
DESIGNERASSEMBLIES
 70
     0
  0
APPID
  5
252
330
9
100
AcDbSymbolTableRecord
100
AcDbRegAppTableRecord
  2
ACADM_DIM_EDIT
 70
     0
  0
APPID
  5
253
330
9
100
AcDbSymbolTableRecord
100
AcDbRegAppTableRecord
  2
AMDT_DM_ADJ
 70
     0
  0
APPID
  5
2D8
330
9
100
AcDbSymbolTableRecord
100
AcDbRegAppTableRecord
  2
ACAD_DSTYLE_DIMARC_LENGTH_SYMBOL
 70
     0
  0
ENDTAB
  0
TABLE
  2
DIMSTYLE
  5
A
330
0
100
AcDbSymbolTable
 70
     7
100
AcDbDimStyleTable
 71
     0
  0
DIMSTYLE
105
40
102
{ACAD_REACTORS
330
1D3
330
1D4
330
1D5
330
1D6
330
1D7
330
1D8
330
1D9
330
1DA
330
1DB
330
1DC
330
1DD
330
1DE
330
1DF
330
1E0
330
1E1
330
1E2
330
1E3
330
1E4
330
1EB
102
}
330
A
100
AcDbSymbolTableRecord
100
AcDbDimStyleTableRecord
  2
DIMSTYLE
 70
     0
 41
1.0
 42
2.54
 44
2.54
 73
     0
 74
     0
140
3.2
147
1.6
173
     1
279
     2
340
26
  0
DIMSTYLE
105
282
330
A
100
AcDbSymbolTableRecord
100
AcDbDimStyleTableRecord
  2
AM_ANSI
 70
     0
  4
mm
 41
0.1
 42
0.05
 43
0.5
 44
0.1
 47
0.1
 48
0.1
 78
     7
 79
     2
140
0.12
141
0.0
146
0.71
147
0.06
176
   256
177
   256
178
     2
274
     4
284
     7
340
26
371
    -1
372
    -1
1001
ACAD_DSTYLE_DIMARC_LENGTH_SYMBOL
1070
   379
1070
     1
  0
DIMSTYLE
105
283
330
A
100
AcDbSymbolTableRecord
100
AcDbDimStyleTableRecord
  2
AM_ANSI$3
 70
     0
  4
mm
 41
0.1
 42
0.05
 43
0.5
 44
0.1
 47
0.1
 48
0.1
 78
     7
 79
     2
140
0.12
141
0.0
146
0.71
147
0.06
176
   256
177
   256
178
     2
274
     4
284
     7
288
     1
289
     0
340
26
371
    -1
372
    -1
1001
ACAD_DSTYLE_DIMARC_LENGTH_SYMBOL
1070
   379
1070
     1
  0
DIMSTYLE
105
284
330
A
100
AcDbSymbolTableRecord
100
AcDbDimStyleTableRecord
  2
AM_ANSI$4
 70
     0
  4
mm
 41
0.1
 42
0.05
 43
0.5
 44
0.1
 47
0.1
 48
0.1
 78
     7
 79
     2
140
0.12
141
0.0
146
0.71
147
0.06
176
   256
177
   256
178
     2
274
     4
284
     7
288
     1
289
     0
340
26
371
    -1
372
    -1
1001
ACAD_DSTYLE_DIMARC_LENGTH_SYMBOL
1070
   379
1070
     1
  0
DIMSTYLE
105
285
330
A
100
AcDbSymbolTableRecord
100
AcDbDimStyleTableRecord
  2
AM_ANSI$7
 70
     0
  4
mm
 41
0.1
 42
0.05
 43
0.5
 44
0.1
 47
0.1
 48
0.1
 78
     7
 79
     2
140
0.24
141
0.0
146
0.71
147
0.06
176
   256
177
   256
178
     2
274
     4
284
     7
340
26
371
    -1
372
    -1
1001
ACAD_DSTYLE_DIMARC_LENGTH_SYMBOL
1070
   379
1070
     1
  0
DIMSTYLE
105
286
330
A
100
AcDbSymbolTableRecord
100
AcDbDimStyleTableRecord
  2
AM_ANSI$SF
 70
     0
  4
mm
 41
0.1
 42
0.05
 43
0.5
 44
0.1
 47
0.1
 48
0.1
 75
     1
 76
     1
 78
     7
 79
     2
140
0.12
141
0.0
146
0.71
147
0.06
176
   256
177
   256
178
     2
274
     4
284
     7
340
26
371
    -1
372
    -1
1001
ACAD_DSTYLE_DIMARC_LENGTH_SYMBOL
1070
   379
1070
     1
  0
DIMSTYLE
105
28B
330
A
100
AcDbSymbolTableRecord
100
AcDbDimStyleTableRecord
  2
AM_ANSI$SH
 70
     0
  4
mm
 41
0.1
 42
0.05
 43
0.5
 44
0.1
 47
0.1
 48
0.1
 75
     1
 76
     1
 78
     7
 79
     2
140
0.12
141
0.0
146
0.71
147
0.06
173
     1
176
   256
177
   256
178
     2
274
     4
284
     7
340
26
343
287
371
    -1
372
    -1
1001
ACAD_DSTYLE_DIMARC_LENGTH_SYMBOL
1070
   379
1070
     1
  0
ENDTAB
  0
TABLE
  2
BLOCK_RECORD
  5
1
330
0
100
AcDbSymbolTable
 70
    24
  0
BLOCK_RECORD
  5
36
330
1
100
AcDbSymbolTableRecord
100
AcDbBlockTableRecord
  2
*Model_Space
340
39
  0
BLOCK_RECORD
  5
32
330
1
100
AcDbSymbolTableRecord
100
AcDbBlockTableRecord
  2
*Paper_Space
340
35
  0
BLOCK_RECORD
  5
44
330
1
100
AcDbSymbolTableRecord
100
AcDbBlockTableRecord
  2
_DOT
340
0
102
{BLKREFS
331
53
331
54
331
5E
331
68
331
72
331
7C
331
86
331
90
331
9A
331
A3
331
A4
331
AF
331
B0
331
BB
331
C5
331
CF
331
D0
331
DB
331
E5
331
E6
331
F1
331
F2
331
FD
331
FE
331
109
331
10A
331
114
331
115
331
11D
331
11E
102
}
  0
BLOCK_RECORD
  5
4C
330
1
100
AcDbSymbolTableRecord
100
AcDbBlockTableRecord
  2
_NONE
340
0
  0
BLOCK_RECORD
  5
50
330
1
100
AcDbSymbolTableRecord
100
AcDbBlockTableRecord
  2
*D2
340
0
  0
BLOCK_RECORD
  5
5B
330
1
100
AcDbSymbolTableRecord
100
AcDbBlockTableRecord
  2
*D3
340
0
  0
BLOCK_RECORD
  5
65
330
1
100
AcDbSymbolTableRecord
100
AcDbBlockTableRecord
  2
*D4
340
0
  0
BLOCK_RECORD
  5
6F
330
1
100
AcDbSymbolTableRecord
100
AcDbBlockTableRecord
  2
*D5
340
0
  0
BLOCK_RECORD
  5
79
330
1
100
AcDbSymbolTableRecord
100
AcDbBlockTableRecord
  2
*D6
340
0
  0
BLOCK_RECORD
  5
83
330
1
100
AcDbSymbolTableRecord
100
AcDbBlockTableRecord
  2
*D7
340
0
  0
BLOCK_RECORD
  5
8D
330
1
100
AcDbSymbolTableRecord
100
AcDbBlockTableRecord
  2
*D8
340
0
  0
BLOCK_RECORD
  5
97
330
1
100
AcDbSymbolTableRecord
100
AcDbBlockTableRecord
  2
*D9
340
0
  0
BLOCK_RECORD
  5
A0
330
1
100
AcDbSymbolTableRecord
100
AcDbBlockTableRecord
  2
*D10
340
0
  0
BLOCK_RECORD
  5
AC
330
1
100
AcDbSymbolTableRecord
100
AcDbBlockTableRecord
  2
*D11
340
0
  0
BLOCK_RECORD
  5
B8
330
1
100
AcDbSymbolTableRecord
100
AcDbBlockTableRecord
  2
*D12
340
0
  0
BLOCK_RECORD
  5
C2
330
1
100
AcDbSymbolTableRecord
100
AcDbBlockTableRecord
  2
*D13
340
0
  0
BLOCK_RECORD
  5
CC
330
1
100
AcDbSymbolTableRecord
100
AcDbBlockTableRecord
  2
*D14
340
0
  0
BLOCK_RECORD
  5
D8
330
1
100
AcDbSymbolTableRecord
100
AcDbBlockTableRecord
  2
*D15
340
0
  0
BLOCK_RECORD
  5
E2
330
1
100
AcDbSymbolTableRecord
100
AcDbBlockTableRecord
  2
*D16
340
0
  0
BLOCK_RECORD
  5
EE
330
1
100
AcDbSymbolTableRecord
100
AcDbBlockTableRecord
  2
*D17
340
0
  0
BLOCK_RECORD
  5
FA
330
1
100
AcDbSymbolTableRecord
100
AcDbBlockTableRecord
  2
*D18
340
0
  0
BLOCK_RECORD
  5
106
330
1
100
AcDbSymbolTableRecord
100
AcDbBlockTableRecord
  2
*D19
340
0
  0
BLOCK_RECORD
  5
111
330
1
100
AcDbSymbolTableRecord
100
AcDbBlockTableRecord
  2
*D20
340
0
  0
BLOCK_RECORD
  5
11A
330
1
100
AcDbSymbolTableRecord
100
AcDbBlockTableRecord
  2
*D21
340
0
102
{BLKREFS
331
1F2
102
}
  0
BLOCK_RECORD
  5
287
330
1
100
AcDbSymbolTableRecord
100
AcDbBlockTableRecord
  2
GENAXEH
340
0
  0
ENDTAB
  0
ENDSEC
  0
SECTION
  2
BLOCKS
  0
BLOCK
  5
37
330
36
100
AcDbEntity
  8
0
100
AcDbBlockBegin
  2
*Model_Space
 70
     0
 10
0.0
 20
0.0
 30
0.0
  3
*Model_Space
  1

  0
ENDBLK
  5
38
330
36
100
AcDbEntity
  8
0
100
AcDbBlockEnd
  0
BLOCK
  5
33
330
32
100
AcDbEntity
 67
     1
  8
0
100
AcDbBlockBegin
  2
*Paper_Space
 70
     0
 10
0.0
 20
0.0
 30
0.0
  3
*Paper_Space
  1

  0
ENDBLK
  5
34
330
32
100
AcDbEntity
 67
     1
  8
0
100
AcDbBlockEnd
  0
BLOCK
  5
45
330
44
100
AcDbEntity
  8
0
100
AcDbBlockBegin
  2
_DOT
 70
     0
 10
0.0
 20
0.0
 30
0.0
  3
_DOT
  1

  0
POLYLINE
  5
46
330
44
100
AcDbEntity
  8
0
  6
ByBlock
 62
     0
100
AcDb2dPolyline
 66
     1
 10
0.0
 20
0.0
 30
0.0
 70
     1
 40
0.4000000100000001
 41
0.4000000100000001
  0
VERTEX
  5
47
330
46
100
AcDbEntity
  8
0
  6
ByBlock
 62
     0
100
AcDbVertex
100
AcDb2dVertex
 10
-0.2
 20
0.0
 30
0.0
 42
1.0
  0
VERTEX
  5
48
330
46
100
AcDbEntity
  8
0
  6
ByBlock
 62
     0
100
AcDbVertex
100
AcDb2dVertex
 10
0.2
 20
0.0
 30
0.0
 42
1.0
  0
SEQEND
  5
49
330
46
100
AcDbEntity
  8
0
  6
ByBlock
 62
     0
  0
LINE
  5
4A
330
44
100
AcDbEntity
  8
0
  6
ByBlock
 62
     0
100
AcDbLine
 10
-0.4000000100000001
 20
0.0
 30
0.0
 11
-3.0
 21
0.0
 31
0.0
  0
ENDBLK
  5
4B
330
44
100
AcDbEntity
  8
0
100
AcDbBlockEnd
  0
BLOCK
  5
4D
330
4C
100
AcDbEntity
  8
0
100
AcDbBlockBegin
  2
_NONE
 70
     0
 10
0.0
 20
0.0
 30
0.0
  3
_NONE
  1

  0
CIRCLE
  5
4E
330
4C
100
AcDbEntity
  8
0
  6
ByBlock
 62
     0
100
AcDbCircle
 10
0.0
 20
0.0
 30
0.0
 40
0.001
  0
ENDBLK
  5
4F
330
4C
100
AcDbEntity
  8
0
100
AcDbBlockEnd
  0
BLOCK
  5
51
330
50
100
AcDbEntity
  8
0
100
AcDbBlockBegin
  2
*D2
 70
     1
 10
0.0
 20
0.0
 30
0.0
  3
*D2
  1

  0
LINE
  5
52
330
50
100
AcDbEntity
  8
0
  6
Continuous
 62
     7
100
AcDbLine
 10
-137.12428
 20
135.87044
 30
0.0
 11
-137.12428
 21
120.87044
 31
0.0
  0
INSERT
  5
53
330
50
100
AcDbEntity
  8
0
  6
Continuous
 62
     7
100
AcDbBlockReference
  2
_DOT
 10
-137.12428
 20
135.87044
 30
0.0
 50
90.0
  0
INSERT
  5
54
330
50
100
AcDbEntity
  8
0
  6
Continuous
 62
     7
100
AcDbBlockReference
  2
_DOT
 10
-137.12428
 20
120.87044
 30
0.0
 50
270.0
  0
LINE
  5
55
330
50
100
AcDbEntity
  8
0
  6
Continuous
 62
     7
100
AcDbLine
 10
-126.58095
 20
120.87044
 30
0.0
 11
-138.3243
 21
120.87044
 31
0.0
  0
TEXT
  5
56
330
50
100
AcDbEntity
  8
0
  6
Continuous
 62
     7
100
AcDbText
 10
-137.92428
 20
125.62744
 30
0.0
 40
3.2
  1
15
 50
90.00000300000001
 41
1.285781199999999
100
AcDbText
  0
POINT
  5
57
330
50
100
AcDbEntity
  8
DEFPOINTS
  6
Continuous
 62
     7
100
AcDbPoint
 10
-127.12429
 20
135.87044
 30
0.0
  0
POINT
  5
58
330
50
100
AcDbEntity
  8
DEFPOINTS
  6
Continuous
 62
     7
100
AcDbPoint
 10
-124.04095
 20
120.87044
 30
0.0
  0
POINT
  5
59
330
50
100
AcDbEntity
  8
DEFPOINTS
  6
Continuous
 62
     7
100
AcDbPoint
 10
-137.12428
 20
120.87044
 30
0.0
  0
ENDBLK
  5
5A
330
50
100
AcDbEntity
  8
0
100
AcDbBlockEnd
  0
BLOCK
  5
5C
330
5B
100
AcDbEntity
  8
0
100
AcDbBlockBegin
  2
*D3
 70
     1
 10
0.0
 20
0.0
 30
0.0
  3
*D3
  1

  0
LINE
  5
5D
330
5B
100
AcDbEntity
  8
0
  6
Continuous
 62
     7
100
AcDbLine
 10
-137.12428
 20
120.87044
 30
0.0
 11
-137.12428
 21
90.87043800000001
 31
0.0
  0
INSERT
  5
5E
330
5B
100
AcDbEntity
  8
0
  6
Continuous
 62
     7
100
AcDbBlockReference
  2
_DOT
 10
-137.12428
 20
90.87043800000001
 30
0.0
 50
270.0
  0
LINE
  5
5F
330
5B
100
AcDbEntity
  8
0
  6
Continuous
 62
     7
100
AcDbLine
 10
-99.580955
 20
90.87043800000001
 30
0.0
 11
-138.3243
 21
90.87043800000001
 31
0.0
  0
TEXT
  5
60
330
5B
100
AcDbEntity
  8
0
  6
Continuous
 62
     7
100
AcDbText
 10
-137.92428
 20
103.12744
 30
0.0
 40
3.2
  1
30
 50
90.00000300000001
 41
1.102098199999999
100
AcDbText
  0
POINT
  5
61
330
5B
100
AcDbEntity
  8
DEFPOINTS
  6
Continuous
 62
     7
100
AcDbPoint
 10
-124.04095
 20
120.87044
 30
0.0
  0
POINT
  5
62
330
5B
100
AcDbEntity
  8
DEFPOINTS
  6
Continuous
 62
     7
100
AcDbPoint
 10
-97.04095500000001
 20
90.87043800000001
 30
0.0
  0
POINT
  5
63
330
5B
100
AcDbEntity
  8
DEFPOINTS
  6
Continuous
 62
     7
100
AcDbPoint
 10
-137.12428
 20
90.87043800000001
 30
0.0
  0
ENDBLK
  5
64
330
5B
100
AcDbEntity
  8
0
100
AcDbBlockEnd
  0
BLOCK
  5
66
330
65
100
AcDbEntity
  8
0
100
AcDbBlockBegin
  2
*D4
 70
     1
 10
0.0
 20
0.0
 30
0.0
  3
*D4
  1

  0
LINE
  5
67
330
65
100
AcDbEntity
  8
0
  6
Continuous
 62
     7
100
AcDbLine
 10
-137.12428
 20
90.87043800000001
 30
0.0
 11
-137.12428
 21
60.870438
 31
0.0
  0
INSERT
  5
68
330
65
100
AcDbEntity
  8
0
  6
Continuous
 62
     7
100
AcDbBlockReference
  2
_DOT
 10
-137.12428
 20
60.870438
 30
0.0
 50
270.0
  0
LINE
  5
69
330
65
100
AcDbEntity
  8
0
  6
Continuous
 62
     7
100
AcDbLine
 10
-126.58095
 20
60.870438
 30
0.0
 11
-138.3243
 21
60.870438
 31
0.0
  0
TEXT
  5
6A
330
65
100
AcDbEntity
  8
0
  6
Continuous
 62
     7
100
AcDbText
 10
-137.92428
 20
73.12743799999999
 30
0.0
 40
3.2
  1
30
 50
90.00000300000001
 41
1.102098199999999
100
AcDbText
  0
POINT
  5
6B
330
65
100
AcDbEntity
  8
DEFPOINTS
  6
Continuous
 62
     7
100
AcDbPoint
 10
-97.04095500000001
 20
90.87043800000001
 30
0.0
  0
POINT
  5
6C
330
65
100
AcDbEntity
  8
DEFPOINTS
  6
Continuous
 62
     7
100
AcDbPoint
 10
-124.04095
 20
60.870438
 30
0.0
  0
POINT
  5
6D
330
65
100
AcDbEntity
  8
DEFPOINTS
  6
Continuous
 62
     7
100
AcDbPoint
 10
-137.12428
 20
60.870438
 30
0.0
  0
ENDBLK
  5
6E
330
65
100
AcDbEntity
  8
0
100
AcDbBlockEnd
  0
BLOCK
  5
70
330
6F
100
AcDbEntity
  8
0
100
AcDbBlockBegin
  2
*D5
 70
     1
 10
0.0
 20
0.0
 30
0.0
  3
*D5
  1

  0
LINE
  5
71
330
6F
100
AcDbEntity
  8
0
  6
Continuous
 62
     7
100
AcDbLine
 10
-137.12428
 20
60.870438
 30
0.0
 11
-137.12428
 21
30.870438
 31
0.0
  0
INSERT
  5
72
330
6F
100
AcDbEntity
  8
0
  6
Continuous
 62
     7
100
AcDbBlockReference
  2
_DOT
 10
-137.12428
 20
30.870438
 30
0.0
 50
270.0
  0
LINE
  5
73
330
6F
100
AcDbEntity
  8
0
  6
Continuous
 62
     7
100
AcDbLine
 10
-99.580955
 20
30.870438
 30
0.0
 11
-138.3243
 21
30.870438
 31
0.0
  0
TEXT
  5
74
330
6F
100
AcDbEntity
  8
0
  6
Continuous
 62
     7
100
AcDbText
 10
-137.92428
 20
43.12743799999999
 30
0.0
 40
3.2
  1
30
 50
90.00000300000001
 41
1.102098199999999
100
AcDbText
  0
POINT
  5
75
330
6F
100
AcDbEntity
  8
DEFPOINTS
  6
Continuous
 62
     7
100
AcDbPoint
 10
-124.04095
 20
60.870438
 30
0.0
  0
POINT
  5
76
330
6F
100
AcDbEntity
  8
DEFPOINTS
  6
Continuous
 62
     7
100
AcDbPoint
 10
-97.04095500000001
 20
30.870438
 30
0.0
  0
POINT
  5
77
330
6F
100
AcDbEntity
  8
DEFPOINTS
  6
Continuous
 62
     7
100
AcDbPoint
 10
-137.12428
 20
30.870438
 30
0.0
  0
ENDBLK
  5
78
330
6F
100
AcDbEntity
  8
0
100
AcDbBlockEnd
  0
BLOCK
  5
7A
330
79
100
AcDbEntity
  8
0
100
AcDbBlockBegin
  2
*D6
 70
     1
 10
0.0
 20
0.0
 30
0.0
  3
*D6
  1

  0
LINE
  5
7B
330
79
100
AcDbEntity
  8
0
  6
Continuous
 62
     7
100
AcDbLine
 10
-137.12428
 20
30.870438
 30
0.0
 11
-137.12428
 21
0.87044305
 31
0.0
  0
INSERT
  5
7C
330
79
100
AcDbEntity
  8
0
  6
Continuous
 62
     7
100
AcDbBlockReference
  2
_DOT
 10
-137.12428
 20
0.87044305
 30
0.0
 50
270.0
  0
LINE
  5
7D
330
79
100
AcDbEntity
  8
0
  6
Continuous
 62
     7
100
AcDbLine
 10
-126.58095
 20
0.87044305
 30
0.0
 11
-138.3243
 21
0.87044305
 31
0.0
  0
TEXT
  5
7E
330
79
100
AcDbEntity
  8
0
  6
Continuous
 62
     7
100
AcDbText
 10
-137.92428
 20
13.12744
 30
0.0
 40
3.2
  1
30
 50
90.00000300000001
 41
1.102098199999999
100
AcDbText
  0
POINT
  5
7F
330
79
100
AcDbEntity
  8
DEFPOINTS
  6
Continuous
 62
     7
100
AcDbPoint
 10
-97.04095500000001
 20
30.870438
 30
0.0
  0
POINT
  5
80
330
79
100
AcDbEntity
  8
DEFPOINTS
  6
Continuous
 62
     7
100
AcDbPoint
 10
-124.04095
 20
0.87044305
 30
0.0
  0
POINT
  5
81
330
79
100
AcDbEntity
  8
DEFPOINTS
  6
Continuous
 62
     7
100
AcDbPoint
 10
-137.12428
 20
0.87044305
 30
0.0
  0
ENDBLK
  5
82
330
79
100
AcDbEntity
  8
0
100
AcDbBlockEnd
  0
BLOCK
  5
84
330
83
100
AcDbEntity
  8
0
100
AcDbBlockBegin
  2
*D7
 70
     1
 10
0.0
 20
0.0
 30
0.0
  3
*D7
  1

  0
LINE
  5
85
330
83
100
AcDbEntity
  8
0
  6
Continuous
 62
     7
100
AcDbLine
 10
-137.12428
 20
0.87044305
 30
0.0
 11
-137.12428
 21
-29.129557
 31
0.0
  0
INSERT
  5
86
330
83
100
AcDbEntity
  8
0
  6
Continuous
 62
     7
100
AcDbBlockReference
  2
_DOT
 10
-137.12428
 20
-29.129557
 30
0.0
 50
270.0
  0
LINE
  5
87
330
83
100
AcDbEntity
  8
0
  6
Continuous
 62
     7
100
AcDbLine
 10
-99.580955
 20
-29.129557
 30
0.0
 11
-138.3243
 21
-29.129557
 31
0.0
  0
TEXT
  5
88
330
83
100
AcDbEntity
  8
0
  6
Continuous
 62
     7
100
AcDbText
 10
-137.92428
 20
-16.872557
 30
0.0
 40
3.2
  1
30
 50
90.00000300000001
 41
1.102098199999999
100
AcDbText
  0
POINT
  5
89
330
83
100
AcDbEntity
  8
DEFPOINTS
  6
Continuous
 62
     7
100
AcDbPoint
 10
-124.04095
 20
0.87044305
 30
0.0
  0
POINT
  5
8A
330
83
100
AcDbEntity
  8
DEFPOINTS
  6
Continuous
 62
     7
100
AcDbPoint
 10
-97.04095500000001
 20
-29.129557
 30
0.0
  0
POINT
  5
8B
330
83
100
AcDbEntity
  8
DEFPOINTS
  6
Continuous
 62
     7
100
AcDbPoint
 10
-137.12428
 20
-29.129557
 30
0.0
  0
ENDBLK
  5
8C
330
83
100
AcDbEntity
  8
0
100
AcDbBlockEnd
  0
BLOCK
  5
8E
330
8D
100
AcDbEntity
  8
0
100
AcDbBlockBegin
  2
*D8
 70
     1
 10
0.0
 20
0.0
 30
0.0
  3
*D8
  1

  0
LINE
  5
8F
330
8D
100
AcDbEntity
  8
0
  6
Continuous
 62
     7
100
AcDbLine
 10
-137.12428
 20
-29.129557
 30
0.0
 11
-137.12428
 21
-59.129559
 31
0.0
  0
INSERT
  5
90
330
8D
100
AcDbEntity
  8
0
  6
Continuous
 62
     7
100
AcDbBlockReference
  2
_DOT
 10
-137.12428
 20
-59.129559
 30
0.0
 50
270.0
  0
LINE
  5
91
330
8D
100
AcDbEntity
  8
0
  6
Continuous
 62
     7
100
AcDbLine
 10
-126.58095
 20
-59.129559
 30
0.0
 11
-138.3243
 21
-59.129559
 31
0.0
  0
TEXT
  5
92
330
8D
100
AcDbEntity
  8
0
  6
Continuous
 62
     7
100
AcDbText
 10
-137.92428
 20
-46.872559
 30
0.0
 40
3.2
  1
30
 50
90.00000300000001
 41
1.102098199999999
100
AcDbText
  0
POINT
  5
93
330
8D
100
AcDbEntity
  8
DEFPOINTS
  6
Continuous
 62
     7
100
AcDbPoint
 10
-97.04095500000001
 20
-29.129557
 30
0.0
  0
POINT
  5
94
330
8D
100
AcDbEntity
  8
DEFPOINTS
  6
Continuous
 62
     7
100
AcDbPoint
 10
-124.04095
 20
-59.129559
 30
0.0
  0
POINT
  5
95
330
8D
100
AcDbEntity
  8
DEFPOINTS
  6
Continuous
 62
     7
100
AcDbPoint
 10
-137.12428
 20
-59.129559
 30
0.0
  0
ENDBLK
  5
96
330
8D
100
AcDbEntity
  8
0
100
AcDbBlockEnd
  0
BLOCK
  5
98
330
97
100
AcDbEntity
  8
0
100
AcDbBlockBegin
  2
*D9
 70
     1
 10
0.0
 20
0.0
 30
0.0
  3
*D9
  1

  0
LINE
  5
99
330
97
100
AcDbEntity
  8
0
  6
Continuous
 62
     7
100
AcDbLine
 10
-137.12428
 20
-59.129559
 30
0.0
 11
-137.12428
 21
-74.12955500000001
 31
0.0
  0
INSERT
  5
9A
330
97
100
AcDbEntity
  8
0
  6
Continuous
 62
     7
100
AcDbBlockReference
  2
_DOT
 10
-137.12428
 20
-74.12955500000001
 30
0.0
 50
270.0
  0
TEXT
  5
9B
330
97
100
AcDbEntity
  8
0
  6
Continuous
 62
     7
100
AcDbText
 10
-137.92428
 20
-69.372555
 30
0.0
 40
3.2
  1
15
 50
90.00000300000001
 41
1.285781199999999
100
AcDbText
  0
POINT
  5
9C
330
97
100
AcDbEntity
  8
DEFPOINTS
  6
Continuous
 62
     7
100
AcDbPoint
 10
-124.04095
 20
-59.129559
 30
0.0
  0
POINT
  5
9D
330
97
100
AcDbEntity
  8
DEFPOINTS
  6
Continuous
 62
     7
100
AcDbPoint
 10
-127.12429
 20
-74.12955500000001
 30
0.0
  0
POINT
  5
9E
330
97
100
AcDbEntity
  8
DEFPOINTS
  6
Continuous
 62
     7
100
AcDbPoint
 10
-137.12428
 20
-74.12955500000001
 30
0.0
  0
ENDBLK
  5
9F
330
97
100
AcDbEntity
  8
0
100
AcDbBlockEnd
  0
BLOCK
  5
A1
330
A0
100
AcDbEntity
  8
0
100
AcDbBlockBegin
  2
*D10
 70
     1
 10
0.0
 20
0.0
 30
0.0
  3
*D10
  1

  0
LINE
  5
A2
330
A0
100
AcDbEntity
  8
0
  6
Continuous
 62
     7
100
AcDbLine
 10
-147.12428
 20
-74.12955500000001
 30
0.0
 11
-147.12428
 21
135.87044
 31
0.0
  0
INSERT
  5
A3
330
A0
100
AcDbEntity
  8
0
  6
Continuous
 62
     7
100
AcDbBlockReference
  2
_DOT
 10
-147.12428
 20
-74.12955500000001
 30
0.0
 50
270.0
  0
INSERT
  5
A4
330
A0
100
AcDbEntity
  8
0
  6
Continuous
 62
     7
100
AcDbBlockReference
  2
_DOT
 10
-147.12428
 20
135.87044
 30
0.0
 50
90.0
  0
LINE
  5
A5
330
A0
100
AcDbEntity
  8
0
  6
Continuous
 62
     7
100
AcDbLine
 10
-129.66429
 20
-74.12955500000001
 30
0.0
 11
-148.3243
 21
-74.12955500000001
 31
0.0
  0
LINE
  5
A6
330
A0
100
AcDbEntity
  8
0
  6
Continuous
 62
     7
100
AcDbLine
 10
-129.66429
 20
135.87044
 30
0.0
 11
-148.3243
 21
135.87044
 31
0.0
  0
TEXT
  5
A7
330
A0
100
AcDbEntity
  8
0
  6
Continuous
 62
     7
100
AcDbText
 10
-147.92428
 20
26.527441
 30
0.0
 40
3.2
  1
210
 50
90.00000300000001
 41
1.221468699999999
100
AcDbText
  0
POINT
  5
A8
330
A0
100
AcDbEntity
  8
DEFPOINTS
  6
Continuous
 62
     7
100
AcDbPoint
 10
-127.12429
 20
-74.12955500000001
 30
0.0
  0
POINT
  5
A9
330
A0
100
AcDbEntity
  8
DEFPOINTS
  6
Continuous
 62
     7
100
AcDbPoint
 10
-127.12429
 20
135.87044
 30
0.0
  0
POINT
  5
AA
330
A0
100
AcDbEntity
  8
DEFPOINTS
  6
Continuous
 62
     7
100
AcDbPoint
 10
-147.12428
 20
135.87044
 30
0.0
  0
ENDBLK
  5
AB
330
A0
100
AcDbEntity
  8
0
100
AcDbBlockEnd
  0
BLOCK
  5
AD
330
AC
100
AcDbEntity
  8
0
100
AcDbBlockBegin
  2
*D11
 70
     1
 10
0.0
 20
0.0
 30
0.0
  3
*D11
  1

  0
LINE
  5
AE
330
AC
100
AcDbEntity
  8
0
  6
Continuous
 62
     7
100
AcDbLine
 10
-127.12429
 20
-94.129555
 30
0.0
 11
-109.12429
 21
-94.129555
 31
0.0
  0
INSERT
  5
AF
330
AC
100
AcDbEntity
  8
0
  6
Continuous
 62
     7
100
AcDbBlockReference
  2
_DOT
 10
-127.12429
 20
-94.129555
 30
0.0
 50
180.0
  0
INSERT
  5
B0
330
AC
100
AcDbEntity
  8
0
  6
Continuous
 62
     7
100
AcDbBlockReference
  2
_DOT
 10
-109.12429
 20
-94.129555
 30
0.0
  0
LINE
  5
B1
330
AC
100
AcDbEntity
  8
0
  6
Continuous
 62
     7
100
AcDbLine
 10
-127.12429
 20
-76.669555
 30
0.0
 11
-127.12429
 21
-95.32955900000001
 31
0.0
  0
LINE
  5
B2
330
AC
100
AcDbEntity
  8
0
  6
Continuous
 62
     7
100
AcDbLine
 10
-109.12429
 20
-76.586226
 30
0.0
 11
-109.12429
 21
-95.32955900000001
 31
0.0
  0
TEXT
  5
B3
330
AC
100
AcDbEntity
  8
0
  6
Continuous
 62
     7
100
AcDbText
 10
-120.86729
 20
-93.329555
 30
0.0
 40
3.2
  1
18
 41
1.285781199999999
100
AcDbText
  0
POINT
  5
B4
330
AC
100
AcDbEntity
  8
DEFPOINTS
  6
Continuous
 62
     7
100
AcDbPoint
 10
-127.12429
 20
-74.12955500000001
 30
0.0
  0
POINT
  5
B5
330
AC
100
AcDbEntity
  8
DEFPOINTS
  6
Continuous
 62
     7
100
AcDbPoint
 10
-109.12429
 20
-74.046227
 30
0.0
  0
POINT
  5
B6
330
AC
100
AcDbEntity
  8
DEFPOINTS
  6
Continuous
 62
     7
100
AcDbPoint
 10
-109.12429
 20
-94.129555
 30
0.0
  0
ENDBLK
  5
B7
330
AC
100
AcDbEntity
  8
0
100
AcDbBlockEnd
  0
BLOCK
  5
B9
330
B8
100
AcDbEntity
  8
0
100
AcDbBlockBegin
  2
*D12
 70
     1
 10
0.0
 20
0.0
 30
0.0
  3
*D12
  1

  0
LINE
  5
BA
330
B8
100
AcDbEntity
  8
0
  6
Continuous
 62
     7
100
AcDbLine
 10
-109.12429
 20
-94.129555
 30
0.0
 11
-82.12429
 21
-94.129555
 31
0.0
  0
INSERT
  5
BB
330
B8
100
AcDbEntity
  8
0
  6
Continuous
 62
     7
100
AcDbBlockReference
  2
_DOT
 10
-82.12429
 20
-94.129555
 30
0.0
  0
LINE
  5
BC
330
B8
100
AcDbEntity
  8
0
  6
Continuous
 62
     7
100
AcDbLine
 10
-82.12429
 20
-46.586223
 30
0.0
 11
-82.12429
 21
-95.32955900000001
 31
0.0
  0
TEXT
  5
BD
330
B8
100
AcDbEntity
  8
0
  6
Continuous
 62
     7
100
AcDbText
 10
-98.36729
 20
-93.329555
 30
0.0
 40
3.2
  1
27
 41
1.028624999999999
100
AcDbText
  0
POINT
  5
BE
330
B8
100
AcDbEntity
  8
DEFPOINTS
  6
Continuous
 62
     7
100
AcDbPoint
 10
-109.12429
 20
-74.046227
 30
0.0
  0
POINT
  5
BF
330
B8
100
AcDbEntity
  8
DEFPOINTS
  6
Continuous
 62
     7
100
AcDbPoint
 10
-82.12429
 20
-44.04622299999999
 30
0.0
  0
POINT
  5
C0
330
B8
100
AcDbEntity
  8
DEFPOINTS
  6
Continuous
 62
     7
100
AcDbPoint
 10
-82.12429
 20
-94.129555
 30
0.0
  0
ENDBLK
  5
C1
330
B8
100
AcDbEntity
  8
0
100
AcDbBlockEnd
  0
BLOCK
  5
C3
330
C2
100
AcDbEntity
  8
0
100
AcDbBlockBegin
  2
*D13
 70
     1
 10
0.0
 20
0.0
 30
0.0
  3
*D13
  1

  0
LINE
  5
C4
330
C2
100
AcDbEntity
  8
0
  6
Continuous
 62
     7
100
AcDbLine
 10
-82.12429
 20
-94.129555
 30
0.0
 11
-42.12429
 21
-94.129555
 31
0.0
  0
INSERT
  5
C5
330
C2
100
AcDbEntity
  8
0
  6
Continuous
 62
     7
100
AcDbBlockReference
  2
_DOT
 10
-42.12429
 20
-94.129555
 30
0.0
  0
LINE
  5
C6
330
C2
100
AcDbEntity
  8
0
  6
Continuous
 62
     7
100
AcDbLine
 10
-42.12429
 20
-86.669555
 30
0.0
 11
-42.12429
 21
-95.32955900000001
 31
0.0
  0
TEXT
  5
C7
330
C2
100
AcDbEntity
  8
0
  6
Continuous
 62
     7
100
AcDbText
 10
-64.86729
 20
-93.329555
 30
0.0
 40
3.2
  1
40
 41
1.102098199999999
100
AcDbText
  0
POINT
  5
C8
330
C2
100
AcDbEntity
  8
DEFPOINTS
  6
Continuous
 62
     7
100
AcDbPoint
 10
-82.12429
 20
-44.04622299999999
 30
0.0
  0
POINT
  5
C9
330
C2
100
AcDbEntity
  8
DEFPOINTS
  6
Continuous
 62
     7
100
AcDbPoint
 10
-42.12429
 20
-84.129555
 30
0.0
  0
POINT
  5
CA
330
C2
100
AcDbEntity
  8
DEFPOINTS
  6
Continuous
 62
     7
100
AcDbPoint
 10
-42.12429
 20
-94.129555
 30
0.0
  0
ENDBLK
  5
CB
330
C2
100
AcDbEntity
  8
0
100
AcDbBlockEnd
  0
BLOCK
  5
CD
330
CC
100
AcDbEntity
  8
0
100
AcDbBlockBegin
  2
*D14
 70
     1
 10
0.0
 20
0.0
 30
0.0
  3
*D14
  1

  0
LINE
  5
CE
330
CC
100
AcDbEntity
  8
0
  6
Continuous
 62
     7
100
AcDbLine
 10
-127.12429
 20
150.87044
 30
0.0
 11
-42.12429
 21
150.87044
 31
0.0
  0
INSERT
  5
CF
330
CC
100
AcDbEntity
  8
0
  6
Continuous
 62
     7
100
AcDbBlockReference
  2
_DOT
 10
-127.12429
 20
150.87044
 30
0.0
 50
180.0
  0
INSERT
  5
D0
330
CC
100
AcDbEntity
  8
0
  6
Continuous
 62
     7
100
AcDbBlockReference
  2
_DOT
 10
-42.12429
 20
150.87044
 30
0.0
  0
LINE
  5
D1
330
CC
100
AcDbEntity
  8
0
  6
Continuous
 62
     7
100
AcDbLine
 10
-127.12429
 20
138.41044
 30
0.0
 11
-127.12429
 21
152.07043
 31
0.0
  0
LINE
  5
D2
330
CC
100
AcDbEntity
  8
0
  6
Continuous
 62
     7
100
AcDbLine
 10
-42.12429
 20
148.41044
 30
0.0
 11
-42.12429
 21
152.07043
 31
0.0
  0
TEXT
  5
D3
330
CC
100
AcDbEntity
  8
0
  6
Continuous
 62
     7
100
AcDbText
 10
-87.36729
 20
151.67044
 30
0.0
 40
3.2
  1
85
 41
1.028624999999999
100
AcDbText
  0
POINT
  5
D4
330
CC
100
AcDbEntity
  8
DEFPOINTS
  6
Continuous
 62
     7
100
AcDbPoint
 10
-127.12429
 20
135.87044
 30
0.0
  0
POINT
  5
D5
330
CC
100
AcDbEntity
  8
DEFPOINTS
  6
Continuous
 62
     7
100
AcDbPoint
 10
-42.12429
 20
145.87044
 30
0.0
  0
POINT
  5
D6
330
CC
100
AcDbEntity
  8
DEFPOINTS
  6
Continuous
 62
     7
100
AcDbPoint
 10
-42.12429
 20
150.87044
 30
0.0
  0
ENDBLK
  5
D7
330
CC
100
AcDbEntity
  8
0
100
AcDbBlockEnd
  0
BLOCK
  5
D9
330
D8
100
AcDbEntity
  8
0
100
AcDbBlockBegin
  2
*D15
 70
     1
 10
0.0
 20
0.0
 30
0.0
  3
*D15
  1

  0
LINE
  5
DA
330
D8
100
AcDbEntity
  8
0
  6
Continuous
 62
     7
100
AcDbLine
 10
-42.12429
 20
150.87044
 30
0.0
 11
37.87571
 21
150.87044
 31
0.0
  0
INSERT
  5
DB
330
D8
100
AcDbEntity
  8
0
  6
Continuous
 62
     7
100
AcDbBlockReference
  2
_DOT
 10
37.87571
 20
150.87044
 30
0.0
  0
LINE
  5
DC
330
D8
100
AcDbEntity
  8
0
  6
Continuous
 62
     7
100
AcDbLine
 10
37.87571
 20
138.41044
 30
0.0
 11
37.87571
 21
152.07043
 31
0.0
  0
TEXT
  5
DD
330
D8
100
AcDbEntity
  8
0
  6
Continuous
 62
     7
100
AcDbText
 10
-4.8672905
 20
151.67044
 30
0.0
 40
3.2
  1
80
 41
1.102098199999999
100
AcDbText
  0
POINT
  5
DE
330
D8
100
AcDbEntity
  8
DEFPOINTS
  6
Continuous
 62
     7
100
AcDbPoint
 10
-42.12429
 20
145.87044
 30
0.0
  0
POINT
  5
DF
330
D8
100
AcDbEntity
  8
DEFPOINTS
  6
Continuous
 62
     7
100
AcDbPoint
 10
37.87571
 20
135.87044
 30
0.0
  0
POINT
  5
E0
330
D8
100
AcDbEntity
  8
DEFPOINTS
  6
Continuous
 62
     7
100
AcDbPoint
 10
37.87571
 20
150.87044
 30
0.0
  0
ENDBLK
  5
E1
330
D8
100
AcDbEntity
  8
0
100
AcDbBlockEnd
  0
BLOCK
  5
E3
330
E2
100
AcDbEntity
  8
0
100
AcDbBlockBegin
  2
*D16
 70
     1
 10
0.0
 20
0.0
 30
0.0
  3
*D16
  1

  0
LINE
  5
E4
330
E2
100
AcDbEntity
  8
0
  6
Continuous
 62
     7
100
AcDbLine
 10
-127.12429
 20
160.87044
 30
0.0
 11
37.87571
 21
160.87044
 31
0.0
  0
INSERT
  5
E5
330
E2
100
AcDbEntity
  8
0
  6
Continuous
 62
     7
100
AcDbBlockReference
  2
_DOT
 10
-127.12429
 20
160.87044
 30
0.0
 50
180.0
  0
INSERT
  5
E6
330
E2
100
AcDbEntity
  8
0
  6
Continuous
 62
     7
100
AcDbBlockReference
  2
_DOT
 10
37.87571
 20
160.87044
 30
0.0
  0
LINE
  5
E7
330
E2
100
AcDbEntity
  8
0
  6
Continuous
 62
     7
100
AcDbLine
 10
-127.12429
 20
138.41044
 30
0.0
 11
-127.12429
 21
162.07043
 31
0.0
  0
LINE
  5
E8
330
E2
100
AcDbEntity
  8
0
  6
Continuous
 62
     7
100
AcDbLine
 10
37.87571
 20
138.41044
 30
0.0
 11
37.87571
 21
162.07043
 31
0.0
  0
TEXT
  5
E9
330
E2
100
AcDbEntity
  8
0
  6
Continuous
 62
     7
100
AcDbText
 10
-48.96729
 20
161.67044
 30
0.0
 40
3.2
  1
165
 41
1.1633036
100
AcDbText
  0
POINT
  5
EA
330
E2
100
AcDbEntity
  8
DEFPOINTS
  6
Continuous
 62
     7
100
AcDbPoint
 10
-127.12429
 20
135.87044
 30
0.0
  0
POINT
  5
EB
330
E2
100
AcDbEntity
  8
DEFPOINTS
  6
Continuous
 62
     7
100
AcDbPoint
 10
37.87571
 20
135.87044
 30
0.0
  0
POINT
  5
EC
330
E2
100
AcDbEntity
  8
DEFPOINTS
  6
Continuous
 62
     7
100
AcDbPoint
 10
37.87571
 20
160.87044
 30
0.0
  0
ENDBLK
  5
ED
330
E2
100
AcDbEntity
  8
0
100
AcDbBlockEnd
  0
BLOCK
  5
EF
330
EE
100
AcDbEntity
  8
0
100
AcDbBlockBegin
  2
*D17
 70
     1
 10
0.0
 20
0.0
 30
0.0
  3
*D17
  1

  0
LINE
  5
F0
330
EE
100
AcDbEntity
  8
0
  6
Continuous
 62
     7
100
AcDbLine
 10
-137.12428
 20
235.03561
 30
0.0
 11
-137.12428
 21
229.03561
 31
0.0
  0
INSERT
  5
F1
330
EE
100
AcDbEntity
  8
0
  6
Continuous
 62
     7
100
AcDbBlockReference
  2
_DOT
 10
-137.12428
 20
235.03561
 30
0.0
 50
90.0
  0
INSERT
  5
F2
330
EE
100
AcDbEntity
  8
0
  6
Continuous
 62
     7
100
AcDbBlockReference
  2
_DOT
 10
-137.12428
 20
229.03561
 30
0.0
 50
270.0
  0
LINE
  5
F3
330
EE
100
AcDbEntity
  8
0
  6
Continuous
 62
     7
100
AcDbLine
 10
-129.66429
 20
235.03561
 30
0.0
 11
-138.3243
 21
235.03561
 31
0.0
  0
LINE
  5
F4
330
EE
100
AcDbEntity
  8
0
  6
Continuous
 62
     7
100
AcDbLine
 10
-129.66429
 20
229.03561
 30
0.0
 11
-138.3243
 21
229.03561
 31
0.0
  0
TEXT
  5
F5
330
EE
100
AcDbEntity
  8
0
  6
Continuous
 62
     7
100
AcDbText
 10
-137.92428
 20
230.89261
 30
0.0
 40
3.2
  1
6
 50
90.00000300000001
100
AcDbText
  0
POINT
  5
F6
330
EE
100
AcDbEntity
  8
DEFPOINTS
  6
Continuous
 62
     7
100
AcDbPoint
 10
-127.12429
 20
235.03561
 30
0.0
  0
POINT
  5
F7
330
EE
100
AcDbEntity
  8
DEFPOINTS
  6
Continuous
 62
     7
100
AcDbPoint
 10
-127.12429
 20
229.03561
 30
0.0
  0
POINT
  5
F8
330
EE
100
AcDbEntity
  8
DEFPOINTS
  6
Continuous
 62
     7
100
AcDbPoint
 10
-137.12428
 20
229.03561
 30
0.0
  0
ENDBLK
  5
F9
330
EE
100
AcDbEntity
  8
0
100
AcDbBlockEnd
  0
BLOCK
  5
FB
330
FA
100
AcDbEntity
  8
0
100
AcDbBlockBegin
  2
*D18
 70
     1
 10
0.0
 20
0.0
 30
0.0
  3
*D18
  1

  0
LINE
  5
FC
330
FA
100
AcDbEntity
  8
0
  6
Continuous
 62
     7
100
AcDbLine
 10
-147.12428
 20
235.03561
 30
0.0
 11
-147.12428
 21
205.03561
 31
0.0
  0
INSERT
  5
FD
330
FA
100
AcDbEntity
  8
0
  6
Continuous
 62
     7
100
AcDbBlockReference
  2
_DOT
 10
-147.12428
 20
235.03561
 30
0.0
 50
90.0
  0
INSERT
  5
FE
330
FA
100
AcDbEntity
  8
0
  6
Continuous
 62
     7
100
AcDbBlockReference
  2
_DOT
 10
-147.12428
 20
205.03561
 30
0.0
 50
270.0
  0
LINE
  5
FF
330
FA
100
AcDbEntity
  8
0
  6
Continuous
 62
     7
100
AcDbLine
 10
-129.66429
 20
235.03561
 30
0.0
 11
-148.3243
 21
235.03561
 31
0.0
  0
LINE
  5
100
330
FA
100
AcDbEntity
  8
0
  6
Continuous
 62
     7
100
AcDbLine
 10
-66.33095799999999
 20
205.03561
 30
0.0
 11
-148.3243
 21
205.03561
 31
0.0
  0
TEXT
  5
101
330
FA
100
AcDbEntity
  8
0
  6
Continuous
 62
     7
100
AcDbText
 10
-147.92428
 20
217.29261
 30
0.0
 40
3.2
  1
30
 50
90.00000300000001
 41
1.102098199999999
100
AcDbText
  0
POINT
  5
102
330
FA
100
AcDbEntity
  8
DEFPOINTS
  6
Continuous
 62
     7
100
AcDbPoint
 10
-127.12429
 20
235.03561
 30
0.0
  0
POINT
  5
103
330
FA
100
AcDbEntity
  8
DEFPOINTS
  6
Continuous
 62
     7
100
AcDbPoint
 10
-63.79095799999999
 20
205.03561
 30
0.0
  0
POINT
  5
104
330
FA
100
AcDbEntity
  8
DEFPOINTS
  6
Continuous
 62
     7
100
AcDbPoint
 10
-147.12428
 20
205.03561
 30
0.0
  0
ENDBLK
  5
105
330
FA
100
AcDbEntity
  8
0
100
AcDbBlockEnd
  0
BLOCK
  5
107
330
106
100
AcDbEntity
  8
0
100
AcDbBlockBegin
  2
*D19
 70
     1
 10
0.0
 20
0.0
 30
0.0
  3
*D19
  1

  0
LINE
  5
108
330
106
100
AcDbEntity
  8
0
  6
Continuous
 62
     7
100
AcDbLine
 10
16.631338
 20
220.03561
 30
0.0
 11
16.631338
 21
190.03561
 31
0.0
  0
INSERT
  5
109
330
106
100
AcDbEntity
  8
0
  6
Continuous
 62
     7
100
AcDbBlockReference
  2
_DOT
 10
16.631338
 20
220.03561
 30
0.0
 50
90.0
  0
INSERT
  5
10A
330
106
100
AcDbEntity
  8
0
  6
Continuous
 62
     7
100
AcDbBlockReference
  2
_DOT
 10
16.631338
 20
190.03561
 30
0.0
 50
270.0
  0
LINE
  5
10B
330
106
100
AcDbEntity
  8
0
  6
Continuous
 62
     7
100
AcDbLine
 10
-15.584291
 20
220.03561
 30
0.0
 11
17.831339
 21
220.03561
 31
0.0
  0
TEXT
  5
10C
330
106
100
AcDbEntity
  8
0
  6
Continuous
 62
     7
100
AcDbText
 10
15.831338
 20
207.00709
 30
0.0
 40
3.2
  1
30
 50
90.00000300000001
 41
1.102098199999999
100
AcDbText
  0
POINT
  5
10D
330
106
100
AcDbEntity
  8
DEFPOINTS
  6
Continuous
 62
     7
100
AcDbPoint
 10
-18.12429
 20
220.03561
 30
0.0
  0
POINT
  5
10E
330
106
100
AcDbEntity
  8
DEFPOINTS
  6
Continuous
 62
     7
100
AcDbPoint
 10
37.87571
 20
190.03561
 30
0.0
  0
POINT
  5
10F
330
106
100
AcDbEntity
  8
DEFPOINTS
  6
Continuous
 62
     7
100
AcDbPoint
 10
16.631338
 20
190.03561
 30
0.0
  0
ENDBLK
  5
110
330
106
100
AcDbEntity
  8
0
100
AcDbBlockEnd
  0
BLOCK
  5
112
330
111
100
AcDbEntity
  8
0
100
AcDbBlockBegin
  2
*D20
 70
     1
 10
0.0
 20
0.0
 30
0.0
  3
*D20
  1

  0
LINE
  5
113
330
111
100
AcDbEntity
  8
0
  6
Continuous
 62
     7
100
AcDbLine
 10
-103.49517
 20
114.83923
 30
0.0
 11
-114.75342
 21
126.90164
 31
0.0
  0
INSERT
  5
114
330
111
100
AcDbEntity
  8
0
  6
Continuous
 62
     7
100
AcDbBlockReference
  2
_DOT
 10
-103.49517
 20
114.83923
 30
0.0
 50
313.02505
  0
INSERT
  5
115
330
111
100
AcDbEntity
  8
0
  6
Continuous
 62
     7
100
AcDbBlockReference
  2
_DOT
 10
-114.75342
 20
126.90164
 30
0.0
 50
133.02505
  0
TEXT
  5
116
330
111
100
AcDbEntity
  8
0
  6
Continuous
 62
     7
100
AcDbText
 10
-184.0589399999999
 20
151.67044
 30
0.0
 40
3.2
  1
  
 41
3.085875
100
AcDbText
  0
POINT
  5
117
330
111
100
AcDbEntity
  8
DEFPOINTS
  6
Continuous
 62
     7
100
AcDbPoint
 10
-103.49517
 20
114.83923
 30
0.0
  0
POINT
  5
118
330
111
100
AcDbEntity
  8
DEFPOINTS
  6
Continuous
 62
     7
100
AcDbPoint
 10
-114.75342
 20
126.90164
 30
0.0
  0
ENDBLK
  5
119
330
111
100
AcDbEntity
  8
0
100
AcDbBlockEnd
  0
BLOCK
  5
11B
330
11A
100
AcDbEntity
  8
0
100
AcDbBlockBegin
  2
*D21
 70
     1
 10
0.0
 20
0.0
 30
0.0
  3
*D21
  1

  0
LINE
  5
11C
330
11A
100
AcDbEntity
  8
0
  6
Continuous
 62
     7
100
AcDbLine
 10
-34.514645
 20
217.96207
 30
0.0
 11
-49.733944
 21
192.10915
 31
0.0
  0
INSERT
  5
11D
330
11A
100
AcDbEntity
  8
0
  6
Continuous
 62
     7
100
AcDbBlockReference
  2
_DOT
 10
-34.514645
 20
217.96207
 30
0.0
 50
59.515197
  0
INSERT
  5
11E
330
11A
100
AcDbEntity
  8
0
  6
Continuous
 62
     7
100
AcDbBlockReference
  2
_DOT
 10
-49.733944
 20
192.10915
 30
0.0
 50
239.5152
  0
TEXT
  5
11F
330
11A
100
AcDbEntity
  8
0
  6
Continuous
 62
     7
100
AcDbText
 10
-66.468
 20
187.875
 30
0.0
 40
3.2
  1
  
 41
3.085875
100
AcDbText
  0
ENDBLK
  5
120
330
11A
100
AcDbEntity
  8
0
100
AcDbBlockEnd
  0
BLOCK
  5
289
330
287
100
AcDbEntity
  8
0
100
AcDbBlockBegin
  2
GENAXEH
 70
     0
 10
0.0
 20
0.0
 30
0.0
  3
GENAXEH
  1

  0
LINE
  5
288
330
287
100
AcDbEntity
  8
0
100
AcDbLine
 10
-1.0
 20
0.0
 30
0.0
 11
1.0
 21
0.0
 31
0.0
  0
ENDBLK
  5
28A
330
287
100
AcDbEntity
  8
0
100
AcDbBlockEnd
  0
ENDSEC
  0
SECTION
  2
ENTITIES
  0
LINE
  5
121
330
36
100
AcDbEntity
  8
0
  6
Continuous
 62
     7
100
AcDbLine
 10
170.0
 20
294.5
 30
0.0
 11
170.0
 21
-100.0
 31
0.0
  0
LINE
  5
122
330
36
100
AcDbEntity
  8
0
  6
Continuous
 62
     7
100
AcDbLine
 10
-385.0
 20
-100.0
 30
0.0
 11
170.0
 21
-100.0
 31
0.0
  0
LINE
  5
123
330
36
100
AcDbEntity
  8
0
  6
Continuous
 62
     7
100
AcDbLine
 10
-385.0
 20
294.5
 30
0.0
 11
170.0
 21
294.5
 31
0.0
  0
LINE
  5
124
330
36
100
AcDbEntity
  8
0
  6
Continuous
 62
     7
100
AcDbLine
 10
-385.0
 20
294.5
 30
0.0
 11
-385.0
 21
-100.0
 31
0.0
  0
LINE
  5
125
330
36
100
AcDbEntity
  8
0
  6
Continuous
 62
     7
100
AcDbLine
 10
-365.0
 20
294.5
 30
0.0
 11
-365.0
 21
214.5
 31
0.0
  0
LINE
  5
126
330
36
100
AcDbEntity
  8
0
  6
Continuous
 62
     7
100
AcDbLine
 10
-385.0
 20
286.5
 30
0.0
 11
-275.0
 21
286.5
 31
0.0
  0
LINE
  5
127
330
36
100
AcDbEntity
  8
0
  6
Continuous
 62
     7
100
AcDbLine
 10
-385.0
 20
278.5
 30
0.0
 11
-275.0
 21
278.5
 31
0.0
  0
LINE
  5
128
330
36
100
AcDbEntity
  8
0
  6
Continuous
 62
     7
100
AcDbLine
 10
-385.0
 20
270.5
 30
0.0
 11
-275.0
 21
270.5
 31
0.0
  0
LINE
  5
129
330
36
100
AcDbEntity
  8
0
  6
Continuous
 62
     7
100
AcDbLine
 10
-385.0
 20
262.5
 30
0.0
 11
-275.0
 21
262.5
 31
0.0
  0
LINE
  5
12A
330
36
100
AcDbEntity
  8
0
  6
Continuous
 62
     7
100
AcDbLine
 10
-365.0
 20
254.5
 30
0.0
 11
-275.0
 21
254.5
 31
0.0
  0
LINE
  5
12B
330
36
100
AcDbEntity
  8
0
  6
Continuous
 62
     7
100
AcDbLine
 10
-365.0
 20
246.5
 30
0.0
 11
-275.0
 21
246.5
 31
0.0
  0
LINE
  5
12C
330
36
100
AcDbEntity
  8
0
  6
Continuous
 62
     7
100
AcDbLine
 10
-385.0
 20
238.5
 30
0.0
 11
-275.0
 21
238.5
 31
0.0
  0
LINE
  5
12D
330
36
100
AcDbEntity
  8
0
  6
Continuous
 62
     7
100
AcDbLine
 10
-365.0
 20
230.5
 30
0.0
 11
-275.0
 21
230.5
 31
0.0
  0
LINE
  5
12E
330
36
100
AcDbEntity
  8
0
  6
Continuous
 62
     7
100
AcDbLine
 10
-365.0
 20
222.5
 30
0.0
 11
-275.0
 21
222.5
 31
0.0
  0
LINE
  5
12F
330
36
100
AcDbEntity
  8
0
  6
Continuous
 62
     7
100
AcDbLine
 10
-385.0
 20
214.5
 30
0.0
 11
-275.0
 21
214.5
 31
0.0
  0
LINE
  5
130
330
36
100
AcDbEntity
  8
0
  6
Continuous
 62
     7
100
AcDbLine
 10
-385.0
 20
294.5
 30
0.0
 11
-385.0
 21
214.5
 31
0.0
  0
LINE
  5
131
330
36
100
AcDbEntity
  8
0
  6
Continuous
 62
     7
100
AcDbLine
 10
-385.0
 20
294.5
 30
0.0
 11
-275.0
 21
294.5
 31
0.0
  0
LINE
  5
132
330
36
100
AcDbEntity
  8
0
  6
Continuous
 62
     7
100
AcDbLine
 10
-275.0
 20
294.5
 30
0.0
 11
-275.0
 21
214.5
 31
0.0
  0
LINE
  5
133
330
36
100
AcDbEntity
  8
0
  6
Continuous
 62
     7
100
AcDbLine
 10
-385.0
 20
-100.0
 30
0.0
 11
-275.0
 21
-100.0
 31
0.0
  0
LINE
  5
134
330
36
100
AcDbEntity
  8
0
  6
Continuous
 62
     7
100
AcDbLine
 10
-385.0
 20
-20.0
 30
0.0
 11
-385.0
 21
-100.0
 31
0.0
  0
LINE
  5
135
330
36
100
AcDbEntity
  8
0
  6
Continuous
 62
     7
100
AcDbLine
 10
-57.12429
 20
135.87044
 30
0.0
 11
-57.12429
 21
-74.12955500000001
 31
0.0
  0
LINE
  5
136
330
36
100
AcDbEntity
  8
0
  6
Continuous
 62
     7
100
AcDbLine
 10
-27.12429
 20
101.87044
 30
0.0
 11
-27.12429
 21
46.870438
 31
0.0
  0
LINE
  5
137
330
36
100
AcDbEntity
  8
0
  6
CENTER
 62
     7
100
AcDbLine
 10
-42.12429
 20
145.87044
 30
0.0
 11
-42.12429
 21
-84.129555
 31
0.0
  0
LINE
  5
138
330
36
100
AcDbEntity
  8
0
  6
Continuous
 62
     7
100
AcDbLine
 10
-127.12429
 20
135.87044
 30
0.0
 11
-127.12429
 21
-74.12955500000001
 31
0.0
  0
LINE
  5
139
330
36
100
AcDbEntity
  8
0
  6
Continuous
 62
     7
100
AcDbLine
 10
-29.12429
 20
-79.12955500000001
 30
0.0
 11
-55.12429
 21
-79.12955500000001
 31
0.0
  0
LINE
  5
13A
330
36
100
AcDbEntity
  8
0
  6
Continuous
 62
     7
100
AcDbLine
 10
37.87571
 20
-74.12955500000001
 30
0.0
 11
-27.12429
 21
-74.12955500000001
 31
0.0
  0
LINE
  5
13B
330
36
100
AcDbEntity
  8
0
  6
Continuous
 62
     7
100
AcDbLine
 10
37.87571
 20
135.87044
 30
0.0
 11
-27.12429
 21
135.87044
 31
0.0
  0
LINE
  5
13C
330
36
100
AcDbEntity
  8
0
  6
Continuous
 62
     7
100
AcDbLine
 10
-29.12429
 20
140.87044
 30
0.0
 11
-55.12429
 21
140.87044
 31
0.0
  0
LINE
  5
13D
330
36
100
AcDbEntity
  8
0
  6
Continuous
 62
     7
100
AcDbLine
 10
-28.12429
 20
139.87044
 30
0.0
 11
-28.12429
 21
135.87044
 31
0.0
  0
LINE
  5
13E
330
36
100
AcDbEntity
  8
0
  6
Continuous
 62
     7
100
AcDbLine
 10
-56.12429
 20
139.87044
 30
0.0
 11
-56.12429
 21
135.87044
 31
0.0
  0
LINE
  5
13F
330
36
100
AcDbEntity
  8
0
  6
Continuous
 62
     7
100
AcDbLine
 10
-28.12429
 20
-74.12955500000001
 30
0.0
 11
-28.12429
 21
-78.12955500000001
 31
0.0
  0
LINE
  5
140
330
36
100
AcDbEntity
  8
0
  6
Continuous
 62
     7
100
AcDbLine
 10
-56.12429
 20
-74.12955500000001
 30
0.0
 11
-56.12429
 21
-78.12955500000001
 31
0.0
  0
LINE
  5
141
330
36
100
AcDbEntity
  8
0
  6
Continuous
 62
     7
100
AcDbLine
 10
-26.12429
 20
101.87044
 30
0.0
 11
-27.12429
 21
101.87044
 31
0.0
  0
LINE
  5
142
330
36
100
AcDbEntity
  8
0
  6
Continuous
 62
     7
100
AcDbLine
 10
-27.12429
 20
96.87043800000001
 30
0.0
 11
-57.12429
 21
96.87043800000001
 31
0.0
  0
LINE
  5
143
330
36
100
AcDbEntity
  8
0
  6
Continuous
 62
     7
100
AcDbLine
 10
-27.12429
 20
51.870438
 30
0.0
 11
-57.12429
 21
51.870438
 31
0.0
  0
LINE
  5
144
330
36
100
AcDbEntity
  8
0
  6
Continuous
 62
     7
100
AcDbLine
 10
-26.12429
 20
46.870438
 30
0.0
 11
-27.12429
 21
46.870438
 31
0.0
  0
LINE
  5
145
330
36
100
AcDbEntity
  8
0
  6
Continuous
 62
     7
100
AcDbLine
 10
-26.12429
 20
14.870443
 30
0.0
 11
-27.12429
 21
14.870443
 31
0.0
  0
LINE
  5
146
330
36
100
AcDbEntity
  8
0
  6
Continuous
 62
     7
100
AcDbLine
 10
-27.12429
 20
9.870443299999999
 30
0.0
 11
-57.12429
 21
9.870443299999999
 31
0.0
  0
LINE
  5
147
330
36
100
AcDbEntity
  8
0
  6
Continuous
 62
     7
100
AcDbLine
 10
-27.12429
 20
-35.129559
 30
0.0
 11
-57.12429
 21
-35.129559
 31
0.0
  0
LINE
  5
148
330
36
100
AcDbEntity
  8
0
  6
Continuous
 62
     7
100
AcDbLine
 10
-26.12429
 20
-40.129559
 30
0.0
 11
-27.12429
 21
-40.129559
 31
0.0
  0
LINE
  5
149
330
36
100
AcDbEntity
  8
0
  6
Continuous
 62
     7
100
AcDbLine
 10
-26.12429
 20
101.87044
 30
0.0
 11
-26.12429
 21
46.870438
 31
0.0
  0
LINE
  5
14A
330
36
100
AcDbEntity
  8
0
  6
Continuous
 62
     7
100
AcDbLine
 10
-26.12429
 20
14.870443
 30
0.0
 11
-26.12429
 21
-40.129559
 31
0.0
  0
LINE
  5
14B
330
36
100
AcDbEntity
  8
0
  6
CENTER
 62
     7
100
AcDbLine
 10
-94.20762600000001
 20
-59.129559
 30
0.0
 11
-124.04095
 21
-59.129559
 31
0.0
  0
LINE
  5
14C
330
36
100
AcDbEntity
  8
0
  6
CENTER
 62
     7
100
AcDbLine
 10
-109.12429
 20
-44.212891
 30
0.0
 11
-109.12429
 21
-74.046227
 31
0.0
  0
LINE
  5
14D
330
36
100
AcDbEntity
  8
0
  6
CENTER
 62
     7
100
AcDbLine
 10
-67.207626
 20
-29.129557
 30
0.0
 11
-97.04095500000001
 21
-29.129557
 31
0.0
  0
LINE
  5
14E
330
36
100
AcDbEntity
  8
0
  6
CENTER
 62
     7
100
AcDbLine
 10
-82.12429
 20
-14.212891
 30
0.0
 11
-82.12429
 21
-44.04622299999999
 31
0.0
  0
LINE
  5
14F
330
36
100
AcDbEntity
  8
0
  6
CENTER
 62
     7
100
AcDbLine
 10
-94.20762600000001
 20
0.87044305
 30
0.0
 11
-124.04095
 21
0.87044305
 31
0.0
  0
LINE
  5
150
330
36
100
AcDbEntity
  8
0
  6
CENTER
 62
     7
100
AcDbLine
 10
-109.12429
 20
15.787109
 30
0.0
 11
-109.12429
 21
-14.046224
 31
0.0
  0
LINE
  5
151
330
36
100
AcDbEntity
  8
0
  6
CENTER
 62
     7
100
AcDbLine
 10
-67.207626
 20
30.870438
 30
0.0
 11
-97.04095500000001
 21
30.870438
 31
0.0
  0
LINE
  5
152
330
36
100
AcDbEntity
  8
0
  6
CENTER
 62
     7
100
AcDbLine
 10
-82.12429
 20
45.78710599999999
 30
0.0
 11
-82.12429
 21
15.953776
 31
0.0
  0
LINE
  5
153
330
36
100
AcDbEntity
  8
0
  6
CENTER
 62
     7
100
AcDbLine
 10
-94.20762600000001
 20
60.870438
 30
0.0
 11
-124.04095
 21
60.870438
 31
0.0
  0
LINE
  5
154
330
36
100
AcDbEntity
  8
0
  6
CENTER
 62
     7
100
AcDbLine
 10
-109.12429
 20
75.787109
 30
0.0
 11
-109.12429
 21
45.95377
 31
0.0
  0
LINE
  5
155
330
36
100
AcDbEntity
  8
0
  6
CENTER
 62
     7
100
AcDbLine
 10
-67.207626
 20
90.87043800000001
 30
0.0
 11
-97.04095500000001
 21
90.87043800000001
 31
0.0
  0
LINE
  5
156
330
36
100
AcDbEntity
  8
0
  6
CENTER
 62
     7
100
AcDbLine
 10
-82.12429
 20
105.78711
 30
0.0
 11
-82.12429
 21
75.95377299999999
 31
0.0
  0
LINE
  5
157
330
36
100
AcDbEntity
  8
0
  6
CENTER
 62
     7
100
AcDbLine
 10
-94.20762600000001
 20
120.87044
 30
0.0
 11
-124.04095
 21
120.87044
 31
0.0
  0
LINE
  5
158
330
36
100
AcDbEntity
  8
0
  6
CENTER
 62
     7
100
AcDbLine
 10
-109.12429
 20
135.78711
 30
0.0
 11
-109.12429
 21
105.95377
 31
0.0
  0
LINE
  5
159
330
36
100
AcDbEntity
  8
0
  6
Continuous
 62
     7
100
AcDbLine
 10
-28.12429
 20
139.87044
 30
0.0
 11
-56.12429
 21
139.87044
 31
0.0
  0
LINE
  5
15A
330
36
100
AcDbEntity
  8
0
  6
Continuous
 62
     7
100
AcDbLine
 10
-28.12429
 20
-78.12955500000001
 30
0.0
 11
-56.12429
 21
-78.12955500000001
 31
0.0
  0
LINE
  5
15B
330
36
100
AcDbEntity
  8
0
  6
Continuous
 62
     7
100
AcDbLine
 10
-55.12429399999999
 20
-79.12956199999999
 30
0.0
 11
-56.124287
 21
-78.12956199999999
 31
0.0
  0
LINE
  5
15C
330
36
100
AcDbEntity
  8
0
  6
Continuous
 62
     7
100
AcDbLine
 10
-28.124287
 20
-78.12957
 30
0.0
 11
-29.124287
 21
-79.12957
 31
0.0
  0
LINE
  5
15D
330
36
100
AcDbEntity
  8
0
  6
Continuous
 62
     7
100
AcDbLine
 10
-28.124289
 20
139.87044
 30
0.0
 11
-29.12429
 21
140.87044
 31
0.0
  0
LINE
  5
15E
330
36
100
AcDbEntity
  8
0
  6
Continuous
 62
     7
100
AcDbLine
 10
-55.12429
 20
140.87044
 30
0.0
 11
-56.12429
 21
139.87044
 31
0.0
  0
LINE
  5
15F
330
36
100
AcDbEntity
  8
0
  6
Continuous
 62
     7
100
AcDbLine
 10
37.87571
 20
135.87044
 30
0.0
 11
37.87571
 21
-74.12955500000001
 31
0.0
  0
LINE
  5
160
330
36
100
AcDbEntity
  8
0
  6
Continuous
 62
     7
100
AcDbLine
 10
-27.12429
 20
135.87044
 30
0.0
 11
-127.12429
 21
135.87044
 31
0.0
  0
LINE
  5
161
330
36
100
AcDbEntity
  8
0
  6
Continuous
 62
     7
100
AcDbLine
 10
-27.12429
 20
-74.12955500000001
 30
0.0
 11
-127.12429
 21
-74.12955500000001
 31
0.0
  0
LINE
  5
162
330
36
100
AcDbEntity
  8
0
  6
Continuous
 62
     7
100
AcDbLine
 10
-27.12429
 20
101.87044
 30
0.0
 11
-57.12429
 21
101.87044
 31
0.0
  0
LINE
  5
163
330
36
100
AcDbEntity
  8
0
  6
Continuous
 62
     7
100
AcDbLine
 10
-27.12429
 20
46.870438
 30
0.0
 11
-57.12429
 21
46.870438
 31
0.0
  0
LINE
  5
164
330
36
100
AcDbEntity
  8
0
  6
Continuous
 62
     7
100
AcDbLine
 10
-27.12429
 20
14.870443
 30
0.0
 11
-57.12429
 21
14.870443
 31
0.0
  0
LINE
  5
165
330
36
100
AcDbEntity
  8
0
  6
Continuous
 62
     7
100
AcDbLine
 10
-27.12429
 20
-40.129559
 30
0.0
 11
-57.12429
 21
-40.129559
 31
0.0
  0
LINE
  5
166
330
36
100
AcDbEntity
  8
0
  6
Continuous
 62
     7
100
AcDbLine
 10
-27.12429
 20
14.870443
 30
0.0
 11
-27.12429
 21
-40.129559
 31
0.0
  0
LINE
  5
167
330
36
100
AcDbEntity
  8
0
  6
Continuous
 62
     7
100
AcDbLine
 10
-57.12429
 20
229.03561
 30
0.0
 11
-57.12429
 21
205.03561
 31
0.0
  0
LINE
  5
168
330
36
100
AcDbEntity
  8
0
  6
Continuous
 62
     7
100
AcDbLine
 10
-51.12429
 20
229.03561
 30
0.0
 11
-51.12429
 21
217.03561
 31
0.0
  0
LINE
  5
169
330
36
100
AcDbEntity
  8
0
  6
PHANTOM
 62
     7
100
AcDbLine
 10
-46.72428499999999
 20
235.03561
 30
0.0
 11
-57.12429
 21
235.03561
 31
0.0
  0
LINE
  5
16A
330
36
100
AcDbEntity
  8
0
  6
Continuous
 62
     7
100
AcDbLine
 10
-57.12429
 20
229.03561
 30
0.0
 11
-127.12429
 21
229.03561
 31
0.0
  0
LINE
  5
16B
330
36
100
AcDbEntity
  8
0
  6
Continuous
 62
     7
100
AcDbLine
 10
-127.12429
 20
235.03561
 30
0.0
 11
-127.12429
 21
229.03561
 31
0.0
  0
LINE
  5
16C
330
36
100
AcDbEntity
  8
0
  6
Continuous
 62
     7
100
AcDbLine
 10
37.87571
 20
190.03561
 30
0.0
 11
-42.12429
 21
190.03561
 31
0.0
  0
LINE
  5
16D
330
36
100
AcDbEntity
  8
0
  6
PHANTOM
 62
     7
100
AcDbLine
 10
44.87570999999999
 20
196.03561
 30
0.0
 11
37.87571
 21
196.03561
 31
0.0
  0
LINE
  5
16E
330
36
100
AcDbEntity
  8
0
  6
Continuous
 62
     7
100
AcDbLine
 10
37.87571
 20
190.03561
 30
0.0
 11
37.87571
 21
196.03561
 31
0.0
  0
LINE
  5
16F
330
36
100
AcDbEntity
  8
0
  6
CENTER
 62
     7
100
AcDbLine
 10
-42.12429
 20
183.36896
 30
0.0
 11
-42.12429
 21
226.70229
 31
0.0
  0
LINE
  5
170
330
36
100
AcDbEntity
  8
0
  6
CENTER
 62
     7
100
AcDbLine
 10
-20.457624
 20
205.03561
 30
0.0
 11
-63.79095799999999
 21
205.03561
 31
0.0
  0
LINE
  5
171
330
36
100
AcDbEntity
  8
0
  6
CENTER
 62
     7
100
AcDbLine
 10
-109.12429
 20
248.30229
 30
0.0
 11
-109.12429
 21
222.36896
 31
0.0
  0
LINE
  5
172
330
36
100
AcDbEntity
  8
0
  6
CENTER
 62
     7
100
AcDbLine
 10
-82.12429
 20
248.30229
 30
0.0
 11
-82.12429
 21
222.36896
 31
0.0
  0
LINE
  5
173
330
36
100
AcDbEntity
  8
0
  6
PHANTOM
 62
     7
100
AcDbLine
 10
-46.72428499999999
 20
275.03561
 30
0.0
 11
-142.22653
 21
275.03561
 31
0.0
  0
LINE
  5
174
330
36
100
AcDbEntity
  8
0
  6
PHANTOM
 62
     7
100
AcDbLine
 10
-15.524289
 20
202.03561
 30
0.0
 11
30.87571
 21
202.03561
 31
0.0
  0
LINE
  5
175
330
36
100
AcDbEntity
  8
0
  6
PHANTOM
 62
     7
100
AcDbLine
 10
-45.12429
 20
236.63562
 30
0.0
 11
-45.12429
 21
273.43561
 31
0.0
  0
LINE
  5
176
330
36
100
AcDbEntity
  8
0
  6
PHANTOM
 62
     7
100
AcDbLine
 10
-17.12429
 20
170.30228
 30
0.0
 11
-17.12429
 21
200.43562
 31
0.0
  0
LINE
  5
177
330
36
100
AcDbEntity
  8
0
  6
PHANTOM
 62
     7
100
AcDbLine
 10
-15.524289
 20
170.30228
 30
0.0
 11
-15.524289
 21
200.43562
 31
0.0
  0
LINE
  5
178
330
36
100
AcDbEntity
  8
0
  6
PHANTOM
 62
     7
100
AcDbLine
 10
-15.524289
 20
200.43562
 30
0.0
 11
44.87570999999999
 21
200.43562
 31
0.0
  0
LINE
  5
179
330
36
100
AcDbEntity
  8
0
  6
PHANTOM
 62
     7
100
AcDbLine
 10
-49.024296
 20
238.93562
 30
0.0
 11
-49.024296
 21
271.13562
 31
0.0
  0
LINE
  5
17A
330
36
100
AcDbEntity
  8
0
  6
PHANTOM
 62
     7
100
AcDbLine
 10
-46.72428499999999
 20
236.63562
 30
0.0
 11
-142.22653
 21
236.63562
 31
0.0
  0
LINE
  5
17B
330
36
100
AcDbEntity
  8
0
  6
PHANTOM
 62
     7
100
AcDbLine
 10
-49.024296
 20
238.93562
 30
0.0
 11
-61.72428499999999
 21
238.93562
 31
0.0
  0
LINE
  5
17C
330
36
100
AcDbEntity
  8
0
  6
PHANTOM
 62
     7
100
AcDbLine
 10
-46.72428499999999
 20
236.63562
 30
0.0
 11
-46.72428499999999
 21
273.43561
 31
0.0
  0
LINE
  5
17D
330
36
100
AcDbEntity
  8
0
  6
PHANTOM
 62
     7
100
AcDbLine
 10
-46.72428499999999
 20
273.43561
 30
0.0
 11
-142.22653
 21
273.43561
 31
0.0
  0
LINE
  5
17E
330
36
100
AcDbEntity
  8
0
  6
PHANTOM
 62
     7
100
AcDbLine
 10
-49.024296
 20
271.13562
 30
0.0
 11
-61.72428499999999
 21
271.13562
 31
0.0
  0
LINE
  5
17F
330
36
100
AcDbEntity
  8
0
  6
PHANTOM
 62
     7
100
AcDbLine
 10
-61.72428499999999
 20
236.63562
 30
0.0
 11
-61.72428499999999
 21
238.93562
 31
0.0
  0
LINE
  5
180
330
36
100
AcDbEntity
  8
0
  6
Continuous
 62
     7
100
AcDbLine
 10
37.87571
 20
196.03561
 30
0.0
 11
-30.12429
 21
196.03561
 31
0.0
  0
LINE
  5
181
330
36
100
AcDbEntity
  8
0
  6
Continuous
 62
     7
100
AcDbLine
 10
-57.12429
 20
235.03561
 30
0.0
 11
-127.12429
 21
235.03561
 31
0.0
  0
LINE
  5
182
330
36
100
AcDbEntity
  8
0
  6
Continuous
 62
     7
100
AcDbLine
 10
37.87571
 20
196.03561
 30
0.0
 11
-15.524289
 21
196.03561
 31
0.0
  0
LINE
  5
183
330
36
100
AcDbEntity
  8
0
  6
PHANTOM
 62
     7
100
AcDbLine
 10
-15.524289
 20
180.43562
 30
0.0
 11
-11.12429
 21
180.43562
 31
0.0
  0
LINE
  5
184
330
36
100
AcDbEntity
  8
0
  6
PHANTOM
 62
     7
100
AcDbLine
 10
30.87571
 20
202.03561
 30
0.0
 11
30.87571
 21
215.43562
 31
0.0
  0
LINE
  5
185
330
36
100
AcDbEntity
  8
0
  6
PHANTOM
 62
     7
100
AcDbLine
 10
32.475712
 20
217.03561
 30
0.0
 11
49.275715
 21
217.03561
 31
0.0
  0
LINE
  5
186
330
36
100
AcDbEntity
  8
0
  6
PHANTOM
 62
     7
100
AcDbLine
 10
32.475712
 20
202.03561
 30
0.0
 11
32.475712
 21
215.43562
 31
0.0
  0
LINE
  5
187
330
36
100
AcDbEntity
  8
0
  6
PHANTOM
 62
     7
100
AcDbLine
 10
32.475712
 20
215.43562
 30
0.0
 11
49.275715
 21
215.43562
 31
0.0
  0
LINE
  5
188
330
36
100
AcDbEntity
  8
0
  6
PHANTOM
 62
     7
100
AcDbLine
 10
-11.12429
 20
180.43562
 30
0.0
 11
-11.12429
 21
196.03561
 31
0.0
  0
LINE
  5
189
330
36
100
AcDbEntity
  8
0
  6
PHANTOM
 62
     7
100
AcDbLine
 10
-45.12429
 20
255.03561
 30
0.0
 11
-46.72428499999999
 21
255.03561
 31
0.0
  0
LINE
  5
18A
330
36
100
AcDbEntity
  8
0
  6
PHANTOM
 62
     7
100
AcDbLine
 10
-119.12429
 20
240.63562
 30
0.0
 11
-119.12429
 21
236.63562
 31
0.0
  0
LINE
  5
18B
330
36
100
AcDbEntity
  8
0
  6
PHANTOM
 62
     7
100
AcDbLine
 10
49.275715
 20
170.30228
 30
0.0
 11
49.275715
 21
215.43562
 31
0.0
  0
LINE
  5
18C
330
36
100
AcDbEntity
  8
0
  6
PHANTOM
 62
     7
100
AcDbLine
 10
50.87571
 20
170.30228
 30
0.0
 11
50.87571
 21
215.43562
 31
0.0
  0
LINE
  5
18D
330
36
100
AcDbEntity
  8
0
  6
PHANTOM
 62
     7
100
AcDbLine
 10
-72.12429
 20
240.63562
 30
0.0
 11
-72.12429
 21
236.63562
 31
0.0
  0
LINE
  5
18E
330
36
100
AcDbEntity
  8
0
  6
PHANTOM
 62
     7
100
AcDbLine
 10
44.87570999999999
 20
180.43562
 30
0.0
 11
44.87570999999999
 21
196.03561
 31
0.0
  0
LINE
  5
18F
330
36
100
AcDbEntity
  8
0
  6
PHANTOM
 62
     7
100
AcDbLine
 10
-61.72428499999999
 20
271.13562
 30
0.0
 11
-61.72428499999999
 21
273.43561
 31
0.0
  0
LINE
  5
190
330
36
100
AcDbEntity
  8
0
  6
PHANTOM
 62
     7
100
AcDbLine
 10
-72.12429
 20
240.63562
 30
0.0
 11
-119.12429
 21
240.63562
 31
0.0
  0
LINE
  5
191
330
36
100
AcDbEntity
  8
0
  6
PHANTOM
 62
     7
100
AcDbLine
 10
-72.12429799999999
 20
240.63562
 30
0.0
 11
-119.12429
 21
236.63562
 31
0.0
  0
LINE
  5
192
330
36
100
AcDbEntity
  8
0
  6
PHANTOM
 62
     7
100
AcDbLine
 10
-72.12429799999999
 20
236.63562
 30
0.0
 11
-119.12428
 21
240.63562
 31
0.0
  0
LINE
  5
193
330
36
100
AcDbEntity
  8
0
  6
PHANTOM
 62
     7
100
AcDbLine
 10
-127.12429
 20
235.03561
 30
0.0
 11
-142.22653
 21
235.03561
 31
0.0
  0
LINE
  5
194
330
36
100
AcDbEntity
  8
0
  6
PHANTOM
 62
     7
100
AcDbLine
 10
44.87570999999999
 20
180.43562
 30
0.0
 11
49.275715
 21
180.43562
 31
0.0
  0
LINE
  5
195
330
36
100
AcDbEntity
  8
0
  6
PHANTOM
 62
     7
100
AcDbLine
 10
-1.1242905
 20
168.70229
 30
0.0
 11
-1.1242905
 21
170.30228
 31
0.0
  0
LINE
  5
196
330
36
100
AcDbEntity
  8
0
  6
PHANTOM
 62
     7
100
AcDbLine
 10
-15.524289
 20
170.30228
 30
0.0
 11
-1.1242905
 21
170.30228
 31
0.0
  0
LINE
  5
197
330
36
100
AcDbEntity
  8
0
  6
PHANTOM
 62
     7
100
AcDbLine
 10
34.87571
 20
170.30228
 30
0.0
 11
49.275715
 21
170.30228
 31
0.0
  0
LINE
  5
198
330
36
100
AcDbEntity
  8
0
  6
PHANTOM
 62
     7
100
AcDbLine
 10
34.87571
 20
168.70229
 30
0.0
 11
34.87571
 21
170.30228
 31
0.0
  0
LINE
  5
199
330
36
100
AcDbEntity
  8
0
  6
PHANTOM
 62
     7
100
AcDbLine
 10
-15.524289
 20
168.70229
 30
0.0
 11
-1.1242905
 21
168.70229
 31
0.0
  0
LINE
  5
19A
330
36
100
AcDbEntity
  8
0
  6
PHANTOM
 62
     7
100
AcDbLine
 10
34.87571
 20
168.70229
 30
0.0
 11
49.275715
 21
168.70229
 31
0.0
  0
LINE
  5
19B
330
36
100
AcDbEntity
  8
0
  6
PHANTOM
 62
     7
100
AcDbLine
 10
-12.12429
 20
220.03561
 30
0.0
 11
-12.12429
 21
290.03561
 31
0.0
  0
LINE
  5
19C
330
36
100
AcDbEntity
  8
0
  6
PHANTOM
 62
     7
100
AcDbLine
 10
-18.12429
 20
214.03561
 30
0.0
 11
-30.12429
 21
214.03561
 31
0.0
  0
LINE
  5
19D
330
36
100
AcDbEntity
  8
0
  6
PHANTOM
 62
     7
100
AcDbLine
 10
-12.12429
 20
290.03561
 30
0.0
 11
-18.12429
 21
290.03561
 31
0.0
  0
LINE
  5
19E
330
36
100
AcDbEntity
  8
0
  6
PHANTOM
 62
     7
100
AcDbLine
 10
-18.12429
 20
220.03561
 30
0.0
 11
-18.12429
 21
290.03561
 31
0.0
  0
LINE
  5
19F
330
36
100
AcDbEntity
  8
0
  6
PHANTOM
 62
     7
100
AcDbLine
 10
-18.12429
 20
220.03561
 30
0.0
 11
-42.12429
 21
220.03561
 31
0.0
  0
CIRCLE
  5
1A0
330
36
100
AcDbEntity
  8
0
  6
Continuous
 62
     7
100
AcDbCircle
 10
-82.12429
 20
-29.129557
 30
0.0
 40
8.25
  0
CIRCLE
  5
1A1
330
36
100
AcDbEntity
  8
0
  6
Continuous
 62
     7
100
AcDbCircle
 10
-82.12429
 20
-29.129557
 30
0.0
 40
4.25
  0
CIRCLE
  5
1A2
330
36
100
AcDbEntity
  8
0
  6
Continuous
 62
     7
100
AcDbCircle
 10
-109.12429
 20
-59.129559
 30
0.0
 40
4.25
  0
CIRCLE
  5
1A3
330
36
100
AcDbEntity
  8
0
  6
Continuous
 62
     7
100
AcDbCircle
 10
-109.12429
 20
-59.129559
 30
0.0
 40
8.25
  0
CIRCLE
  5
1A4
330
36
100
AcDbEntity
  8
0
  6
Continuous
 62
     7
100
AcDbCircle
 10
-109.12429
 20
0.87044305
 30
0.0
 40
4.25
  0
CIRCLE
  5
1A5
330
36
100
AcDbEntity
  8
0
  6
Continuous
 62
     7
100
AcDbCircle
 10
-82.12429
 20
30.870438
 30
0.0
 40
4.25
  0
CIRCLE
  5
1A6
330
36
100
AcDbEntity
  8
0
  6
Continuous
 62
     7
100
AcDbCircle
 10
-109.12429
 20
60.870438
 30
0.0
 40
4.25
  0
CIRCLE
  5
1A7
330
36
100
AcDbEntity
  8
0
  6
Continuous
 62
     7
100
AcDbCircle
 10
-82.12429
 20
90.87043800000001
 30
0.0
 40
4.25
  0
CIRCLE
  5
1A8
330
36
100
AcDbEntity
  8
0
  6
Continuous
 62
     7
100
AcDbCircle
 10
-109.12429
 20
120.87044
 30
0.0
 40
4.25
  0
CIRCLE
  5
1A9
330
36
100
AcDbEntity
  8
0
  6
Continuous
 62
     7
100
AcDbCircle
 10
-109.12429
 20
0.87044305
 30
0.0
 40
8.25
  0
CIRCLE
  5
1AA
330
36
100
AcDbEntity
  8
0
  6
Continuous
 62
     7
100
AcDbCircle
 10
-82.12429
 20
30.870438
 30
0.0
 40
8.25
  0
CIRCLE
  5
1AB
330
36
100
AcDbEntity
  8
0
  6
Continuous
 62
     7
100
AcDbCircle
 10
-109.12429
 20
60.870438
 30
0.0
 40
8.25
  0
CIRCLE
  5
1AC
330
36
100
AcDbEntity
  8
0
  6
Continuous
 62
     7
100
AcDbCircle
 10
-82.12429
 20
90.87043800000001
 30
0.0
 40
8.25
  0
CIRCLE
  5
1AD
330
36
100
AcDbEntity
  8
0
  6
Continuous
 62
     7
100
AcDbCircle
 10
-109.12429
 20
120.87044
 30
0.0
 40
8.25
  0
CIRCLE
  5
1AE
330
36
100
AcDbEntity
  8
0
  6
Continuous
 62
     7
100
AcDbCircle
 10
-42.12429
 20
205.03561
 30
0.0
 40
14.0
  0
CIRCLE
  5
1AF
330
36
100
AcDbEntity
  8
0
  6
Continuous
 62
     7
100
AcDbCircle
 10
-42.12429
 20
205.03561
 30
0.0
 40
15.0
  0
ARC
  5
1B0
330
36
100
AcDbEntity
  8
0
  6
Continuous
 62
     7
100
AcDbCircle
 10
-57.12429
 20
229.03561
 30
0.0
 40
6.0
100
AcDbArc
 50
0.0
 51
90.0
  0
ARC
  5
1B1
330
36
100
AcDbEntity
  8
0
  6
PHANTOM
 62
     7
100
AcDbCircle
 10
-46.72428499999999
 20
273.43561
 30
0.0
 40
1.6
100
AcDbArc
 50
0.0
 51
90.0
  0
ARC
  5
1B2
330
36
100
AcDbEntity
  8
0
  6
PHANTOM
 62
     7
100
AcDbCircle
 10
-46.72428499999999
 20
236.63562
 30
0.0
 40
1.6
100
AcDbArc
 50
270.0
 51
0.0
  0
ARC
  5
1B3
330
36
100
AcDbEntity
  8
0
  6
PHANTOM
 62
     7
100
AcDbCircle
 10
-15.524289
 20
200.43562
 30
0.0
 40
1.6
100
AcDbArc
 50
90.0
 51
180.0
  0
ARC
  5
1B4
330
36
100
AcDbEntity
  8
0
  6
PHANTOM
 62
     7
100
AcDbCircle
 10
37.87571
 20
196.03561
 30
0.0
 40
1.333333399999999
100
AcDbArc
 50
270.0
 51
0.0
  0
ARC
  5
1B5
330
36
100
AcDbEntity
  8
0
  6
PHANTOM
 62
     7
100
AcDbCircle
 10
37.87571
 20
196.03561
 30
0.0
 40
2.666666699999999
100
AcDbArc
 50
270.0
 51
0.0
  0
ARC
  5
1B6
330
36
100
AcDbEntity
  8
0
  6
PHANTOM
 62
     7
100
AcDbCircle
 10
37.87571
 20
196.03561
 30
0.0
 40
4.0
100
AcDbArc
 50
270.0
 51
0.0
  0
ARC
  5
1B7
330
36
100
AcDbEntity
  8
0
  6
PHANTOM
 62
     7
100
AcDbCircle
 10
37.87571
 20
196.03561
 30
0.0
 40
5.3333335
100
AcDbArc
 50
270.0
 51
0.0
  0
ARC
  5
1B8
330
36
100
AcDbEntity
  8
0
  6
PHANTOM
 62
     7
100
AcDbCircle
 10
32.475712
 20
215.43562
 30
0.0
 40
1.6
100
AcDbArc
 50
90.0
 51
180.0
  0
ARC
  5
1B9
330
36
100
AcDbEntity
  8
0
  6
PHANTOM
 62
     7
100
AcDbCircle
 10
30.87571
 20
202.03561
 30
0.0
 40
1.6
100
AcDbArc
 50
270.0
 51
0.0
  0
ARC
  5
1BA
330
36
100
AcDbEntity
  8
0
  6
PHANTOM
 62
     7
100
AcDbCircle
 10
-11.12429
 20
196.03561
 30
0.0
 40
4.400000099999999
100
AcDbArc
 50
90.0
 51
180.0
  0
ARC
  5
1BB
330
36
100
AcDbEntity
  8
0
  6
PHANTOM
 62
     7
100
AcDbCircle
 10
49.275715
 20
215.43562
 30
0.0
 40
1.6
100
AcDbArc
 50
0.0
 51
90.0
  0
ARC
  5
1BC
330
36
100
AcDbEntity
  8
0
  6
PHANTOM
 62
     7
100
AcDbCircle
 10
44.87570999999999
 20
196.03561
 30
0.0
 40
4.400000099999999
100
AcDbArc
 50
0.0
 51
90.0
  0
ARC
  5
1BD
330
36
100
AcDbEntity
  8
0
  6
PHANTOM
 62
     7
100
AcDbCircle
 10
-15.524289
 20
170.30228
 30
0.0
 40
1.6
100
AcDbArc
 50
180.0
 51
270.0
  0
ARC
  5
1BE
330
36
100
AcDbEntity
  8
0
  6
PHANTOM
 62
     7
100
AcDbCircle
 10
49.275715
 20
170.30228
 30
0.0
 40
1.6
100
AcDbArc
 50
270.0
 51
0.0
  0
ARC
  5
1BF
330
36
100
AcDbEntity
  8
0
  6
PHANTOM
 62
     7
100
AcDbCircle
 10
-49.024296
 20
238.93562
 30
0.0
 40
2.299999999999999
100
AcDbArc
 50
270.0
 51
0.0
  0
ARC
  5
1C0
330
36
100
AcDbEntity
  8
0
  6
PHANTOM
 62
     7
100
AcDbCircle
 10
-49.024296
 20
271.13562
 30
0.0
 40
2.299999999999999
100
AcDbArc
 50
0.0
 51
90.0
  0
ARC
  5
1C1
330
36
100
AcDbEntity
  8
0
  6
PHANTOM
 62
     7
100
AcDbCircle
 10
-18.12429
 20
220.03561
 30
0.0
 40
6.0
100
AcDbArc
 50
269.99998
 51
0.0
  0
CIRCLE
  5
1C2
330
36
100
AcDbEntity
  8
0
  6
Continuous
 62
     7
100
AcDbCircle
 10
-328.83246
 20
258.38434
 30
0.0
 40
1.5
  0
TEXT
  5
1C3
330
36
100
AcDbEntity
  8
0
  6
Continuous
 62
     7
100
AcDbText
 10
-379.343
 20
288.9
 30
0.0
 40
3.2
  1
品　名
 41
0.85537027
100
AcDbText
  0
TEXT
  5
1C4
330
36
100
AcDbEntity
  8
0
  6
Continuous
 62
     7
100
AcDbText
 10
-379.343
 20
280.9
 30
0.0
 40
3.2
  1
品　番
 41
0.85537027
100
AcDbText
  0
TEXT
  5
1C5
330
36
100
AcDbEntity
  8
0
  6
Continuous
 62
     7
100
AcDbText
 10
-379.343
 20
272.9
 30
0.0
 40
3.2
  1
材　質
 41
0.85537027
100
AcDbText
  0
TEXT
  5
1C6
330
36
100
AcDbEntity
  8
0
  6
Continuous
 62
     7
100
AcDbText
 10
-379.343
 20
264.9
 30
0.0
 40
3.2
  1
仕上げ
 41
0.85537027
100
AcDbText
  0
TEXT
  5
1C7
330
36
100
AcDbEntity
  8
0
  6
Continuous
 62
     7
100
AcDbText
 10
-382.543
 20
256.9
 30
0.0
 40
3.2
  1
セットビス
 41
0.84892707
100
AcDbText
  0
TEXT
  5
1C8
330
36
100
AcDbEntity
  8
0
  6
Continuous
 62
     7
100
AcDbText
 10
-377.7430000000001
 20
232.9
 30
0.0
 40
3.2
  1
備考
 41
0.8643907499999999
100
AcDbText
  0
TEXT
  5
1C9
330
36
100
AcDbEntity
  8
0
  6
Continuous
 62
     7
100
AcDbText
 10
-362.143
 20
288.9
 30
0.0
 40
3.2
  1
重量用丁番
 41
0.84892707
100
AcDbText
  0
TEXT
  5
1CA
330
36
100
AcDbEntity
  8
0
  6
Continuous
 62
     7
100
AcDbText
 10
-362.143
 20
280.9
 30
0.0
 40
3.2
  1
ＤＨ－３４０Ｓ
 41
0.84634979
100
AcDbText
  0
TEXT
  5
1CB
330
36
100
AcDbEntity
  8
0
  6
Continuous
 62
     7
100
AcDbText
 10
-362.143
 20
272.9
 30
0.0
 40
3.2
  1
ステンレス
 41
0.84892707
100
AcDbText
  0
TEXT
  5
1CC
330
36
100
AcDbEntity
  8
0
  6
Continuous
 62
     7
100
AcDbText
 10
-362.143
 20
264.9
 30
0.0
 40
3.2
  1
羽根：ヘアーライン／軸：生地
 41
0.84326962
100
AcDbText
  0
TEXT
  5
1CD
330
36
100
AcDbEntity
  8
0
  6
Continuous
 62
     7
100
AcDbText
 10
-362.143
 20
256.9
 30
0.0
 40
3.2
  1
Ｍ８×２０サラ小ねじ＋ＳＵＳ　７本付
 41
0.8426054399999999
100
AcDbText
  0
TEXT
  5
1CE
330
36
100
AcDbEntity
  8
0
  6
Continuous
 62
     7
100
AcDbText
 10
-362.143
 20
248.9
 30
0.0
 40
3.2
  1
*
100
AcDbText
  0
TEXT
  5
1CF
330
36
100
AcDbEntity
  8
0
  6
Continuous
 62
     7
100
AcDbText
 10
-362.143
 20
240.9
 30
0.0
 40
3.2
  1
*
100
AcDbText
  0
TEXT
  5
1D0
330
36
100
AcDbEntity
  8
0
  6
Continuous
 62
     7
100
AcDbText
 10
-362.143
 20
232.9
 30
0.0
 40
3.2
  1
丁番係数：68.3
 41
0.8444834799999998
100
AcDbText
  0
TEXT
  5
1D1
330
36
100
AcDbEntity
  8
0
  6
Continuous
 62
     7
100
AcDbText
 10
-362.143
 20
224.9
 30
0.0
 40
3.2
  1
*
100
AcDbText
  0
TEXT
  5
1D2
330
36
100
AcDbEntity
  8
0
  6
Continuous
 62
     7
100
AcDbText
 10
-362.143
 20
216.9
 30
0.0
 40
3.2
  1
*
100
AcDbText
  0
DIMENSION
  5
1D3
330
36
100
AcDbEntity
  8
0
  6
Continuous
 62
     7
100
AcDbDimension
  2
*D2
 10
-137.12428
 20
120.87044
 30
0.0
 11
-137.12428
 21
128.37044
 31
0.0
 71
     5
 42
-1.0
  3
DIMSTYLE
100
AcDbAlignedDimension
 13
-127.12429
 23
135.87044
 33
0.0
 14
-124.04095
 24
120.87044
 34
0.0
 50
90.0
100
AcDbRotatedDimension
1001
ACAD
1000
DSTYLE
1002
{
1070
    77
1070
     1
1070
   172
1070
     1
1070
    75
1070
     1
1002
}
  0
DIMENSION
  5
1D4
330
36
100
AcDbEntity
  8
0
  6
Continuous
 62
     7
100
AcDbDimension
  2
*D3
 10
-137.12428
 20
90.87043800000001
 30
0.0
 11
-137.12428
 21
105.87044
 31
0.0
 71
     5
 42
-1.0
  3
DIMSTYLE
100
AcDbAlignedDimension
 13
-124.04095
 23
120.87044
 33
0.0
 14
-97.04095500000001
 24
90.87043800000001
 34
0.0
 50
90.0
100
AcDbRotatedDimension
1001
ACAD
1000
DSTYLE
1002
{
1070
     6
1000
_NONE
1070
    77
1070
     1
1070
   172
1070
     1
1070
    75
1070
     1
1002
}
  0
DIMENSION
  5
1D5
330
36
100
AcDbEntity
  8
0
  6
Continuous
 62
     7
100
AcDbDimension
  2
*D4
 10
-137.12428
 20
60.870438
 30
0.0
 11
-137.12428
 21
75.870438
 31
0.0
 71
     5
 42
-1.0
  3
DIMSTYLE
100
AcDbAlignedDimension
 13
-97.04095500000001
 23
90.87043800000001
 33
0.0
 14
-124.04095
 24
60.870438
 34
0.0
 50
90.0
100
AcDbRotatedDimension
1001
ACAD
1000
DSTYLE
1002
{
1070
     6
1000
_NONE
1070
    77
1070
     1
1070
   172
1070
     1
1070
    75
1070
     1
1002
}
  0
DIMENSION
  5
1D6
330
36
100
AcDbEntity
  8
0
  6
Continuous
 62
     7
100
AcDbDimension
  2
*D5
 10
-137.12428
 20
30.870438
 30
0.0
 11
-137.12428
 21
45.870438
 31
0.0
 71
     5
 42
-1.0
  3
DIMSTYLE
100
AcDbAlignedDimension
 13
-124.04095
 23
60.870438
 33
0.0
 14
-97.04095500000001
 24
30.870438
 34
0.0
 50
90.0
100
AcDbRotatedDimension
1001
ACAD
1000
DSTYLE
1002
{
1070
     6
1000
_NONE
1070
    77
1070
     1
1070
   172
1070
     1
1070
    75
1070
     1
1002
}
  0
DIMENSION
  5
1D7
330
36
100
AcDbEntity
  8
0
  6
Continuous
 62
     7
100
AcDbDimension
  2
*D6
 10
-137.12428
 20
0.87044305
 30
0.0
 11
-137.12428
 21
15.87044
 31
0.0
 71
     5
 42
-1.0
  3
DIMSTYLE
100
AcDbAlignedDimension
 13
-97.04095500000001
 23
30.870438
 33
0.0
 14
-124.04095
 24
0.87044305
 34
0.0
 50
90.0
100
AcDbRotatedDimension
1001
ACAD
1000
DSTYLE
1002
{
1070
     6
1000
_NONE
1070
    77
1070
     1
1070
   172
1070
     1
1070
    75
1070
     1
1002
}
  0
DIMENSION
  5
1D8
330
36
100
AcDbEntity
  8
0
  6
Continuous
 62
     7
100
AcDbDimension
  2
*D7
 10
-137.12428
 20
-29.129557
 30
0.0
 11
-137.12428
 21
-14.129557
 31
0.0
 71
     5
 42
-1.0
  3
DIMSTYLE
100
AcDbAlignedDimension
 13
-124.04095
 23
0.87044305
 33
0.0
 14
-97.04095500000001
 24
-29.129557
 34
0.0
 50
90.0
100
AcDbRotatedDimension
1001
ACAD
1000
DSTYLE
1002
{
1070
     6
1000
_NONE
1070
    77
1070
     1
1070
   172
1070
     1
1070
    75
1070
     1
1002
}
  0
DIMENSION
  5
1D9
330
36
100
AcDbEntity
  8
0
  6
Continuous
 62
     7
100
AcDbDimension
  2
*D8
 10
-137.12428
 20
-59.129559
 30
0.0
 11
-137.12428
 21
-44.129559
 31
0.0
 71
     5
 42
-1.0
  3
DIMSTYLE
100
AcDbAlignedDimension
 13
-97.04095500000001
 23
-29.129557
 33
0.0
 14
-124.04095
 24
-59.129559
 34
0.0
 50
90.0
100
AcDbRotatedDimension
1001
ACAD
1000
DSTYLE
1002
{
1070
     6
1000
_NONE
1070
    77
1070
     1
1070
   172
1070
     1
1070
    75
1070
     1
1002
}
  0
DIMENSION
  5
1DA
330
36
100
AcDbEntity
  8
0
  6
Continuous
 62
     7
100
AcDbDimension
  2
*D9
 10
-137.12428
 20
-74.12955500000001
 30
0.0
 11
-137.12428
 21
-66.62955500000001
 31
0.0
 71
     5
 42
-1.0
  3
DIMSTYLE
100
AcDbAlignedDimension
 13
-124.04095
 23
-59.129559
 33
0.0
 14
-127.12429
 24
-74.12955500000001
 34
0.0
 50
90.0
100
AcDbRotatedDimension
1001
ACAD
1000
DSTYLE
1002
{
1070
     6
1000
_NONE
1070
    77
1070
     1
1070
   172
1070
     1
1070
    75
1070
     1
1070
    76
1070
     1
1002
}
  0
DIMENSION
  5
1DB
330
36
100
AcDbEntity
  8
0
  6
Continuous
 62
     7
100
AcDbDimension
  2
*D10
 10
-147.12428
 20
135.87044
 30
0.0
 11
-147.12428
 21
30.870441
 31
0.0
 71
     5
 42
-1.0
  3
DIMSTYLE
100
AcDbAlignedDimension
 13
-127.12429
 23
-74.12955500000001
 33
0.0
 14
-127.12429
 24
135.87044
 34
0.0
 50
90.0
100
AcDbRotatedDimension
1001
ACAD
1000
DSTYLE
1002
{
1070
    77
1070
     1
1070
   172
1070
     1
1002
}
  0
DIMENSION
  5
1DC
330
36
100
AcDbEntity
  8
0
  6
Continuous
 62
     7
100
AcDbDimension
  2
*D11
 10
-109.12429
 20
-94.129555
 30
0.0
 11
-118.12429
 21
-94.129555
 31
0.0
 71
     5
 42
-1.0
  3
DIMSTYLE
100
AcDbAlignedDimension
 13
-127.12429
 23
-74.12955500000001
 33
0.0
 14
-109.12429
 24
-74.046227
 34
0.0
100
AcDbRotatedDimension
1001
ACAD
1000
DSTYLE
1002
{
1070
    77
1070
     1
1070
   172
1070
     1
1002
}
  0
DIMENSION
  5
1DD
330
36
100
AcDbEntity
  8
0
  6
Continuous
 62
     7
100
AcDbDimension
  2
*D12
 10
-82.12429
 20
-94.129555
 30
0.0
 11
-95.62428999999999
 21
-94.129555
 31
0.0
 71
     5
 42
-1.0
  3
DIMSTYLE
100
AcDbAlignedDimension
 13
-109.12429
 23
-74.046227
 33
0.0
 14
-82.12429
 24
-44.04622299999999
 34
0.0
100
AcDbRotatedDimension
1001
ACAD
1000
DSTYLE
1002
{
1070
     6
1000
_NONE
1070
    77
1070
     1
1070
   172
1070
     1
1070
    75
1070
     1
1002
}
  0
DIMENSION
  5
1DE
330
36
100
AcDbEntity
  8
0
  6
Continuous
 62
     7
100
AcDbDimension
  2
*D13
 10
-42.12429
 20
-94.129555
 30
0.0
 11
-62.12429
 21
-94.129555
 31
0.0
 71
     5
 42
-1.0
  3
DIMSTYLE
100
AcDbAlignedDimension
 13
-82.12429
 23
-44.04622299999999
 33
0.0
 14
-42.12429
 24
-84.129555
 34
0.0
100
AcDbRotatedDimension
1001
ACAD
1000
DSTYLE
1002
{
1070
     6
1000
_NONE
1070
    77
1070
     1
1070
   172
1070
     1
1070
    75
1070
     1
1002
}
  0
DIMENSION
  5
1DF
330
36
100
AcDbEntity
  8
0
  6
Continuous
 62
     7
100
AcDbDimension
  2
*D14
 10
-42.12429
 20
150.87044
 30
0.0
 11
-84.62429
 21
150.87044
 31
0.0
 71
     5
 42
-1.0
  3
DIMSTYLE
100
AcDbAlignedDimension
 13
-127.12429
 23
135.87044
 33
0.0
 14
-42.12429
 24
145.87044
 34
0.0
100
AcDbRotatedDimension
1001
ACAD
1000
DSTYLE
1002
{
1070
    77
1070
     1
1070
   172
1070
     1
1002
}
  0
DIMENSION
  5
1E0
330
36
100
AcDbEntity
  8
0
  6
Continuous
 62
     7
100
AcDbDimension
  2
*D15
 10
37.87571
 20
150.87044
 30
0.0
 11
-2.124290499999999
 21
150.87044
 31
0.0
 71
     5
 42
-1.0
  3
DIMSTYLE
100
AcDbAlignedDimension
 13
-42.12429
 23
145.87044
 33
0.0
 14
37.87571
 24
135.87044
 34
0.0
100
AcDbRotatedDimension
1001
ACAD
1000
DSTYLE
1002
{
1070
     6
1000
_NONE
1070
    77
1070
     1
1070
   172
1070
     1
1070
    75
1070
     1
1002
}
  0
DIMENSION
  5
1E1
330
36
100
AcDbEntity
  8
0
  6
Continuous
 62
     7
100
AcDbDimension
  2
*D16
 10
37.87571
 20
160.87044
 30
0.0
 11
-44.62429
 21
160.87044
 31
0.0
 71
     5
 42
-1.0
  3
DIMSTYLE
100
AcDbAlignedDimension
 13
-127.12429
 23
135.87044
 33
0.0
 14
37.87571
 24
135.87044
 34
0.0
100
AcDbRotatedDimension
1001
ACAD
1000
DSTYLE
1002
{
1070
    77
1070
     1
1070
   172
1070
     1
1002
}
  0
DIMENSION
  5
1E2
330
36
100
AcDbEntity
  8
0
  6
Continuous
 62
     7
100
AcDbDimension
  2
*D17
 10
-137.12428
 20
229.03561
 30
0.0
 11
-137.12428
 21
232.03561
 31
0.0
 71
     5
 42
-1.0
  3
DIMSTYLE
100
AcDbAlignedDimension
 13
-127.12429
 23
235.03561
 33
0.0
 14
-127.12429
 24
229.03561
 34
0.0
 50
90.0
100
AcDbRotatedDimension
1001
ACAD
1000
DSTYLE
1002
{
1070
    77
1070
     1
1070
   172
1070
     1
1002
}
  0
DIMENSION
  5
1E3
330
36
100
AcDbEntity
  8
0
  6
Continuous
 62
     7
100
AcDbDimension
  2
*D18
 10
-147.12428
 20
205.03561
 30
0.0
 11
-147.12428
 21
220.03561
 31
0.0
 71
     5
 42
-1.0
  3
DIMSTYLE
100
AcDbAlignedDimension
 13
-127.12429
 23
235.03561
 33
0.0
 14
-63.79095799999999
 24
205.03561
 34
0.0
 50
90.0
100
AcDbRotatedDimension
1001
ACAD
1000
DSTYLE
1002
{
1070
    77
1070
     1
1070
   172
1070
     1
1002
}
  0
DIMENSION
  5
1E4
330
36
100
AcDbEntity
  8
0
  6
Continuous
 62
     7
100
AcDbDimension
  2
*D19
 10
16.631338
 20
190.03561
 30
0.0
 11
16.631338
 21
209.75009
 31
0.0
 71
     5
 42
-1.0
  3
DIMSTYLE
100
AcDbAlignedDimension
 13
-18.12429
 23
220.03561
 33
0.0
 14
37.87571
 24
190.03561
 34
0.0
 50
90.0
100
AcDbRotatedDimension
1001
ACAD
1000
DSTYLE
1002
{
1070
    77
1070
     1
1070
   172
1070
     1
1070
    76
1070
     1
1002
}
  0
POLYLINE
  5
1E5
330
36
100
AcDbEntity
  8
0
  6
Continuous
 62
     7
100
AcDb2dPolyline
 66
     1
 10
0.0
 20
0.0
 30
0.0
  0
VERTEX
  5
1E6
330
1E5
100
AcDbEntity
  8
0
  6
Continuous
 62
     7
100
AcDbVertex
100
AcDb2dVertex
 10
-114.75342
 20
126.90164
 30
0.0
  0
VERTEX
  5
1E7
330
1E5
100
AcDbEntity
  8
0
  6
Continuous
 62
     7
100
AcDbVertex
100
AcDb2dVertex
 10
-137.1243
 20
150.87044
 30
0.0
  0
VERTEX
  5
1E8
330
1E5
100
AcDbEntity
  8
0
  6
Continuous
 62
     7
100
AcDbVertex
100
AcDb2dVertex
 10
-184.05893
 20
150.87044
 30
0.0
  0
SEQEND
  5
1E9
330
1E5
100
AcDbEntity
  8
0
  6
Continuous
 62
     7
  0
TEXT
  5
1EA
330
36
100
AcDbEntity
  8
0
  6
Continuous
 62
     7
100
AcDbText
 10
-184.0589399999999
 20
151.67044
 30
0.0
 40
3.2
  1
７－%%C８．５×%%C１６．５サラ
 41
0.84326962
100
AcDbText
  0
DIMENSION
  5
1EB
330
36
100
AcDbEntity
  8
0
  6
Continuous
 62
     7
100
AcDbDimension
  2
*D20
 10
-103.49517
 20
114.83923
 30
0.0
 11
-162.11594
 21
150.87044
 31
0.0
 70
     3
 71
     5
 42
-1.0
  3
DIMSTYLE
100
AcDbDiametricDimension
 15
-114.75342
 25
126.90164
 35
0.0
 40
0.0
1001
ACAD
1000
DSTYLE
1002
{
1070
    77
1070
     1
1070
   172
1070
     1
1002
}
  0
POLYLINE
  5
1EC
330
36
100
AcDbEntity
  8
0
  6
Continuous
 62
     7
100
AcDb2dPolyline
 66
     1
 10
0.0
 20
0.0
 30
0.0
  0
VERTEX
  5
1ED
330
1EC
100
AcDbEntity
  8
0
  6
Continuous
 62
     7
100
AcDbVertex
100
AcDb2dVertex
 10
-49.733944
 20
192.10915
 30
0.0
  0
VERTEX
  5
1EE
330
1EC
100
AcDbEntity
  8
0
  6
Continuous
 62
     7
100
AcDbVertex
100
AcDb2dVertex
 10
-52.69749499999999
 20
187.075
 30
0.0
  0
VERTEX
  5
1EF
330
1EC
100
AcDbEntity
  8
0
  6
Continuous
 62
     7
100
AcDbVertex
100
AcDb2dVertex
 10
-66.468002
 20
187.075
 30
0.0
  0
SEQEND
  5
1F0
330
1EC
100
AcDbEntity
  8
0
  6
Continuous
 62
     7
  0
TEXT
  5
1F1
330
36
100
AcDbEntity
  8
0
  6
Continuous
 62
     7
100
AcDbText
 10
-66.468
 20
187.875
 30
0.0
 40
3.2
  1
%%C30
 41
0.98864326
100
AcDbText
  0
INSERT
  5
1F2
330
36
100
AcDbEntity
  8
0
  6
Continuous
 62
     7
100
AcDbBlockReference
  2
*D21
 10
0.0
 20
0.0
 30
0.0
  0
ENDSEC
  0
SECTION
  2
OBJECTS
  0
DICTIONARY
  5
C
330
0
100
AcDbDictionary
281
     1
  3
ACAD_COLOR
350
2F
  3
ACAD_GROUP
350
D
  3
ACAD_LAYOUT
350
2E
  3
ACAD_MATERIAL
350
10
  3
ACAD_MLINESTYLE
350
2B
  3
ACAD_PLOTSETTINGS
350
2D
  3
ACAD_PLOTSTYLENAME
350
E
  3
ACAD_TABLESTYLE
350
30
  3
ACAD_VISUALSTYLE
350
14
  3
AcDbVariableDictionary
350
296
  3
AcmDictionary
350
24D
  3
AMG
350
1F4
  3
AMGSNAPSETTINGS
350
28E
  0
DICTIONARY
  5
2F
102
{ACAD_REACTORS
330
C
102
}
330
C
100
AcDbDictionary
281
     1
  0
DICTIONARY
  5
D
102
{ACAD_REACTORS
330
C
102
}
330
C
100
AcDbDictionary
281
     1
  0
DICTIONARY
  5
2E
102
{ACAD_REACTORS
330
C
102
}
330
C
100
AcDbDictionary
281
     1
  3
Model
350
39
  3
レイアウト1
350
35
  0
DICTIONARY
  5
10
102
{ACAD_REACTORS
330
C
102
}
330
C
100
AcDbDictionary
281
     1
  3
ByBlock
350
12
  3
ByLayer
350
11
  3
Global
350
13
  0
DICTIONARY
  5
2B
102
{ACAD_REACTORS
330
C
102
}
330
C
100
AcDbDictionary
281
     1
  3
Standard
350
2C
  0
DICTIONARY
  5
2D
102
{ACAD_REACTORS
330
C
102
}
330
C
100
AcDbDictionary
281
     1
  0
ACDBDICTIONARYWDFLT
  5
E
102
{ACAD_REACTORS
330
C
102
}
330
C
100
AcDbDictionary
281
     1
  3
Normal
350
F
100
AcDbDictionaryWithDefault
340
F
  0
DICTIONARY
  5
30
102
{ACAD_REACTORS
330
C
102
}
330
C
100
AcDbDictionary
281
     1
  3
Standard
350
31
  0
DICTIONARY
  5
14
102
{ACAD_REACTORS
330
C
102
}
330
C
100
AcDbDictionary
281
     1
  3
2dWireframe
350
1A
  3
3D Hidden
350
1C
  3
3dWireframe
350
1B
  3
Basic
350
19
  3
Brighten
350
20
  3
ColorChange
350
24
  3
Conceptual
350
1D
  3
Dim
350
1F
  3
Facepattern
350
23
  3
Flat
350
15
  3
FlatWithEdges
350
16
  3
Gouraud
350
17
  3
GouraudWithEdges
350
18
  3
Linepattern
350
22
  3
Realistic
350
1E
  3
Thicken
350
21
  0
DICTIONARY
  5
296
102
{ACAD_REACTORS
330
C
102
}
330
C
100
AcDbDictionary
281
     1
  3
CTABLESTYLE
350
297
  0
DICTIONARY
  5
24D
102
{ACAD_REACTORS
330
C
102
}
330
C
100
AcDbDictionary
281
     1
  3
AcmStdDictionary
350
258
  3
AMDTSECTSYM_ARROWCOLOR
350
279
  0
DICTIONARY
  5
1F4
102
{ACAD_REACTORS
330
C
102
}
330
C
100
AcDbDictionary
281
     1
  0
DICTIONARY
  5
28E
102
{ACAD_REACTORS
330
C
102
}
330
C
100
AcDbDictionary
281
     1
  0
LAYOUT
  5
39
102
{ACAD_REACTORS
330
2E
102
}
330
2E
100
AcDbPlotSettings
  1

  2
\\CAD-SRV01\FX DocuColor 1250 PLW
  4

  6

 40
0.0
 41
0.0
 42
0.0
 43
0.0
 44
0.0
 45
0.0
 46
0.0
 47
0.0
 48
0.0
 49
0.0
140
0.0
141
0.0
142
1.0
143
1.0
 70
  1712
 72
     0
 73
     0
 74
     0
  7

 75
     0
147
1.0
 76
     0
 77
     2
 78
   300
148
0.0
149
0.0
100
AcDbLayout
  1
Model
 70
     1
 71
     0
 10
0.0
 20
0.0
 11
12.0
 21
9.0
 12
0.0
 22
0.0
 32
0.0
 14
0.0
 24
0.0
 34
0.0
 15
0.0
 25
0.0
 35
0.0
146
0.0
 13
0.0
 23
0.0
 33
0.0
 16
1.0
 26
0.0
 36
0.0
 17
0.0
 27
1.0
 37
0.0
 76
     0
330
36
331
43
  0
LAYOUT
  5
35
102
{ACAD_REACTORS
330
2E
102
}
330
2E
100
AcDbPlotSettings
  1

  2
\\CAD-SRV01\FX DocuColor 1250 PLW
  4

  6

 40
0.0
 41
0.0
 42
0.0
 43
0.0
 44
0.0
 45
0.0
 46
0.0
 47
0.0
 48
0.0
 49
0.0
140
0.0
141
0.0
142
1.0
143
1.0
 70
   688
 72
     0
 73
     0
 74
     5
  7

 75
    16
147
1.0
 76
     0
 77
     2
 78
   300
148
0.0
149
0.0
100
AcDbLayout
  1
レイアウト1
 70
     1
 71
     1
 10
-385.0
 20
-100.0
 11
170.0
 21
296.0
 12
0.0
 22
0.0
 32
0.0
 14
1.000000000000000E+20
 24
1.000000000000000E+20
 34
1.000000000000000E+20
 15
-1.000000000000000E+20
 25
-1.000000000000000E+20
 35
-1.000000000000000E+20
146
0.0
 13
0.0
 23
0.0
 33
0.0
 16
1.0
 26
0.0
 36
0.0
 17
0.0
 27
1.0
 37
0.0
 76
     0
330
32
  0
MATERIAL
  5
12
102
{ACAD_XDICTIONARY
360
2D2
102
}
102
{ACAD_REACTORS
330
10
102
}
330
10
100
AcDbMaterial
  1
ByBlock
  0
MATERIAL
  5
11
102
{ACAD_XDICTIONARY
360
2D0
102
}
102
{ACAD_REACTORS
330
10
102
}
330
10
100
AcDbMaterial
  1
ByLayer
  0
MATERIAL
  5
13
102
{ACAD_XDICTIONARY
360
2D4
102
}
102
{ACAD_REACTORS
330
10
102
}
330
10
100
AcDbMaterial
  1
Global
  0
MLINESTYLE
  5
2C
102
{ACAD_REACTORS
330
2B
102
}
330
2B
100
AcDbMlineStyle
  2
STANDARD
 70
     0
  3

 62
   256
 51
90.0
 52
90.0
 71
     2
 49
0.5
 62
   256
  6
BYLAYER
 49
-0.5
 62
   256
  6
BYLAYER
  0
ACDBPLACEHOLDER
  5
F
102
{ACAD_REACTORS
330
E
102
}
330
E
  0
TABLESTYLE
  5
31
102
{ACAD_XDICTIONARY
360
2D6
102
}
102
{ACAD_REACTORS
330
30
102
}
330
30
100
AcDbTableStyle
  3
Standard
 70
     0
 71
     0
 40
0.06
 41
0.06
280
     0
281
     0
  7
STANDARD
140
0.18
170
     2
 62
     0
 63
     7
283
     0
274
    -2
284
     1
 64
     0
275
    -2
285
     1
 65
     0
276
    -2
286
     1
 66
     0
277
    -2
287
     1
 67
     0
278
    -2
288
     1
 68
     0
279
    -2
289
     1
 69
     0
  7
STANDARD
140
0.25
170
     5
 62
     0
 63
     7
283
     0
274
    -2
284
     1
 64
     0
275
    -2
285
     1
 65
     0
276
    -2
286
     1
 66
     0
277
    -2
287
     1
 67
     0
278
    -2
288
     1
 68
     0
279
    -2
289
     1
 69
     0
  7
STANDARD
140
0.18
170
     5
 62
     0
 63
     7
283
     0
274
    -2
284
     1
 64
     0
275
    -2
285
     1
 65
     0
276
    -2
286
     1
 66
     0
277
    -2
287
     1
 67
     0
278
    -2
288
     1
 68
     0
279
    -2
289
     1
 69
     0
  0
VISUALSTYLE
  5
1A
102
{ACAD_REACTORS
330
14
102
}
330
14
100
AcDbVisualStyle
  2
2dWireframe
 70
     4
 71
     0
 72
     2
 73
     0
 90
        0
 40
-0.6
 41
-30.0
 62
     5
 63
     7
421
 16777215
 74
     1
 91
        4
 64
     7
 65
   257
 75
     1
175
     1
 42
1.0
 92
        0
 66
   257
 43
1.0
 76
     1
 77
     6
 78
     2
 67
     7
 79
     5
170
     0
171
     0
290
     0
174
     0
 93
        1
 44
0.0
173
     0
291
     0
 45
0.0
1001
ACAD
1000
AcDbSavedByObjectVersion
1070
     0
  0
VISUALSTYLE
  5
1C
102
{ACAD_REACTORS
330
14
102
}
330
14
100
AcDbVisualStyle
  2
3D Hidden
 70
     6
 71
     1
 72
     2
 73
     2
 90
        0
 40
-0.6
 41
-30.0
 62
     5
 63
     7
421
 16777215
 74
     2
 91
        2
 64
     7
 65
   257
 75
     2
175
     1
 42
40.0
 92
        0
 66
   257
 43
1.0
 76
     1
 77
     6
 78
     2
 67
     7
 79
     3
170
     0
171
     0
290
     0
174
     0
 93
        1
 44
0.0
173
     0
291
     0
 45
0.0
1001
ACAD
1000
AcDbSavedByObjectVersion
1070
     0
  0
VISUALSTYLE
  5
1B
102
{ACAD_REACTORS
330
14
102
}
330
14
100
AcDbVisualStyle
  2
3dWireframe
 70
     5
 71
     0
 72
     2
 73
     0
 90
        0
 40
-0.6
 41
-30.0
 62
     5
 63
     7
421
 16777215
 74
     1
 91
        4
 64
     7
 65
   257
 75
     1
175
     1
 42
1.0
 92
        0
 66
   257
 43
1.0
 76
     1
 77
     6
 78
     2
 67
     7
 79
     5
170
     0
171
     0
290
     0
174
     0
 93
        1
 44
0.0
173
     0
291
     0
 45
0.0
1001
ACAD
1000
AcDbSavedByObjectVersion
1070
     0
  0
VISUALSTYLE
  5
19
102
{ACAD_REACTORS
330
14
102
}
330
14
100
AcDbVisualStyle
  2
Basic
 70
     7
 71
     1
 72
     0
 73
     1
 90
        0
 40
-0.6
 41
-30.0
 62
     5
 63
     7
421
 16777215
 74
     0
 91
        4
 64
     7
 65
   257
 75
     1
175
     1
 42
1.0
 92
        8
 66
     7
 43
1.0
 76
     1
 77
     6
 78
     2
 67
     7
 79
     5
170
     0
171
     0
290
     0
174
     0
 93
        1
 44
0.0
173
     0
291
     1
 45
0.0
1001
ACAD
1000
AcDbSavedByObjectVersion
1070
     0
  0
VISUALSTYLE
  5
20
102
{ACAD_REACTORS
330
14
102
}
330
14
100
AcDbVisualStyle
  2
Brighten
 70
    12
 71
     2
 72
     2
 73
     0
 90
        0
 40
-0.6
 41
-30.0
 62
     5
 63
     7
421
 16777215
 74
     1
 91
        4
 64
     7
 65
   257
 75
     1
175
     1
 42
1.0
 92
        8
 66
     7
 43
1.0
 76
     1
 77
     6
 78
     2
 67
     7
 79
     5
170
     0
171
     0
290
     0
174
     0
 93
        1
 44
50.0
173
     0
291
     1
 45
0.0
1001
ACAD
1000
AcDbSavedByObjectVersion
1070
     0
  0
VISUALSTYLE
  5
24
102
{ACAD_REACTORS
330
14
102
}
330
14
100
AcDbVisualStyle
  2
ColorChange
 70
    16
 71
     2
 72
     2
 73
     3
 90
        0
 40
-0.6
 41
-30.0
 62
     5
 63
     8
421
  8421504
 74
     1
 91
        4
 64
     7
 65
   257
 75
     1
175
     1
 42
1.0
 92
        8
 66
     8
424
  8421504
 43
1.0
 76
     1
 77
     6
 78
     2
 67
     7
 79
     5
170
     0
171
     0
290
     0
174
     0
 93
        1
 44
0.0
173
     0
291
     1
 45
0.0
1001
ACAD
1000
AcDbSavedByObjectVersion
1070
     0
  0
VISUALSTYLE
  5
1D
102
{ACAD_REACTORS
330
14
102
}
330
14
100
AcDbVisualStyle
  2
Conceptual
 70
     9
 71
     3
 72
     2
 73
     0
 90
        0
 40
-0.6
 41
-30.0
 62
     5
 63
     7
421
 16777215
 74
     2
 91
        2
 64
     7
 65
   257
 75
     1
175
     1
 42
40.0
 92
        8
 66
     7
 43
1.0
 76
     1
 77
     6
 78
     2
 67
     7
 79
     3
170
     0
171
     0
290
     0
174
     0
 93
        1
 44
0.0
173
     0
291
     0
 45
0.0
1001
ACAD
1000
AcDbSavedByObjectVersion
1070
     0
  0
VISUALSTYLE
  5
1F
102
{ACAD_REACTORS
330
14
102
}
330
14
100
AcDbVisualStyle
  2
Dim
 70
    11
 71
     2
 72
     2
 73
     0
 90
        0
 40
-0.6
 41
-30.0
 62
     5
 63
     7
421
 16777215
 74
     1
 91
        4
 64
     7
 65
   257
 75
     1
175
     1
 42
1.0
 92
        8
 66
     7
 43
1.0
 76
     1
 77
     6
 78
     2
 67
     7
 79
     5
170
     0
171
     0
290
     0
174
     0
 93
        1
 44
-50.0
173
     0
291
     1
 45
0.0
1001
ACAD
1000
AcDbSavedByObjectVersion
1070
     0
  0
VISUALSTYLE
  5
23
102
{ACAD_REACTORS
330
14
102
}
330
14
100
AcDbVisualStyle
  2
Facepattern
 70
    15
 71
     2
 72
     2
 73
     0
 90
        0
 40
-0.6
 41
-30.0
 62
     5
 63
     7
421
 16777215
 74
     1
 91
        4
 64
     7
 65
   257
 75
     1
175
     1
 42
1.0
 92
        8
 66
     7
 43
1.0
 76
     1
 77
     6
 78
     2
 67
     7
 79
     5
170
     0
171
     0
290
     0
174
     0
 93
        1
 44
0.0
173
     0
291
     1
 45
0.0
1001
ACAD
1000
AcDbSavedByObjectVersion
1070
     0
  0
VISUALSTYLE
  5
15
102
{ACAD_REACTORS
330
14
102
}
330
14
100
AcDbVisualStyle
  2
Flat
 70
     0
 71
     2
 72
     1
 73
     1
 90
        2
 40
-0.6
 41
30.0
 62
     5
 63
     7
421
 16777215
 74
     0
 91
        4
 64
     7
 65
   257
 75
     1
175
     1
 42
1.0
 92
        8
 66
     7
 43
1.0
 76
     1
 77
     6
 78
     2
 67
     7
 79
     5
170
     0
171
     0
290
     0
174
     0
 93
       13
 44
0.0
173
     0
291
     1
 45
0.0
1001
ACAD
1000
AcDbSavedByObjectVersion
1070
     0
  0
VISUALSTYLE
  5
16
102
{ACAD_REACTORS
330
14
102
}
330
14
100
AcDbVisualStyle
  2
FlatWithEdges
 70
     1
 71
     2
 72
     1
 73
     1
 90
        2
 40
-0.6
 41
30.0
 62
     5
 63
     7
421
 16777215
 74
     1
 91
        4
 64
     7
 65
   257
 75
     1
175
     1
 42
1.0
 92
        0
 66
   257
 43
1.0
 76
     1
 77
     6
 78
     2
 67
     7
 79
     5
170
     0
171
     0
290
     0
174
     0
 93
       13
 44
0.0
173
     0
291
     1
 45
0.0
1001
ACAD
1000
AcDbSavedByObjectVersion
1070
     0
  0
VISUALSTYLE
  5
17
102
{ACAD_REACTORS
330
14
102
}
330
14
100
AcDbVisualStyle
  2
Gouraud
 70
     2
 71
     2
 72
     2
 73
     1
 90
        2
 40
-0.6
 41
30.0
 62
     5
 63
     7
421
 16777215
 74
     0
 91
        4
 64
     7
 65
   257
 75
     1
175
     1
 42
1.0
 92
        0
 66
     7
 43
1.0
 76
     1
 77
     6
 78
     2
 67
     7
 79
     5
170
     0
171
     0
290
     0
174
     0
 93
       13
 44
0.0
173
     0
291
     1
 45
0.0
1001
ACAD
1000
AcDbSavedByObjectVersion
1070
     0
  0
VISUALSTYLE
  5
18
102
{ACAD_REACTORS
330
14
102
}
330
14
100
AcDbVisualStyle
  2
GouraudWithEdges
 70
     3
 71
     2
 72
     2
 73
     1
 90
        2
 40
-0.6
 41
30.0
 62
     5
 63
     7
421
 16777215
 74
     1
 91
        4
 64
     7
 65
   257
 75
     1
175
     1
 42
1.0
 92
        0
 66
   257
 43
1.0
 76
     1
 77
     6
 78
     2
 67
     7
 79
     5
170
     0
171
     0
290
     0
174
     0
 93
       13
 44
0.0
173
     0
291
     1
 45
0.0
1001
ACAD
1000
AcDbSavedByObjectVersion
1070
     0
  0
VISUALSTYLE
  5
22
102
{ACAD_REACTORS
330
14
102
}
330
14
100
AcDbVisualStyle
  2
Linepattern
 70
    14
 71
     2
 72
     2
 73
     0
 90
        0
 40
-0.6
 41
-30.0
 62
     5
 63
     7
421
 16777215
 74
     1
 91
        4
 64
     7
 65
   257
 75
     7
175
     7
 42
1.0
 92
        8
 66
     7
 43
1.0
 76
     1
 77
     6
 78
     2
 67
     7
 79
     5
170
     0
171
     0
290
     0
174
     0
 93
        1
 44
0.0
173
     0
291
     1
 45
0.0
1001
ACAD
1000
AcDbSavedByObjectVersion
1070
     0
  0
VISUALSTYLE
  5
1E
102
{ACAD_REACTORS
330
14
102
}
330
14
100
AcDbVisualStyle
  2
Realistic
 70
     8
 71
     2
 72
     2
 73
     0
 90
        0
 40
-0.6
 41
-30.0
 62
     5
 63
     7
421
 16777215
 74
     1
 91
        0
 64
     7
 65
   257
 75
     1
175
     1
 42
1.0
 92
        8
 66
     8
424
  7895160
 43
1.0
 76
     1
 77
     6
 78
     2
 67
     7
 79
     5
170
     0
171
     0
290
     0
174
     0
 93
       13
 44
0.0
173
     0
291
     0
 45
0.0
1001
ACAD
1000
AcDbSavedByObjectVersion
1070
     0
  0
VISUALSTYLE
  5
21
102
{ACAD_REACTORS
330
14
102
}
330
14
100
AcDbVisualStyle
  2
Thicken
 70
    13
 71
     2
 72
     2
 73
     0
 90
        0
 40
-0.6
 41
-30.0
 62
     5
 63
     7
421
 16777215
 74
     1
 91
        4
 64
     7
 65
   257
 75
     1
175
     1
 42
1.0
 92
       12
 66
     7
 43
1.0
 76
     1
 77
     6
 78
     2
 67
     7
 79
     5
170
     0
171
     0
290
     0
174
     0
 93
        1
 44
0.0
173
     0
291
     1
 45
0.0
1001
ACAD
1000
AcDbSavedByObjectVersion
1070
     0
  0
DICTIONARYVAR
  5
297
102
{ACAD_REACTORS
330
296
102
}
330
296
100
DictionaryVariables
280
     0
  1
STANDARD
  0
DICTIONARY
  5
258
102
{ACAD_REACTORS
330
24D
102
}
330
24D
100
AcDbDictionary
281
     1
  0
XRECORD
  5
279
102
{ACAD_REACTORS
330
24D
102
}
330
24D
100
AcDbXrecord
280
     1
 90
-1023410169
  0
DICTIONARY
  5
2D2
330
12
100
AcDbDictionary
280
     1
281
     1
  3
ACAD_XREC_ROUNDTRIP
360
2D3
  0
DICTIONARY
  5
2D0
330
11
100
AcDbDictionary
280
     1
281
     1
  3
ACAD_XREC_ROUNDTRIP
360
2D1
  0
DICTIONARY
  5
2D4
330
13
100
AcDbDictionary
280
     1
281
     1
  3
ACAD_XREC_ROUNDTRIP
360
2D5
  0
DICTIONARY
  5
2D6
330
31
100
AcDbDictionary
280
     1
281
     1
  3
ACAD_XREC_ROUNDTRIP
360
2D7
  0
XRECORD
  5
2D3
102
{ACAD_REACTORS
330
2D2
102
}
330
2D2
100
AcDbXrecord
280
     1
102
MATERIAL
148
0.0
149
0.0
149
0.0
 93
        0
 94
       63
282
     0
 72
     1
 77
     1
171
     1
175
     1
179
     1
273
     0
  0
XRECORD
  5
2D1
102
{ACAD_REACTORS
330
2D0
102
}
330
2D0
100
AcDbXrecord
280
     1
102
MATERIAL
148
0.0
149
0.0
149
0.0
 93
        0
 94
       63
282
     0
 72
     1
 77
     1
171
     1
175
     1
179
     1
273
     0
  0
XRECORD
  5
2D5
102
{ACAD_REACTORS
330
2D4
102
}
330
2D4
100
AcDbXrecord
280
     1
102
MATERIAL
148
0.0
149
0.0
149
0.0
 93
        0
 94
       63
282
     0
 72
     1
 77
     1
171
     1
175
     1
179
     1
273
     0
  0
XRECORD
  5
2D7
102
{ACAD_REACTORS
330
2D6
102
}
330
2D6
100
AcDbXrecord
280
     1
102
ACAD_ROUNDTRIP_PRE2007_TABLESTYLE
 90
      512
 91
        0
  1

 92
      512
 93
        0
  2

 94
      512
 95
        0
  3

  0
ENDSEC
  0
EOF
