  0
SECTION
  2
HEADER
  9
$ACADVER
  1
AC1009
  9
$DWGCODEPAGE
  3
ansi_932
  9
$INSBASE
 10
0.0
 20
0.0
 30
0.0
  9
$EXTMIN
 10
-211.0
 20
-100.0
 30
0.0
  9
$EXTMAX
 10
170.0
 20
173.0
 30
0.0
  9
$LIMMIN
 10
-211.0
 20
-100.0
  9
$LIMMAX
 10
170.0
 20
173.0
  9
$ORTHOMODE
 70
     0
  9
$REGENMODE
 70
     1
  9
$FILLMODE
 70
     1
  9
$QTEXTMODE
 70
     0
  9
$MIRRTEXT
 70
     0
  9
$DRAGMODE
 70
     2
  9
$LTSCALE
 40
1.0
  9
$OSMODE
 70
  2487
  9
$ATTMODE
 70
     1
  9
$TEXTSIZE
 40
0.2
  9
$TRACEWID
 40
0.05
  9
$TEXTSTYLE
  7
STANDARD
  9
$CLAYER
  8
0
  9
$CELTYPE
  6
CONTINUOUS
  9
$CECOLOR
 62
   256
  9
$DIMSCALE
 40
1.0
  9
$DIMASZ
 40
1.0
  9
$DIMEXO
 40
2.54
  9
$DIMDLI
 40
0.38
  9
$DIMRND
 40
0.0
  9
$DIMDLE
 40
0.0
  9
$DIMEXE
 40
2.54
  9
$DIMTP
 40
0.0
  9
$DIMTM
 40
0.0
  9
$DIMTXT
 40
3.2
  9
$DIMCEN
 40
0.09
  9
$DIMTSZ
 40
0.0
  9
$DIMTOL
 70
     0
  9
$DIMLIM
 70
     0
  9
$DIMTIH
 70
     0
  9
$DIMTOH
 70
     0
  9
$DIMSE1
 70
     0
  9
$DIMSE2
 70
     0
  9
$DIMTAD
 70
     1
  9
$DIMZIN
 70
     0
  9
$DIMBLK
  1

  9
$DIMASO
 70
     1
  9
$DIMSHO
 70
     0
  9
$DIMPOST
  1

  9
$DIMAPOST
  1

  9
$DIMALT
 70
     0
  9
$DIMALTD
 70
     2
  9
$DIMALTF
 40
25.4
  9
$DIMLFAC
 40
1.0
  9
$DIMTOFL
 70
     0
  9
$DIMTVP
 40
1.0
  9
$DIMTIX
 70
     0
  9
$DIMSOXD
 70
     0
  9
$DIMSAH
 70
     1
  9
$DIMBLK1
  1

  9
$DIMBLK2
  1

  9
$DIMSTYLE
  2
DIMSTYLE
  9
$DIMCLRD
 70
     0
  9
$DIMCLRE
 70
     0
  9
$DIMCLRT
 70
     0
  9
$DIMTFAC
 40
1.0
  9
$DIMGAP
 40
1.6
  9
$LUNITS
 70
     2
  9
$LUPREC
 70
     4
  9
$SKETCHINC
 40
0.1
  9
$FILLETRAD
 40
0.0
  9
$AUNITS
 70
     0
  9
$AUPREC
 70
     0
  9
$MENU
  1
.
  9
$ELEVATION
 40
0.0
  9
$PELEVATION
 40
0.0
  9
$THICKNESS
 40
0.0
  9
$LIMCHECK
 70
     0
  9
$CHAMFERA
 40
0.0
  9
$CHAMFERB
 40
0.0
  9
$SKPOLY
 70
     0
  9
$TDCREATE
 40
2454475.452615197
  9
$TDUPDATE
 40
2459941.708388171
  9
$TDINDWG
 40
0.0050774884
  9
$TDUSRTIMER
 40
0.0050774421
  9
$USRTIMER
 70
     1
  9
$ANGBASE
 50
0.0
  9
$ANGDIR
 70
     0
  9
$PDMODE
 70
     0
  9
$PDSIZE
 40
0.0
  9
$PLINEWID
 40
0.0
  9
$COORDS
 70
     0
  9
$SPLFRAME
 70
     0
  9
$SPLINETYPE
 70
     6
  9
$SPLINESEGS
 70
     8
  9
$ATTDIA
 70
     1
  9
$ATTREQ
 70
     1
  9
$HANDLING
 70
     1
  9
$HANDSEED
  5
413
  9
$SURFTAB1
 70
     6
  9
$SURFTAB2
 70
     6
  9
$SURFTYPE
 70
     6
  9
$SURFU
 70
     6
  9
$SURFV
 70
     6
  9
$UCSNAME
  2

  9
$UCSORG
 10
0.0
 20
0.0
 30
0.0
  9
$UCSXDIR
 10
1.0
 20
0.0
 30
0.0
  9
$UCSYDIR
 10
0.0
 20
1.0
 30
0.0
  9
$PUCSNAME
  2

  9
$PUCSORG
 10
0.0
 20
0.0
 30
0.0
  9
$PUCSXDIR
 10
1.0
 20
0.0
 30
0.0
  9
$PUCSYDIR
 10
0.0
 20
1.0
 30
0.0
  9
$USERI1
 70
     0
  9
$USERI2
 70
     0
  9
$USERI3
 70
     0
  9
$USERI4
 70
     0
  9
$USERI5
 70
     0
  9
$USERR1
 40
0.0
  9
$USERR2
 40
0.0
  9
$USERR3
 40
0.0
  9
$USERR4
 40
0.0
  9
$USERR5
 40
0.0
  9
$WORLDVIEW
 70
     1
  9
$SHADEDGE
 70
     3
  9
$SHADEDIF
 70
    70
  9
$TILEMODE
 70
     1
  9
$MAXACTVP
 70
    64
  9
$PLIMCHECK
 70
     0
  9
$PEXTMIN
 10
1.000000000000000E+20
 20
1.000000000000000E+20
 30
1.000000000000000E+20
  9
$PEXTMAX
 10
-1.000000000000000E+20
 20
-1.000000000000000E+20
 30
-1.000000000000000E+20
  9
$PLIMMIN
 10
-211.0
 20
-100.0
  9
$PLIMMAX
 10
170.0
 20
173.0
  9
$UNITMODE
 70
     0
  9
$VISRETAIN
 70
     1
  9
$PLINEGEN
 70
     0
  9
$PSLTSCALE
 70
     1
  0
ENDSEC
  0
SECTION
  2
TABLES
  0
TABLE
  2
VPORT
 70
     1
  0
VPORT
  2
*ACTIVE
 70
     0
 10
0.0
 20
0.0
 11
1.0
 21
1.0
 12
-20.49999999999997
 22
36.5
 13
0.0
 23
0.0
 14
1.0
 24
1.0
 15
0.0
 25
0.0
 16
0.0
 26
0.0
 36
1.0
 17
0.0
 27
0.0
 37
0.0
 40
275.7964148527529
 41
2.073510773130545
 42
50.0
 43
0.0
 44
0.0
 50
0.0
 51
0.0
 71
     0
 72
   100
 73
     1
 74
     1
 75
     0
 76
     0
 77
     0
 78
     0
  0
ENDTAB
  0
TABLE
  2
LTYPE
 70
    19
  0
LTYPE
  2
CONTINUOUS
 70
     0
  3
Solid line
 72
    65
 73
     0
 40
0.0
  0
LTYPE
  2
DASHED
 70
     0
  3
__ __ __ __ __ __ __ __ __ __ __ __ __ __ __
 72
    65
 73
     2
 40
3.5
 49
2.0
 49
-1.5
  0
LTYPE
  2
CENTER
 70
     0
  3
____ _ ____ _ ____ _ ____ _ ____ _ ____ _ ____
 72
    65
 73
     4
 40
17.5
 49
13.0
 49
-1.5
 49
1.5
 49
-1.5
  0
LTYPE
  2
PHANTOM
 70
     0
  3
_____ _ _ _____ _ _ _____ _ _ _____ _ _ ____  
 72
    65
 73
     6
 40
15.5
 49
8.0
 49
-1.5
 49
1.5
 49
-1.5
 49
1.5
 49
-1.5
  0
LTYPE
  2
DOT
 70
     0
  3
. . . . . . . . . . . . . . . . . . . . . . . .
 72
    65
 73
     2
 40
0.25
 49
0.0
 49
-0.25
  0
LTYPE
  2
HIDDEN
 70
     0
  3
__ __ __ __ __ __ __ __ __ __ __ __ __ __ __
 72
    65
 73
     2
 40
3.5
 49
2.0
 49
-1.5
  0
LTYPE
  2
PHANTOM2
 70
     0
  3
Phantom (.5x) ___ _ _ ___ _ _ ___ _ _ ___ _ _
 72
    65
 73
     6
 40
1.25
 49
0.625
 49
-0.125
 49
0.125
 49
-0.125
 49
0.125
 49
-0.125
  0
LTYPE
  2
AM_ISO02W050
 70
     0
  3
__ __ __ __ __ __ __ __ __ __ __ __ __ __ __
 72
    65
 73
     2
 40
7.5
 49
6.0
 49
-1.5
  0
LTYPE
  2
AM_ISO08W050
 70
     0
  3
____ . ____ . ____ . ____ . ____ . ____ . ____
 72
    65
 73
     4
 40
18.0
 49
12.0
 49
-1.5
 49
3.0
 49
-1.5
  0
LTYPE
  2
AM_ISO09W050
 70
     0
  3
_____ . . _____ . . _____ . . ____ .. ____
 72
    65
 73
     6
 40
22.5
 49
12.0
 49
-1.5
 49
3.0
 49
-1.5
 49
3.0
 49
-1.5
  0
LTYPE
  2
AMCONSTR
 70
     0
  3
_______________________
 72
    65
 73
     2
 40
9999.0
 49
9999.0
 49
0.0
  0
LTYPE
  2
AM_ISO08W050X2
 70
     0
  3
__ . __ . __ . __ . __ . __
 72
    65
 73
     4
 40
9.0
 49
6.0
 49
-0.75
 49
1.5
 49
-0.75
  0
LTYPE
  2
AM_ISO02W050X2
 70
     0
  3
 _ _ _ _ _ _ _ _ _ _ _ _
 72
    65
 73
     2
 40
3.75
 49
3.0
 49
-0.75
  0
LTYPE
  2
AMZIGZAG
 70
     0
  3
/\/-/\/-/\/-/\/-/\/-/\/
 72
    65
 73
     2
 40
11.0001
 49
0.0001
 49
-11.0
  0
LTYPE
  2
CENTER2
 70
     0
  3
Center (.5x) ___ _ ___ _ ___ _ ___ _ ___ _ ___
 72
    65
 73
     4
 40
1.125
 49
0.75
 49
-0.125
 49
0.125
 49
-0.125
  0
LTYPE
  2
HIDDEN2
 70
     0
  3
Hidden (.5x) _ _ _ _ _ _ _ _ _ _ _ _ _ _ _ _ _
 72
    65
 73
     2
 40
0.1875
 49
0.125
 49
-0.0625
  0
LTYPE
  2
AMZIGZAG2
 70
     0
  3
/\/-/\/-/\/-/\/-/\/-/\/
 72
    65
 73
     2
 40
0.4401
 49
0.0001
 49
-0.4400000000000002
  0
LTYPE
  2
ACANSTGB
 70
     0
  3
__ . . __ . .
 72
    65
 73
     6
 40
0.35433070866
 49
0.15748031496
 49
-0.03937007874
 49
0.03937007874
 49
-0.03937007874
 49
0.03937007874
 49
-0.03937007874
  0
LTYPE
  2
ACANSTGL
 70
     0
  3
_ _ _ _ _
 72
    65
 73
     2
 40
0.11811023622
 49
0.07874015748
 49
-0.03937007874
  0
ENDTAB
  0
TABLE
  2
LAYER
 70
     4
  0
LAYER
  2
0
 70
     0
 62
     7
  6
CONTINUOUS
  0
LAYER
  2
1
 70
     0
 62
     7
  6
CONTINUOUS
  0
LAYER
  2
2
 70
     0
 62
     7
  6
CONTINUOUS
  0
LAYER
  2
DEFPOINTS
 70
     0
 62
     7
  6
CONTINUOUS
  0
ENDTAB
  0
TABLE
  2
STYLE
 70
     3
  0
STYLE
  2
STANDARD
 70
     0
 40
0.0
 41
1.0
 50
0.0
 71
     0
 42
0.2
  3
txt
  4
BIGFONT
  0
STYLE
  2

 70
     1
 40
0.0
 41
1.0
 50
0.0
 71
     0
 42
3.2
  3
genltshp.shx
  4

  0
STYLE
  2
ACANSTS
 70
     0
 40
1.0
 41
1.0
 50
0.0
 71
     0
 42
3.2
  3
romans.shx
  4
extfont.shx
  0
STYLE
  2
ACANSGDT
 70
     0
 40
0.0
 41
1.0
 50
0.0
 71
     0
 42
3.2
  3
amgdt.shx
  4

  0
ENDTAB
  0
TABLE
  2
VIEW
 70
     0
  0
ENDTAB
  0
TABLE
  2
UCS
 70
     0
  0
ENDTAB
  0
TABLE
  2
APPID
 70
    51
  0
APPID
  2
ACAD
 70
     0
  0
APPID
  2
MCAD_NO_VIS
 70
     0
  0
APPID
  2
ACAD_TEMP_GRAPHIC
 70
     0
  0
APPID
  2
AD_DRAW
 70
     0
  0
APPID
  2
ACATTRIBSERVICES
 70
     0
  0
APPID
  2
DESIGNERASSEMBLIES
 70
     0
  0
APPID
  2
ACADM_DIM_EDIT
 70
     0
  0
APPID
  2
AMDT_DM_ADJ
 70
     0
  0
APPID
  2
ACAD_DSTYLE_DIMBREAK
 70
     0
  0
APPID
  2
ACAD_DSTYLE_DIMJAG
 70
     0
  0
APPID
  2
ACAD_NAV_VCDISPLAY
 70
     0
  0
APPID
  2
ACAD_MLEADERVER
 70
     0
  0
APPID
  2
HC_SUPERPART
 70
     0
  0
APPID
  2
HC_SP4BLOCK
 70
     0
  0
APPID
  2
HC_XDATA_SPRING
 70
     0
  0
APPID
  2
HCCAD_FRAME
 70
     0
  0
APPID
  2
GENIUS_GENOLIS_13
 70
     0
  0
APPID
  2
GENIUS_GENOENT_13
 70
     0
  0
APPID
  2
GENIUS_GENODEF_13
 70
     0
  0
APPID
  2
GENIUS_GENOREF_13
 70
     0
  0
APPID
  2
GENIUS_GENOBJ-N-TIT_13
 70
     0
  0
APPID
  2
GENIUS_GENOBJ-N-SDF_13
 70
     0
  0
APPID
  2
GENIUS_GENOBJ-N-ZOO_13
 70
     0
  0
APPID
  2
GENIUS_GENTITLE_13
 70
     0
  0
APPID
  2
GENIUS_GENSCREG_15
 70
     0
  0
APPID
  2
GENIUS_GENSYMENT_13
 70
     0
  0
APPID
  2
GENIUS_GENSCSYM_13
 70
     0
  0
APPID
  2
GENIUS_GENOBJ-N-REV_13
 70
     0
  0
APPID
  2
GENIUS_GENOBJ-N-RSSYM_13
 70
     0
  0
APPID
  2
GENIUS_GENREV_15
 70
     0
  0
APPID
  2
HRA
 70
     0
  0
APPID
  2
HTIT
 70
     0
  0
APPID
  2
GENIUS_GENZOO_17
 70
     0
  0
APPID
  2
GENIUS_GENOBJ-N-CEN_13
 70
     0
  0
APPID
  2
GENIUS_GENCEN_19
 70
     0
  0
APPID
  2
GENIUS_GENOBJ-N-CRS_13
 70
     0
  0
APPID
  2
GENIUS_GENCRS_20
 70
     0
  0
APPID
  2
GENIUS_GENOBJ-N-CRC_13
 70
     0
  0
APPID
  2
GENIUS_GENCRC_14
 70
     0
  0
APPID
  2
GENIUS_GENFIL_13
 70
     0
  0
APPID
  2
GENIUS_GENOBJ-N-CHA_13
 70
     0
  0
APPID
  2
GENIUS_GENOBJ-N-FIL_13
 70
     0
  0
APPID
  2
GENIUS_GENHATCH_13
 70
     0
  0
APPID
  2
GENIUS_GENOBJ-N-HTC_13
 70
     0
  0
APPID
  2
GENIUS_GENDIM_13
 70
     0
  0
APPID
  2
GENIUS_GENOBJ-N-DIM_13
 70
     0
  0
APPID
  2
GENIUS_GENOBJ-N-DIMLI_13
 70
     0
  0
APPID
  2
GENIUS_GENOBJ-N-FITL_13
 70
     0
  0
APPID
  2
GENIUS_GENFITL_13
 70
     0
  0
APPID
  2
GENIUS_GENDTOL_13
 70
     0
  0
APPID
  2
GENLAYCOLOR
 70
     0
  0
ENDTAB
  0
TABLE
  2
DIMSTYLE
 70
     7
  0
DIMSTYLE
  2
DIMSTYLE
 70
     0
  3

  4

  5

  6

  7

 40
1.0
 41
1.0
 42
2.54
 43
0.38
 44
2.54
 45
0.0
 46
0.0
 47
0.0
 48
0.0
140
3.2
141
0.09
142
0.0
143
25.4
144
1.0
145
0.0
146
1.0
147
1.6
 71
     0
 72
     0
 73
     0
 74
     0
 75
     0
 76
     0
 77
     0
 78
     0
170
     0
171
     2
172
     0
173
     1
174
     0
175
     0
176
     0
177
     0
178
     0
  0
DIMSTYLE
  2
AM_ANSI
 70
     0
  3

  4
mm
  5

  6

  7

 40
1.0
 41
0.1
 42
0.05
 43
0.5
 44
0.1
 45
0.0
 46
0.0
 47
0.1
 48
0.1
140
0.12
141
0.0
142
0.0
143
25.4
144
1.0
145
0.0
146
0.71
147
0.06
 71
     0
 72
     0
 73
     1
 74
     1
 75
     0
 76
     0
 77
     0
 78
     7
170
     0
171
     2
172
     0
173
     0
174
     0
175
     0
176
   256
177
   256
178
     2
  0
DIMSTYLE
  2
AM_ANSI$3
 70
     0
  3

  4
mm
  5

  6

  7

 40
1.0
 41
0.1
 42
0.05
 43
0.5
 44
0.1
 45
0.0
 46
0.0
 47
0.1
 48
0.1
140
0.12
141
0.0
142
0.0
143
25.4
144
1.0
145
0.0
146
0.71
147
0.06
 71
     0
 72
     0
 73
     1
 74
     1
 75
     0
 76
     0
 77
     0
 78
     7
170
     0
171
     2
172
     0
173
     0
174
     0
175
     0
176
   256
177
   256
178
     2
  0
DIMSTYLE
  2
AM_ANSI$4
 70
     0
  3

  4
mm
  5

  6

  7

 40
1.0
 41
0.1
 42
0.05
 43
0.5
 44
0.1
 45
0.0
 46
0.0
 47
0.1
 48
0.1
140
0.12
141
0.0
142
0.0
143
25.4
144
1.0
145
0.0
146
0.71
147
0.06
 71
     0
 72
     0
 73
     1
 74
     1
 75
     0
 76
     0
 77
     0
 78
     7
170
     0
171
     2
172
     0
173
     0
174
     0
175
     0
176
   256
177
   256
178
     2
  0
DIMSTYLE
  2
AM_ANSI$7
 70
     0
  3

  4
mm
  5

  6

  7

 40
1.0
 41
0.1
 42
0.05
 43
0.5
 44
0.1
 45
0.0
 46
0.0
 47
0.1
 48
0.1
140
0.24
141
0.0
142
0.0
143
25.4
144
1.0
145
0.0
146
0.71
147
0.06
 71
     0
 72
     0
 73
     1
 74
     1
 75
     0
 76
     0
 77
     0
 78
     7
170
     0
171
     2
172
     0
173
     0
174
     0
175
     0
176
   256
177
   256
178
     2
  0
DIMSTYLE
  2
AM_ANSI$SF
 70
     0
  3

  4
mm
  5

  6

  7

 40
1.0
 41
0.1
 42
0.05
 43
0.5
 44
0.1
 45
0.0
 46
0.0
 47
0.1
 48
0.1
140
0.12
141
0.0
142
0.0
143
25.4
144
1.0
145
0.0
146
0.71
147
0.06
 71
     0
 72
     0
 73
     1
 74
     1
 75
     1
 76
     1
 77
     0
 78
     7
170
     0
171
     2
172
     0
173
     0
174
     0
175
     0
176
   256
177
   256
178
     2
  0
DIMSTYLE
  2
AM_ANSI$SH
 70
     0
  3

  4
mm
  5

  6
GENAXEH
  7

 40
1.0
 41
0.1
 42
0.05
 43
0.5
 44
0.1
 45
0.0
 46
0.0
 47
0.1
 48
0.1
140
0.12
141
0.0
142
0.0
143
25.4
144
1.0
145
0.0
146
0.71
147
0.06
 71
     0
 72
     0
 73
     1
 74
     1
 75
     1
 76
     1
 77
     0
 78
     7
170
     0
171
     2
172
     0
173
     1
174
     0
175
     0
176
   256
177
   256
178
     2
  0
ENDTAB
  0
ENDSEC
  0
SECTION
  2
BLOCKS
  0
BLOCK
  8
0
  2
$MODEL_SPACE
 70
     0
 10
0.0
 20
0.0
 30
0.0
  3
$MODEL_SPACE
  1

  0
ENDBLK
  5
38
  8
0
  0
BLOCK
 67
     1
  8
0
  2
$PAPER_SPACE
 70
     0
 10
0.0
 20
0.0
 30
0.0
  3
$PAPER_SPACE
  1

  0
ENDBLK
  5
34
 67
     1
  8
0
  0
BLOCK
  8
0
  2
_DOT
 70
     0
 10
0.0
 20
0.0
 30
0.0
  3
_DOT
  1

  0
POLYLINE
  5
48
  8
0
  6
BYBLOCK
 62
     0
 66
     1
 10
0.0
 20
0.0
 30
0.0
 70
     1
 40
0.4000000100000002
 41
0.4000000100000002
  0
VERTEX
  5
40E
  8
0
  6
BYBLOCK
 62
     0
 10
-0.2
 20
0.0
 30
0.0
 42
1.0
  0
VERTEX
  5
40F
  8
0
  6
BYBLOCK
 62
     0
 10
0.2
 20
0.0
 30
0.0
 42
1.0
  0
SEQEND
  5
412
  8
0
  6
BYBLOCK
 62
     0
  0
LINE
  5
4C
  8
0
  6
BYBLOCK
 62
     0
 10
-0.4000000100000002
 20
0.0
 30
0.0
 11
-3.0
 21
0.0
 31
0.0
  0
ENDBLK
  5
4D
  8
0
  0
BLOCK
  8
0
  2
_NONE
 70
     0
 10
0.0
 20
0.0
 30
0.0
  3
_NONE
  1

  0
CIRCLE
  5
50
  8
0
  6
BYBLOCK
 62
     0
 10
0.0
 20
0.0
 30
0.0
 40
0.001
  0
ENDBLK
  5
51
  8
0
  0
BLOCK
  8
0
  2
*D2
 70
     1
 10
0.0
 20
0.0
 30
0.0
  3
*D2
  1

  0
LINE
  5
54
  8
0
  6
CONTINUOUS
 62
     7
 10
29.695362
 20
144.72546
 30
0.0
 11
20.502974
 21
135.53308
 31
0.0
  0
INSERT
  5
55
  8
0
  6
CONTINUOUS
 62
     7
  2
_DOT
 10
29.695362
 20
144.72546
 30
0.0
 50
44.999982
  0
INSERT
  5
56
  8
0
  6
CONTINUOUS
 62
     7
  2
_DOT
 10
20.502974
 20
135.53308
 30
0.0
 50
224.99998
  0
TEXT
  5
57
  8
0
  6
CONTINUOUS
 62
     7
 10
-6.663398799999998
 20
119.42927
 30
0.0
 40
3.2
  1
  
 41
3.085875
  0
POINT
  5
58
  8
DEFPOINTS
  6
CONTINUOUS
 62
     7
 10
29.695362
 20
144.72546
 30
0.0
  0
POINT
  5
59
  8
DEFPOINTS
  6
CONTINUOUS
 62
     7
 10
20.502974
 20
135.53308
 30
0.0
  0
ENDBLK
  5
5A
  8
0
  0
BLOCK
  8
0
  2
*D3
 70
     1
 10
0.0
 20
0.0
 30
0.0
  3
*D3
  1

  0
LINE
  5
5D
  8
0
  6
CONTINUOUS
 62
     7
 10
103.59915
 20
143.62927
 30
0.0
 11
103.59915
 21
154.4088
 31
0.0
  0
LINE
  5
5E
  8
0
  6
CONTINUOUS
 62
     7
 10
103.59915
 20
143.62927
 30
0.0
 11
103.59915
 21
141.12927
 31
0.0
  0
INSERT
  5
5F
  8
0
  6
CONTINUOUS
 62
     7
  2
_DOT
 10
103.59915
 20
143.62927
 30
0.0
 50
90.0
  0
INSERT
  5
60
  8
0
  6
CONTINUOUS
 62
     7
  2
_DOT
 10
103.59915
 20
141.12927
 30
0.0
 50
270.0
  0
LINE
  5
61
  8
0
  6
CONTINUOUS
 62
     7
 10
91.139167
 20
141.12927
 30
0.0
 11
104.79915
 21
141.12927
 31
0.0
  0
TEXT
  5
62
  8
0
  6
CONTINUOUS
 62
     7
 10
102.79915
 20
145.72281
 30
0.0
 40
3.2
  1
2.5
 50
90.000003
 41
1.357187499999999
  0
POINT
  5
63
  8
DEFPOINTS
  6
CONTINUOUS
 62
     7
 10
88.59916700000002
 20
143.62927
 30
0.0
  0
POINT
  5
64
  8
DEFPOINTS
  6
CONTINUOUS
 62
     7
 10
88.59916700000002
 20
141.12927
 30
0.0
  0
POINT
  5
65
  8
DEFPOINTS
  6
CONTINUOUS
 62
     7
 10
103.59915
 20
141.12927
 30
0.0
  0
ENDBLK
  5
66
  8
0
  0
BLOCK
  8
0
  2
*D4
 70
     1
 10
0.0
 20
0.0
 30
0.0
  3
*D4
  1

  0
LINE
  5
69
  8
0
  6
CONTINUOUS
 62
     7
 10
103.59915
 20
141.12927
 30
0.0
 11
103.59915
 21
139.12927
 31
0.0
  0
INSERT
  5
6A
  8
0
  6
CONTINUOUS
 62
     7
  2
_DOT
 10
103.59915
 20
139.12927
 30
0.0
 50
270.0
  0
LINE
  5
6B
  8
0
  6
CONTINUOUS
 62
     7
 10
91.139167
 20
139.12927
 30
0.0
 11
104.79915
 21
139.12927
 31
0.0
  0
TEXT
  5
6C
  8
0
  6
CONTINUOUS
 62
     7
 10
102.79915
 20
138.98627
 30
0.0
 40
3.2
  1
2
 50
90.000003
  0
POINT
  5
6D
  8
DEFPOINTS
  6
CONTINUOUS
 62
     7
 10
88.59916700000002
 20
141.12927
 30
0.0
  0
POINT
  5
6E
  8
DEFPOINTS
  6
CONTINUOUS
 62
     7
 10
88.59916700000002
 20
139.12927
 30
0.0
  0
POINT
  5
6F
  8
DEFPOINTS
  6
CONTINUOUS
 62
     7
 10
103.59915
 20
139.12927
 30
0.0
  0
ENDBLK
  5
70
  8
0
  0
BLOCK
  8
0
  2
*D5
 70
     1
 10
0.0
 20
0.0
 30
0.0
  3
*D5
  1

  0
LINE
  5
73
  8
0
  6
CONTINUOUS
 62
     7
 10
103.59915
 20
136.62927
 30
0.0
 11
103.59915
 21
125.42034
 31
0.0
  0
LINE
  5
74
  8
0
  6
CONTINUOUS
 62
     7
 10
103.59915
 20
139.12927
 30
0.0
 11
103.59915
 21
136.62927
 31
0.0
  0
INSERT
  5
75
  8
0
  6
CONTINUOUS
 62
     7
  2
_DOT
 10
103.59915
 20
136.62927
 30
0.0
 50
270.0
  0
TEXT
  5
76
  8
0
  6
CONTINUOUS
 62
     7
 10
102.79915
 20
125.42034
 30
0.0
 40
3.2
  1
2.5
 50
90.000003
 41
1.357187499999999
  0
POINT
  5
77
  8
DEFPOINTS
  6
CONTINUOUS
 62
     7
 10
88.59916700000002
 20
139.12927
 30
0.0
  0
POINT
  5
78
  8
DEFPOINTS
  6
CONTINUOUS
 62
     7
 10
88.59916700000002
 20
136.62927
 30
0.0
  0
POINT
  5
79
  8
DEFPOINTS
  6
CONTINUOUS
 62
     7
 10
103.59915
 20
136.62927
 30
0.0
  0
ENDBLK
  5
7A
  8
0
  0
BLOCK
  8
0
  2
*D6
 70
     1
 10
0.0
 20
0.0
 30
0.0
  3
*D6
  1

  0
LINE
  5
7D
  8
0
  6
CONTINUOUS
 62
     7
 10
113.59915
 20
136.62927
 30
0.0
 11
113.59915
 21
143.62927
 31
0.0
  0
INSERT
  5
7E
  8
0
  6
CONTINUOUS
 62
     7
  2
_DOT
 10
113.59915
 20
136.62927
 30
0.0
 50
270.0
  0
INSERT
  5
7F
  8
0
  6
CONTINUOUS
 62
     7
  2
_DOT
 10
113.59915
 20
143.62927
 30
0.0
 50
90.0
  0
LINE
  5
80
  8
0
  6
CONTINUOUS
 62
     7
 10
91.139167
 20
136.62927
 30
0.0
 11
114.79915
 21
136.62927
 31
0.0
  0
LINE
  5
81
  8
0
  6
CONTINUOUS
 62
     7
 10
91.139167
 20
143.62927
 30
0.0
 11
114.79915
 21
143.62927
 31
0.0
  0
TEXT
  5
82
  8
0
  6
CONTINUOUS
 62
     7
 10
112.79915
 20
138.98627
 30
0.0
 40
3.2
  1
7
 50
90.000003
  0
POINT
  5
83
  8
DEFPOINTS
  6
CONTINUOUS
 62
     7
 10
88.59916700000002
 20
136.62927
 30
0.0
  0
POINT
  5
84
  8
DEFPOINTS
  6
CONTINUOUS
 62
     7
 10
88.59916700000002
 20
143.62927
 30
0.0
  0
POINT
  5
85
  8
DEFPOINTS
  6
CONTINUOUS
 62
     7
 10
113.59915
 20
143.62927
 30
0.0
  0
ENDBLK
  5
86
  8
0
  0
BLOCK
  8
0
  2
*D7
 70
     1
 10
0.0
 20
0.0
 30
0.0
  3
*D7
  1

  0
LINE
  5
89
  8
0
  6
CONTINUOUS
 62
     7
 10
-38.400833
 20
85.44005600000001
 30
0.0
 11
25.099165
 21
85.44005600000001
 31
0.0
  0
INSERT
  5
8A
  8
0
  6
CONTINUOUS
 62
     7
  2
_DOT
 10
-38.400833
 20
85.44005600000001
 30
0.0
 50
180.0
  0
INSERT
  5
8B
  8
0
  6
CONTINUOUS
 62
     7
  2
_DOT
 10
25.099165
 20
85.44005600000001
 30
0.0
  0
LINE
  5
8C
  8
0
  6
CONTINUOUS
 62
     7
 10
25.099165
 20
80.980056
 30
0.0
 11
25.099165
 21
86.64005300000002
 31
0.0
  0
TEXT
  5
8D
  8
0
  6
CONTINUOUS
 62
     7
 10
-12.593835
 20
86.24005600000002
 30
0.0
 40
3.2
  1
63.5
 41
1.238124999999999
  0
POINT
  5
8E
  8
DEFPOINTS
  6
CONTINUOUS
 62
     7
 10
-38.400833
 20
70.44006299999998
 30
0.0
  0
POINT
  5
8F
  8
DEFPOINTS
  6
CONTINUOUS
 62
     7
 10
25.099165
 20
78.44005600000001
 30
0.0
  0
POINT
  5
90
  8
DEFPOINTS
  6
CONTINUOUS
 62
     7
 10
25.099165
 20
85.44005600000001
 30
0.0
  0
ENDBLK
  5
91
  8
0
  0
BLOCK
  8
0
  2
*D8
 70
     1
 10
0.0
 20
0.0
 30
0.0
  3
*D8
  1

  0
LINE
  5
94
  8
0
  6
CONTINUOUS
 62
     7
 10
25.099165
 20
85.44005600000001
 30
0.0
 11
88.59916700000002
 21
85.44005600000001
 31
0.0
  0
INSERT
  5
95
  8
0
  6
CONTINUOUS
 62
     7
  2
_DOT
 10
88.59916700000002
 20
85.44005600000001
 30
0.0
  0
TEXT
  5
96
  8
0
  6
CONTINUOUS
 62
     7
 10
50.90616699999999
 20
86.24005600000002
 30
0.0
 40
3.2
  1
63.5
 41
1.238124999999999
  0
POINT
  5
97
  8
DEFPOINTS
  6
CONTINUOUS
 62
     7
 10
25.099165
 20
78.44005600000001
 30
0.0
  0
POINT
  5
98
  8
DEFPOINTS
  6
CONTINUOUS
 62
     7
 10
88.59916700000002
 20
70.44006299999998
 30
0.0
  0
POINT
  5
99
  8
DEFPOINTS
  6
CONTINUOUS
 62
     7
 10
88.59916700000002
 20
85.44005600000001
 30
0.0
  0
ENDBLK
  5
9A
  8
0
  0
BLOCK
  8
0
  2
*D9
 70
     1
 10
0.0
 20
0.0
 30
0.0
  3
*D9
  1

  0
LINE
  5
9D
  8
0
  6
CONTINUOUS
 62
     7
 10
88.59916700000002
 20
95.440063
 30
0.0
 11
-38.400833
 21
95.440063
 31
0.0
  0
INSERT
  5
9E
  8
0
  6
CONTINUOUS
 62
     7
  2
_DOT
 10
88.59916700000002
 20
95.440063
 30
0.0
  0
INSERT
  5
9F
  8
0
  6
CONTINUOUS
 62
     7
  2
_DOT
 10
-38.400833
 20
95.440063
 30
0.0
 50
180.0
  0
LINE
  5
A0
  8
0
  6
CONTINUOUS
 62
     7
 10
88.59916700000002
 20
72.980063
 30
0.0
 11
88.59916700000002
 21
96.64006
 31
0.0
  0
LINE
  5
A1
  8
0
  6
CONTINUOUS
 62
     7
 10
-38.400833
 20
72.980063
 30
0.0
 11
-38.400833
 21
96.64006
 31
0.0
  0
TEXT
  5
A2
  8
0
  6
CONTINUOUS
 62
     7
 10
20.756165
 20
96.240063
 30
0.0
 40
3.2
  1
127
 41
1.1633036
  0
POINT
  5
A3
  8
DEFPOINTS
  6
CONTINUOUS
 62
     7
 10
88.59916700000002
 20
70.44006299999998
 30
0.0
  0
POINT
  5
A4
  8
DEFPOINTS
  6
CONTINUOUS
 62
     7
 10
-38.400833
 20
70.44006299999998
 30
0.0
  0
POINT
  5
A5
  8
DEFPOINTS
  6
CONTINUOUS
 62
     7
 10
-38.400833
 20
95.440063
 30
0.0
  0
ENDBLK
  5
A6
  8
0
  0
BLOCK
  8
0
  2
*D10
 70
     1
 10
0.0
 20
0.0
 30
0.0
  3
*D10
  1

  0
LINE
  5
A9
  8
0
  6
CONTINUOUS
 62
     7
 10
103.59915
 20
70.44006299999998
 30
0.0
 11
103.59915
 21
57.74006700000001
 31
0.0
  0
INSERT
  5
AA
  8
0
  6
CONTINUOUS
 62
     7
  2
_DOT
 10
103.59915
 20
70.44006299999998
 30
0.0
 50
90.0
  0
INSERT
  5
AB
  8
0
  6
CONTINUOUS
 62
     7
  2
_DOT
 10
103.59915
 20
57.74006700000001
 30
0.0
 50
270.0
  0
LINE
  5
AC
  8
0
  6
CONTINUOUS
 62
     7
 10
87.429168
 20
57.74006700000001
 30
0.0
 11
104.79915
 21
57.74006700000001
 31
0.0
  0
TEXT
  5
AD
  8
0
  6
CONTINUOUS
 62
     7
 10
102.79915
 20
58.147065
 30
0.0
 40
3.2
  1
12.7
 50
90.000003
 41
1.3928906
  0
POINT
  5
AE
  8
DEFPOINTS
  6
CONTINUOUS
 62
     7
 10
88.59916700000002
 20
70.44006299999998
 30
0.0
  0
POINT
  5
AF
  8
DEFPOINTS
  6
CONTINUOUS
 62
     7
 10
84.88916800000001
 20
57.74006700000001
 30
0.0
  0
POINT
  5
B0
  8
DEFPOINTS
  6
CONTINUOUS
 62
     7
 10
103.59915
 20
57.74006700000001
 30
0.0
  0
ENDBLK
  5
B1
  8
0
  0
BLOCK
  8
0
  2
*D11
 70
     1
 10
0.0
 20
0.0
 30
0.0
  3
*D11
  1

  0
LINE
  5
B4
  8
0
  6
CONTINUOUS
 62
     7
 10
103.59915
 20
57.74006700000001
 30
0.0
 11
103.59915
 21
32.340065
 31
0.0
  0
INSERT
  5
B5
  8
0
  6
CONTINUOUS
 62
     7
  2
_DOT
 10
103.59915
 20
32.340065
 30
0.0
 50
270.0
  0
LINE
  5
B6
  8
0
  6
CONTINUOUS
 62
     7
 10
76.429168
 20
32.340065
 30
0.0
 11
104.79915
 21
32.340065
 31
0.0
  0
TEXT
  5
B7
  8
0
  6
CONTINUOUS
 62
     7
 10
102.79915
 20
39.097066
 30
0.0
 40
3.2
  1
25.4
 50
90.000003
 41
1.238124999999999
  0
POINT
  5
B8
  8
DEFPOINTS
  6
CONTINUOUS
 62
     7
 10
84.88916800000001
 20
57.74006700000001
 30
0.0
  0
POINT
  5
B9
  8
DEFPOINTS
  6
CONTINUOUS
 62
     7
 10
73.88916800000001
 20
32.340065
 30
0.0
  0
POINT
  5
BA
  8
DEFPOINTS
  6
CONTINUOUS
 62
     7
 10
103.59915
 20
32.340065
 30
0.0
  0
ENDBLK
  5
BB
  8
0
  0
BLOCK
  8
0
  2
*D12
 70
     1
 10
0.0
 20
0.0
 30
0.0
  3
*D12
  1

  0
LINE
  5
BE
  8
0
  6
CONTINUOUS
 62
     7
 10
103.59915
 20
32.340065
 30
0.0
 11
103.59915
 21
6.9400654
 31
0.0
  0
INSERT
  5
BF
  8
0
  6
CONTINUOUS
 62
     7
  2
_DOT
 10
103.59915
 20
6.9400654
 30
0.0
 50
270.0
  0
LINE
  5
C0
  8
0
  6
CONTINUOUS
 62
     7
 10
87.429168
 20
6.9400654
 30
0.0
 11
104.79915
 21
6.9400654
 31
0.0
  0
TEXT
  5
C1
  8
0
  6
CONTINUOUS
 62
     7
 10
102.79915
 20
13.697066
 30
0.0
 40
3.2
  1
25.4
 50
90.000003
 41
1.238124999999999
  0
POINT
  5
C2
  8
DEFPOINTS
  6
CONTINUOUS
 62
     7
 10
73.88916800000001
 20
32.340065
 30
0.0
  0
POINT
  5
C3
  8
DEFPOINTS
  6
CONTINUOUS
 62
     7
 10
84.88916800000001
 20
6.9400654
 30
0.0
  0
POINT
  5
C4
  8
DEFPOINTS
  6
CONTINUOUS
 62
     7
 10
103.59915
 20
6.9400654
 30
0.0
  0
ENDBLK
  5
C5
  8
0
  0
BLOCK
  8
0
  2
*D13
 70
     1
 10
0.0
 20
0.0
 30
0.0
  3
*D13
  1

  0
LINE
  5
C8
  8
0
  6
CONTINUOUS
 62
     7
 10
103.59915
 20
6.9400654
 30
0.0
 11
103.59915
 21
-18.459936
 31
0.0
  0
INSERT
  5
C9
  8
0
  6
CONTINUOUS
 62
     7
  2
_DOT
 10
103.59915
 20
-18.459936
 30
0.0
 50
270.0
  0
LINE
  5
CA
  8
0
  6
CONTINUOUS
 62
     7
 10
76.429168
 20
-18.459936
 30
0.0
 11
104.79915
 21
-18.459936
 31
0.0
  0
TEXT
  5
CB
  8
0
  6
CONTINUOUS
 62
     7
 10
102.79915
 20
-11.702935
 30
0.0
 40
3.2
  1
25.4
 50
90.000003
 41
1.238124999999999
  0
POINT
  5
CC
  8
DEFPOINTS
  6
CONTINUOUS
 62
     7
 10
84.88916800000001
 20
6.9400654
 30
0.0
  0
POINT
  5
CD
  8
DEFPOINTS
  6
CONTINUOUS
 62
     7
 10
73.88916800000001
 20
-18.459936
 30
0.0
  0
POINT
  5
CE
  8
DEFPOINTS
  6
CONTINUOUS
 62
     7
 10
103.59915
 20
-18.459936
 30
0.0
  0
ENDBLK
  5
CF
  8
0
  0
BLOCK
  8
0
  2
*D14
 70
     1
 10
0.0
 20
0.0
 30
0.0
  3
*D14
  1

  0
LINE
  5
D2
  8
0
  6
CONTINUOUS
 62
     7
 10
103.59915
 20
-18.459936
 30
0.0
 11
103.59915
 21
-43.85993599999999
 31
0.0
  0
INSERT
  5
D3
  8
0
  6
CONTINUOUS
 62
     7
  2
_DOT
 10
103.59915
 20
-43.85993599999999
 30
0.0
 50
270.0
  0
LINE
  5
D4
  8
0
  6
CONTINUOUS
 62
     7
 10
87.429168
 20
-43.85993599999999
 30
0.0
 11
104.79915
 21
-43.85993599999999
 31
0.0
  0
TEXT
  5
D5
  8
0
  6
CONTINUOUS
 62
     7
 10
102.79915
 20
-37.102937
 30
0.0
 40
3.2
  1
25.4
 50
90.000003
 41
1.238124999999999
  0
POINT
  5
D6
  8
DEFPOINTS
  6
CONTINUOUS
 62
     7
 10
73.88916800000001
 20
-18.459936
 30
0.0
  0
POINT
  5
D7
  8
DEFPOINTS
  6
CONTINUOUS
 62
     7
 10
84.88916800000001
 20
-43.85993599999999
 30
0.0
  0
POINT
  5
D8
  8
DEFPOINTS
  6
CONTINUOUS
 62
     7
 10
103.59915
 20
-43.85993599999999
 30
0.0
  0
ENDBLK
  5
D9
  8
0
  0
BLOCK
  8
0
  2
*D15
 70
     1
 10
0.0
 20
0.0
 30
0.0
  3
*D15
  1

  0
LINE
  5
DC
  8
0
  6
CONTINUOUS
 62
     7
 10
103.59915
 20
-43.85993599999999
 30
0.0
 11
103.59915
 21
-56.55992499999999
 31
0.0
  0
INSERT
  5
DD
  8
0
  6
CONTINUOUS
 62
     7
  2
_DOT
 10
103.59915
 20
-56.55992499999999
 30
0.0
 50
270.0
  0
TEXT
  5
DE
  8
0
  6
CONTINUOUS
 62
     7
 10
102.79915
 20
-56.15293000000001
 30
0.0
 40
3.2
  1
12.7
 50
90.000003
 41
1.3928906
  0
POINT
  5
DF
  8
DEFPOINTS
  6
CONTINUOUS
 62
     7
 10
84.88916800000001
 20
-43.85993599999999
 30
0.0
  0
POINT
  5
E0
  8
DEFPOINTS
  6
CONTINUOUS
 62
     7
 10
88.59916700000002
 20
-56.55992499999999
 30
0.0
  0
POINT
  5
E1
  8
DEFPOINTS
  6
CONTINUOUS
 62
     7
 10
103.59915
 20
-56.55992499999999
 30
0.0
  0
ENDBLK
  5
E2
  8
0
  0
BLOCK
  8
0
  2
*D16
 70
     1
 10
0.0
 20
0.0
 30
0.0
  3
*D16
  1

  0
LINE
  5
E5
  8
0
  6
CONTINUOUS
 62
     7
 10
113.59915
 20
-56.55992499999999
 30
0.0
 11
113.59915
 21
70.44006299999998
 31
0.0
  0
INSERT
  5
E6
  8
0
  6
CONTINUOUS
 62
     7
  2
_DOT
 10
113.59915
 20
-56.55992499999999
 30
0.0
 50
270.0
  0
INSERT
  5
E7
  8
0
  6
CONTINUOUS
 62
     7
  2
_DOT
 10
113.59915
 20
70.44006299999998
 30
0.0
 50
90.0
  0
LINE
  5
E8
  8
0
  6
CONTINUOUS
 62
     7
 10
91.139167
 20
-56.55992499999999
 30
0.0
 11
114.79915
 21
-56.55992499999999
 31
0.0
  0
LINE
  5
E9
  8
0
  6
CONTINUOUS
 62
     7
 10
91.139167
 20
70.44006299999998
 30
0.0
 11
114.79915
 21
70.44006299999998
 31
0.0
  0
TEXT
  5
EA
  8
0
  6
CONTINUOUS
 62
     7
 10
112.79915
 20
2.5970692
 30
0.0
 40
3.2
  1
127
 50
90.000003
 41
1.1633036
  0
POINT
  5
EB
  8
DEFPOINTS
  6
CONTINUOUS
 62
     7
 10
88.59916700000002
 20
-56.55992499999999
 30
0.0
  0
POINT
  5
EC
  8
DEFPOINTS
  6
CONTINUOUS
 62
     7
 10
88.59916700000002
 20
70.44006299999998
 30
0.0
  0
POINT
  5
ED
  8
DEFPOINTS
  6
CONTINUOUS
 62
     7
 10
113.59915
 20
70.44006299999998
 30
0.0
  0
ENDBLK
  5
EE
  8
0
  0
BLOCK
  8
0
  2
*D17
 70
     1
 10
0.0
 20
0.0
 30
0.0
  3
*D17
  1

  0
LINE
  5
F1
  8
0
  6
CONTINUOUS
 62
     7
 10
25.099165
 20
-76.559921
 30
0.0
 11
67.099167
 21
-76.559921
 31
0.0
  0
INSERT
  5
F2
  8
0
  6
CONTINUOUS
 62
     7
  2
_DOT
 10
25.099165
 20
-76.559921
 30
0.0
 50
180.0
  0
INSERT
  5
F3
  8
0
  6
CONTINUOUS
 62
     7
  2
_DOT
 10
67.099167
 20
-76.559921
 30
0.0
  0
LINE
  5
F4
  8
0
  6
CONTINUOUS
 62
     7
 10
25.099165
 20
-67.099921
 30
0.0
 11
25.099165
 21
-77.75991799999998
 31
0.0
  0
LINE
  5
F5
  8
0
  6
CONTINUOUS
 62
     7
 10
67.099167
 20
-27.789937
 30
0.0
 11
67.099167
 21
-77.75991799999998
 31
0.0
  0
TEXT
  5
F6
  8
0
  6
CONTINUOUS
 62
     7
 10
43.356167
 20
-75.75992099999996
 30
0.0
 40
3.2
  1
42
 41
1.028624999999999
  0
POINT
  5
F7
  8
DEFPOINTS
  6
CONTINUOUS
 62
     7
 10
25.099165
 20
-64.559921
 30
0.0
  0
POINT
  5
F8
  8
DEFPOINTS
  6
CONTINUOUS
 62
     7
 10
67.099167
 20
-25.249937
 30
0.0
  0
POINT
  5
F9
  8
DEFPOINTS
  6
CONTINUOUS
 62
     7
 10
67.099167
 20
-76.559921
 30
0.0
  0
ENDBLK
  5
FA
  8
0
  0
BLOCK
  8
0
  2
*D18
 70
     1
 10
0.0
 20
0.0
 30
0.0
  3
*D18
  1

  0
LINE
  5
FD
  8
0
  6
CONTINUOUS
 62
     7
 10
67.099167
 20
-76.559921
 30
0.0
 11
78.09916700000002
 21
-76.559921
 31
0.0
  0
INSERT
  5
FE
  8
0
  6
CONTINUOUS
 62
     7
  2
_DOT
 10
78.09916700000002
 20
-76.559921
 30
0.0
  0
LINE
  5
FF
  8
0
  6
CONTINUOUS
 62
     7
 10
78.09916700000002
 20
-53.189937
 30
0.0
 11
78.09916700000002
 21
-77.75991799999998
 31
0.0
  0
TEXT
  5
100
  8
0
  6
CONTINUOUS
 62
     7
 10
69.856167
 20
-75.75992099999996
 30
0.0
 40
3.2
  1
11
 41
1.5429375
  0
POINT
  5
101
  8
DEFPOINTS
  6
CONTINUOUS
 62
     7
 10
67.099167
 20
-25.249937
 30
0.0
  0
POINT
  5
102
  8
DEFPOINTS
  6
CONTINUOUS
 62
     7
 10
78.09916700000002
 20
-50.649937
 30
0.0
  0
POINT
  5
103
  8
DEFPOINTS
  6
CONTINUOUS
 62
     7
 10
78.09916700000002
 20
-76.559921
 30
0.0
  0
ENDBLK
  5
104
  8
0
  0
BLOCK
  8
0
  2
*D19
 70
     1
 10
0.0
 20
0.0
 30
0.0
  3
*D19
  1

  0
LINE
  5
107
  8
0
  6
CONTINUOUS
 62
     7
 10
78.09916700000002
 20
-76.559921
 30
0.0
 11
88.59916700000002
 21
-76.559921
 31
0.0
  0
INSERT
  5
108
  8
0
  6
CONTINUOUS
 62
     7
  2
_DOT
 10
88.59916700000002
 20
-76.559921
 30
0.0
  0
LINE
  5
109
  8
0
  6
CONTINUOUS
 62
     7
 10
88.59916700000002
 20
-59.099925
 30
0.0
 11
88.59916700000002
 21
-77.75991799999998
 31
0.0
  0
TEXT
  5
10A
  8
0
  6
CONTINUOUS
 62
     7
 10
77.40616700000002
 20
-75.75992099999996
 30
0.0
 40
3.2
  1
10.5
 41
1.485749999999999
  0
POINT
  5
10B
  8
DEFPOINTS
  6
CONTINUOUS
 62
     7
 10
78.09916700000002
 20
-50.649937
 30
0.0
  0
POINT
  5
10C
  8
DEFPOINTS
  6
CONTINUOUS
 62
     7
 10
88.59916700000002
 20
-56.55992499999999
 30
0.0
  0
POINT
  5
10D
  8
DEFPOINTS
  6
CONTINUOUS
 62
     7
 10
88.59916700000002
 20
-76.559921
 30
0.0
  0
ENDBLK
  5
10E
  8
0
  0
BLOCK
  8
0
  2
*D20
 70
     1
 10
0.0
 20
0.0
 30
0.0
  3
*D20
  1

  0
LINE
  5
111
  8
0
  6
CONTINUOUS
 62
     7
 10
-24.895632
 20
-40.854725
 30
0.0
 11
-30.90604
 21
-46.86513099999999
 31
0.0
  0
INSERT
  5
112
  8
0
  6
CONTINUOUS
 62
     7
  2
_DOT
 10
-24.895632
 20
-40.854725
 30
0.0
 50
44.99999099999999
  0
INSERT
  5
113
  8
0
  6
CONTINUOUS
 62
     7
  2
_DOT
 10
-30.90604
 20
-46.86513099999999
 30
0.0
 50
224.99999
  0
TEXT
  5
114
  8
0
  6
CONTINUOUS
 62
     7
 10
-45.664204
 20
-75.75992099999996
 30
0.0
 40
3.2
  1
  
 41
3.085875
  0
ENDBLK
  5
115
  8
0
  0
BLOCK
  8
0
  2
GENAXEH
 70
     0
 10
0.0
 20
0.0
 30
0.0
  3
GENAXEH
  1

  0
LINE
  5
271
  8
0
 10
-1.0
 20
0.0
 30
0.0
 11
1.0
 21
0.0
 31
0.0
  0
ENDBLK
  5
273
  8
0
  0
BLOCK
  8
0
  2
_ACMFILLEDHALF
 70
     0
 10
0.0
 20
0.0
 30
0.0
  3
_ACMFILLEDHALF
  1

  0
TRACE
  5
39E
  8
0
 62
     0
 10
-0.8
 20
0.0
 30
0.0
 11
-1.0
 21
0.166666666
 31
0.0
 12
0.0
 22
0.0
 32
0.0
 13
0.0
 23
0.0
 33
0.0
  0
LINE
  5
39F
  8
0
 62
     0
 10
-1.0
 20
0.0
 30
0.0
 11
-0.8
 21
0.0
 31
0.0
  0
ENDBLK
  5
3A0
  8
0
  0
ENDSEC
  0
SECTION
  2
ENTITIES
  0
POINT
  5
116
  8
0
  6
CONTINUOUS
 62
     7
 10
-187.0
 20
169.0
 30
0.0
  0
POINT
  5
117
  8
0
  6
CONTINUOUS
 62
     7
 10
-187.0
 20
161.0
 30
0.0
  0
POINT
  5
118
  8
0
  6
CONTINUOUS
 62
     7
 10
-187.0
 20
153.0
 30
0.0
  0
POINT
  5
119
  8
0
  6
CONTINUOUS
 62
     7
 10
-187.0
 20
145.0
 30
0.0
  0
POINT
  5
11A
  8
0
  6
CONTINUOUS
 62
     7
 10
-187.23555
 20
136.96617
 30
0.0
  0
POINT
  5
11B
  8
0
  6
CONTINUOUS
 62
     7
 10
-145.23183
 20
128.88474
 30
0.0
  0
POINT
  5
127
  8
0
  6
CONTINUOUS
 62
     7
 10
25.099165
 20
140.12927
 30
0.0
  0
POINT
  5
128
  8
0
  6
CONTINUOUS
 62
     7
 10
25.099165
 20
140.12927
 30
0.0
  0
POINT
  5
129
  8
0
  6
CONTINUOUS
 62
     7
 10
25.099165
 20
133.62927
 30
0.0
  0
POINT
  5
12A
  8
0
  6
CONTINUOUS
 62
     7
 10
25.099165
 20
118.62927
 30
0.0
  0
POINT
  5
12B
  8
0
  6
CONTINUOUS
 62
     7
 10
25.099165
 20
133.62927
 30
0.0
  0
POINT
  5
12C
  8
0
  6
CONTINUOUS
 62
     7
 10
20.502972
 20
135.53308
 30
0.0
  0
POINT
  5
12D
  8
0
  6
CONTINUOUS
 62
     7
 10
25.099165
 20
75.44005600000001
 30
0.0
  0
POINT
  5
12E
  8
0
  6
CONTINUOUS
 62
     7
 10
25.099165
 20
75.44005600000001
 30
0.0
  0
POINT
  5
12F
  8
0
  6
CONTINUOUS
 62
     7
 10
25.099165
 20
85.44005600000001
 30
0.0
  0
POINT
  5
130
  8
0
  6
CONTINUOUS
 62
     7
 10
25.099165
 20
95.440063
 30
0.0
  0
POINT
  5
131
  8
0
  6
CONTINUOUS
 62
     7
 10
25.099165
 20
75.44005600000001
 30
0.0
  0
POINT
  5
132
  8
0
  6
CONTINUOUS
 62
     7
 10
88.59916700000002
 20
-56.55992499999999
 30
0.0
  0
POINT
  5
133
  8
0
  6
CONTINUOUS
 62
     7
 10
113.59915
 20
-56.55992499999999
 30
0.0
  0
POINT
  5
134
  8
0
  6
CONTINUOUS
 62
     7
 10
103.59915
 20
-56.55992499999999
 30
0.0
  0
POINT
  5
135
  8
0
  6
CONTINUOUS
 62
     7
 10
88.59916700000002
 20
-56.55992499999999
 30
0.0
  0
POINT
  5
136
  8
0
  6
CONTINUOUS
 62
     7
 10
25.099174
 20
-61.55992099999998
 30
0.0
  0
POINT
  5
137
  8
0
  6
CONTINUOUS
 62
     7
 10
25.099174
 20
-76.559921
 30
0.0
  0
POINT
  5
138
  8
0
  6
CONTINUOUS
 62
     7
 10
25.099174
 20
-61.55992099999998
 30
0.0
  0
POINT
  5
139
  8
0
  6
CONTINUOUS
 62
     7
 10
-30.906038
 20
-46.86514299999998
 30
0.0
  0
LINE
  5
13A
  8
0
  6
CONTINUOUS
 62
     7
 10
170.0
 20
173.0
 30
0.0
 11
170.0
 21
-100.0
 31
0.0
  0
LINE
  5
13B
  8
0
  6
CONTINUOUS
 62
     7
 10
-211.0
 20
-100.0
 30
0.0
 11
170.0
 21
-100.0
 31
0.0
  0
LINE
  5
13C
  8
0
  6
CONTINUOUS
 62
     7
 10
-211.0
 20
173.0
 30
0.0
 11
170.0
 21
173.0
 31
0.0
  0
LINE
  5
13D
  8
0
  6
CONTINUOUS
 62
     7
 10
-211.0
 20
173.0
 30
0.0
 11
-211.0
 21
-100.0
 31
0.0
  0
LINE
  5
13E
  8
0
  6
CONTINUOUS
 62
     7
 10
-191.0
 20
173.0
 30
0.0
 11
-191.0
 21
85.0
 31
0.0
  0
LINE
  5
13F
  8
0
  6
CONTINUOUS
 62
     7
 10
-211.0
 20
165.0
 30
0.0
 11
-101.0
 21
165.0
 31
0.0
  0
LINE
  5
140
  8
0
  6
CONTINUOUS
 62
     7
 10
-211.0
 20
149.0
 30
0.0
 11
-101.0
 21
149.0
 31
0.0
  0
LINE
  5
141
  8
0
  6
CONTINUOUS
 62
     7
 10
-191.0
 20
125.0
 30
0.0
 11
-101.0
 21
125.0
 31
0.0
  0
LINE
  5
142
  8
0
  6
CONTINUOUS
 62
     7
 10
-191.0
 20
117.0
 30
0.0
 11
-101.0
 21
117.0
 31
0.0
  0
LINE
  5
143
  8
0
  6
CONTINUOUS
 62
     7
 10
-211.0
 20
109.0
 30
0.0
 11
-101.0
 21
109.0
 31
0.0
  0
LINE
  5
144
  8
0
  6
CONTINUOUS
 62
     7
 10
-191.0
 20
101.0
 30
0.0
 11
-101.0
 21
101.0
 31
0.0
  0
LINE
  5
145
  8
0
  6
CONTINUOUS
 62
     7
 10
-191.0
 20
93.0
 30
0.0
 11
-101.0
 21
93.0
 31
0.0
  0
LINE
  5
146
  8
0
  6
CONTINUOUS
 62
     7
 10
-211.0
 20
85.0
 30
0.0
 11
-101.0
 21
85.0
 31
0.0
  0
LINE
  5
147
  8
0
  6
CONTINUOUS
 62
     7
 10
-211.0
 20
173.0
 30
0.0
 11
-211.0
 21
85.0
 31
0.0
  0
LINE
  5
148
  8
0
  6
CONTINUOUS
 62
     7
 10
-211.0
 20
173.0
 30
0.0
 11
-101.0
 21
173.0
 31
0.0
  0
LINE
  5
149
  8
0
  6
CONTINUOUS
 62
     7
 10
-101.0
 20
173.0
 30
0.0
 11
-101.0
 21
85.0
 31
0.0
  0
LINE
  5
14A
  8
0
  6
CONTINUOUS
 62
     7
 10
-211.0
 20
133.0
 30
0.0
 11
-101.0
 21
133.0
 31
0.0
  0
LINE
  5
14B
  8
0
  6
CONTINUOUS
 62
     7
 10
-191.0
 20
125.0
 30
0.0
 11
-101.0
 21
125.0
 31
0.0
  0
LINE
  5
14C
  8
0
  6
CONTINUOUS
 62
     7
 10
-211.0
 20
157.0
 30
0.0
 11
-101.0
 21
157.0
 31
0.0
  0
LINE
  5
14D
  8
0
  6
CONTINUOUS
 62
     7
 10
-211.0
 20
141.0
 30
0.0
 11
-101.0
 21
141.0
 31
0.0
  0
LINE
  5
14E
  8
0
  6
CENTER
 62
     7
 10
25.099165
 20
150.12927
 30
0.0
 11
25.099165
 21
130.12927
 31
0.0
  0
LINE
  5
14F
  8
0
  6
CONTINUOUS
 62
     7
 10
88.59916700000002
 20
143.62927
 30
0.0
 11
88.59916700000002
 21
141.12927
 31
0.0
  0
LINE
  5
150
  8
0
  6
CENTER
 62
     7
 10
35.099167
 20
140.12927
 30
0.0
 11
15.099165
 21
140.12927
 31
0.0
  0
LINE
  5
151
  8
0
  6
CENTER
 62
     7
 10
78.09916700000002
 20
146.62927
 30
0.0
 11
78.09916700000002
 21
138.12927
 31
0.0
  0
LINE
  5
152
  8
0
  6
CONTINUOUS
 62
     7
 10
18.676548
 20
141.12927
 30
0.0
 11
-38.400833
 21
141.12927
 31
0.0
  0
LINE
  5
153
  8
0
  6
CONTINUOUS
 62
     7
 10
88.59916700000002
 20
141.12927
 30
0.0
 11
31.52178
 21
141.12927
 31
0.0
  0
LINE
  5
154
  8
0
  6
CONTINUOUS
 62
     7
 10
88.59916700000002
 20
143.62927
 30
0.0
 11
31.807369
 21
143.62927
 31
0.0
  0
LINE
  5
155
  8
0
  6
CENTER
 62
     7
 10
35.099167
 20
140.12927
 30
0.0
 11
15.099165
 21
140.12927
 31
0.0
  0
LINE
  5
156
  8
0
  6
CENTER
 62
     7
 10
25.099165
 20
150.12927
 30
0.0
 11
25.099165
 21
130.12927
 31
0.0
  0
LINE
  5
157
  8
0
  6
CENTER
 62
     7
 10
25.099165
 20
150.12927
 30
0.0
 11
25.099165
 21
130.12927
 31
0.0
  0
LINE
  5
158
  8
0
  6
CONTINUOUS
 62
     7
 10
-38.400833
 20
141.12276
 30
0.0
 11
-38.400833
 21
143.62927
 31
0.0
  0
LINE
  5
159
  8
0
  6
CENTER
 62
     7
 10
25.099165
 20
130.12927
 30
0.0
 11
25.099165
 21
150.12927
 31
0.0
  0
LINE
  5
15A
  8
0
  6
CENTER
 62
     7
 10
-27.900835
 20
146.62927
 30
0.0
 11
-27.900835
 21
138.12927
 31
0.0
  0
LINE
  5
15B
  8
0
  6
CENTER
 62
     7
 10
67.099167
 20
146.62927
 30
0.0
 11
67.099167
 21
138.12927
 31
0.0
  0
LINE
  5
15C
  8
0
  6
CENTER
 62
     7
 10
-16.900835
 20
146.62927
 30
0.0
 11
-16.900835
 21
138.12927
 31
0.0
  0
LINE
  5
15D
  8
0
  6
CONTINUOUS
 62
     7
 10
-38.400833
 20
143.62927
 30
0.0
 11
18.390961
 21
143.62927
 31
0.0
  0
LINE
  5
15E
  8
0
  6
PHANTOM
 62
     7
 10
31.521782
 20
139.12927
 30
0.0
 11
88.59916700000002
 21
139.12927
 31
0.0
  0
LINE
  5
15F
  8
0
  6
PHANTOM
 62
     7
 10
88.59916700000002
 20
139.13579
 30
0.0
 11
88.59916700000002
 21
136.62927
 31
0.0
  0
LINE
  5
160
  8
0
  6
PHANTOM
 62
     7
 10
88.59916700000002
 20
136.62927
 30
0.0
 11
31.807369
 21
136.62927
 31
0.0
  0
LINE
  5
161
  8
0
  6
CONTINUOUS
 62
     7
 10
33.099167
 20
143.62927
 30
0.0
 11
33.099167
 21
141.12927
 31
0.0
  0
LINE
  5
162
  8
0
  6
CONTINUOUS
 62
     3
 10
-38.400833
 20
70.44006299999998
 30
0.0
 11
-38.400833
 21
-56.55992499999999
 31
0.0
  0
LINE
  5
163
  8
0
  6
CONTINUOUS
 62
     3
 10
88.59916700000002
 20
70.44006299999998
 30
0.0
 11
88.59916700000002
 21
-56.55992499999999
 31
0.0
  0
LINE
  5
164
  8
0
  6
CENTER
 62
     7
 10
25.099165
 20
78.44005600000001
 30
0.0
 11
25.099165
 21
-64.559921
 31
0.0
  0
LINE
  5
165
  8
0
  6
CONTINUOUS
 62
     3
 10
-38.400833
 20
70.44006299999998
 30
0.0
 11
31.599165
 21
70.44006299999998
 31
0.0
  0
LINE
  5
166
  8
0
  6
CONTINUOUS
 62
     3
 10
-38.400833
 20
-56.55992499999999
 30
0.0
 11
31.599165
 21
-56.55992499999999
 31
0.0
  0
LINE
  5
167
  8
0
  6
CONTINUOUS
 62
     3
 10
18.599165
 20
74.940063
 30
0.0
 11
18.599165
 21
-61.05993299999999
 31
0.0
  0
LINE
  5
168
  8
0
  6
CENTER
 62
     7
 10
78.09916700000002
 20
-37.069935
 30
0.0
 11
78.09916700000002
 21
-50.649937
 31
0.0
  0
LINE
  5
169
  8
0
  6
CENTER
 62
     7
 10
67.099167
 20
39.13007
 30
0.0
 11
67.099167
 21
25.550064
 31
0.0
  0
LINE
  5
16A
  8
0
  6
CENTER
 62
     7
 10
60.30916600000001
 20
32.340065
 30
0.0
 11
73.88916800000001
 21
32.340065
 31
0.0
  0
LINE
  5
16B
  8
0
  6
CONTINUOUS
 62
     3
 10
31.599165
 20
74.940063
 30
0.0
 11
31.599165
 21
-61.05993299999999
 31
0.0
  0
LINE
  5
16C
  8
0
  6
CONTINUOUS
 62
     3
 10
33.099167
 20
70.44006299999998
 30
0.0
 11
88.59916700000002
 21
70.44006299999998
 31
0.0
  0
LINE
  5
16D
  8
0
  6
CONTINUOUS
 62
     3
 10
33.099167
 20
-56.55992499999999
 30
0.0
 11
88.59916700000002
 21
-56.55992499999999
 31
0.0
  0
LINE
  5
16E
  8
0
  6
CONTINUOUS
 62
     3
 10
18.599165
 20
-61.05993299999999
 30
0.0
 11
31.599165
 21
-61.05993299999999
 31
0.0
  0
LINE
  5
16F
  8
0
  6
CONTINUOUS
 62
     3
 10
18.599171
 20
-61.05992099999999
 30
0.0
 11
25.099171
 21
-63.05992099999999
 31
0.0
  0
LINE
  5
170
  8
0
  6
CONTINUOUS
 62
     3
 10
25.099173
 20
-63.05992499999999
 30
0.0
 11
31.599173
 21
-61.059925
 31
0.0
  0
LINE
  5
171
  8
0
  6
CENTER
 62
     7
 10
-21.110834
 20
-43.85993599999999
 30
0.0
 11
-34.69083400000001
 21
-43.85993599999999
 31
0.0
  0
LINE
  5
172
  8
0
  6
CENTER
 62
     7
 10
-27.900835
 20
-37.069935
 30
0.0
 11
-27.900835
 21
-50.649937
 31
0.0
  0
LINE
  5
173
  8
0
  6
CONTINUOUS
 62
     3
 10
18.599165
 20
74.940063
 30
0.0
 11
31.599165
 21
74.940063
 31
0.0
  0
LINE
  5
174
  8
0
  6
CENTER
 62
     7
 10
-27.900835
 20
64.530067
 30
0.0
 11
-27.900835
 21
50.950066
 31
0.0
  0
LINE
  5
175
  8
0
  6
CENTER
 62
     7
 10
-10.110834
 20
-18.459936
 30
0.0
 11
-23.690836
 21
-18.459936
 31
0.0
  0
LINE
  5
176
  8
0
  6
CENTER
 62
     7
 10
-21.110834
 20
6.9400654
 30
0.0
 11
-34.69083400000001
 21
6.9400654
 31
0.0
  0
LINE
  5
177
  8
0
  6
CENTER
 62
     7
 10
-27.900835
 20
13.730066
 30
0.0
 11
-27.900835
 21
0.15006453
 31
0.0
  0
LINE
  5
178
  8
0
  6
CENTER
 62
     7
 10
-10.110834
 20
32.340065
 30
0.0
 11
-23.690836
 21
32.340065
 31
0.0
  0
LINE
  5
179
  8
0
  6
CENTER
 62
     7
 10
-21.110834
 20
57.74006700000001
 30
0.0
 11
-34.69083400000001
 21
57.74006700000001
 31
0.0
  0
LINE
  5
17A
  8
0
  6
CENTER
 62
     7
 10
-16.900835
 20
39.13007
 30
0.0
 11
-16.900835
 21
25.550064
 31
0.0
  0
LINE
  5
17B
  8
0
  6
CENTER
 62
     7
 10
-16.900835
 20
-11.669935
 30
0.0
 11
-16.900835
 21
-25.249937
 31
0.0
  0
LINE
  5
17C
  8
0
  6
CENTER
 62
     7
 10
71.309166
 20
6.9400654
 30
0.0
 11
84.88916800000001
 21
6.9400654
 31
0.0
  0
LINE
  5
17D
  8
0
  6
CENTER
 62
     7
 10
78.09916700000002
 20
13.730066
 30
0.0
 11
78.09916700000002
 21
0.15006453
 31
0.0
  0
LINE
  5
17E
  8
0
  6
CENTER
 62
     7
 10
71.309166
 20
-43.85993599999999
 30
0.0
 11
84.88916800000001
 21
-43.85993599999999
 31
0.0
  0
LINE
  5
17F
  8
0
  6
CENTER
 62
     7
 10
71.309166
 20
57.74006700000001
 30
0.0
 11
84.88916800000001
 21
57.74006700000001
 31
0.0
  0
LINE
  5
180
  8
0
  6
CONTINUOUS
 62
     3
 10
17.099165
 20
-32.559933
 30
0.0
 11
17.099165
 21
-3.559934599999998
 31
0.0
  0
LINE
  5
181
  8
0
  6
CENTER
 62
     7
 10
78.09916700000002
 20
64.530067
 30
0.0
 11
78.09916700000002
 21
50.950066
 31
0.0
  0
LINE
  5
182
  8
0
  6
CENTER
 62
     7
 10
67.099167
 20
-11.669935
 30
0.0
 11
67.099167
 21
-25.249937
 31
0.0
  0
LINE
  5
183
  8
0
  6
CENTER
 62
     7
 10
60.30916600000001
 20
-18.459936
 30
0.0
 11
73.88916800000001
 21
-18.459936
 31
0.0
  0
LINE
  5
184
  8
0
  6
CONTINUOUS
 62
     3
 10
18.599171
 20
74.94005600000001
 30
0.0
 11
25.099171
 21
76.94005600000001
 31
0.0
  0
LINE
  5
185
  8
0
  6
CONTINUOUS
 62
     3
 10
25.099165
 20
76.94006299999998
 30
0.0
 11
31.599165
 21
74.940063
 31
0.0
  0
LINE
  5
186
  8
0
  6
CONTINUOUS
 62
     3
 10
17.099165
 20
-3.559934599999998
 30
0.0
 11
31.599165
 21
-3.559934599999998
 31
0.0
  0
LINE
  5
187
  8
0
  6
CONTINUOUS
 62
     3
 10
33.099167
 20
-6.559934599999999
 30
0.0
 11
18.599165
 21
-6.559934599999999
 31
0.0
  0
LINE
  5
188
  8
0
  6
CONTINUOUS
 62
     3
 10
17.099165
 20
17.440065
 30
0.0
 11
31.599165
 21
17.440065
 31
0.0
  0
LINE
  5
189
  8
0
  6
CONTINUOUS
 62
     3
 10
33.099167
 20
-6.559934599999999
 30
0.0
 11
33.099167
 21
20.440065
 31
0.0
  0
LINE
  5
18A
  8
0
  6
CONTINUOUS
 62
     3
 10
18.599165
 20
20.440065
 30
0.0
 11
33.099167
 21
20.440065
 31
0.0
  0
LINE
  5
18B
  8
0
  6
CONTINUOUS
 62
     3
 10
33.099167
 20
70.44006299999998
 30
0.0
 11
33.099167
 21
43.440067
 31
0.0
  0
LINE
  5
18C
  8
0
  6
CONTINUOUS
 62
     3
 10
18.599165
 20
43.440067
 30
0.0
 11
33.099167
 21
43.440067
 31
0.0
  0
LINE
  5
18D
  8
0
  6
CONTINUOUS
 62
     3
 10
17.099165
 20
46.440067
 30
0.0
 11
17.099165
 21
17.440065
 31
0.0
  0
LINE
  5
18E
  8
0
  6
CONTINUOUS
 62
     3
 10
17.099165
 20
46.440067
 30
0.0
 11
31.599165
 21
46.440067
 31
0.0
  0
LINE
  5
18F
  8
0
  6
CONTINUOUS
 62
     3
 10
18.599165
 20
-29.559935
 30
0.0
 11
33.099167
 21
-29.559935
 31
0.0
  0
LINE
  5
190
  8
0
  6
CONTINUOUS
 62
     3
 10
33.099167
 20
-56.55993299999999
 30
0.0
 11
33.099167
 21
-29.559935
 31
0.0
  0
LINE
  5
191
  8
0
  6
CONTINUOUS
 62
     3
 10
17.099165
 20
-32.559933
 30
0.0
 11
31.599165
 21
-32.559933
 31
0.0
  0
CIRCLE
  5
192
  8
0
  6
CONTINUOUS
 62
     7
 10
-145.23183
 20
128.88474
 30
0.0
 40
1.5
  0
CIRCLE
  5
193
  8
0
  6
CONTINUOUS
 62
     7
 10
25.099165
 20
140.12927
 30
0.0
 40
6.5
  0
ARC
  5
194
  8
0
  6
CONTINUOUS
 62
     7
 10
18.390961
 20
146.12927
 30
0.0
 40
2.5
 50
270.0
 51
318.1895999999999
  0
ARC
  5
195
  8
0
  6
CONTINUOUS
 62
     7
 10
31.807369
 20
146.12927
 30
0.0
 40
2.5
 50
221.8104
 51
270.0
  0
ARC
  5
196
  8
0
  6
PHANTOM
 62
     7
 10
31.807369
 20
134.12927
 30
0.0
 40
2.5
 50
90.0
 51
138.1896
  0
CIRCLE
  5
197
  8
0
  6
CONTINUOUS
 62
     3
 10
78.09916700000002
 20
6.9400654
 30
0.0
 40
4.25
  0
CIRCLE
  5
198
  8
0
  6
CONTINUOUS
 62
     3
 10
67.099167
 20
32.340065
 30
0.0
 40
4.25
  0
CIRCLE
  5
199
  8
0
  6
CONTINUOUS
 62
     3
 10
67.099167
 20
-18.459936
 30
0.0
 40
2.5
  0
CIRCLE
  5
19A
  8
0
  6
CONTINUOUS
 62
     3
 10
78.09916700000002
 20
-43.85993599999999
 30
0.0
 40
4.25
  0
CIRCLE
  5
19B
  8
0
  6
CONTINUOUS
 62
     3
 10
-27.900835
 20
-43.85993599999999
 30
0.0
 40
4.25
  0
CIRCLE
  5
19C
  8
0
  6
CONTINUOUS
 62
     3
 10
-27.900835
 20
-43.85993599999999
 30
0.0
 40
2.5
  0
CIRCLE
  5
19D
  8
0
  6
CONTINUOUS
 62
     3
 10
-16.900835
 20
-18.459936
 30
0.0
 40
4.25
  0
CIRCLE
  5
19E
  8
0
  6
CONTINUOUS
 62
     3
 10
-16.900835
 20
-18.459936
 30
0.0
 40
2.5
  0
CIRCLE
  5
19F
  8
0
  6
CONTINUOUS
 62
     3
 10
-27.900835
 20
57.74006700000001
 30
0.0
 40
2.5
  0
CIRCLE
  5
1A0
  8
0
  6
CONTINUOUS
 62
     3
 10
-16.900835
 20
32.340065
 30
0.0
 40
4.25
  0
CIRCLE
  5
1A1
  8
0
  6
CONTINUOUS
 62
     3
 10
67.099167
 20
32.340065
 30
0.0
 40
2.5
  0
CIRCLE
  5
1A2
  8
0
  6
CONTINUOUS
 62
     3
 10
78.09916700000002
 20
-43.85993599999999
 30
0.0
 40
2.5
  0
CIRCLE
  5
1A3
  8
0
  6
CONTINUOUS
 62
     3
 10
78.09916700000002
 20
57.74006700000001
 30
0.0
 40
4.25
  0
CIRCLE
  5
1A4
  8
0
  6
CONTINUOUS
 62
     3
 10
78.09916700000002
 20
57.74006700000001
 30
0.0
 40
2.5
  0
CIRCLE
  5
1A5
  8
0
  6
CONTINUOUS
 62
     3
 10
-27.900835
 20
57.74006700000001
 30
0.0
 40
4.25
  0
CIRCLE
  5
1A6
  8
0
  6
CONTINUOUS
 62
     3
 10
78.09916700000002
 20
6.9400654
 30
0.0
 40
2.5
  0
CIRCLE
  5
1A7
  8
0
  6
CONTINUOUS
 62
     3
 10
67.099167
 20
-18.459936
 30
0.0
 40
4.25
  0
CIRCLE
  5
1A8
  8
0
  6
CONTINUOUS
 62
     3
 10
-27.900835
 20
6.9400654
 30
0.0
 40
4.25
  0
CIRCLE
  5
1A9
  8
0
  6
CONTINUOUS
 62
     3
 10
-27.900835
 20
6.9400654
 30
0.0
 40
2.5
  0
CIRCLE
  5
1AA
  8
0
  6
CONTINUOUS
 62
     3
 10
-16.900835
 20
32.340065
 30
0.0
 40
2.5
  0
CIRCLE
  5
1AB
  8
0
  6
CONTINUOUS
 62
     7
 10
-29.66860200000001
 20
-45.627693
 30
0.0
 40
0.30000001
  0
CIRCLE
  5
1AC
  8
0
  6
CONTINUOUS
 62
     7
 10
-26.133068
 20
-42.092159
 30
0.0
 40
0.30000001
  0
TEXT
  5
1AD
  8
0
  6
CONTINUOUS
 62
     7
 10
-188.143
 20
103.4
 30
0.0
 40
3.2
  1
丁番係数：13.5
 41
0.84496202
  0
TEXT
  5
1AE
  8
0
  6
CONTINUOUS
 62
     7
 10
-205.343
 20
167.4
 30
0.0
 40
3.2
  1
品　名
 41
0.85537027
  0
TEXT
  5
1AF
  8
0
  6
CONTINUOUS
 62
     7
 10
-205.343
 20
159.4
 30
0.0
 40
3.2
  1
品　番
 41
0.85537027
  0
TEXT
  5
1B0
  8
0
  6
CONTINUOUS
 62
     7
 10
-205.343
 20
151.4
 30
0.0
 40
3.2
  1
材　質
 41
0.85537027
  0
TEXT
  5
1B1
  8
0
  6
CONTINUOUS
 62
     7
 10
-205.343
 20
143.4
 30
0.0
 40
3.2
  1
仕上げ
 41
0.85537027
  0
TEXT
  5
1B2
  8
0
  6
CONTINUOUS
 62
     7
 10
-188.143
 20
111.4
 30
0.0
 40
3.2
  1
＊
 41
0.90047268
  0
TEXT
  5
1B3
  8
0
  6
CONTINUOUS
 62
     7
 10
-188.143
 20
119.4
 30
0.0
 40
3.2
  1
＊
 41
0.90047268
  0
TEXT
  5
1B4
  8
0
  6
CONTINUOUS
 62
     7
 10
-208.543
 20
127.4
 30
0.0
 40
3.2
  1
セットビス
 41
0.84892707
  0
TEXT
  5
1B5
  8
0
  6
CONTINUOUS
 62
     7
 10
-188.143
 20
127.4
 30
0.0
 40
3.2
  1
Ｍ４．１×２５　サラ木ねじ＋ＳＵＳ　１０本付
 41
0.8421864899999999
  0
TEXT
  5
1B6
  8
0
  6
CONTINUOUS
 62
     7
 10
-203.743
 20
103.4
 30
0.0
 40
3.2
  1
備考
 41
0.8643907499999999
  0
TEXT
  5
1B7
  8
0
  6
CONTINUOUS
 62
     7
 10
-206.943
 20
135.4
 30
0.0
 40
3.2
  1
左右勝手
 41
0.8512700499999999
  0
TEXT
  5
1B8
  8
0
  6
CONTINUOUS
 62
     7
 10
-188.143
 20
167.4
 30
0.0
 40
3.2
  1
義星丁番
 41
0.8512700499999999
  0
TEXT
  5
1B9
  8
0
  6
CONTINUOUS
 62
     7
 10
-188.143
 20
159.4
 30
0.0
 40
3.2
  1
ＤＨ－３０４Ｓ
 41
0.84634979
  0
TEXT
  5
1BA
  8
0
  6
CONTINUOUS
 62
     7
 10
-188.143
 20
151.4
 30
0.0
 40
3.2
  1
羽根：ステンレス／軸：ステンレス
 41
0.8428951399999997
  0
TEXT
  5
1BB
  8
0
  6
CONTINUOUS
 62
     7
 10
-188.05734
 20
143.4
 30
0.0
 40
3.2
  1
羽根：ヘアーライン／軸：生地
 41
0.7800744100000001
  0
POLYLINE
  5
1BD
  8
0
  6
CONTINUOUS
 62
     7
 66
     1
 10
0.0
 20
0.0
 30
0.0
  0
VERTEX
  5
408
  8
0
  6
CONTINUOUS
 62
     7
 10
20.502974
 20
135.53308
 30
0.0
  0
VERTEX
  5
409
  8
0
  6
CONTINUOUS
 62
     7
 10
3.5991654
 20
118.62927
 30
0.0
  0
VERTEX
  5
40A
  8
0
  6
CONTINUOUS
 62
     7
 10
-6.663398700000001
 20
118.62927
 30
0.0
  0
SEQEND
  5
410
  8
0
  6
CONTINUOUS
 62
     7
  0
TEXT
  5
1C2
  8
0
  6
CONTINUOUS
 62
     7
 10
-6.663398799999998
 20
119.42927
 30
0.0
 40
3.2
  1
%%C13
 41
1.075709999999999
  0
DIMENSION
  5
1C3
  8
0
  6
CONTINUOUS
 62
     7
  2
*D2
 10
29.695361
 20
144.72547
 30
0.0
 11
-2.320398799999999
 21
118.62927
 31
0.0
 70
     3
  3
DIMSTYLE
 15
20.502973
 25
135.53308
 35
0.0
 40
0.0
1001
ACAD
1000
DSTYLE
1002
{
1070
    77
1070
     1
1070
   172
1070
     1
1002
}
  0
DIMENSION
  5
1C4
  8
0
  6
CONTINUOUS
 62
     7
  2
*D3
 10
103.59915
 20
141.12927
 30
0.0
 11
103.59915
 21
150.06581
 31
0.0
 70
    32
  3
DIMSTYLE
 13
88.59916700000002
 23
143.62927
 33
0.0
 14
88.59916700000002
 24
141.12927
 34
0.0
 50
90.0
1001
ACAD
1000
DSTYLE
1002
{
1070
    77
1070
     1
1070
   172
1070
     1
1070
    75
1070
     1
1002
}
  0
DIMENSION
  5
1C5
  8
0
  6
CONTINUOUS
 62
     7
  2
*D4
 10
103.59915
 20
139.12927
 30
0.0
 11
103.59915
 21
140.12927
 31
0.0
 70
    32
  3
DIMSTYLE
 13
88.59916700000002
 23
141.12927
 33
0.0
 14
88.59916700000002
 24
139.12927
 34
0.0
 50
90.0
1001
ACAD
1000
DSTYLE
1002
{
1070
     6
1000
_NONE
1070
    77
1070
     1
1070
   172
1070
     1
1070
    75
1070
     1
1002
}
  0
DIMENSION
  5
1C6
  8
0
  6
CONTINUOUS
 62
     7
  2
*D5
 10
103.59915
 20
136.62927
 30
0.0
 11
103.59915
 21
129.76334
 31
0.0
 70
    32
  3
DIMSTYLE
 13
88.59916700000002
 23
139.12927
 33
0.0
 14
88.59916700000002
 24
136.62927
 34
0.0
 50
90.0
1001
ACAD
1000
DSTYLE
1002
{
1070
     6
1000
_NONE
1070
    77
1070
     1
1070
   172
1070
     1
1070
    75
1070
     1
1070
    76
1070
     1
1002
}
  0
DIMENSION
  5
1C7
  8
0
  6
CONTINUOUS
 62
     7
  2
*D6
 10
113.59915
 20
143.62927
 30
0.0
 11
113.59915
 21
140.12927
 31
0.0
 70
    32
  3
DIMSTYLE
 13
88.59916700000002
 23
136.62927
 33
0.0
 14
88.59916700000002
 24
143.62927
 34
0.0
 50
90.0
1001
ACAD
1000
DSTYLE
1002
{
1070
    77
1070
     1
1070
   172
1070
     1
1002
}
  0
DIMENSION
  5
1C8
  8
0
  6
CONTINUOUS
 62
     7
  2
*D7
 10
25.099165
 20
85.44005600000001
 30
0.0
 11
-6.650835
 21
85.44005600000001
 31
0.0
 70
    32
  3
DIMSTYLE
 13
-38.400833
 23
70.44006299999998
 33
0.0
 14
25.099165
 24
78.44005600000001
 34
0.0
1001
ACAD
1000
DSTYLE
1002
{
1070
    77
1070
     1
1070
   172
1070
     1
1070
    75
1070
     1
1002
}
  0
DIMENSION
  5
1C9
  8
0
  6
CONTINUOUS
 62
     7
  2
*D8
 10
88.59916700000002
 20
85.44005600000001
 30
0.0
 11
56.849167
 21
85.44005600000001
 31
0.0
 70
    32
  3
DIMSTYLE
 13
25.099165
 23
78.44005600000001
 33
0.0
 14
88.59916700000002
 24
70.44006299999998
 34
0.0
1001
ACAD
1000
DSTYLE
1002
{
1070
     6
1000
_NONE
1070
    77
1070
     1
1070
   172
1070
     1
1070
    75
1070
     1
1070
    76
1070
     1
1002
}
  0
DIMENSION
  5
1CA
  8
0
  6
CONTINUOUS
 62
     7
  2
*D9
 10
-38.400833
 20
95.440063
 30
0.0
 11
25.099165
 21
95.440063
 31
0.0
 70
    32
  3
DIMSTYLE
 13
88.59916700000002
 23
70.44006299999998
 33
0.0
 14
-38.400833
 24
70.44006299999998
 34
0.0
1001
ACAD
1000
DSTYLE
1002
{
1070
    77
1070
     1
1070
   172
1070
     1
1002
}
  0
DIMENSION
  5
1CB
  8
0
  6
CONTINUOUS
 62
     7
  2
*D10
 10
103.59915
 20
57.74006700000001
 30
0.0
 11
103.59915
 21
64.090065
 31
0.0
 70
    32
  3
DIMSTYLE
 13
88.59916700000002
 23
70.44006299999998
 33
0.0
 14
84.88916800000001
 24
57.74006700000001
 34
0.0
 50
90.0
1001
ACAD
1000
DSTYLE
1002
{
1070
    77
1070
     1
1070
   172
1070
     1
1070
    75
1070
     1
1002
}
  0
DIMENSION
  5
1CC
  8
0
  6
CONTINUOUS
 62
     7
  2
*D11
 10
103.59915
 20
32.340065
 30
0.0
 11
103.59915
 21
45.04006599999999
 31
0.0
 70
    32
  3
DIMSTYLE
 13
84.88916800000001
 23
57.74006700000001
 33
0.0
 14
73.88916800000001
 24
32.340065
 34
0.0
 50
90.0
1001
ACAD
1000
DSTYLE
1002
{
1070
     6
1000
_NONE
1070
    77
1070
     1
1070
   172
1070
     1
1070
    75
1070
     1
1002
}
  0
DIMENSION
  5
1CD
  8
0
  6
CONTINUOUS
 62
     7
  2
*D12
 10
103.59915
 20
6.9400654
 30
0.0
 11
103.59915
 21
19.640066
 31
0.0
 70
    32
  3
DIMSTYLE
 13
73.88916800000001
 23
32.340065
 33
0.0
 14
84.88916800000001
 24
6.9400654
 34
0.0
 50
90.0
1001
ACAD
1000
DSTYLE
1002
{
1070
     6
1000
_NONE
1070
    77
1070
     1
1070
   172
1070
     1
1070
    75
1070
     1
1002
}
  0
DIMENSION
  5
1CE
  8
0
  6
CONTINUOUS
 62
     7
  2
*D13
 10
103.59915
 20
-18.459936
 30
0.0
 11
103.59915
 21
-5.7599354
 31
0.0
 70
    32
  3
DIMSTYLE
 13
84.88916800000001
 23
6.9400654
 33
0.0
 14
73.88916800000001
 24
-18.459936
 34
0.0
 50
90.0
1001
ACAD
1000
DSTYLE
1002
{
1070
     6
1000
_NONE
1070
    77
1070
     1
1070
   172
1070
     1
1070
    75
1070
     1
1002
}
  0
DIMENSION
  5
1CF
  8
0
  6
CONTINUOUS
 62
     7
  2
*D14
 10
103.59915
 20
-43.85993599999999
 30
0.0
 11
103.59915
 21
-31.159937
 31
0.0
 70
    32
  3
DIMSTYLE
 13
73.88916800000001
 23
-18.459936
 33
0.0
 14
84.88916800000001
 24
-43.85993599999999
 34
0.0
 50
90.0
1001
ACAD
1000
DSTYLE
1002
{
1070
     6
1000
_NONE
1070
    77
1070
     1
1070
   172
1070
     1
1070
    75
1070
     1
1002
}
  0
DIMENSION
  5
1D0
  8
0
  6
CONTINUOUS
 62
     7
  2
*D15
 10
103.59915
 20
-56.55992499999999
 30
0.0
 11
103.59915
 21
-50.20993
 31
0.0
 70
    32
  3
DIMSTYLE
 13
84.88916800000001
 23
-43.85993599999999
 33
0.0
 14
88.59916700000002
 24
-56.55992499999999
 34
0.0
 50
90.0
1001
ACAD
1000
DSTYLE
1002
{
1070
     6
1000
_NONE
1070
    77
1070
     1
1070
   172
1070
     1
1070
    75
1070
     1
1070
    76
1070
     1
1002
}
  0
DIMENSION
  5
1D1
  8
0
  6
CONTINUOUS
 62
     7
  2
*D16
 10
113.59915
 20
70.44006299999998
 30
0.0
 11
113.59915
 21
6.940069199999999
 31
0.0
 70
    32
  3
DIMSTYLE
 13
88.59916700000002
 23
-56.55992499999999
 33
0.0
 14
88.59916700000002
 24
70.44006299999998
 34
0.0
 50
90.0
1001
ACAD
1000
DSTYLE
1002
{
1070
    77
1070
     1
1070
   172
1070
     1
1002
}
  0
DIMENSION
  5
1D2
  8
0
  6
CONTINUOUS
 62
     7
  2
*D17
 10
67.099167
 20
-76.559921
 30
0.0
 11
46.099167
 21
-76.559921
 31
0.0
 70
    32
  3
DIMSTYLE
 13
25.099165
 23
-64.559921
 33
0.0
 14
67.099167
 24
-25.249937
 34
0.0
1001
ACAD
1000
DSTYLE
1002
{
1070
    77
1070
     1
1070
   172
1070
     1
1002
}
  0
DIMENSION
  5
1D3
  8
0
  6
CONTINUOUS
 62
     7
  2
*D18
 10
78.09916700000002
 20
-76.559921
 30
0.0
 11
72.59916700000002
 21
-76.559921
 31
0.0
 70
    32
  3
DIMSTYLE
 13
67.099167
 23
-25.249937
 33
0.0
 14
78.09916700000002
 24
-50.649937
 34
0.0
1001
ACAD
1000
DSTYLE
1002
{
1070
     6
1000
_NONE
1070
    77
1070
     1
1070
   172
1070
     1
1070
    75
1070
     1
1002
}
  0
DIMENSION
  5
1D4
  8
0
  6
CONTINUOUS
 62
     7
  2
*D19
 10
88.59916700000002
 20
-76.559921
 30
0.0
 11
83.349167
 21
-76.559921
 31
0.0
 70
    32
  3
DIMSTYLE
 13
78.09916700000002
 23
-50.649937
 33
0.0
 14
88.59916700000002
 24
-56.55992499999999
 34
0.0
1001
ACAD
1000
DSTYLE
1002
{
1070
     6
1000
_NONE
1070
    77
1070
     1
1070
   172
1070
     1
1070
    75
1070
     1
1002
}
  0
POLYLINE
  5
1D5
  8
0
  6
CONTINUOUS
 62
     7
 66
     1
 10
0.0
 20
0.0
 30
0.0
  0
VERTEX
  5
40B
  8
0
  6
CONTINUOUS
 62
     7
 10
-24.895632
 20
-40.854725
 30
0.0
  0
VERTEX
  5
40C
  8
0
  6
CONTINUOUS
 62
     7
 10
-60.60083
 20
-76.559921
 30
0.0
  0
VERTEX
  5
40D
  8
0
  6
CONTINUOUS
 62
     7
 10
-8.178203599999998
 20
-76.559921
 30
0.0
  0
SEQEND
  5
411
  8
0
  6
CONTINUOUS
 62
     7
  0
TEXT
  5
1DA
  8
0
  6
CONTINUOUS
 62
     7
 10
-45.664204
 20
-75.75992099999996
 30
0.0
 40
3.2
  1
１０－%%C５×%%C８．５サラ
 41
0.8437725099999998
  0
INSERT
  5
1DB
  8
0
  6
CONTINUOUS
 62
     7
  2
*D20
 10
0.0
 20
0.0
 30
0.0
  0
ENDSEC
  0
EOF
