  0
SECTION
  2
HEADER
  9
$ACADVER
  1
AC1009
  9
$DWGCODEPAGE
  3
ansi_932
  9
$INSBASE
 10
0.0
 20
0.0
 30
0.0
  9
$EXTMIN
 10
-211.0
 20
-100.0
 30
0.0
  9
$EXTMAX
 10
170.0
 20
173.0
 30
0.0
  9
$LIMMIN
 10
-211.0
 20
-100.0
  9
$LIMMAX
 10
170.0
 20
173.0
  9
$ORTHOMODE
 70
     0
  9
$REGENMODE
 70
     1
  9
$FILLMODE
 70
     1
  9
$QTEXTMODE
 70
     0
  9
$MIRRTEXT
 70
     1
  9
$DRAGMODE
 70
     2
  9
$LTSCALE
 40
1.0
  9
$OSMODE
 70
  2487
  9
$ATTMODE
 70
     1
  9
$TEXTSIZE
 40
0.2
  9
$TRACEWID
 40
0.05
  9
$TEXTSTYLE
  7
STANDARD
  9
$CLAYER
  8
0
  9
$CELTYPE
  6
CONTINUOUS
  9
$CECOLOR
 62
   256
  9
$DIMSCALE
 40
1.0
  9
$DIMASZ
 40
1.0
  9
$DIMEXO
 40
2.54
  9
$DIMDLI
 40
0.38
  9
$DIMRND
 40
0.0
  9
$DIMDLE
 40
0.0
  9
$DIMEXE
 40
2.54
  9
$DIMTP
 40
0.0
  9
$DIMTM
 40
0.0
  9
$DIMTXT
 40
3.2
  9
$DIMCEN
 40
0.09
  9
$DIMTSZ
 40
0.0
  9
$DIMTOL
 70
     0
  9
$DIMLIM
 70
     0
  9
$DIMTIH
 70
     0
  9
$DIMTOH
 70
     0
  9
$DIMSE1
 70
     0
  9
$DIMSE2
 70
     0
  9
$DIMTAD
 70
     1
  9
$DIMZIN
 70
     0
  9
$DIMBLK
  1

  9
$DIMASO
 70
     1
  9
$DIMSHO
 70
     0
  9
$DIMPOST
  1

  9
$DIMAPOST
  1

  9
$DIMALT
 70
     0
  9
$DIMALTD
 70
     2
  9
$DIMALTF
 40
25.4
  9
$DIMLFAC
 40
1.0
  9
$DIMTOFL
 70
     0
  9
$DIMTVP
 40
1.0
  9
$DIMTIX
 70
     0
  9
$DIMSOXD
 70
     0
  9
$DIMSAH
 70
     1
  9
$DIMBLK1
  1

  9
$DIMBLK2
  1

  9
$DIMSTYLE
  2
DIMSTYLE
  9
$DIMCLRD
 70
     0
  9
$DIMCLRE
 70
     0
  9
$DIMCLRT
 70
     0
  9
$DIMTFAC
 40
1.0
  9
$DIMGAP
 40
1.6
  9
$LUNITS
 70
     2
  9
$LUPREC
 70
     4
  9
$SKETCHINC
 40
0.1
  9
$FILLETRAD
 40
0.0
  9
$AUNITS
 70
     0
  9
$AUPREC
 70
     0
  9
$MENU
  1
.
  9
$ELEVATION
 40
0.0
  9
$PELEVATION
 40
0.0
  9
$THICKNESS
 40
0.0
  9
$LIMCHECK
 70
     0
  9
$CHAMFERA
 40
0.0
  9
$CHAMFERB
 40
0.0
  9
$SKPOLY
 70
     0
  9
$TDCREATE
 40
2453446.636981018
  9
$TDUPDATE
 40
2459941.707666019
  9
$TDINDWG
 40
0.0436530093
  9
$TDUSRTIMER
 40
0.0436506134
  9
$USRTIMER
 70
     1
  9
$ANGBASE
 50
0.0
  9
$ANGDIR
 70
     0
  9
$PDMODE
 70
     0
  9
$PDSIZE
 40
0.0
  9
$PLINEWID
 40
0.0
  9
$COORDS
 70
     0
  9
$SPLFRAME
 70
     0
  9
$SPLINETYPE
 70
     6
  9
$SPLINESEGS
 70
     8
  9
$ATTDIA
 70
     1
  9
$ATTREQ
 70
     1
  9
$HANDLING
 70
     1
  9
$HANDSEED
  5
5A7
  9
$SURFTAB1
 70
     6
  9
$SURFTAB2
 70
     6
  9
$SURFTYPE
 70
     6
  9
$SURFU
 70
     6
  9
$SURFV
 70
     6
  9
$UCSNAME
  2

  9
$UCSORG
 10
0.0
 20
0.0
 30
0.0
  9
$UCSXDIR
 10
1.0
 20
0.0
 30
0.0
  9
$UCSYDIR
 10
0.0
 20
1.0
 30
0.0
  9
$PUCSNAME
  2

  9
$PUCSORG
 10
0.0
 20
0.0
 30
0.0
  9
$PUCSXDIR
 10
1.0
 20
0.0
 30
0.0
  9
$PUCSYDIR
 10
0.0
 20
1.0
 30
0.0
  9
$USERI1
 70
     0
  9
$USERI2
 70
     0
  9
$USERI3
 70
     0
  9
$USERI4
 70
     0
  9
$USERI5
 70
     0
  9
$USERR1
 40
0.0
  9
$USERR2
 40
0.0
  9
$USERR3
 40
0.0
  9
$USERR4
 40
0.0
  9
$USERR5
 40
0.0
  9
$WORLDVIEW
 70
     1
  9
$SHADEDGE
 70
     3
  9
$SHADEDIF
 70
    70
  9
$TILEMODE
 70
     1
  9
$MAXACTVP
 70
    64
  9
$PLIMCHECK
 70
     0
  9
$PEXTMIN
 10
1.000000000000000E+20
 20
1.000000000000000E+20
 30
1.000000000000000E+20
  9
$PEXTMAX
 10
-1.000000000000000E+20
 20
-1.000000000000000E+20
 30
-1.000000000000000E+20
  9
$PLIMMIN
 10
-211.0
 20
-100.0
  9
$PLIMMAX
 10
170.0
 20
173.0
  9
$UNITMODE
 70
     0
  9
$VISRETAIN
 70
     1
  9
$PLINEGEN
 70
     0
  9
$PSLTSCALE
 70
     1
  0
ENDSEC
  0
SECTION
  2
TABLES
  0
TABLE
  2
VPORT
 70
     1
  0
VPORT
  2
*ACTIVE
 70
     0
 10
0.0
 20
0.0
 11
1.0
 21
1.0
 12
-20.50000000000003
 22
36.50000000000001
 13
0.0
 23
0.0
 14
1.0
 24
1.0
 15
0.0
 25
0.0
 16
0.0
 26
0.0
 36
1.0
 17
0.0
 27
0.0
 37
0.0
 40
275.7964148527529
 41
2.073510773130545
 42
50.0
 43
0.0
 44
0.0
 50
0.0
 51
0.0
 71
     0
 72
   100
 73
     1
 74
     1
 75
     0
 76
     0
 77
     0
 78
     0
  0
ENDTAB
  0
TABLE
  2
LTYPE
 70
    19
  0
LTYPE
  2
CONTINUOUS
 70
     0
  3
Solid line
 72
    65
 73
     0
 40
0.0
  0
LTYPE
  2
DASHED
 70
     0
  3
__ __ __ __ __ __ __ __ __ __ __ __ __ __ __
 72
    65
 73
     2
 40
3.5
 49
2.0
 49
-1.5
  0
LTYPE
  2
CENTER
 70
     0
  3
____ _ ____ _ ____ _ ____ _ ____ _ ____ _ ____
 72
    65
 73
     4
 40
17.5
 49
13.0
 49
-1.5
 49
1.5
 49
-1.5
  0
LTYPE
  2
PHANTOM
 70
     0
  3
_____ _ _ _____ _ _ _____ _ _ _____ _ _ ____  
 72
    65
 73
     6
 40
15.5
 49
8.0
 49
-1.5
 49
1.5
 49
-1.5
 49
1.5
 49
-1.5
  0
LTYPE
  2
DOT
 70
     0
  3
. . . . . . . . . . . . . . . . . . . . . . . .
 72
    65
 73
     2
 40
0.25
 49
0.0
 49
-0.25
  0
LTYPE
  2
HIDDEN
 70
     0
  3
__ __ __ __ __ __ __ __ __ __ __ __ __ __ __
 72
    65
 73
     2
 40
3.5
 49
2.0
 49
-1.5
  0
LTYPE
  2
AM_ISO02W050
 70
     0
  3
__ __ __ __ __ __ __ __ __ __ __ __ __ __ __
 72
    65
 73
     2
 40
7.5
 49
6.0
 49
-1.5
  0
LTYPE
  2
AM_ISO08W050
 70
     0
  3
____ . ____ . ____ . ____ . ____ . ____ . ____
 72
    65
 73
     4
 40
18.0
 49
12.0
 49
-1.5
 49
3.0
 49
-1.5
  0
LTYPE
  2
AM_ISO09W050
 70
     0
  3
_____ . . _____ . . _____ . . ____ .. ____
 72
    65
 73
     6
 40
22.5
 49
12.0
 49
-1.5
 49
3.0
 49
-1.5
 49
3.0
 49
-1.5
  0
LTYPE
  2
AMCONSTR
 70
     0
  3
_______________________
 72
    65
 73
     2
 40
9999.0
 49
9999.0
 49
0.0
  0
LTYPE
  2
AM_ISO08W050X2
 70
     0
  3
__ . __ . __ . __ . __ . __
 72
    65
 73
     4
 40
9.0
 49
6.0
 49
-0.75
 49
1.5
 49
-0.75
  0
LTYPE
  2
AM_ISO02W050X2
 70
     0
  3
 _ _ _ _ _ _ _ _ _ _ _ _
 72
    65
 73
     2
 40
3.75
 49
3.0
 49
-0.75
  0
LTYPE
  2
AMZIGZAG
 70
     0
  3
/\/-/\/-/\/-/\/-/\/-/\/
 72
    65
 73
     2
 40
11.00009999999999
 49
0.0001
 49
-11.0
  0
LTYPE
  2
PHANTOM2
 70
     0
  3
Phantom (.5x) ___ _ _ ___ _ _ ___ _ _ ___ _ _
 72
    65
 73
     6
 40
1.25
 49
0.625
 49
-0.125
 49
0.125
 49
-0.125
 49
0.125
 49
-0.125
  0
LTYPE
  2
CENTER2
 70
     0
  3
Center (.5x) ___ _ ___ _ ___ _ ___ _ ___ _ ___
 72
    65
 73
     4
 40
1.125
 49
0.75
 49
-0.125
 49
0.125
 49
-0.125
  0
LTYPE
  2
HIDDEN2
 70
     0
  3
Hidden (.5x) _ _ _ _ _ _ _ _ _ _ _ _ _ _ _ _ _
 72
    65
 73
     2
 40
0.1875
 49
0.125
 49
-0.0625
  0
LTYPE
  2
AMZIGZAG2
 70
     0
  3
/\/-/\/-/\/-/\/-/\/-/\/
 72
    65
 73
     2
 40
0.4401
 49
0.0001
 49
-0.4400000000000003
  0
LTYPE
  2
ACANSTGB
 70
     0
  3
__ . . __ . .
 72
    65
 73
     6
 40
0.35433070866
 49
0.15748031496
 49
-0.03937007874
 49
0.03937007874
 49
-0.03937007874
 49
0.03937007874
 49
-0.03937007874
  0
LTYPE
  2
ACANSTGL
 70
     0
  3
_ _ _ _ _
 72
    65
 73
     2
 40
0.11811023622
 49
0.07874015748
 49
-0.03937007874
  0
ENDTAB
  0
TABLE
  2
LAYER
 70
     6
  0
LAYER
  2
0
 70
     0
 62
     7
  6
CONTINUOUS
  0
LAYER
  2
1
 70
     0
 62
     7
  6
CONTINUOUS
  0
LAYER
  2
2
 70
     0
 62
     7
  6
CONTINUOUS
  0
LAYER
  2
DEFPOINTS
 70
     0
 62
     7
  6
CONTINUOUS
  0
LAYER
  2
AM_CL
 70
     0
 62
     1
  6
AMCONSTR
  0
LAYER
  2
AM_5
 70
     0
 62
     3
  6
CONTINUOUS
  0
ENDTAB
  0
TABLE
  2
STYLE
 70
     3
  0
STYLE
  2
STANDARD
 70
     0
 40
0.0
 41
1.0
 50
0.0
 71
     0
 42
0.2
  3
txt
  4
BIGFONT
  0
STYLE
  2

 70
     1
 40
0.0
 41
1.0
 50
0.0
 71
     0
 42
3.2
  3
ltypeshp.shx
  4

  0
STYLE
  2
ACANSTS
 70
     0
 40
1.0
 41
1.0
 50
0.0
 71
     0
 42
3.2
  3
romans.shx
  4
extfont.shx
  0
STYLE
  2
ACANSGDT
 70
     0
 40
0.0
 41
1.0
 50
0.0
 71
     0
 42
3.2
  3
amgdt.shx
  4

  0
ENDTAB
  0
TABLE
  2
VIEW
 70
     0
  0
ENDTAB
  0
TABLE
  2
UCS
 70
     0
  0
ENDTAB
  0
TABLE
  2
APPID
 70
    52
  0
APPID
  2
ACAD
 70
     0
  0
APPID
  2
MCAD_NO_VIS
 70
     0
  0
APPID
  2
ACAD_TEMP_GRAPHIC
 70
     0
  0
APPID
  2
ACATTRIBSERVICES
 70
     0
  0
APPID
  2
AD_DRAW
 70
     0
  0
APPID
  2
DESIGNERASSEMBLIES
 70
     0
  0
APPID
  2
ACADM_DIM_EDIT
 70
     0
  0
APPID
  2
AMDT_DM_ADJ
 70
     0
  0
APPID
  2
ACAD_DSTYLE_DIMBREAK
 70
     0
  0
APPID
  2
ACAD_DSTYLE_DIMJAG
 70
     0
  0
APPID
  2
ACAD_NAV_VCDISPLAY
 70
     0
  0
APPID
  2
ACAECLAYERSTANDARD
 70
     0
  0
APPID
  2
ACAD_MLEADERVER
 70
     0
  0
APPID
  2
HC_SUPERPART
 70
     0
  0
APPID
  2
HC_SP4BLOCK
 70
     0
  0
APPID
  2
HC_XDATA_SPRING
 70
     0
  0
APPID
  2
HCCAD_FRAME
 70
     0
  0
APPID
  2
GENIUS_GENOLIS_13
 70
     0
  0
APPID
  2
GENIUS_GENOENT_13
 70
     0
  0
APPID
  2
GENIUS_GENODEF_13
 70
     0
  0
APPID
  2
GENIUS_GENOREF_13
 70
     0
  0
APPID
  2
GENIUS_GENOBJ-N-TIT_13
 70
     0
  0
APPID
  2
GENIUS_GENOBJ-N-SDF_13
 70
     0
  0
APPID
  2
GENIUS_GENOBJ-N-ZOO_13
 70
     0
  0
APPID
  2
GENIUS_GENTITLE_13
 70
     0
  0
APPID
  2
GENIUS_GENSCREG_15
 70
     0
  0
APPID
  2
GENIUS_GENSYMENT_13
 70
     0
  0
APPID
  2
GENIUS_GENSCSYM_13
 70
     0
  0
APPID
  2
GENIUS_GENOBJ-N-REV_13
 70
     0
  0
APPID
  2
GENIUS_GENOBJ-N-RSSYM_13
 70
     0
  0
APPID
  2
GENIUS_GENREV_15
 70
     0
  0
APPID
  2
HRA
 70
     0
  0
APPID
  2
HTIT
 70
     0
  0
APPID
  2
GENIUS_GENZOO_17
 70
     0
  0
APPID
  2
GENIUS_GENOBJ-N-CEN_13
 70
     0
  0
APPID
  2
GENIUS_GENCEN_19
 70
     0
  0
APPID
  2
GENIUS_GENOBJ-N-CRS_13
 70
     0
  0
APPID
  2
GENIUS_GENCRS_20
 70
     0
  0
APPID
  2
GENIUS_GENOBJ-N-CRC_13
 70
     0
  0
APPID
  2
GENIUS_GENCRC_14
 70
     0
  0
APPID
  2
GENIUS_GENFIL_13
 70
     0
  0
APPID
  2
GENIUS_GENOBJ-N-CHA_13
 70
     0
  0
APPID
  2
GENIUS_GENOBJ-N-FIL_13
 70
     0
  0
APPID
  2
GENIUS_GENHATCH_13
 70
     0
  0
APPID
  2
GENIUS_GENOBJ-N-HTC_13
 70
     0
  0
APPID
  2
GENIUS_GENDIM_13
 70
     0
  0
APPID
  2
GENIUS_GENOBJ-N-DIM_13
 70
     0
  0
APPID
  2
GENIUS_GENOBJ-N-DIMLI_13
 70
     0
  0
APPID
  2
GENIUS_GENOBJ-N-FITL_13
 70
     0
  0
APPID
  2
GENIUS_GENFITL_13
 70
     0
  0
APPID
  2
GENIUS_GENDTOL_13
 70
     0
  0
APPID
  2
GENLAYCOLOR
 70
     0
  0
ENDTAB
  0
TABLE
  2
DIMSTYLE
 70
     7
  0
DIMSTYLE
  2
DIMSTYLE
 70
     0
  3

  4

  5

  6

  7

 40
1.0
 41
1.0
 42
2.54
 43
0.38
 44
2.54
 45
0.0
 46
0.0
 47
0.0
 48
0.0
140
3.2
141
0.09
142
0.0
143
25.4
144
1.0
145
0.0
146
1.0
147
1.6
 71
     0
 72
     0
 73
     0
 74
     0
 75
     0
 76
     0
 77
     0
 78
     0
170
     0
171
     2
172
     0
173
     1
174
     0
175
     0
176
     0
177
     0
178
     0
  0
DIMSTYLE
  2
AM_ANSI
 70
     0
  3

  4
mm
  5

  6

  7

 40
1.0
 41
0.1
 42
0.05
 43
0.5
 44
0.1
 45
0.0
 46
0.0
 47
0.1
 48
0.1
140
0.12
141
0.0
142
0.0
143
25.4
144
1.0
145
0.0
146
0.71
147
0.06
 71
     0
 72
     0
 73
     1
 74
     1
 75
     0
 76
     0
 77
     0
 78
     7
170
     0
171
     2
172
     0
173
     0
174
     0
175
     0
176
   256
177
   256
178
     2
  0
DIMSTYLE
  2
AM_ANSI$3
 70
     0
  3

  4
mm
  5

  6

  7

 40
1.0
 41
0.1
 42
0.05
 43
0.5
 44
0.1
 45
0.0
 46
0.0
 47
0.1
 48
0.1
140
0.12
141
0.0
142
0.0
143
25.4
144
1.0
145
0.0
146
0.71
147
0.06
 71
     0
 72
     0
 73
     1
 74
     1
 75
     0
 76
     0
 77
     0
 78
     7
170
     0
171
     2
172
     0
173
     0
174
     0
175
     0
176
   256
177
   256
178
     2
  0
DIMSTYLE
  2
AM_ANSI$4
 70
     0
  3

  4
mm
  5

  6

  7

 40
1.0
 41
0.1
 42
0.05
 43
0.5
 44
0.1
 45
0.0
 46
0.0
 47
0.1
 48
0.1
140
0.12
141
0.0
142
0.0
143
25.4
144
1.0
145
0.0
146
0.71
147
0.06
 71
     0
 72
     0
 73
     1
 74
     1
 75
     0
 76
     0
 77
     0
 78
     7
170
     0
171
     2
172
     0
173
     0
174
     0
175
     0
176
   256
177
   256
178
     2
  0
DIMSTYLE
  2
AM_ANSI$7
 70
     0
  3

  4
mm
  5

  6

  7

 40
1.0
 41
0.1
 42
0.05
 43
0.5
 44
0.1
 45
0.0
 46
0.0
 47
0.1
 48
0.1
140
0.24
141
0.0
142
0.0
143
25.4
144
1.0
145
0.0
146
0.71
147
0.06
 71
     0
 72
     0
 73
     1
 74
     1
 75
     0
 76
     0
 77
     0
 78
     7
170
     0
171
     2
172
     0
173
     0
174
     0
175
     0
176
   256
177
   256
178
     2
  0
DIMSTYLE
  2
AM_ANSI$SF
 70
     0
  3

  4
mm
  5

  6

  7

 40
1.0
 41
0.1
 42
0.05
 43
0.5
 44
0.1
 45
0.0
 46
0.0
 47
0.1
 48
0.1
140
0.12
141
0.0
142
0.0
143
25.4
144
1.0
145
0.0
146
0.71
147
0.06
 71
     0
 72
     0
 73
     1
 74
     1
 75
     1
 76
     1
 77
     0
 78
     7
170
     0
171
     2
172
     0
173
     0
174
     0
175
     0
176
   256
177
   256
178
     2
  0
DIMSTYLE
  2
AM_ANSI$SH
 70
     0
  3

  4
mm
  5

  6
GENAXEH
  7

 40
1.0
 41
0.1
 42
0.05
 43
0.5
 44
0.1
 45
0.0
 46
0.0
 47
0.1
 48
0.1
140
0.12
141
0.0
142
0.0
143
25.4
144
1.0
145
0.0
146
0.71
147
0.06
 71
     0
 72
     0
 73
     1
 74
     1
 75
     1
 76
     1
 77
     0
 78
     7
170
     0
171
     2
172
     0
173
     1
174
     0
175
     0
176
   256
177
   256
178
     2
  0
ENDTAB
  0
ENDSEC
  0
SECTION
  2
BLOCKS
  0
BLOCK
  8
0
  2
$MODEL_SPACE
 70
     0
 10
0.0
 20
0.0
 30
0.0
  3
$MODEL_SPACE
  1

  0
ENDBLK
  5
20
  8
0
  0
BLOCK
 67
     1
  8
0
  2
$PAPER_SPACE
 70
     0
 10
0.0
 20
0.0
 30
0.0
  3
$PAPER_SPACE
  1

  0
ENDBLK
  5
1C
 67
     1
  8
0
  0
BLOCK
  8
0
  2
_DOT
 70
     0
 10
0.0
 20
0.0
 30
0.0
  3
_DOT
  1

  0
POLYLINE
  5
30
  8
0
  6
BYBLOCK
 62
     0
 66
     1
 10
0.0
 20
0.0
 30
0.0
 70
     1
 40
0.4000000100000002
 41
0.4000000100000002
  0
VERTEX
  5
5A2
  8
0
  6
BYBLOCK
 62
     0
 10
-0.2
 20
0.0
 30
0.0
 42
1.0
  0
VERTEX
  5
5A3
  8
0
  6
BYBLOCK
 62
     0
 10
0.2
 20
0.0
 30
0.0
 42
1.0
  0
SEQEND
  5
5A6
  8
0
  6
BYBLOCK
 62
     0
  0
LINE
  5
34
  8
0
  6
BYBLOCK
 62
     0
 10
-0.4000000100000002
 20
0.0
 30
0.0
 11
-3.0
 21
0.0
 31
0.0
  0
ENDBLK
  5
35
  8
0
  0
BLOCK
  8
0
  2
_NONE
 70
     0
 10
0.0
 20
0.0
 30
0.0
  3
_NONE
  1

  0
CIRCLE
  5
38
  8
0
  6
BYBLOCK
 62
     0
 10
0.0
 20
0.0
 30
0.0
 40
0.001
  0
ENDBLK
  5
39
  8
0
  0
BLOCK
  8
0
  2
*D2
 70
     1
 10
0.0
 20
0.0
 30
0.0
  3
*D2
  1

  0
LINE
  5
3C
  8
0
  6
CONTINUOUS
 62
     7
 10
-25.900835
 20
85.44005600000001
 30
0.0
 11
25.099165
 21
85.44005600000001
 31
0.0
  0
INSERT
  5
3D
  8
0
  6
CONTINUOUS
 62
     7
  2
_DOT
 10
-25.900835
 20
85.44005600000001
 30
0.0
 50
180.0
  0
INSERT
  5
3E
  8
0
  6
CONTINUOUS
 62
     7
  2
_DOT
 10
25.099165
 20
85.44005600000001
 30
0.0
  0
LINE
  5
3F
  8
0
  6
CONTINUOUS
 62
     7
 10
25.099165
 20
80.98006299999999
 30
0.0
 11
25.099165
 21
86.64005300000004
 31
0.0
  0
TEXT
  5
40
  8
0
  6
CONTINUOUS
 62
     7
 10
-3.143834999999998
 20
86.24005600000002
 30
0.0
 40
3.2
  1
51
 41
1.186874999999999
  0
POINT
  5
41
  8
DEFPOINTS
  6
CONTINUOUS
 62
     7
 10
-25.900835
 20
71.440063
 30
0.0
  0
POINT
  5
42
  8
DEFPOINTS
  6
CONTINUOUS
 62
     7
 10
25.099165
 20
78.440063
 30
0.0
  0
POINT
  5
43
  8
DEFPOINTS
  6
CONTINUOUS
 62
     7
 10
25.099165
 20
85.44005600000001
 30
0.0
  0
ENDBLK
  5
44
  8
0
  0
BLOCK
  8
0
  2
*D3
 70
     1
 10
0.0
 20
0.0
 30
0.0
  3
*D3
  1

  0
LINE
  5
47
  8
0
  6
CONTINUOUS
 62
     7
 10
25.099165
 20
85.44005600000001
 30
0.0
 11
76.09916700000002
 21
85.44005600000001
 31
0.0
  0
INSERT
  5
48
  8
0
  6
CONTINUOUS
 62
     7
  2
_DOT
 10
76.09916700000002
 20
85.44005600000001
 30
0.0
  0
TEXT
  5
49
  8
0
  6
CONTINUOUS
 62
     7
 10
47.856167
 20
86.24005600000002
 30
0.0
 40
3.2
  1
51
 41
1.186874999999999
  0
POINT
  5
4A
  8
DEFPOINTS
  6
CONTINUOUS
 62
     7
 10
25.099165
 20
78.440063
 30
0.0
  0
POINT
  5
4B
  8
DEFPOINTS
  6
CONTINUOUS
 62
     7
 10
76.09916700000002
 20
71.440063
 30
0.0
  0
POINT
  5
4C
  8
DEFPOINTS
  6
CONTINUOUS
 62
     7
 10
76.09916700000002
 20
85.44005600000001
 30
0.0
  0
ENDBLK
  5
4D
  8
0
  0
BLOCK
  8
0
  2
*D4
 70
     1
 10
0.0
 20
0.0
 30
0.0
  3
*D4
  1

  0
LINE
  5
50
  8
0
  6
CONTINUOUS
 62
     7
 10
76.09916700000002
 20
95.440063
 30
0.0
 11
-25.900835
 21
95.440063
 31
0.0
  0
INSERT
  5
51
  8
0
  6
CONTINUOUS
 62
     7
  2
_DOT
 10
76.09916700000002
 20
95.440063
 30
0.0
  0
INSERT
  5
52
  8
0
  6
CONTINUOUS
 62
     7
  2
_DOT
 10
-25.900835
 20
95.440063
 30
0.0
 50
180.0
  0
LINE
  5
53
  8
0
  6
CONTINUOUS
 62
     7
 10
76.09916700000002
 20
73.980063
 30
0.0
 11
76.09916700000002
 21
96.64006
 31
0.0
  0
LINE
  5
54
  8
0
  6
CONTINUOUS
 62
     7
 10
-25.900835
 20
73.980063
 30
0.0
 11
-25.900835
 21
96.64006
 31
0.0
  0
TEXT
  5
55
  8
0
  6
CONTINUOUS
 62
     7
 10
20.756165
 20
96.240063
 30
0.0
 40
3.2
  1
102
 41
1.2527885
  0
POINT
  5
56
  8
DEFPOINTS
  6
CONTINUOUS
 62
     7
 10
76.09916700000002
 20
71.440063
 30
0.0
  0
POINT
  5
57
  8
DEFPOINTS
  6
CONTINUOUS
 62
     7
 10
-25.900835
 20
71.440063
 30
0.0
  0
POINT
  5
58
  8
DEFPOINTS
  6
CONTINUOUS
 62
     7
 10
-25.900835
 20
95.440063
 30
0.0
  0
ENDBLK
  5
59
  8
0
  0
BLOCK
  8
0
  2
*D5
 70
     1
 10
0.0
 20
0.0
 30
0.0
  3
*D5
  1

  0
LINE
  5
5C
  8
0
  6
CONTINUOUS
 62
     7
 10
91.099152
 20
71.440063
 30
0.0
 11
91.099152
 21
58.740067
 31
0.0
  0
INSERT
  5
5D
  8
0
  6
CONTINUOUS
 62
     7
  2
_DOT
 10
91.099152
 20
71.440063
 30
0.0
 50
90.0
  0
INSERT
  5
5E
  8
0
  6
CONTINUOUS
 62
     7
  2
_DOT
 10
91.099152
 20
58.740067
 30
0.0
 50
270.0
  0
LINE
  5
5F
  8
0
  6
CONTINUOUS
 62
     7
 10
76.139167
 20
58.740067
 30
0.0
 11
92.299149
 21
58.740067
 31
0.0
  0
TEXT
  5
60
  8
0
  6
CONTINUOUS
 62
     7
 10
90.299152
 20
59.14706500000001
 30
0.0
 40
3.2
  1
12.7
 50
90.000003
 41
1.3928906
  0
POINT
  5
61
  8
DEFPOINTS
  6
CONTINUOUS
 62
     7
 10
76.09916700000002
 20
71.440063
 30
0.0
  0
POINT
  5
62
  8
DEFPOINTS
  6
CONTINUOUS
 62
     7
 10
73.59916700000002
 20
58.740067
 30
0.0
  0
POINT
  5
63
  8
DEFPOINTS
  6
CONTINUOUS
 62
     7
 10
91.099152
 20
58.740067
 30
0.0
  0
ENDBLK
  5
64
  8
0
  0
BLOCK
  8
0
  2
*D6
 70
     1
 10
0.0
 20
0.0
 30
0.0
  3
*D6
  1

  0
LINE
  5
67
  8
0
  6
CONTINUOUS
 62
     7
 10
91.099152
 20
58.740067
 30
0.0
 11
91.099152
 21
33.340065
 31
0.0
  0
INSERT
  5
68
  8
0
  6
CONTINUOUS
 62
     7
  2
_DOT
 10
91.099152
 20
33.340065
 30
0.0
 50
270.0
  0
LINE
  5
69
  8
0
  6
CONTINUOUS
 62
     7
 10
65.139167
 20
33.340065
 30
0.0
 11
92.299149
 21
33.340065
 31
0.0
  0
TEXT
  5
6A
  8
0
  6
CONTINUOUS
 62
     7
 10
90.299152
 20
40.097066
 30
0.0
 40
3.2
  1
25.4
 50
90.000003
 41
1.238124999999999
  0
POINT
  5
6B
  8
DEFPOINTS
  6
CONTINUOUS
 62
     7
 10
73.59916700000002
 20
58.740067
 30
0.0
  0
POINT
  5
6C
  8
DEFPOINTS
  6
CONTINUOUS
 62
     7
 10
62.599167
 20
33.340065
 30
0.0
  0
POINT
  5
6D
  8
DEFPOINTS
  6
CONTINUOUS
 62
     7
 10
91.099152
 20
33.340065
 30
0.0
  0
ENDBLK
  5
6E
  8
0
  0
BLOCK
  8
0
  2
*D7
 70
     1
 10
0.0
 20
0.0
 30
0.0
  3
*D7
  1

  0
LINE
  5
71
  8
0
  6
CONTINUOUS
 62
     7
 10
91.099152
 20
33.340065
 30
0.0
 11
91.099152
 21
7.940062499999998
 31
0.0
  0
INSERT
  5
72
  8
0
  6
CONTINUOUS
 62
     7
  2
_DOT
 10
91.099152
 20
7.940062499999998
 30
0.0
 50
270.0
  0
LINE
  5
73
  8
0
  6
CONTINUOUS
 62
     7
 10
76.139167
 20
7.940062499999998
 30
0.0
 11
92.299149
 21
7.940062499999998
 31
0.0
  0
TEXT
  5
74
  8
0
  6
CONTINUOUS
 62
     7
 10
90.299152
 20
14.697062
 30
0.0
 40
3.2
  1
25.4
 50
90.000003
 41
1.238124999999999
  0
POINT
  5
75
  8
DEFPOINTS
  6
CONTINUOUS
 62
     7
 10
62.599167
 20
33.340065
 30
0.0
  0
POINT
  5
76
  8
DEFPOINTS
  6
CONTINUOUS
 62
     7
 10
73.59916700000002
 20
7.940062499999998
 30
0.0
  0
POINT
  5
77
  8
DEFPOINTS
  6
CONTINUOUS
 62
     7
 10
91.099152
 20
7.940062499999998
 30
0.0
  0
ENDBLK
  5
78
  8
0
  0
BLOCK
  8
0
  2
*D8
 70
     1
 10
0.0
 20
0.0
 30
0.0
  3
*D8
  1

  0
LINE
  5
7B
  8
0
  6
CONTINUOUS
 62
     7
 10
91.099152
 20
7.940062499999998
 30
0.0
 11
91.099152
 21
-17.45994
 31
0.0
  0
INSERT
  5
7C
  8
0
  6
CONTINUOUS
 62
     7
  2
_DOT
 10
91.099152
 20
-17.45994
 30
0.0
 50
270.0
  0
LINE
  5
7D
  8
0
  6
CONTINUOUS
 62
     7
 10
65.139167
 20
-17.45994
 30
0.0
 11
92.299149
 21
-17.45994
 31
0.0
  0
TEXT
  5
7E
  8
0
  6
CONTINUOUS
 62
     7
 10
90.299152
 20
-10.70293799999999
 30
0.0
 40
3.2
  1
25.4
 50
90.000003
 41
1.238124999999999
  0
POINT
  5
7F
  8
DEFPOINTS
  6
CONTINUOUS
 62
     7
 10
73.59916700000002
 20
7.940062499999998
 30
0.0
  0
POINT
  5
80
  8
DEFPOINTS
  6
CONTINUOUS
 62
     7
 10
62.599167
 20
-17.45994
 30
0.0
  0
POINT
  5
81
  8
DEFPOINTS
  6
CONTINUOUS
 62
     7
 10
91.099152
 20
-17.45994
 30
0.0
  0
ENDBLK
  5
82
  8
0
  0
BLOCK
  8
0
  2
*D9
 70
     1
 10
0.0
 20
0.0
 30
0.0
  3
*D9
  1

  0
LINE
  5
85
  8
0
  6
CONTINUOUS
 62
     7
 10
91.099152
 20
-17.45994
 30
0.0
 11
91.099152
 21
-42.85994
 31
0.0
  0
INSERT
  5
86
  8
0
  6
CONTINUOUS
 62
     7
  2
_DOT
 10
91.099152
 20
-42.85994
 30
0.0
 50
270.0
  0
LINE
  5
87
  8
0
  6
CONTINUOUS
 62
     7
 10
76.139167
 20
-42.85994
 30
0.0
 11
92.299149
 21
-42.85994
 31
0.0
  0
TEXT
  5
88
  8
0
  6
CONTINUOUS
 62
     7
 10
90.299152
 20
-36.102939
 30
0.0
 40
3.2
  1
25.4
 50
90.000003
 41
1.238124999999999
  0
POINT
  5
89
  8
DEFPOINTS
  6
CONTINUOUS
 62
     7
 10
62.599167
 20
-17.45994
 30
0.0
  0
POINT
  5
8A
  8
DEFPOINTS
  6
CONTINUOUS
 62
     7
 10
73.59916700000002
 20
-42.85994
 30
0.0
  0
POINT
  5
8B
  8
DEFPOINTS
  6
CONTINUOUS
 62
     7
 10
91.099152
 20
-42.85994
 30
0.0
  0
ENDBLK
  5
8C
  8
0
  0
BLOCK
  8
0
  2
*D10
 70
     1
 10
0.0
 20
0.0
 30
0.0
  3
*D10
  1

  0
LINE
  5
8F
  8
0
  6
CONTINUOUS
 62
     7
 10
91.099152
 20
-42.85994
 30
0.0
 11
91.099152
 21
-55.559937
 31
0.0
  0
INSERT
  5
90
  8
0
  6
CONTINUOUS
 62
     7
  2
_DOT
 10
91.099152
 20
-55.559937
 30
0.0
 50
270.0
  0
TEXT
  5
91
  8
0
  6
CONTINUOUS
 62
     7
 10
90.299152
 20
-55.152938
 30
0.0
 40
3.2
  1
12.7
 50
90.000003
 41
1.3928906
  0
POINT
  5
92
  8
DEFPOINTS
  6
CONTINUOUS
 62
     7
 10
73.59916700000002
 20
-42.85994
 30
0.0
  0
POINT
  5
93
  8
DEFPOINTS
  6
CONTINUOUS
 62
     7
 10
76.09916700000002
 20
-55.559937
 30
0.0
  0
POINT
  5
94
  8
DEFPOINTS
  6
CONTINUOUS
 62
     7
 10
91.099152
 20
-55.559937
 30
0.0
  0
ENDBLK
  5
95
  8
0
  0
BLOCK
  8
0
  2
*D11
 70
     1
 10
0.0
 20
0.0
 30
0.0
  3
*D11
  1

  0
LINE
  5
98
  8
0
  6
CONTINUOUS
 62
     7
 10
101.09915
 20
-55.559937
 30
0.0
 11
101.09915
 21
71.440063
 31
0.0
  0
INSERT
  5
99
  8
0
  6
CONTINUOUS
 62
     7
  2
_DOT
 10
101.09915
 20
-55.559937
 30
0.0
 50
270.0
  0
INSERT
  5
9A
  8
0
  6
CONTINUOUS
 62
     7
  2
_DOT
 10
101.09915
 20
71.440063
 30
0.0
 50
90.0
  0
LINE
  5
9B
  8
0
  6
CONTINUOUS
 62
     7
 10
78.639167
 20
-55.559937
 30
0.0
 11
102.29915
 21
-55.559937
 31
0.0
  0
LINE
  5
9C
  8
0
  6
CONTINUOUS
 62
     7
 10
78.639167
 20
71.440063
 30
0.0
 11
102.29915
 21
71.440063
 31
0.0
  0
TEXT
  5
9D
  8
0
  6
CONTINUOUS
 62
     7
 10
100.29915
 20
3.597062499999998
 30
0.0
 40
3.2
  1
127
 50
90.000003
 41
1.1633036
  0
POINT
  5
9E
  8
DEFPOINTS
  6
CONTINUOUS
 62
     7
 10
76.09916700000002
 20
-55.559937
 30
0.0
  0
POINT
  5
9F
  8
DEFPOINTS
  6
CONTINUOUS
 62
     7
 10
76.09916700000002
 20
71.440063
 30
0.0
  0
POINT
  5
A0
  8
DEFPOINTS
  6
CONTINUOUS
 62
     7
 10
101.09915
 20
71.440063
 30
0.0
  0
ENDBLK
  5
A1
  8
0
  0
BLOCK
  8
0
  2
*D12
 70
     1
 10
0.0
 20
0.0
 30
0.0
  3
*D12
  1

  0
LINE
  5
A4
  8
0
  6
CONTINUOUS
 62
     7
 10
25.099165
 20
-74.559937
 30
0.0
 11
54.599167
 21
-74.559937
 31
0.0
  0
INSERT
  5
A5
  8
0
  6
CONTINUOUS
 62
     7
  2
_DOT
 10
25.099165
 20
-74.559937
 30
0.0
 50
180.0
  0
INSERT
  5
A6
  8
0
  6
CONTINUOUS
 62
     7
  2
_DOT
 10
54.599167
 20
-74.559937
 30
0.0
  0
LINE
  5
A7
  8
0
  6
CONTINUOUS
 62
     7
 10
25.099165
 20
-65.099936
 30
0.0
 11
25.099165
 21
-75.75994099999998
 31
0.0
  0
LINE
  5
A8
  8
0
  6
CONTINUOUS
 62
     7
 10
54.599167
 20
-27.99994
 30
0.0
 11
54.599167
 21
-75.75994099999998
 31
0.0
  0
TEXT
  5
A9
  8
0
  6
CONTINUOUS
 62
     7
 10
33.90616699999998
 20
-73.75993699999998
 30
0.0
 40
3.2
  1
29.5
 41
1.238124999999999
  0
POINT
  5
AA
  8
DEFPOINTS
  6
CONTINUOUS
 62
     7
 10
25.099165
 20
-62.559937
 30
0.0
  0
POINT
  5
AB
  8
DEFPOINTS
  6
CONTINUOUS
 62
     7
 10
54.599167
 20
-25.45994
 30
0.0
  0
POINT
  5
AC
  8
DEFPOINTS
  6
CONTINUOUS
 62
     7
 10
54.599167
 20
-74.559937
 30
0.0
  0
ENDBLK
  5
AD
  8
0
  0
BLOCK
  8
0
  2
*D13
 70
     1
 10
0.0
 20
0.0
 30
0.0
  3
*D13
  1

  0
LINE
  5
B0
  8
0
  6
CONTINUOUS
 62
     7
 10
54.599167
 20
-74.559937
 30
0.0
 11
65.59916700000001
 21
-74.559937
 31
0.0
  0
INSERT
  5
B1
  8
0
  6
CONTINUOUS
 62
     7
  2
_DOT
 10
65.59916700000001
 20
-74.559937
 30
0.0
  0
LINE
  5
B2
  8
0
  6
CONTINUOUS
 62
     7
 10
65.59916700000001
 20
-53.399939
 30
0.0
 11
65.59916700000001
 21
-75.75994099999998
 31
0.0
  0
TEXT
  5
B3
  8
0
  6
CONTINUOUS
 62
     7
 10
57.35616700000001
 20
-73.75993699999998
 30
0.0
 40
3.2
  1
11
 41
1.5429375
  0
POINT
  5
B4
  8
DEFPOINTS
  6
CONTINUOUS
 62
     7
 10
54.599167
 20
-25.45994
 30
0.0
  0
POINT
  5
B5
  8
DEFPOINTS
  6
CONTINUOUS
 62
     7
 10
65.59916700000001
 20
-50.85994
 30
0.0
  0
POINT
  5
B6
  8
DEFPOINTS
  6
CONTINUOUS
 62
     7
 10
65.59916700000001
 20
-74.559937
 30
0.0
  0
ENDBLK
  5
B7
  8
0
  0
BLOCK
  8
0
  2
*D14
 70
     1
 10
0.0
 20
0.0
 30
0.0
  3
*D14
  1

  0
LINE
  5
BA
  8
0
  6
CONTINUOUS
 62
     7
 10
76.09916700000002
 20
-74.559937
 30
0.0
 11
92.769043
 21
-74.559937
 31
0.0
  0
LINE
  5
BB
  8
0
  6
CONTINUOUS
 62
     7
 10
65.59916700000001
 20
-74.559937
 30
0.0
 11
76.09916700000002
 21
-74.559937
 31
0.0
  0
INSERT
  5
BC
  8
0
  6
CONTINUOUS
 62
     7
  2
_DOT
 10
76.09916700000002
 20
-74.559937
 30
0.0
  0
LINE
  5
BD
  8
0
  6
CONTINUOUS
 62
     7
 10
76.09916700000002
 20
-58.099936
 30
0.0
 11
76.09916700000002
 21
-75.75994099999998
 31
0.0
  0
TEXT
  5
BE
  8
0
  6
CONTINUOUS
 62
     7
 10
80.88305
 20
-73.75993699999998
 30
0.0
 40
3.2
  1
10.5
 41
1.485749999999999
  0
POINT
  5
BF
  8
DEFPOINTS
  6
CONTINUOUS
 62
     7
 10
65.59916700000001
 20
-50.85994
 30
0.0
  0
POINT
  5
C0
  8
DEFPOINTS
  6
CONTINUOUS
 62
     7
 10
76.09916700000002
 20
-55.559937
 30
0.0
  0
POINT
  5
C1
  8
DEFPOINTS
  6
CONTINUOUS
 62
     7
 10
76.09916700000002
 20
-74.559937
 30
0.0
  0
ENDBLK
  5
C2
  8
0
  0
BLOCK
  8
0
  2
*D15
 70
     1
 10
0.0
 20
0.0
 30
0.0
  3
*D15
  1

  0
LINE
  5
C5
  8
0
  6
CONTINUOUS
 62
     7
 10
-12.395631
 20
-39.85473300000001
 30
0.0
 11
-18.406038
 21
-45.86513899999999
 31
0.0
  0
INSERT
  5
C6
  8
0
  6
CONTINUOUS
 62
     7
  2
_DOT
 10
-12.395631
 20
-39.85473300000001
 30
0.0
 50
44.99999499999999
  0
INSERT
  5
C7
  8
0
  6
CONTINUOUS
 62
     7
  2
_DOT
 10
-18.406038
 20
-45.86513899999999
 30
0.0
 50
225.0
  0
TEXT
  5
C8
  8
0
  6
CONTINUOUS
 62
     7
 10
-31.158415
 20
-73.75993699999998
 30
0.0
 40
3.2
  1
  
 41
3.085875
  0
POINT
  5
C9
  8
DEFPOINTS
  6
CONTINUOUS
 62
     7
 10
-12.395631
 20
-39.85473300000001
 30
0.0
  0
POINT
  5
CA
  8
DEFPOINTS
  6
CONTINUOUS
 62
     7
 10
-18.406038
 20
-45.86513899999999
 30
0.0
  0
ENDBLK
  5
CB
  8
0
  0
BLOCK
  8
0
  2
*D16
 70
     1
 10
0.0
 20
0.0
 30
0.0
  3
*D16
  1

  0
LINE
  5
CE
  8
0
  6
CONTINUOUS
 62
     7
 10
29.695362
 20
144.7254599999999
 30
0.0
 11
20.50297399999998
 21
135.53308
 31
0.0
  0
INSERT
  5
CF
  8
0
  6
CONTINUOUS
 62
     7
  2
_DOT
 10
29.695362
 20
144.7254599999999
 30
0.0
 50
44.999982
  0
INSERT
  5
D0
  8
0
  6
CONTINUOUS
 62
     7
  2
_DOT
 10
20.50297399999998
 20
135.53308
 30
0.0
 50
224.9999799999999
  0
TEXT
  5
D1
  8
0
  6
CONTINUOUS
 62
     7
 10
-6.663398799999997
 20
119.4292699999997
 30
0.0
 40
3.2
  1
  
 41
3.085875
  0
POINT
  5
D2
  8
DEFPOINTS
  6
CONTINUOUS
 62
     7
 10
29.695362
 20
144.7254599999999
 30
0.0
  0
POINT
  5
D3
  8
DEFPOINTS
  6
CONTINUOUS
 62
     7
 10
20.50297399999998
 20
135.53308
 30
0.0
  0
ENDBLK
  5
D4
  8
0
  0
BLOCK
  8
0
  2
*D17
 70
     1
 10
0.0
 20
0.0
 30
0.0
  3
*D17
  1

  0
LINE
  5
D7
  8
0
  6
CONTINUOUS
 62
     7
 10
91.099152
 20
143.6292699999999
 30
0.0
 11
91.099152
 21
154.4088
 31
0.0
  0
LINE
  5
D8
  8
0
  6
CONTINUOUS
 62
     7
 10
91.099152
 20
143.6292699999999
 30
0.0
 11
91.099152
 21
141.1292699999999
 31
0.0
  0
INSERT
  5
D9
  8
0
  6
CONTINUOUS
 62
     7
  2
_DOT
 10
91.099152
 20
143.6292699999999
 30
0.0
 50
90.0
  0
INSERT
  5
DA
  8
0
  6
CONTINUOUS
 62
     7
  2
_DOT
 10
91.099152
 20
141.1292699999999
 30
0.0
 50
270.0
  0
LINE
  5
DB
  8
0
  6
CONTINUOUS
 62
     7
 10
78.639167
 20
141.1292699999999
 30
0.0
 11
92.299149
 21
141.1292699999999
 31
0.0
  0
TEXT
  5
DC
  8
0
  6
CONTINUOUS
 62
     7
 10
90.299152
 20
145.72281
 30
0.0
 40
3.2
  1
2.5
 50
90.000003
 41
1.357187499999999
  0
POINT
  5
DD
  8
DEFPOINTS
  6
CONTINUOUS
 62
     7
 10
76.09916700000002
 20
143.6292699999999
 30
0.0
  0
POINT
  5
DE
  8
DEFPOINTS
  6
CONTINUOUS
 62
     7
 10
76.09916700000002
 20
141.1292699999999
 30
0.0
  0
POINT
  5
DF
  8
DEFPOINTS
  6
CONTINUOUS
 62
     7
 10
91.099152
 20
141.1292699999999
 30
0.0
  0
ENDBLK
  5
E0
  8
0
  0
BLOCK
  8
0
  2
*D18
 70
     1
 10
0.0
 20
0.0
 30
0.0
  3
*D18
  1

  0
LINE
  5
ED
  8
0
  6
CONTINUOUS
 62
     7
 10
91.099152
 20
136.62927
 30
0.0
 11
91.099152
 21
125.4203399999999
 31
0.0
  0
LINE
  5
EE
  8
0
  6
CONTINUOUS
 62
     7
 10
91.099152
 20
139.1292699999999
 30
0.0
 11
91.099152
 21
136.62927
 31
0.0
  0
INSERT
  5
EF
  8
0
  6
CONTINUOUS
 62
     7
  2
_DOT
 10
91.099152
 20
136.62927
 30
0.0
 50
270.0
  0
TEXT
  5
F0
  8
0
  6
CONTINUOUS
 62
     7
 10
90.299152
 20
125.4203399999999
 30
0.0
 40
3.2
  1
2.5
 50
90.000003
 41
1.357187499999999
  0
POINT
  5
F1
  8
DEFPOINTS
  6
CONTINUOUS
 62
     7
 10
76.09916700000002
 20
139.1292699999999
 30
0.0
  0
POINT
  5
F2
  8
DEFPOINTS
  6
CONTINUOUS
 62
     7
 10
76.09916700000002
 20
136.62927
 30
0.0
  0
POINT
  5
F3
  8
DEFPOINTS
  6
CONTINUOUS
 62
     7
 10
91.099152
 20
136.62927
 30
0.0
  0
ENDBLK
  5
F4
  8
0
  0
BLOCK
  8
0
  2
*D19
 70
     1
 10
0.0
 20
0.0
 30
0.0
  3
*D19
  1

  0
LINE
  5
F7
  8
0
  6
CONTINUOUS
 62
     7
 10
101.09915
 20
136.62927
 30
0.0
 11
101.09915
 21
143.6292699999999
 31
0.0
  0
INSERT
  5
F8
  8
0
  6
CONTINUOUS
 62
     7
  2
_DOT
 10
101.09915
 20
136.62927
 30
0.0
 50
270.0
  0
INSERT
  5
F9
  8
0
  6
CONTINUOUS
 62
     7
  2
_DOT
 10
101.09915
 20
143.6292699999999
 30
0.0
 50
90.0
  0
LINE
  5
FA
  8
0
  6
CONTINUOUS
 62
     7
 10
78.639167
 20
136.62927
 30
0.0
 11
102.29915
 21
136.62927
 31
0.0
  0
LINE
  5
FB
  8
0
  6
CONTINUOUS
 62
     7
 10
78.639167
 20
143.6292699999999
 30
0.0
 11
102.29915
 21
143.6292699999999
 31
0.0
  0
TEXT
  5
FC
  8
0
  6
CONTINUOUS
 62
     7
 10
100.29915
 20
138.9862699999999
 30
0.0
 40
3.2
  1
7
 50
90.000003
  0
POINT
  5
FD
  8
DEFPOINTS
  6
CONTINUOUS
 62
     7
 10
76.09916700000002
 20
136.62927
 30
0.0
  0
POINT
  5
FE
  8
DEFPOINTS
  6
CONTINUOUS
 62
     7
 10
76.09916700000002
 20
143.6292699999999
 30
0.0
  0
POINT
  5
FF
  8
DEFPOINTS
  6
CONTINUOUS
 62
     7
 10
101.09915
 20
143.6292699999999
 30
0.0
  0
ENDBLK
  5
100
  8
0
  0
BLOCK
  8
0
  2
GENAXEH
 70
     0
 10
0.0
 20
0.0
 30
0.0
  3
GENAXEH
  1

  0
LINE
  5
213
  8
0
 10
-1.0
 20
0.0
 30
0.0
 11
1.0
 21
0.0
 31
0.0
  0
ENDBLK
  5
215
  8
0
  0
BLOCK
  8
0
  2
*D21
 70
     1
 10
0.0
 20
0.0
 30
0.0
  3
*D21
  1

  0
LINE
  5
287
  8
0
  6
CONTINUOUS
 62
     0
 10
78.63916700000001
 20
139.1292699999999
 30
0.0
 11
93.639152
 21
139.1292699999999
 31
0.0
  0
LINE
  5
288
  8
0
  6
CONTINUOUS
 62
     0
 10
91.099152
 20
141.1292699999999
 30
0.0
 11
91.099152
 21
142.1292699999999
 31
0.0
  0
LINE
  5
289
  8
0
  6
CONTINUOUS
 62
     0
 10
91.099152
 20
138.1292699999999
 30
0.0
 11
91.099152
 21
137.1292699999999
 31
0.0
  0
LINE
  5
28A
  8
0
  6
CONTINUOUS
 62
     0
 10
91.099152
 20
140.1292699999999
 30
0.0
 11
101.0276766025026
 21
133.0673912105085
 31
0.0
  0
LINE
  5
28B
  8
0
  6
CONTINUOUS
 62
     0
 10
101.0276766025026
 20
133.0673912105085
 30
0.0
 11
101.0276766025026
 21
127.7340578771751
 31
0.0
  0
TEXT
  5
28C
  8
0
  6
CONTINUOUS
 62
     0
 10
99.42767660250263
 20
129.3340578771752
 30
0.0
 40
3.2
  1
2
 50
90.0
  0
LINE
  5
28D
  8
0
  6
CONTINUOUS
 62
     0
 10
91.099152
 20
141.1292699999999
 30
0.0
 11
91.099152
 21
139.1292699999999
 31
0.0
  0
LINE
  5
28E
  8
0
  6
CONTINUOUS
 62
     0
 10
91.099152
 20
141.1292699999999
 30
0.0
 11
91.099152
 21
139.1292699999999
 31
0.0
  0
SOLID
  5
28F
  8
0
  6
CONTINUOUS
 62
     0
 10
90.93248533333332
 20
138.1292699999999
 30
0.0
 11
91.26581866666668
 21
138.1292699999999
 31
0.0
 12
91.099152
 22
139.1292699999999
 32
0.0
 13
91.099152
 23
139.1292699999999
 33
0.0
  0
POINT
  5
290
  8
DEFPOINTS
  6
CONTINUOUS
 62
     0
 10
76.09916700000002
 20
141.1292699999999
 30
0.0
  0
POINT
  5
291
  8
DEFPOINTS
  6
CONTINUOUS
 62
     0
 10
76.09916700000002
 20
139.1292699999999
 30
0.0
  0
POINT
  5
292
  8
DEFPOINTS
  6
CONTINUOUS
 62
     0
 10
91.099152
 20
139.1292699999999
 30
0.0
  0
ENDBLK
  5
25F
  8
0
  0
BLOCK
  8
0
  2
_ACMFILLEDHALF
 70
     0
 10
0.0
 20
0.0
 30
0.0
  3
_ACMFILLEDHALF
  1

  0
TRACE
  5
519
  8
0
 62
     0
 10
-0.8
 20
0.0
 30
0.0
 11
-1.0
 21
0.166666666
 31
0.0
 12
0.0
 22
0.0
 32
0.0
 13
0.0
 23
0.0
 33
0.0
  0
LINE
  5
51A
  8
0
 62
     0
 10
-1.0
 20
0.0
 30
0.0
 11
-0.8
 21
0.0
 31
0.0
  0
ENDBLK
  5
51B
  8
0
  0
ENDSEC
  0
SECTION
  2
ENTITIES
  0
POINT
  5
101
  8
0
  6
CONTINUOUS
 62
     7
 10
-187.0
 20
169.0
 30
0.0
  0
POINT
  5
102
  8
0
  6
CONTINUOUS
 62
     7
 10
-187.0
 20
161.0
 30
0.0
  0
POINT
  5
103
  8
0
  6
CONTINUOUS
 62
     7
 10
-187.0
 20
153.0
 30
0.0
  0
POINT
  5
104
  8
0
  6
CONTINUOUS
 62
     7
 10
-187.0
 20
145.0
 30
0.0
  0
POINT
  5
106
  8
0
  6
CONTINUOUS
 62
     7
 10
-145.2318299999999
 20
120.8847399999999
 30
0.0
  0
POINT
  5
112
  8
0
  6
CONTINUOUS
 62
     7
 10
25.099165
 20
140.1292699999999
 30
0.0
  0
POINT
  5
113
  8
0
  6
CONTINUOUS
 62
     7
 10
25.099165
 20
75.44005600000001
 30
0.0
  0
POINT
  5
114
  8
0
  6
CONTINUOUS
 62
     7
 10
25.099165
 20
140.1292699999999
 30
0.0
  0
POINT
  5
115
  8
0
  6
CONTINUOUS
 62
     7
 10
25.099165
 20
75.44005600000001
 30
0.0
  0
POINT
  5
116
  8
0
  6
CONTINUOUS
 62
     7
 10
25.099165
 20
85.44005600000001
 30
0.0
  0
POINT
  5
117
  8
0
  6
CONTINUOUS
 62
     7
 10
25.099165
 20
95.440063
 30
0.0
  0
POINT
  5
118
  8
0
  6
CONTINUOUS
 62
     7
 10
25.099165
 20
75.44005600000001
 30
0.0
  0
POINT
  5
119
  8
0
  6
CONTINUOUS
 62
     7
 10
25.099165
 20
-59.559937
 30
0.0
  0
POINT
  5
11A
  8
0
  6
CONTINUOUS
 62
     7
 10
25.099165
 20
-74.559937
 30
0.0
  0
POINT
  5
11B
  8
0
  6
CONTINUOUS
 62
     7
 10
25.099165
 20
-59.559937
 30
0.0
  0
POINT
  5
11C
  8
0
  6
CONTINUOUS
 62
     7
 10
25.099165
 20
133.6292699999999
 30
0.0
  0
POINT
  5
11E
  8
0
  6
CONTINUOUS
 62
     7
 10
25.099165
 20
133.6292699999999
 30
0.0
  0
POINT
  5
11F
  8
0
  6
CONTINUOUS
 62
     7
 10
76.09916700000002
 20
-55.559937
 30
0.0
  0
POINT
  5
120
  8
0
  6
CONTINUOUS
 62
     7
 10
101.09915
 20
-55.559937
 30
0.0
  0
POINT
  5
121
  8
0
  6
CONTINUOUS
 62
     7
 10
91.099152
 20
-55.559937
 30
0.0
  0
POINT
  5
122
  8
0
  6
CONTINUOUS
 62
     7
 10
76.09916700000002
 20
-55.559937
 30
0.0
  0
POINT
  5
123
  8
0
  6
CONTINUOUS
 62
     7
 10
-17.168602
 20
-44.627705
 30
0.0
  0
POINT
  5
124
  8
0
  6
CONTINUOUS
 62
     7
 10
-13.633068
 20
-41.092171
 30
0.0
  0
POINT
  5
125
  8
0
  6
CONTINUOUS
 62
     7
 10
20.502972
 20
135.53308
 30
0.0
  0
LINE
  5
126
  8
0
  6
CONTINUOUS
 62
     7
 10
170.0
 20
173.0
 30
0.0
 11
170.0
 21
-100.0
 31
0.0
  0
LINE
  5
127
  8
0
  6
CONTINUOUS
 62
     7
 10
-211.0
 20
-100.0
 30
0.0
 11
170.0
 21
-100.0
 31
0.0
  0
LINE
  5
128
  8
0
  6
CONTINUOUS
 62
     7
 10
-211.0
 20
173.0
 30
0.0
 11
170.0
 21
173.0
 31
0.0
  0
LINE
  5
129
  8
0
  6
CONTINUOUS
 62
     7
 10
-211.0
 20
173.0
 30
0.0
 11
-211.0
 21
-100.0
 31
0.0
  0
LINE
  5
12A
  8
0
  6
CONTINUOUS
 62
     7
 10
-191.0
 20
173.0
 30
0.0
 11
-191.0
 21
77.0
 31
0.0
  0
LINE
  5
12B
  8
0
  6
CONTINUOUS
 62
     7
 10
-211.0
 20
165.0
 30
0.0
 11
-101.0
 21
165.0
 31
0.0
  0
LINE
  5
12C
  8
0
  6
CONTINUOUS
 62
     7
 10
-211.0
 20
149.0
 30
0.0
 11
-101.0
 21
149.0
 31
0.0
  0
LINE
  5
12D
  8
0
  6
CONTINUOUS
 62
     7
 10
-191.0
 20
117.0
 30
0.0
 11
-101.0
 21
117.0
 31
0.0
  0
LINE
  5
12E
  8
0
  6
CONTINUOUS
 62
     7
 10
-191.0
 20
109.0
 30
0.0
 11
-101.0
 21
109.0
 31
0.0
  0
LINE
  5
12F
  8
0
  6
CONTINUOUS
 62
     7
 10
-211.0
 20
101.0
 30
0.0
 11
-101.0
 21
101.0
 31
0.0
  0
LINE
  5
130
  8
0
  6
CONTINUOUS
 62
     7
 10
-191.0
 20
93.0
 30
0.0
 11
-101.0
 21
93.0
 31
0.0
  0
LINE
  5
131
  8
0
  6
CONTINUOUS
 62
     7
 10
-191.0
 20
85.0
 30
0.0
 11
-101.0
 21
85.0
 31
0.0
  0
LINE
  5
132
  8
0
  6
CONTINUOUS
 62
     7
 10
-211.0
 20
77.0
 30
0.0
 11
-101.0
 21
77.0
 31
0.0
  0
LINE
  5
133
  8
0
  6
CONTINUOUS
 62
     7
 10
-211.0
 20
173.0
 30
0.0
 11
-211.0
 21
93.0
 31
0.0
  0
LINE
  5
134
  8
0
  6
CONTINUOUS
 62
     7
 10
-211.0
 20
173.0
 30
0.0
 11
-101.0
 21
173.0
 31
0.0
  0
LINE
  5
135
  8
0
  6
CONTINUOUS
 62
     7
 10
-101.0
 20
173.0
 30
0.0
 11
-101.0
 21
77.0
 31
0.0
  0
LINE
  5
136
  8
0
  6
CONTINUOUS
 62
     7
 10
-211.0
 20
125.0
 30
0.0
 11
-101.0
 21
125.0
 31
0.0
  0
LINE
  5
137
  8
0
  6
CONTINUOUS
 62
     7
 10
-191.0
 20
117.0
 30
0.0
 11
-101.0
 21
117.0
 31
0.0
  0
LINE
  5
138
  8
0
  6
CONTINUOUS
 62
     7
 10
-211.0
 20
157.0
 30
0.0
 11
-101.0
 21
157.0
 31
0.0
  0
LINE
  5
139
  8
0
  6
CONTINUOUS
 62
     7
 10
-211.0
 20
133.0
 30
0.0
 11
-101.0
 21
133.0
 31
0.0
  0
LINE
  5
13A
  8
0
  6
CONTINUOUS
 62
     7
 10
76.09916700000002
 20
-55.559937
 30
0.0
 11
33.099167
 21
-55.559937
 31
0.0
  0
LINE
  5
13B
  8
0
  6
CONTINUOUS
 62
     7
 10
76.09916700000002
 20
71.440063
 30
0.0
 11
33.099167
 21
71.440063
 31
0.0
  0
LINE
  5
13C
  8
0
  6
CENTER
 62
     7
 10
25.099165
 20
150.12927
 30
0.0
 11
25.099165
 21
130.1292699999999
 31
0.0
  0
LINE
  5
13D
  8
0
  6
CONTINUOUS
 62
     7
 10
76.09916700000002
 20
143.6292699999999
 30
0.0
 11
76.09916700000002
 21
141.1292699999999
 31
0.0
  0
LINE
  5
13E
  8
0
  6
CONTINUOUS
 62
     7
 10
18.59916499999998
 20
75.94006299999998
 30
0.0
 11
18.59916499999998
 21
-60.05993699999999
 31
0.0
  0
LINE
  5
13F
  8
0
  6
CONTINUOUS
 62
     7
 10
31.599165
 20
75.94006299999998
 30
0.0
 11
31.599165
 21
-60.05993699999999
 31
0.0
  0
LINE
  5
140
  8
0
  6
CONTINUOUS
 62
     7
 10
18.599163
 20
-60.05994000000001
 30
0.0
 11
25.099163
 21
-61.05994
 31
0.0
  0
LINE
  5
141
  8
0
  6
CENTER
 62
     7
 10
35.099167
 20
140.1292699999999
 30
0.0
 11
15.099165
 21
140.1292699999999
 31
0.0
  0
LINE
  5
142
  8
0
  6
CONTINUOUS
 62
     7
 10
25.099165
 20
-61.05993699999999
 30
0.0
 11
31.599163
 21
-60.05993699999999
 31
0.0
  0
LINE
  5
143
  8
0
  6
CONTINUOUS
 62
     7
 10
31.599165
 20
48.440063
 30
0.0
 11
17.099165
 21
48.440063
 31
0.0
  0
LINE
  5
144
  8
0
  6
CONTINUOUS
 62
     7
 10
33.099167
 20
45.440063
 30
0.0
 11
18.59916499999998
 21
45.440063
 31
0.0
  0
LINE
  5
145
  8
0
  6
CONTINUOUS
 62
     7
 10
33.099167
 20
22.440062
 30
0.0
 11
18.59916499999998
 21
22.440062
 31
0.0
  0
LINE
  5
146
  8
0
  6
CONTINUOUS
 62
     7
 10
31.599165
 20
19.440062
 30
0.0
 11
17.099165
 21
19.440062
 31
0.0
  0
LINE
  5
147
  8
0
  6
CONTINUOUS
 62
     7
 10
31.599165
 20
-3.5599375
 30
0.0
 11
17.099165
 21
-3.5599375
 31
0.0
  0
LINE
  5
148
  8
0
  6
CONTINUOUS
 62
     7
 10
33.099167
 20
-6.5599375
 30
0.0
 11
18.59916499999998
 21
-6.5599375
 31
0.0
  0
LINE
  5
149
  8
0
  6
CONTINUOUS
 62
     7
 10
33.099167
 20
-29.55993799999999
 30
0.0
 11
18.59916499999998
 21
-29.55993799999999
 31
0.0
  0
LINE
  5
14A
  8
0
  6
CONTINUOUS
 62
     7
 10
31.599165
 20
-32.55993699999999
 30
0.0
 11
17.099165
 21
-32.55993699999999
 31
0.0
  0
LINE
  5
14B
  8
0
  6
CONTINUOUS
 62
     7
 10
33.099167
 20
71.440063
 30
0.0
 11
33.099167
 21
45.440063
 31
0.0
  0
LINE
  5
14C
  8
0
  6
CONTINUOUS
 62
     7
 10
17.099165
 20
48.440063
 30
0.0
 11
17.099165
 21
19.440062
 31
0.0
  0
LINE
  5
14D
  8
0
  6
CONTINUOUS
 62
     7
 10
31.599165
 20
-55.559937
 30
0.0
 11
-25.900835
 21
-55.559937
 31
0.0
  0
LINE
  5
14E
  8
0
  6
CONTINUOUS
 62
     7
 10
33.099167
 20
-29.55993799999999
 30
0.0
 11
33.099167
 21
-55.559937
 31
0.0
  0
LINE
  5
14F
  8
0
  6
CONTINUOUS
 62
     7
 10
17.099165
 20
-3.5599375
 30
0.0
 11
17.099165
 21
-32.55993699999999
 31
0.0
  0
LINE
  5
150
  8
0
  6
CONTINUOUS
 62
     7
 10
33.099167
 20
22.440062
 30
0.0
 11
33.099167
 21
-6.5599375
 31
0.0
  0
LINE
  5
151
  8
0
  6
CONTINUOUS
 62
     7
 10
31.599165
 20
71.440063
 30
0.0
 11
-25.900835
 21
71.440063
 31
0.0
  0
LINE
  5
152
  8
0
  6
CENTER
 62
     7
 10
65.59916700000001
 20
146.6292699999999
 30
0.0
 11
65.59916700000001
 21
138.1292699999999
 31
0.0
  0
LINE
  5
153
  8
0
  6
CONTINUOUS
 62
     7
 10
18.676548
 20
141.1292699999999
 30
0.0
 11
-25.900835
 21
141.1292699999999
 31
0.0
  0
LINE
  5
154
  8
0
  6
CENTER
 62
     7
 10
73.59916700000002
 20
58.740067
 30
0.0
 11
57.599167
 21
58.740067
 31
0.0
  0
LINE
  5
155
  8
0
  6
CONTINUOUS
 62
     7
 10
76.09916700000002
 20
141.1292699999999
 30
0.0
 11
31.52178
 21
141.1292699999999
 31
0.0
  0
LINE
  5
156
  8
0
  6
CONTINUOUS
 62
     7
 10
76.09916700000002
 20
143.6292699999999
 30
0.0
 11
31.807369
 21
143.6292699999999
 31
0.0
  0
LINE
  5
157
  8
0
  6
CENTER
 62
     7
 10
35.099167
 20
140.1292699999999
 30
0.0
 11
15.099165
 21
140.1292699999999
 31
0.0
  0
LINE
  5
158
  8
0
  6
CENTER
 62
     7
 10
-15.400835
 20
66.74006700000001
 30
0.0
 11
-15.400835
 21
50.74006699999999
 31
0.0
  0
LINE
  5
159
  8
0
  6
CENTER
 62
     7
 10
-7.400835
 20
58.740067
 30
0.0
 11
-23.40083499999999
 21
58.740067
 31
0.0
  0
LINE
  5
15A
  8
0
  6
CENTER
 62
     7
 10
-4.400834999999998
 20
41.340065
 30
0.0
 11
-4.400834999999998
 21
25.340063
 31
0.0
  0
LINE
  5
15B
  8
0
  6
CENTER
 62
     7
 10
3.599165
 20
33.340065
 30
0.0
 11
-12.400835
 21
33.340065
 31
0.0
  0
LINE
  5
15C
  8
0
  6
CENTER
 62
     7
 10
-15.400835
 20
15.940063
 30
0.0
 11
-15.400835
 21
-0.059937593
 31
0.0
  0
LINE
  5
15D
  8
0
  6
CENTER
 62
     7
 10
-7.400835
 20
7.940062499999998
 30
0.0
 11
-23.40083499999999
 21
7.940062499999998
 31
0.0
  0
LINE
  5
15E
  8
0
  6
CENTER
 62
     7
 10
-4.400834999999998
 20
-9.459939
 30
0.0
 11
-4.400834999999998
 21
-25.45994
 31
0.0
  0
LINE
  5
15F
  8
0
  6
CENTER
 62
     7
 10
3.599165
 20
-17.45994
 30
0.0
 11
-12.400835
 21
-17.45994
 31
0.0
  0
LINE
  5
160
  8
0
  6
CENTER
 62
     7
 10
-15.400835
 20
-34.859936
 30
0.0
 11
-15.400835
 21
-50.859936
 31
0.0
  0
LINE
  5
161
  8
0
  6
CENTER
 62
     7
 10
-7.400835
 20
-42.859936
 30
0.0
 11
-23.40083499999999
 21
-42.859936
 31
0.0
  0
LINE
  5
162
  8
0
  6
CENTER
 62
     7
 10
65.59916700000001
 20
-34.85994
 30
0.0
 11
65.59916700000001
 21
-50.85994
 31
0.0
  0
LINE
  5
163
  8
0
  6
CENTER
 62
     7
 10
73.59916700000002
 20
-42.85994
 30
0.0
 11
57.599167
 21
-42.85994
 31
0.0
  0
LINE
  5
164
  8
0
  6
CENTER
 62
     7
 10
54.599167
 20
-9.459939
 30
0.0
 11
54.599167
 21
-25.45994
 31
0.0
  0
LINE
  5
165
  8
0
  6
CENTER
 62
     7
 10
62.599167
 20
-17.45994
 30
0.0
 11
46.599167
 21
-17.45994
 31
0.0
  0
LINE
  5
166
  8
0
  6
CENTER
 62
     7
 10
65.59916700000001
 20
15.940063
 30
0.0
 11
65.59916700000001
 21
-0.059937593
 31
0.0
  0
LINE
  5
167
  8
0
  6
CENTER
 62
     7
 10
73.59916700000002
 20
7.940062499999998
 30
0.0
 11
57.599167
 21
7.940062499999998
 31
0.0
  0
LINE
  5
168
  8
0
  6
CENTER
 62
     7
 10
54.599167
 20
41.340065
 30
0.0
 11
54.599167
 21
25.340063
 31
0.0
  0
LINE
  5
169
  8
0
  6
CENTER
 62
     7
 10
62.599167
 20
33.340065
 30
0.0
 11
46.599167
 21
33.340065
 31
0.0
  0
LINE
  5
16A
  8
0
  6
CENTER
 62
     7
 10
25.099165
 20
150.12927
 30
0.0
 11
25.099165
 21
130.1292699999999
 31
0.0
  0
LINE
  5
16B
  8
0
  6
CENTER
 62
     7
 10
25.099165
 20
78.440063
 30
0.0
 11
25.099165
 21
-62.559937
 31
0.0
  0
LINE
  5
16C
  8
0
  6
CONTINUOUS
 62
     7
 10
-25.900835
 20
71.440063
 30
0.0
 11
-25.900835
 21
-55.559937
 31
0.0
  0
LINE
  5
16D
  8
0
  6
CENTER
 62
     7
 10
25.099165
 20
150.12927
 30
0.0
 11
25.099165
 21
130.1292699999999
 31
0.0
  0
LINE
  5
16E
  8
0
  6
CONTINUOUS
 62
     7
 10
76.09916700000002
 20
-55.559937
 30
0.0
 11
76.09916700000002
 21
71.440063
 31
0.0
  0
LINE
  5
16F
  8
0
  6
CONTINUOUS
 62
     7
 10
31.599165
 20
75.94006299999998
 30
0.0
 11
18.59916499999998
 21
75.94006299999998
 31
0.0
  0
LINE
  5
170
  8
0
  6
CONTINUOUS
 62
     7
 10
31.599165
 20
-60.05993699999999
 30
0.0
 11
18.59916499999998
 21
-60.05993699999999
 31
0.0
  0
LINE
  5
171
  8
0
  6
CONTINUOUS
 62
     7
 10
-25.900835
 20
141.1227599999999
 30
0.0
 11
-25.900835
 21
143.6292699999999
 31
0.0
  0
LINE
  5
172
  8
0
  6
CENTER
 62
     7
 10
25.099165
 20
130.1292699999999
 30
0.0
 11
25.099165
 21
150.12927
 31
0.0
  0
LINE
  5
173
  8
0
  6
CONTINUOUS
 62
     7
 10
31.599165
 20
75.94006299999998
 30
0.0
 11
25.099165
 21
76.94006299999998
 31
0.0
  0
LINE
  5
174
  8
0
  6
CONTINUOUS
 62
     7
 10
25.099165
 20
76.94005600000001
 30
0.0
 11
18.59916499999998
 21
75.94005600000001
 31
0.0
  0
LINE
  5
175
  8
0
  6
CENTER
 62
     7
 10
-15.400835
 20
146.6292699999999
 30
0.0
 11
-15.400835
 21
138.1292699999999
 31
0.0
  0
LINE
  5
176
  8
0
  6
CENTER
 62
     7
 10
54.599167
 20
146.6292699999999
 30
0.0
 11
54.599167
 21
138.1292699999999
 31
0.0
  0
LINE
  5
177
  8
0
  6
CENTER
 62
     7
 10
-4.400834999999998
 20
146.6292699999999
 30
0.0
 11
-4.400834999999998
 21
138.1292699999999
 31
0.0
  0
LINE
  5
178
  8
0
  6
CENTER
 62
     7
 10
65.59916700000001
 20
66.74006700000001
 30
0.0
 11
65.59916700000001
 21
50.74006699999999
 31
0.0
  0
LINE
  5
179
  8
0
  6
CONTINUOUS
 62
     7
 10
-25.900835
 20
143.6292699999999
 30
0.0
 11
18.39096099999998
 21
143.6292699999999
 31
0.0
  0
LINE
  5
17A
  8
0
  6
CONTINUOUS
 62
     7
 10
-191.0
 20
141.0
 30
0.0
 11
-101.0
 21
141.0
 31
0.0
  0
LINE
  5
17B
  8
0
  6
PHANTOM
 62
     7
 10
31.521782
 20
139.1292699999999
 30
0.0
 11
76.09916700000002
 21
139.1292699999999
 31
0.0
  0
LINE
  5
17C
  8
0
  6
PHANTOM
 62
     7
 10
76.09916700000002
 20
139.1357899999997
 30
0.0
 11
76.09916700000002
 21
136.62927
 31
0.0
  0
LINE
  5
17D
  8
0
  6
PHANTOM
 62
     7
 10
76.09916700000002
 20
136.62927
 30
0.0
 11
31.807369
 21
136.62927
 31
0.0
  0
LINE
  5
17E
  8
0
  6
CONTINUOUS
 62
     7
 10
33.099167
 20
143.6292699999999
 30
0.0
 11
33.099167
 21
141.1292699999999
 31
0.0
  0
CIRCLE
  5
17F
  8
0
  6
CONTINUOUS
 62
     7
 10
-145.2318299999999
 20
120.8847399999999
 30
0.0
 40
1.5
  0
CIRCLE
  5
180
  8
0
  6
CONTINUOUS
 62
     7
 10
25.099165
 20
140.1292699999999
 30
0.0
 40
6.5
  0
CIRCLE
  5
181
  8
0
  6
CONTINUOUS
 62
     7
 10
65.59916700000001
 20
58.740067
 30
0.0
 40
2.5
  0
CIRCLE
  5
182
  8
0
  6
CONTINUOUS
 62
     7
 10
65.59916700000001
 20
58.740067
 30
0.0
 40
4.25
  0
CIRCLE
  5
183
  8
0
  6
CONTINUOUS
 62
     7
 10
-15.400835
 20
58.740067
 30
0.0
 40
2.5
  0
CIRCLE
  5
184
  8
0
  6
CONTINUOUS
 62
     7
 10
-15.400835
 20
58.740067
 30
0.0
 40
4.25
  0
CIRCLE
  5
185
  8
0
  6
CONTINUOUS
 62
     7
 10
-4.400834999999998
 20
33.340065
 30
0.0
 40
2.5
  0
CIRCLE
  5
186
  8
0
  6
CONTINUOUS
 62
     7
 10
-4.400834999999998
 20
33.340065
 30
0.0
 40
4.25
  0
CIRCLE
  5
187
  8
0
  6
CONTINUOUS
 62
     7
 10
-15.400835
 20
7.940062499999998
 30
0.0
 40
2.5
  0
CIRCLE
  5
188
  8
0
  6
CONTINUOUS
 62
     7
 10
-15.400835
 20
7.940062499999998
 30
0.0
 40
4.25
  0
CIRCLE
  5
189
  8
0
  6
CONTINUOUS
 62
     7
 10
-4.400834999999998
 20
-17.45994
 30
0.0
 40
2.5
  0
CIRCLE
  5
18A
  8
0
  6
CONTINUOUS
 62
     7
 10
-4.400834999999998
 20
-17.45994
 30
0.0
 40
4.25
  0
CIRCLE
  5
18B
  8
0
  6
CONTINUOUS
 62
     7
 10
-15.400835
 20
-42.859936
 30
0.0
 40
2.5
  0
CIRCLE
  5
18C
  8
0
  6
CONTINUOUS
 62
     7
 10
-15.400835
 20
-42.859936
 30
0.0
 40
4.25
  0
CIRCLE
  5
18D
  8
0
  6
CONTINUOUS
 62
     7
 10
65.59916700000001
 20
-42.85994
 30
0.0
 40
2.5
  0
CIRCLE
  5
18E
  8
0
  6
CONTINUOUS
 62
     7
 10
65.59916700000001
 20
-42.85994
 30
0.0
 40
4.25
  0
CIRCLE
  5
18F
  8
0
  6
CONTINUOUS
 62
     7
 10
54.599167
 20
-17.45994
 30
0.0
 40
2.5
  0
CIRCLE
  5
190
  8
0
  6
CONTINUOUS
 62
     7
 10
54.599167
 20
-17.45994
 30
0.0
 40
4.25
  0
CIRCLE
  5
191
  8
0
  6
CONTINUOUS
 62
     7
 10
65.59916700000001
 20
7.940062499999998
 30
0.0
 40
2.5
  0
CIRCLE
  5
192
  8
0
  6
CONTINUOUS
 62
     7
 10
65.59916700000001
 20
7.940062499999998
 30
0.0
 40
4.25
  0
CIRCLE
  5
193
  8
0
  6
CONTINUOUS
 62
     7
 10
54.599167
 20
33.340065
 30
0.0
 40
2.5
  0
CIRCLE
  5
194
  8
0
  6
CONTINUOUS
 62
     7
 10
54.599167
 20
33.340065
 30
0.0
 40
4.25
  0
ARC
  5
195
  8
0
  6
CONTINUOUS
 62
     7
 10
18.39096099999998
 20
146.1292699999999
 30
0.0
 40
2.5
 50
270.0
 51
318.1895999999999
  0
ARC
  5
196
  8
0
  6
CONTINUOUS
 62
     7
 10
31.807369
 20
146.1292699999999
 30
0.0
 40
2.5
 50
221.8103999999999
 51
270.0
  0
ARC
  5
197
  8
0
  6
PHANTOM
 62
     7
 10
31.807369
 20
134.1292699999999
 30
0.0
 40
2.5
 50
90.0
 51
138.1896
  0
CIRCLE
  5
198
  8
0
  6
CONTINUOUS
 62
     7
 10
-17.168602
 20
-44.627705
 30
0.0
 40
0.30000001
  0
CIRCLE
  5
199
  8
0
  6
CONTINUOUS
 62
     7
 10
-13.633068
 20
-41.092171
 30
0.0
 40
0.30000001
  0
TEXT
  5
19A
  8
0
  6
CONTINUOUS
 62
     7
 10
-188.1429999999999
 20
95.4
 30
0.0
 40
3.2
  1
丁番係数：１９．２
 41
0.84496202
  0
TEXT
  5
19B
  8
0
  6
CONTINUOUS
 62
     7
 10
-205.343
 20
167.4
 30
0.0
 40
3.2
  1
品　名
 41
0.85537027
  0
TEXT
  5
19C
  8
0
  6
CONTINUOUS
 62
     7
 10
-205.343
 20
159.4
 30
0.0
 40
3.2
  1
品　番
 41
0.85537027
  0
TEXT
  5
19D
  8
0
  6
CONTINUOUS
 62
     7
 10
-205.343
 20
151.4
 30
0.0
 40
3.2
  1
材　質
 41
0.85537027
  0
TEXT
  5
19E
  8
0
  6
CONTINUOUS
 62
     7
 10
-205.343
 20
143.4
 30
0.0
 40
3.2
  1
仕上げ
 41
0.85537027
  0
TEXT
  5
19F
  8
0
  6
CONTINUOUS
 62
     7
 10
-188.1429999999999
 20
103.4
 30
0.0
 40
3.2
  1
＊
 41
0.90047268
  0
TEXT
  5
1A0
  8
0
  6
CONTINUOUS
 62
     7
 10
-188.1429999999999
 20
111.4
 30
0.0
 40
3.2
  1
＊
 41
0.90047268
  0
TEXT
  5
1A1
  8
0
  6
CONTINUOUS
 62
     7
 10
-208.543
 20
119.4
 30
0.0
 40
3.2
  1
セットビス
 41
0.84892707
  0
TEXT
  5
1A2
  8
0
  6
CONTINUOUS
 62
     7
 10
-188.1429999999999
 20
119.4
 30
0.0
 40
3.2
  1
Ｍ４．１×２５　サラ木ねじ＋ＳＵＳ　１０本付
 41
0.8421864899999999
  0
TEXT
  5
1A3
  8
0
  6
CONTINUOUS
 62
     7
 10
-203.743
 20
95.4
 30
0.0
 40
3.2
  1
備考
 41
0.8643907499999999
  0
TEXT
  5
1A4
  8
0
  6
CONTINUOUS
 62
     7
 10
-206.9429999999999
 20
127.4
 30
0.0
 40
3.2
  1
左右勝手
 41
0.8512700499999999
  0
TEXT
  5
1A5
  8
0
  6
CONTINUOUS
 62
     7
 10
-188.1429999999999
 20
167.4
 30
0.0
 40
3.2
  1
義星丁番
 41
0.8512700499999999
  0
TEXT
  5
1A6
  8
0
  6
CONTINUOUS
 62
     7
 10
-188.1429999999999
 20
159.4
 30
0.0
 40
3.2
  1
ＤＨ－３０２Ｓ
 41
0.84634979
  0
TEXT
  5
1A7
  8
0
  6
CONTINUOUS
 62
     7
 10
-188.1429999999999
 20
151.4
 30
0.0
 40
3.2
  1
羽根：ステンレス／軸：ステンレス
 41
0.8428951399999997
  0
TEXT
  5
1A8
  8
0
  6
CONTINUOUS
 62
     7
 10
-188.0573399999999
 20
143.4
 30
0.0
 40
3.2
  1
羽根：ヘアーライン（シルバー）
 41
0.7789278000000001
  0
TEXT
  5
1AA
  8
0
  6
CONTINUOUS
 62
     7
 10
-188.0573399999999
 20
135.4
 30
0.0
 40
3.2
  1
軸：生地
 41
0.78747528
  0
DIMENSION
  5
1AB
  8
0
  6
CONTINUOUS
 62
     7
  2
*D2
 10
25.099165
 20
85.44005600000001
 30
0.0
 11
-0.40083504
 21
85.44005600000001
 31
0.0
 70
    32
  3
DIMSTYLE
 13
-25.900835
 23
71.440063
 33
0.0
 14
25.099165
 24
78.440063
 34
0.0
1001
ACAD
1000
DSTYLE
1002
{
1070
    77
1070
     1
1070
   172
1070
     1
1070
    75
1070
     1
1002
}
  0
DIMENSION
  5
1AC
  8
0
  6
CONTINUOUS
 62
     7
  2
*D3
 10
76.09916700000002
 20
85.44005600000001
 30
0.0
 11
50.599167
 21
85.44005600000001
 31
0.0
 70
    32
  3
DIMSTYLE
 13
25.099165
 23
78.440063
 33
0.0
 14
76.09916700000002
 24
71.440063
 34
0.0
1001
ACAD
1000
DSTYLE
1002
{
1070
     6
1000
_NONE
1070
    77
1070
     1
1070
   172
1070
     1
1070
    75
1070
     1
1070
    76
1070
     1
1002
}
  0
DIMENSION
  5
1AD
  8
0
  6
CONTINUOUS
 62
     7
  2
*D4
 10
-25.900835
 20
95.440063
 30
0.0
 11
25.099165
 21
95.440063
 31
0.0
 70
    32
  3
DIMSTYLE
 13
76.09916700000002
 23
71.440063
 33
0.0
 14
-25.900835
 24
71.440063
 34
0.0
1001
ACAD
1000
DSTYLE
1002
{
1070
    77
1070
     1
1070
   172
1070
     1
1002
}
  0
DIMENSION
  5
1AE
  8
0
  6
CONTINUOUS
 62
     7
  2
*D5
 10
91.099152
 20
58.740067
 30
0.0
 11
91.099152
 21
65.090065
 31
0.0
 70
    32
  3
DIMSTYLE
 13
76.09916700000002
 23
71.440063
 33
0.0
 14
73.59916700000002
 24
58.740067
 34
0.0
 50
90.0
1001
ACAD
1000
DSTYLE
1002
{
1070
    77
1070
     1
1070
   172
1070
     1
1070
    75
1070
     1
1002
}
  0
DIMENSION
  5
1AF
  8
0
  6
CONTINUOUS
 62
     7
  2
*D6
 10
91.099152
 20
33.340065
 30
0.0
 11
91.099152
 21
46.04006599999999
 31
0.0
 70
    32
  3
DIMSTYLE
 13
73.59916700000002
 23
58.740067
 33
0.0
 14
62.599167
 24
33.340065
 34
0.0
 50
90.0
1001
ACAD
1000
DSTYLE
1002
{
1070
     6
1000
_NONE
1070
    77
1070
     1
1070
   172
1070
     1
1070
    75
1070
     1
1002
}
  0
DIMENSION
  5
1B0
  8
0
  6
CONTINUOUS
 62
     7
  2
*D7
 10
91.099152
 20
7.940062499999998
 30
0.0
 11
91.099152
 21
20.640062
 31
0.0
 70
    32
  3
DIMSTYLE
 13
62.599167
 23
33.340065
 33
0.0
 14
73.59916700000002
 24
7.940062499999998
 34
0.0
 50
90.0
1001
ACAD
1000
DSTYLE
1002
{
1070
     6
1000
_NONE
1070
    77
1070
     1
1070
   172
1070
     1
1070
    75
1070
     1
1002
}
  0
DIMENSION
  5
1B1
  8
0
  6
CONTINUOUS
 62
     7
  2
*D8
 10
91.099152
 20
-17.45994
 30
0.0
 11
91.099152
 21
-4.7599382
 31
0.0
 70
    32
  3
DIMSTYLE
 13
73.59916700000002
 23
7.940062499999998
 33
0.0
 14
62.599167
 24
-17.45994
 34
0.0
 50
90.0
1001
ACAD
1000
DSTYLE
1002
{
1070
     6
1000
_NONE
1070
    77
1070
     1
1070
   172
1070
     1
1070
    75
1070
     1
1002
}
  0
DIMENSION
  5
1B2
  8
0
  6
CONTINUOUS
 62
     7
  2
*D9
 10
91.099152
 20
-42.85994
 30
0.0
 11
91.099152
 21
-30.159939
 31
0.0
 70
    32
  3
DIMSTYLE
 13
62.599167
 23
-17.45994
 33
0.0
 14
73.59916700000002
 24
-42.85994
 34
0.0
 50
90.0
1001
ACAD
1000
DSTYLE
1002
{
1070
     6
1000
_NONE
1070
    77
1070
     1
1070
   172
1070
     1
1070
    75
1070
     1
1002
}
  0
DIMENSION
  5
1B3
  8
0
  6
CONTINUOUS
 62
     7
  2
*D10
 10
91.099152
 20
-55.559937
 30
0.0
 11
91.099152
 21
-49.209938
 31
0.0
 70
    32
  3
DIMSTYLE
 13
73.59916700000002
 23
-42.85994
 33
0.0
 14
76.09916700000002
 24
-55.559937
 34
0.0
 50
90.0
1001
ACAD
1000
DSTYLE
1002
{
1070
     6
1000
_NONE
1070
    77
1070
     1
1070
   172
1070
     1
1070
    75
1070
     1
1070
    76
1070
     1
1002
}
  0
DIMENSION
  5
1B4
  8
0
  6
CONTINUOUS
 62
     7
  2
*D11
 10
101.09915
 20
71.440063
 30
0.0
 11
101.09915
 21
7.940062499999998
 31
0.0
 70
    32
  3
DIMSTYLE
 13
76.09916700000002
 23
-55.559937
 33
0.0
 14
76.09916700000002
 24
71.440063
 34
0.0
 50
90.0
1001
ACAD
1000
DSTYLE
1002
{
1070
    77
1070
     1
1070
   172
1070
     1
1002
}
  0
DIMENSION
  5
1B5
  8
0
  6
CONTINUOUS
 62
     7
  2
*D12
 10
54.599167
 20
-74.559937
 30
0.0
 11
39.849167
 21
-74.559937
 31
0.0
 70
    32
  3
DIMSTYLE
 13
25.099165
 23
-62.559937
 33
0.0
 14
54.599167
 24
-25.45994
 34
0.0
1001
ACAD
1000
DSTYLE
1002
{
1070
    77
1070
     1
1070
   172
1070
     1
1002
}
  0
DIMENSION
  5
1B6
  8
0
  6
CONTINUOUS
 62
     7
  2
*D13
 10
65.59916700000001
 20
-74.559937
 30
0.0
 11
60.099167
 21
-74.559937
 31
0.0
 70
    32
  3
DIMSTYLE
 13
54.599167
 23
-25.45994
 33
0.0
 14
65.59916700000001
 24
-50.85994
 34
0.0
1001
ACAD
1000
DSTYLE
1002
{
1070
     6
1000
_NONE
1070
    77
1070
     1
1070
   172
1070
     1
1070
    75
1070
     1
1002
}
  0
DIMENSION
  5
1B7
  8
0
  6
CONTINUOUS
 62
     7
  2
*D14
 10
76.09916700000002
 20
-74.559937
 30
0.0
 11
86.82605
 21
-74.559937
 31
0.0
 70
    32
  3
DIMSTYLE
 13
65.59916700000001
 23
-50.85994
 33
0.0
 14
76.09916700000002
 24
-55.559937
 34
0.0
1001
ACAD
1000
DSTYLE
1002
{
1070
     6
1000
_NONE
1070
    77
1070
     1
1070
   172
1070
     1
1070
    75
1070
     1
1002
}
  0
POLYLINE
  5
1B8
  8
0
  6
CONTINUOUS
 62
     7
 66
     1
 10
0.0
 20
0.0
 30
0.0
  0
VERTEX
  5
59C
  8
0
  6
CONTINUOUS
 62
     7
 10
-12.395631
 20
-39.85473300000001
 30
0.0
  0
VERTEX
  5
59D
  8
0
  6
CONTINUOUS
 62
     7
 10
-47.100838
 20
-74.559937
 30
0.0
  0
VERTEX
  5
59E
  8
0
  6
CONTINUOUS
 62
     7
 10
6.327585199999997
 20
-74.559937
 30
0.0
  0
SEQEND
  5
5A4
  8
0
  6
CONTINUOUS
 62
     7
  0
TEXT
  5
1BD
  8
0
  6
CONTINUOUS
 62
     7
 10
-31.158415
 20
-73.75993699999998
 30
0.0
 40
3.2
  1
１０－%%C５×%%C８．５サラ
 41
0.8437725099999998
  0
DIMENSION
  5
1BE
  8
0
  6
CONTINUOUS
 62
     7
  2
*D15
 10
-12.395631
 20
-39.85473199999999
 30
0.0
 11
-12.415415
 21
-74.559937
 31
0.0
 70
     3
  3
DIMSTYLE
 15
-18.40603899999998
 25
-45.86514
 35
0.0
 40
0.0
1001
ACAD
1000
DSTYLE
1002
{
1070
    77
1070
     1
1070
   172
1070
     1
1002
}
  0
POLYLINE
  5
1BF
  8
0
  6
CONTINUOUS
 62
     7
 66
     1
 10
0.0
 20
0.0
 30
0.0
  0
VERTEX
  5
59F
  8
0
  6
CONTINUOUS
 62
     7
 10
20.50297399999998
 20
135.53308
 30
0.0
  0
VERTEX
  5
5A0
  8
0
  6
CONTINUOUS
 62
     7
 10
3.5991654
 20
118.6292699999997
 30
0.0
  0
VERTEX
  5
5A1
  8
0
  6
CONTINUOUS
 62
     7
 10
-6.663398700000001
 20
118.6292699999997
 30
0.0
  0
SEQEND
  5
5A5
  8
0
  6
CONTINUOUS
 62
     7
  0
TEXT
  5
1C4
  8
0
  6
CONTINUOUS
 62
     7
 10
-6.663398799999997
 20
119.4292699999997
 30
0.0
 40
3.2
  1
%%C13
 41
1.075709999999999
  0
DIMENSION
  5
1C5
  8
0
  6
CONTINUOUS
 62
     7
  2
*D16
 10
29.695361
 20
144.72547
 30
0.0
 11
-2.320398799999999
 21
118.6292699999997
 31
0.0
 70
     3
  3
DIMSTYLE
 15
20.50297299999998
 25
135.53308
 35
0.0
 40
0.0
1001
ACAD
1000
DSTYLE
1002
{
1070
    77
1070
     1
1070
   172
1070
     1
1002
}
  0
DIMENSION
  5
1C6
  8
0
  6
CONTINUOUS
 62
     7
  2
*D17
 10
91.099152
 20
141.1292699999999
 30
0.0
 11
91.099152
 21
150.06581
 31
0.0
 70
    32
  3
DIMSTYLE
 13
76.09916700000002
 23
143.6292699999999
 33
0.0
 14
76.09916700000002
 24
141.1292699999999
 34
0.0
 50
90.0
1001
ACAD
1000
DSTYLE
1002
{
1070
    77
1070
     1
1070
   172
1070
     1
1070
    75
1070
     1
1002
}
  0
DIMENSION
  5
1C7
  8
0
  6
CONTINUOUS
 62
     7
  2
*D21
 10
91.099152
 20
139.1292699999999
 30
0.0
 11
101.0276766025026
 21
131.4673912105085
 31
0.0
 70
   160
  3
DIMSTYLE
 13
76.09916700000002
 23
141.1292699999999
 33
0.0
 14
76.09916700000002
 24
139.1292699999999
 34
0.0
 50
90.0
1001
ACAD
1000
DSTYLE
1002
{
1070
   287
1070
     4
1070
     6
1000
NONE
1070
    75
1070
     1
1070
    77
1070
     1
1070
   172
1070
     1
1070
   271
1070
     0
1070
   279
1070
     1
1002
}
  0
DIMENSION
  5
1C8
  8
0
  6
CONTINUOUS
 62
     7
  2
*D18
 10
91.099152
 20
136.62927
 30
0.0
 11
91.099152
 21
129.76334
 31
0.0
 70
    32
  3
DIMSTYLE
 13
76.09916700000002
 23
139.1292699999999
 33
0.0
 14
76.09916700000002
 24
136.62927
 34
0.0
 50
90.0
1001
ACAD
1000
DSTYLE
1002
{
1070
     6
1000
_NONE
1070
    77
1070
     1
1070
   172
1070
     1
1070
    75
1070
     1
1070
    76
1070
     1
1002
}
  0
DIMENSION
  5
1C9
  8
0
  6
CONTINUOUS
 62
     7
  2
*D19
 10
101.09915
 20
143.6292699999999
 30
0.0
 11
101.09915
 21
140.1292699999999
 31
0.0
 70
    32
  3
DIMSTYLE
 13
76.09916700000002
 23
136.62927
 33
0.0
 14
76.09916700000002
 24
143.6292699999999
 34
0.0
 50
90.0
1001
ACAD
1000
DSTYLE
1002
{
1070
    77
1070
     1
1070
   172
1070
     1
1002
}
  0
ENDSEC
  0
EOF
