  0
SECTION
  2
HEADER
  9
$ACADVER
  1
AC1015
  9
$ACADMAINTVER
 70
    20
  9
$DWGCODEPAGE
  3
ANSI_932
  9
$INSBASE
 10
0.0
 20
0.0
 30
0.0
  9
$EXTMIN
 10
-211.0
 20
-100.0
 30
0.0
  9
$EXTMAX
 10
170.0
 20
173.0
 30
0.0
  9
$LIMMIN
 10
-211.0
 20
-100.0
  9
$LIMMAX
 10
170.0
 20
173.0
  9
$ORTHOMODE
 70
     0
  9
$REGENMODE
 70
     1
  9
$FILLMODE
 70
     1
  9
$QTEXTMODE
 70
     0
  9
$MIRRTEXT
 70
     1
  9
$LTSCALE
 40
1.0
  9
$ATTMODE
 70
     1
  9
$TEXTSIZE
 40
0.2
  9
$TRACEWID
 40
0.05
  9
$TEXTSTYLE
  7
STANDARD
  9
$CLAYER
  8
0
  9
$CELTYPE
  6
CONTINUOUS
  9
$CECOLOR
 62
   256
  9
$CELTSCALE
 40
1.0
  9
$DISPSILH
 70
     0
  9
$DIMSCALE
 40
1.0
  9
$DIMASZ
 40
1.0
  9
$DIMEXO
 40
2.54
  9
$DIMDLI
 40
0.38
  9
$DIMRND
 40
0.0
  9
$DIMDLE
 40
0.0
  9
$DIMEXE
 40
2.54
  9
$DIMTP
 40
0.0
  9
$DIMTM
 40
0.0
  9
$DIMTXT
 40
3.2
  9
$DIMCEN
 40
0.09
  9
$DIMTSZ
 40
0.0
  9
$DIMTOL
 70
     0
  9
$DIMLIM
 70
     0
  9
$DIMTIH
 70
     0
  9
$DIMTOH
 70
     0
  9
$DIMSE1
 70
     0
  9
$DIMSE2
 70
     0
  9
$DIMTAD
 70
     1
  9
$DIMZIN
 70
     0
  9
$DIMBLK
  1

  9
$DIMASO
 70
     1
  9
$DIMSHO
 70
     0
  9
$DIMPOST
  1

  9
$DIMAPOST
  1

  9
$DIMALT
 70
     0
  9
$DIMALTD
 70
     2
  9
$DIMALTF
 40
25.4
  9
$DIMLFAC
 40
1.0
  9
$DIMTOFL
 70
     0
  9
$DIMTVP
 40
1.0
  9
$DIMTIX
 70
     0
  9
$DIMSOXD
 70
     0
  9
$DIMSAH
 70
     1
  9
$DIMBLK1
  1

  9
$DIMBLK2
  1

  9
$DIMSTYLE
  2
DIMSTYLE
  9
$DIMCLRD
 70
     0
  9
$DIMCLRE
 70
     0
  9
$DIMCLRT
 70
     0
  9
$DIMTFAC
 40
1.0
  9
$DIMGAP
 40
1.6
  9
$DIMJUST
 70
     0
  9
$DIMSD1
 70
     0
  9
$DIMSD2
 70
     0
  9
$DIMTOLJ
 70
     1
  9
$DIMTZIN
 70
     0
  9
$DIMALTZ
 70
     0
  9
$DIMALTTZ
 70
     0
  9
$DIMUPT
 70
     0
  9
$DIMDEC
 70
     4
  9
$DIMTDEC
 70
     4
  9
$DIMALTU
 70
     2
  9
$DIMALTTD
 70
     2
  9
$DIMTXSTY
  7
STANDARD
  9
$DIMAUNIT
 70
     0
  9
$DIMADEC
 70
     0
  9
$DIMALTRND
 40
0.0
  9
$DIMAZIN
 70
     0
  9
$DIMDSEP
 70
    46
  9
$DIMATFIT
 70
     3
  9
$DIMFRAC
 70
     0
  9
$DIMLDRBLK
  1

  9
$DIMLUNIT
 70
     2
  9
$DIMLWD
 70
    -2
  9
$DIMLWE
 70
    -2
  9
$DIMTMOVE
 70
     0
  9
$LUNITS
 70
     2
  9
$LUPREC
 70
     4
  9
$SKETCHINC
 40
0.1
  9
$FILLETRAD
 40
0.0
  9
$AUNITS
 70
     0
  9
$AUPREC
 70
     0
  9
$MENU
  1
.
  9
$ELEVATION
 40
0.0
  9
$PELEVATION
 40
0.0
  9
$THICKNESS
 40
0.0
  9
$LIMCHECK
 70
     0
  9
$CHAMFERA
 40
0.0
  9
$CHAMFERB
 40
0.0
  9
$CHAMFERC
 40
0.0
  9
$CHAMFERD
 40
0.0
  9
$SKPOLY
 70
     0
  9
$TDCREATE
 40
2452815.812088194
  9
$TDUCREATE
 40
2452815.437088194
  9
$TDUPDATE
 40
2456652.342945776
  9
$TDUUPDATE
 40
2456651.967945775
  9
$TDINDWG
 40
0.0629952315
  9
$TDUSRTIMER
 40
0.0629950463
  9
$USRTIMER
 70
     1
  9
$ANGBASE
 50
0.0
  9
$ANGDIR
 70
     0
  9
$PDMODE
 70
     0
  9
$PDSIZE
 40
0.0
  9
$PLINEWID
 40
0.0
  9
$SPLFRAME
 70
     0
  9
$SPLINETYPE
 70
     6
  9
$SPLINESEGS
 70
     8
  9
$HANDSEED
  5
9BC
  9
$SURFTAB1
 70
     6
  9
$SURFTAB2
 70
     6
  9
$SURFTYPE
 70
     6
  9
$SURFU
 70
     6
  9
$SURFV
 70
     6
  9
$UCSBASE
  2

  9
$UCSNAME
  2

  9
$UCSORG
 10
0.0
 20
0.0
 30
0.0
  9
$UCSXDIR
 10
1.0
 20
0.0
 30
0.0
  9
$UCSYDIR
 10
0.0
 20
1.0
 30
0.0
  9
$UCSORTHOREF
  2

  9
$UCSORTHOVIEW
 70
     0
  9
$UCSORGTOP
 10
0.0
 20
0.0
 30
0.0
  9
$UCSORGBOTTOM
 10
0.0
 20
0.0
 30
0.0
  9
$UCSORGLEFT
 10
0.0
 20
0.0
 30
0.0
  9
$UCSORGRIGHT
 10
0.0
 20
0.0
 30
0.0
  9
$UCSORGFRONT
 10
0.0
 20
0.0
 30
0.0
  9
$UCSORGBACK
 10
0.0
 20
0.0
 30
0.0
  9
$PUCSBASE
  2

  9
$PUCSNAME
  2

  9
$PUCSORG
 10
0.0
 20
0.0
 30
0.0
  9
$PUCSXDIR
 10
1.0
 20
0.0
 30
0.0
  9
$PUCSYDIR
 10
0.0
 20
1.0
 30
0.0
  9
$PUCSORTHOREF
  2

  9
$PUCSORTHOVIEW
 70
     0
  9
$PUCSORGTOP
 10
0.0
 20
0.0
 30
0.0
  9
$PUCSORGBOTTOM
 10
0.0
 20
0.0
 30
0.0
  9
$PUCSORGLEFT
 10
0.0
 20
0.0
 30
0.0
  9
$PUCSORGRIGHT
 10
0.0
 20
0.0
 30
0.0
  9
$PUCSORGFRONT
 10
0.0
 20
0.0
 30
0.0
  9
$PUCSORGBACK
 10
0.0
 20
0.0
 30
0.0
  9
$USERI1
 70
     0
  9
$USERI2
 70
     0
  9
$USERI3
 70
     0
  9
$USERI4
 70
     0
  9
$USERI5
 70
     0
  9
$USERR1
 40
0.0
  9
$USERR2
 40
0.0
  9
$USERR3
 40
0.0
  9
$USERR4
 40
0.0
  9
$USERR5
 40
0.0
  9
$WORLDVIEW
 70
     1
  9
$SHADEDGE
 70
     3
  9
$SHADEDIF
 70
    70
  9
$TILEMODE
 70
     1
  9
$MAXACTVP
 70
    64
  9
$PINSBASE
 10
0.0
 20
0.0
 30
0.0
  9
$PLIMCHECK
 70
     0
  9
$PEXTMIN
 10
1.000000000000000E+20
 20
1.000000000000000E+20
 30
1.000000000000000E+20
  9
$PEXTMAX
 10
-1.000000000000000E+20
 20
-1.000000000000000E+20
 30
-1.000000000000000E+20
  9
$PLIMMIN
 10
-211.0
 20
-100.0
  9
$PLIMMAX
 10
170.0
 20
173.0
  9
$UNITMODE
 70
     0
  9
$VISRETAIN
 70
     1
  9
$PLINEGEN
 70
     0
  9
$PSLTSCALE
 70
     1
  9
$TREEDEPTH
 70
  3020
  9
$CMLSTYLE
  2
Standard
  9
$CMLJUST
 70
     0
  9
$CMLSCALE
 40
1.0
  9
$PROXYGRAPHICS
 70
     1
  9
$MEASUREMENT
 70
     0
  9
$CELWEIGHT
370
    -1
  9
$ENDCAPS
280
     0
  9
$JOINSTYLE
280
     0
  9
$LWDISPLAY
290
     0
  9
$INSUNITS
 70
     0
  9
$HYPERLINKBASE
  1

  9
$STYLESHEET
  1

  9
$XEDIT
290
     1
  9
$CEPSNTYPE
380
     0
  9
$PSTYLEMODE
290
     1
  9
$FINGERPRINTGUID
  2
{0DE53BC8-D606-4ED8-BA44-3E78644C818C}
  9
$VERSIONGUID
  2
{B0B24BC3-CB66-43C8-BD86-A881E20E43E4}
  9
$EXTNAMES
290
     1
  9
$PSVPSCALE
 40
0.0
  9
$OLESTARTUP
290
     0
  0
ENDSEC
  0
SECTION
  2
CLASSES
  0
CLASS
  1
ACDBDICTIONARYWDFLT
  2
AcDbDictionaryWithDefault
  3
ObjectDBX Classes
 90
        0
280
     0
281
     0
  0
CLASS
  1
MATERIAL
  2
AcDbMaterial
  3
ObjectDBX Classes
 90
     1153
280
     0
281
     0
  0
CLASS
  1
VISUALSTYLE
  2
AcDbVisualStyle
  3
ObjectDBX Classes
 90
     4095
280
     0
281
     0
  0
CLASS
  1
TABLESTYLE
  2
AcDbTableStyle
  3
ObjectDBX Classes
 90
     4095
280
     0
281
     0
  0
CLASS
  1
AMGSETTINGSOBJ
  2
AmgSettingsObj
  3
"AcadM|Product Description: AutoCAD Mechanical|Company: Autodesk"
 90
        0
280
     0
281
     0
  0
CLASS
  1
ACME_DOCUMENT
  2
AcMeDbDoc
  3
AcMeServices
 90
        0
280
     0
281
     0
  0
CLASS
  1
ACMESCOPE
  2
AcMeScope
  3
AcMeServices
 90
        0
280
     0
281
     0
  0
CLASS
  1
ACMECOMMANDHISTORY
  2
AcMeCommandHistory
  3
AcMeServices
 90
        0
280
     0
281
     0
  0
CLASS
  1
ACIMSYSVARMAN
  2
AcImSysVarManager
  3
AcMeServices
 90
        0
280
     0
281
     0
  0
CLASS
  1
ACIMINTSYSVAR
  2
AcImIntSysVar
  3
AcMeServices
 90
        0
280
     0
281
     0
  0
CLASS
  1
ACMEDRAWINGMAN
  2
AcMeDrawingMan
  3
AcMeServices
 90
        0
280
     0
281
     0
  0
CLASS
  1
ACMEVIEW
  2
AcMeView
  3
AcMeServices
 90
        0
280
     0
281
     0
  0
CLASS
  1
ACDBENTITYCACHE
  2
AcMeEntityCache
  3
AcMeServices
 90
        0
280
     0
281
     0
  0
CLASS
  1
GSMANAGER
  2
AcMeGSManager
  3
AcMeServices
 90
        0
280
     0
281
     0
  0
CLASS
  1
AMDTINTERNALREACTOR
  2
AmdtInternalReactor
  3
AcMeServices
 90
        0
280
     0
281
     0
  0
CLASS
  1
ACMESTATEMGR
  2
AcMeStateMgr
  3
AcMeServices
 90
        0
280
     0
281
     0
  0
CLASS
  1
ACGREFMASTER
  2
AcGrefMaster
  3
AcAttribServices
 90
        0
280
     0
281
     0
  0
CLASS
  1
AM_DRAWING_MGR
  2
AcDmDwgMgr
  3
AcMechDwgViewMgmt
 90
        0
280
     0
281
     0
  0
CLASS
  1
AM_DWG_DOCUMENT
  2
AcDmDwgDocument
  3
AcMechDwgViewMgmt
 90
        0
280
     0
281
     0
  0
CLASS
  1
AM_DWG_SHEET
  2
AcDmSheet
  3
AcMechDwgViewMgmt
 90
        0
280
     0
281
     0
  0
CLASS
  1
AM_VIEWDIMPARMAP
  2
AcDmViewDimParMap
  3
AcMechDwgViewMgmt
 90
        0
280
     0
281
     0
  0
CLASS
  1
ACIMREALSYSVAR
  2
AcImRealSysVar
  3
AcMeServices
 90
        0
280
     0
281
     0
  0
CLASS
  1
AM_DWGMGR_NAME
  2
AcDmDwgMgrName
  3
AcMechDwgViewMgmt
 90
        0
280
     0
281
     0
  0
CLASS
  1
ACME_DATABASE
  2
AcMeDbDatabase
  3
AcMeServices
 90
        0
280
     0
281
     0
  0
CLASS
  1
ACRFINSADJUSTERMGR
  2
AcRfInsAdjusterMgr
  3
AcMeServices
 90
        0
280
     0
281
     0
  0
CLASS
  1
ACGREFACADMASTER
  2
AcGrefacadMaster
  3
AcGrefServices
 90
        0
280
     0
281
     0
  0
CLASS
  1
AMDTMENUSTATEMGR
  2
AmdtMenuStateMgr
  3
McadcomServices
 90
        0
280
     0
281
     0
  0
CLASS
  1
AMDTMCOMMENUSTATE
  2
AmdtMcomMenuState
  3
McadcomServices
 90
        0
280
     0
281
     0
  0
CLASS
  1
AMIMASTER
  2
AmiMaster
  3
AmiServices
 90
        0
280
     0
281
     0
  0
CLASS
  1
MAPIAMMOUDLE
  2
MApiAmModule
  3
MApiAmServices
 90
        0
280
     0
281
     0
  0
CLASS
  1
ACIMSTRSYSVAR
  2
AcImStrSysVar
  3
AcMeServices
 90
        0
280
     0
281
     0
  0
CLASS
  1
AMDTADMENUSTATE
  2
AmdtAdMenuState
  3
DesignerServices
 90
        0
280
     0
281
     0
  0
CLASS
  1
ADAPPL
  2
AcAdAppl
  3
DesignerServices
 90
        0
280
     0
281
     0
  0
CLASS
  1
DEPMGR
  2
AcAdDepMgr
  3
DesignerServices
 90
        0
280
     0
281
     0
  0
CLASS
  1
PARAMMGR
  2
AcAdParamMgr
  3
DesignerServices
 90
        0
280
     0
281
     0
  0
CLASS
  1
PARAMSCOPE
  2
AcAdParamScope
  3
DesignerServices
 90
        0
280
     0
281
     0
  0
CLASS
  1
NAMEDAPPL
  2
AcAdNamedAppl
  3
DesignerServices
 90
        0
280
     0
281
     0
  0
CLASS
  1
AMDTDMMENUSTATE
  2
AmdtDmMenuState
  3
AcMechDwgViewMgmt
 90
        0
280
     0
281
     0
  0
CLASS
  1
AMDTAMMENUSTATE
  2
AmdtAmMenuState
  3
DesignerAssemblies
 90
        0
280
     0
281
     0
  0
CLASS
  1
ACAMPROJECT
  2
AcAmProject
  3
DesignerAssemblies
 90
        0
280
     0
281
     0
  0
CLASS
  1
ACAMGRCOMPDEF
  2
AcAmGrCompDef
  3
DesignerAssemblies
 90
        0
280
     0
281
     0
  0
CLASS
  1
ACCMCONTEXT
  2
AcCmContext
  3
DesignerAssemblies
 90
        0
280
     0
281
     0
  0
CLASS
  1
ACAMCOMPDEF
  2
AcAmCompDef
  3
DesignerAssemblies
 90
        0
280
     0
281
     0
  0
CLASS
  1
ACAMCOMPDEFMGR
  2
AcAmCompDefMgr
  3
DesignerAssemblies
 90
        0
280
     0
281
     0
  0
CLASS
  1
AMCONTEXTMGR
  2
AcAmContextMgr
  3
DesignerAssemblies
 90
        0
280
     0
281
     0
  0
CLASS
  1
ACAMCONTEXTMODELER
  2
AcAmContextModeler
  3
DesignerAssemblies
 90
        0
280
     0
281
     0
  0
CLASS
  1
ACMDATADICTIONARY
  2
AcmDataDictionary
  3
"AcmSymBB|Product Description: AutoCAD Mechanical|Company: Autodesk"
 90
        0
280
     0
281
     0
  0
CLASS
  1
CATALOGSTATE
  2
AcAmCatalogState
  3
DesignerAssemblies
 90
        0
280
     0
281
     0
  0
CLASS
  1
ACAMGRCOMPDEFSET
  2
AcAmGrCompDefSet
  3
DesignerAssemblies
 90
        0
280
     0
281
     0
  0
CLASS
  1
AMDTBROWSERDBTAB
  2
AmdtBrowserDbTab
  3
McadcomServices
 90
        0
280
     0
281
     0
  0
CLASS
  1
CBROWSERAPPOBJECT
  2
CBrowserAppObject
  3
McadcomServices
 90
        0
280
     0
281
     0
  0
CLASS
  1
DM_PLACEHOLDER
  2
AcDmSelsetPlaceholder
  3
AcMechDwgViewMgmt
 90
        0
280
     0
281
     0
  0
CLASS
  1
ACMSTANDARDANSI
  2
AcmStandardANSI
  3
"Amdt_StdImp|Product Description: AutoCAD Mechanical|Company: Autodesk"
 90
        0
280
     0
281
     0
  0
CLASS
  1
AMGOBJPROPCFG
  2
AmgObjPropCfg
  3
"AmgLay|Product Description: AutoCAD Mechanical|Company: Autodesk"
 90
        1
280
     0
281
     0
  0
CLASS
  1
ACMSURFSTANDARDANSI
  2
AcmSurfTextStdANSI
  3
"Amdt_StdImp|Product Description: AutoCAD Mechanical|Company: Autodesk"
 90
        0
280
     0
281
     0
  0
CLASS
  1
ACMFCFSTANDARDANSI
  2
AcmFCFStdANSI
  3
"Amdt_StdImp|Product Description: AutoCAD Mechanical|Company: Autodesk"
 90
        0
280
     0
281
     0
  0
CLASS
  1
ACMWELDSTANDARDANSI
  2
AcmWeldingStdANSI
  3
"Amdt_StdImp|Product Description: AutoCAD Mechanical|Company: Autodesk"
 90
        0
280
     0
281
     0
  0
CLASS
  1
ACMIDSTANDARDANSI
  2
AcmIdStdANSI
  3
"Amdt_StdImp|Product Description: AutoCAD Mechanical|Company: Autodesk"
 90
        0
280
     0
281
     0
  0
CLASS
  1
ACMDATUMSTANDARDANSI
  2
AcmDatumStdANSI
  3
"Amdt_StdImp|Product Description: AutoCAD Mechanical|Company: Autodesk"
 90
        0
280
     0
281
     0
  0
CLASS
  1
ACMBOMSTANDARDANSI
  2
AcmBOMStdANSI
  3
"Amdt_StdImp|Product Description: AutoCAD Mechanical|Company: Autodesk"
 90
        0
280
     0
281
     0
  0
CLASS
  1
ACMDETAILSTANDARDANSI
  2
AmdtDetailSymStdANSI
  3
"Amdt_StdImp|Product Description: AutoCAD Mechanical|Company: Autodesk"
 90
        0
280
     0
281
     0
  0
CLASS
  1
ACMSECTIONSTANDARDANSI
  2
AmdtSectionSymStdANSI
  3
"Amdt_StdImp|Product Description: AutoCAD Mechanical|Company: Autodesk"
 90
        0
280
     0
281
     0
  0
CLASS
  1
ACMCENTERLINESTANDARDANSI
  2
AmdtCenterLineStdANSI
  3
"Amdt_StdImp|Product Description: AutoCAD Mechanical|Company: Autodesk"
 90
        0
280
     0
281
     0
  0
CLASS
  1
ACMTHREADLINESTANDARDANSI
  2
AmdtThreadLineStdANSI
  3
"Amdt_StdImp|Product Description: AutoCAD Mechanical|Company: Autodesk"
 90
        0
280
     0
281
     0
  0
CLASS
  1
ACMNOTESTANDARDANSI
  2
AmdtNoteStdANSI
  3
"Amdt_StdImp|Product Description: AutoCAD Mechanical|Company: Autodesk"
 90
        0
280
     0
281
     0
  0
CLASS
  1
ACMTAPERSTANDARDANSI
  2
AcmTaperStdANSI
  3
"Amdt_StdImp|Product Description: AutoCAD Mechanical|Company: Autodesk"
 90
        0
280
     0
281
     0
  0
CLASS
  1
AMDTNOTETEMPLATEDB
  2
AmdtNoteTemplateDB
  3
AMDT_STDIMP_MODULE_NAME
 90
        0
280
     0
281
     0
  0
CLASS
  1
ACAMGLAYSTD
  2
AcAmgLayStd
  3
"AmgLay|Product Description: AutoCAD Mechanical|Company: Autodesk"
 90
        0
280
     0
281
     0
  0
CLASS
  1
ACAMGDIMSTD
  2
AcAmgDimStd
  3
"AmgDim|Product Description: AutoCAD Mechanical|Company: Autodesk"
 90
        0
280
     0
281
     0
  0
CLASS
  1
ACAMGHOLECHARTSTDANSI
  2
AcAmgHoleChartStdANSI
  3
ACMSYMBB_MODULE_NAME
 90
        0
280
     0
281
     0
  0
CLASS
  1
ACAMGTITLESTD
  2
AcAmgTitleStd
  3
"AmgTitle|Product Description: AutoCAD Mechanical|Company: Autodesk"
 90
        0
280
     0
281
     0
  0
CLASS
  1
ACAMGFILTERDAT
  2
AcAmgFilterDat
  3
"AcadM|Product Description: AutoCAD Mechanical|Company: Autodesk"
 90
        0
280
     0
281
     0
  0
CLASS
  1
CAMSSTRUCTBTNSTATE
  2
StructBtnState
  3
L"DesignerAssemblies"
 90
        0
280
     0
281
     0
  0
CLASS
  1
DICTIONARYVAR
  2
AcDbDictionaryVar
  3
ObjectDBX Classes
 90
        0
280
     0
281
     0
  0
CLASS
  1
SORTENTSTABLE
  2
AcDbSortentsTable
  3
ObjectDBX Classes
 90
        0
280
     0
281
     0
  0
CLASS
  1
ACMSTANDARDISO
  2
AcmStandardISO
  3
"Amdt_StdImp|Product Description: AutoCAD Mechanical|Company: Autodesk"
 90
        0
280
     0
281
     0
  0
CLASS
  1
AMDTEDGESTANDARDISO
  2
AmdtEdgeStdISO
  3
"Amdt_StdImp|Product Description: AutoCAD Mechanical|Company: Autodesk"
 90
        0
280
     0
281
     0
  0
CLASS
  1
ACMSURFSTANDARDISO
  2
AcmSurfTextStdISO
  3
"Amdt_StdImp|Product Description: AutoCAD Mechanical|Company: Autodesk"
 90
        0
280
     0
281
     0
  0
CLASS
  1
ACMFCFSTANDARDISO
  2
AcmFCFStdISO
  3
"Amdt_StdImp|Product Description: AutoCAD Mechanical|Company: Autodesk"
 90
        0
280
     0
281
     0
  0
CLASS
  1
ACMWELDSTANDARDISO
  2
AcmWeldingStdISO
  3
"Amdt_StdImp|Product Description: AutoCAD Mechanical|Company: Autodesk"
 90
        0
280
     0
281
     0
  0
CLASS
  1
ACMIDSTANDARDISO
  2
AcmIdStdISO
  3
"Amdt_StdImp|Product Description: AutoCAD Mechanical|Company: Autodesk"
 90
        0
280
     0
281
     0
  0
CLASS
  1
ACMDATUMSTANDARDISO
  2
AcmDatumStdISO
  3
"Amdt_StdImp|Product Description: AutoCAD Mechanical|Company: Autodesk"
 90
        0
280
     0
281
     0
  0
CLASS
  1
ACMBOMSTANDARDISO
  2
AcmBOMStdISO
  3
"Amdt_StdImp|Product Description: AutoCAD Mechanical|Company: Autodesk"
 90
        0
280
     0
281
     0
  0
CLASS
  1
ACMDETAILSTANDARDISO
  2
AmdtDetailSymStdISO
  3
"Amdt_StdImp|Product Description: AutoCAD Mechanical|Company: Autodesk"
 90
        0
280
     0
281
     0
  0
CLASS
  1
ACMSECTIONSTANDARDISO
  2
AmdtSectionSymStdISO
  3
"Amdt_StdImp|Product Description: AutoCAD Mechanical|Company: Autodesk"
 90
        0
280
     0
281
     0
  0
CLASS
  1
ACMCENTERLINESTANDARDISO
  2
AmdtCenterLineStdISO
  3
"Amdt_StdImp|Product Description: AutoCAD Mechanical|Company: Autodesk"
 90
        0
280
     0
281
     0
  0
CLASS
  1
ACMNOTESTANDARDISO
  2
AmdtNoteStdISO
  3
"Amdt_StdImp|Product Description: AutoCAD Mechanical|Company: Autodesk"
 90
        0
280
     0
281
     0
  0
CLASS
  1
ACMTHREADLINESTANDARDISO
  2
AmdtThreadLineStdISO
  3
"Amdt_StdImp|Product Description: AutoCAD Mechanical|Company: Autodesk"
 90
        0
280
     0
281
     0
  0
CLASS
  1
ACMTAPERSTANDARDISO
  2
AcmTaperStdISO
  3
"Amdt_StdImp|Product Description: AutoCAD Mechanical|Company: Autodesk"
 90
        0
280
     0
281
     0
  0
CLASS
  1
ACMDATAENTRYBLOCK
  2
AcmDataEntryBlock
  3
"AcmSymBB|Product Description: AutoCAD Mechanical|Company: Autodesk"
 90
    32768
280
     0
281
     0
  0
CLASS
  1
ACDBPLACEHOLDER
  2
AcDbPlaceHolder
  3
ObjectDBX Classes
 90
        0
280
     0
281
     0
  0
CLASS
  1
LAYOUT
  2
AcDbLayout
  3
ObjectDBX Classes
 90
        0
280
     0
281
     0
  0
ENDSEC
  0
SECTION
  2
TABLES
  0
TABLE
  2
VPORT
  5
1C5
330
0
100
AcDbSymbolTable
 70
     1
  0
VPORT
  5
1F7
330
1C5
100
AcDbSymbolTableRecord
100
AcDbViewportTableRecord
  2
*ACTIVE
 70
     0
 10
0.0
 20
0.0
 11
1.0
 21
1.0
 12
-4.664086849432976
 22
22.75741426137108
 13
0.0
 23
0.0
 14
1.0
 24
1.0
 15
0.0
 25
0.0
 16
0.0
 26
0.0
 36
1.0
 17
0.0
 27
0.0
 37
0.0
 40
463.5684842918447
 41
1.305496828752642
 42
50.0
 43
0.0
 44
0.0
 50
0.0
 51
0.0
 71
     0
 72
   100
 73
     1
 74
     1
 75
     0
 76
     0
 77
     0
 78
     0
281
     0
 65
     0
110
0.0
120
0.0
130
0.0
111
1.0
121
0.0
131
0.0
112
0.0
122
1.0
132
0.0
 79
     0
146
0.0
  0
ENDTAB
  0
TABLE
  2
LTYPE
  5
1C2
330
0
100
AcDbSymbolTable
 70
    33
  0
LTYPE
  5
1E5
330
1C2
100
AcDbSymbolTableRecord
100
AcDbLinetypeTableRecord
  2
ByBlock
 70
     0
  3

 72
    65
 73
     0
 40
0.0
  0
LTYPE
  5
1E6
330
1C2
100
AcDbSymbolTableRecord
100
AcDbLinetypeTableRecord
  2
ByLayer
 70
     0
  3

 72
    65
 73
     0
 40
0.0
  0
LTYPE
  5
1E7
330
1C2
100
AcDbSymbolTableRecord
100
AcDbLinetypeTableRecord
  2
CONTINUOUS
 70
     0
  3
Solid line
 72
    65
 73
     0
 40
0.0
  0
LTYPE
  5
1F8
330
1C2
100
AcDbSymbolTableRecord
100
AcDbLinetypeTableRecord
  2
DASHED
 70
     0
  3
__ __ __ __ __ __ __ __ __ __ __ __ __ __ __
 72
    65
 73
     2
 40
3.5
 49
2.0
 74
     0
 49
-1.5
 74
     0
  0
LTYPE
  5
1F9
330
1C2
100
AcDbSymbolTableRecord
100
AcDbLinetypeTableRecord
  2
CENTER
 70
     0
  3
____ _ ____ _ ____ _ ____ _ ____ _ ____ _ ____
 72
    65
 73
     4
 40
17.5
 49
13.0
 74
     0
 49
-1.5
 74
     0
 49
1.5
 74
     0
 49
-1.5
 74
     0
  0
LTYPE
  5
1FA
330
1C2
100
AcDbSymbolTableRecord
100
AcDbLinetypeTableRecord
  2
PHANTOM
 70
     0
  3
_____ _ _ _____ _ _ _____ _ _ _____ _ _ ____  
 72
    65
 73
     6
 40
15.5
 49
8.0
 74
     0
 49
-1.5
 74
     0
 49
1.5
 74
     0
 49
-1.5
 74
     0
 49
1.5
 74
     0
 49
-1.5
 74
     0
  0
LTYPE
  5
1FB
330
1C2
100
AcDbSymbolTableRecord
100
AcDbLinetypeTableRecord
  2
DOT
 70
     0
  3
. . . . . . . . . . . . . . . . . . . . . . . .
 72
    65
 73
     2
 40
0.25
 49
0.0
 74
     0
 49
-0.25
 74
     0
  0
LTYPE
  5
1FC
330
1C2
100
AcDbSymbolTableRecord
100
AcDbLinetypeTableRecord
  2
HIDDEN
 70
     0
  3
__ __ __ __ __ __ __ __ __ __ __ __ __ __ __
 72
    65
 73
     2
 40
3.5
 49
2.0
 74
     0
 49
-1.5
 74
     0
  0
LTYPE
  5
262
330
1C2
100
AcDbSymbolTableRecord
100
AcDbLinetypeTableRecord
  2
PHANTOM2
 70
     0
  3
Phantom (.5x) ___ _ _ ___ _ _ ___ _ _ ___ _ _
 72
    65
 73
     6
 40
1.25
 49
0.625
 74
     0
 49
-0.125
 74
     0
 49
0.125
 74
     0
 49
-0.125
 74
     0
 49
0.125
 74
     0
 49
-0.125
 74
     0
  0
LTYPE
  5
297
330
1C2
100
AcDbSymbolTableRecord
100
AcDbLinetypeTableRecord
  2
AM_ISO02W050
 70
     0
  3
__ __ __ __ __ __ __ __ __ __ __ __ __ __ __
 72
    65
 73
     2
 40
7.5
 49
6.0
 74
     0
 49
-1.5
 74
     0
  0
LTYPE
  5
298
330
1C2
100
AcDbSymbolTableRecord
100
AcDbLinetypeTableRecord
  2
AM_ISO08W050
 70
     0
  3
____ . ____ . ____ . ____ . ____ . ____ . ____
 72
    65
 73
     4
 40
18.0
 49
12.0
 74
     0
 49
-1.5
 74
     0
 49
3.0
 74
     0
 49
-1.5
 74
     0
  0
LTYPE
  5
299
330
1C2
100
AcDbSymbolTableRecord
100
AcDbLinetypeTableRecord
  2
AM_ISO09W050
 70
     0
  3
_____ . . _____ . . _____ . . ____ .. ____
 72
    65
 73
     6
 40
22.5
 49
12.0
 74
     0
 49
-1.5
 74
     0
 49
3.0
 74
     0
 49
-1.5
 74
     0
 49
3.0
 74
     0
 49
-1.5
 74
     0
  0
LTYPE
  5
29A
330
1C2
100
AcDbSymbolTableRecord
100
AcDbLinetypeTableRecord
  2
Amconstr
 70
     0
  3
_______________________
 72
    65
 73
     2
 40
9999.0
 49
9999.0
 74
     0
 49
0.0
 74
     0
  0
LTYPE
  5
29B
330
1C2
100
AcDbSymbolTableRecord
100
AcDbLinetypeTableRecord
  2
AM_ISO08W050x2
 70
     0
  3
__ . __ . __ . __ . __ . __
 72
    65
 73
     4
 40
9.0
 49
6.0
 74
     0
 49
-0.75
 74
     0
 49
1.5
 74
     0
 49
-0.75
 74
     0
  0
LTYPE
  5
29C
330
1C2
100
AcDbSymbolTableRecord
100
AcDbLinetypeTableRecord
  2
AM_ISO02W050x2
 70
     0
  3
 _ _ _ _ _ _ _ _ _ _ _ _
 72
    65
 73
     2
 40
3.75
 49
3.0
 74
     0
 49
-0.75
 74
     0
  0
LTYPE
  5
29F
330
1C2
100
AcDbSymbolTableRecord
100
AcDbLinetypeTableRecord
  2
Amzigzag
 70
     0
  3
/\/-/\/-/\/-/\/-/\/-/\/
 72
    65
 73
     2
 40
11.0001
 49
0.0001
 74
     4
 75
   136
340
29E
 46
0.04
 50
0.0
 44
0.0
 45
0.0
 49
-11.0
 74
     0
  0
LTYPE
  5
2A0
330
1C2
100
AcDbSymbolTableRecord
100
AcDbLinetypeTableRecord
  2
CENTER2
 70
     0
  3
Center (.5x) ___ _ ___ _ ___ _ ___ _ ___ _ ___
 72
    65
 73
     4
 40
1.125
 49
0.75
 74
     0
 49
-0.125
 74
     0
 49
0.125
 74
     0
 49
-0.125
 74
     0
  0
LTYPE
  5
2A1
330
1C2
100
AcDbSymbolTableRecord
100
AcDbLinetypeTableRecord
  2
HIDDEN2
 70
     0
  3
Hidden (.5x) _ _ _ _ _ _ _ _ _ _ _ _ _ _ _ _ _
 72
    65
 73
     2
 40
0.1875
 49
0.125
 74
     0
 49
-0.0625
 74
     0
  0
LTYPE
  5
2A2
330
1C2
100
AcDbSymbolTableRecord
100
AcDbLinetypeTableRecord
  2
Amzigzag2
 70
     0
  3
/\/-/\/-/\/-/\/-/\/-/\/
 72
    65
 73
     2
 40
0.4401
 49
0.0001
 74
     4
 75
   136
340
29E
 46
0.0016
 50
0.0
 44
0.0
 45
0.0
 49
-0.4400000000000001
 74
     0
  0
LTYPE
  5
2B1
330
1C2
100
AcDbSymbolTableRecord
100
AcDbLinetypeTableRecord
  2
ACANSTGB
 70
     0
  3
__ . . __ . .
 72
    65
 73
     6
 40
0.35433070866
 49
0.15748031496
 74
     0
 49
-0.03937007874
 74
     0
 49
0.03937007874
 74
     0
 49
-0.03937007874
 74
     0
 49
0.03937007874
 74
     0
 49
-0.03937007874
 74
     0
  0
LTYPE
  5
2B2
330
1C2
100
AcDbSymbolTableRecord
100
AcDbLinetypeTableRecord
  2
ACANSTGL
 70
     0
  3
_ _ _ _ _
 72
    65
 73
     2
 40
0.11811023622
 49
0.07874015748
 74
     0
 49
-0.03937007874
 74
     0
  0
LTYPE
  5
494
330
1C2
100
AcDbSymbolTableRecord
100
AcDbLinetypeTableRecord
  2
ACISOWELD
 70
     0
  3
_ _ _ _ _
 72
    65
 73
     2
 40
2.0
 49
2.0
 74
     0
 49
-1.0
 74
     0
  0
LTYPE
  5
495
330
1C2
100
AcDbSymbolTableRecord
100
AcDbLinetypeTableRecord
  2
ACISOTGB
 70
     0
  3
__ . . __ . .
 72
    65
 73
     6
 40
9.0
 49
4.0
 74
     0
 49
-1.0
 74
     0
 49
1.0
 74
     0
 49
-1.0
 74
     0
 49
1.0
 74
     0
 49
-1.0
 74
     0
  0
LTYPE
  5
496
330
1C2
100
AcDbSymbolTableRecord
100
AcDbLinetypeTableRecord
  2
ACISOTGL
 70
     0
  3
_ _ _ _ _
 72
    65
 73
     2
 40
3.0
 49
2.0
 74
     0
 49
-1.0
 74
     0
  0
LTYPE
  5
497
330
1C2
100
AcDbSymbolTableRecord
100
AcDbLinetypeTableRecord
  2
中線
 70
     0
  3
___________________
 72
    65
 73
     2
 40
2.0
 49
1.0
 74
     0
 49
1.0
 74
     0
  0
LTYPE
  5
498
330
1C2
100
AcDbSymbolTableRecord
100
AcDbLinetypeTableRecord
  2
細線
 70
     0
  3
___________________
 72
    65
 73
     2
 40
2.0
 49
1.0
 74
     0
 49
1.0
 74
     0
  0
LTYPE
  5
499
330
1C2
100
AcDbSymbolTableRecord
100
AcDbLinetypeTableRecord
  2
太線
 70
     0
  3
___________________
 72
    65
 73
     2
 40
2.0
 49
1.0
 74
     0
 49
1.0
 74
     0
  0
LTYPE
  5
49A
330
1C2
100
AcDbSymbolTableRecord
100
AcDbLinetypeTableRecord
  2
文字
 70
     0
  3
_________________
 72
    65
 73
     2
 40
2.0
 49
1.0
 74
     0
 49
1.0
 74
     0
  0
LTYPE
  5
49B
330
1C2
100
AcDbSymbolTableRecord
100
AcDbLinetypeTableRecord
  2
寸法線
 70
     0
  3
________________
 72
    65
 73
     2
 40
2.0
 49
1.0
 74
     0
 49
1.0
 74
     0
  0
LTYPE
  5
49C
330
1C2
100
AcDbSymbolTableRecord
100
AcDbLinetypeTableRecord
  2
ハッチング
 70
     0
  3
_________________
 72
    65
 73
     2
 40
2.0
 49
1.0
 74
     0
 49
1.0
 74
     0
  0
LTYPE
  5
49D
330
1C2
100
AcDbSymbolTableRecord
100
AcDbLinetypeTableRecord
  2
陰線1
 70
     0
  3
__ __ __ __
 72
    65
 73
     2
 40
4.0
 49
2.2
 74
     0
 49
-1.8
 74
     0
  0
LTYPE
  5
49E
330
1C2
100
AcDbSymbolTableRecord
100
AcDbLinetypeTableRecord
  2
切断線
 70
     0
  3
/\/-/\/-/\/-/\/-/\/-/\/
 72
    65
 73
     2
 40
11.0001
 49
0.0001
 74
     4
 75
   135
340
4A4
 46
0.04
 50
0.0
 44
0.0
 45
0.0
 49
-11.0
 74
     0
  0
LTYPE
  5
49F
330
1C2
100
AcDbSymbolTableRecord
100
AcDbLinetypeTableRecord
  2
想像線1
 70
     0
  3
__ __ __ _____ __ __ ____
 72
    65
 73
     6
 40
14.5
 49
6.0
 74
     0
 49
-1.5
 74
     0
 49
2.0
 74
     0
 49
-1.5
 74
     0
 49
2.0
 74
     0
 49
-1.5
 74
     0
  0
LTYPE
  5
4A0
330
1C2
100
AcDbSymbolTableRecord
100
AcDbLinetypeTableRecord
  2
中心線1
 70
     0
  3
___ _ ___ _ ___
 72
    65
 73
     4
 40
18.0
 49
12.0
 74
     0
 49
-2.0
 74
     0
 49
2.0
 74
     0
 49
-2.0
 74
     0
  0
LTYPE
  5
4A1
330
1C2
100
AcDbSymbolTableRecord
100
AcDbLinetypeTableRecord
  2
補助線
 70
     0
  3
______________
 72
    65
 73
     2
 40
2.0
 49
1.0
 74
     0
 49
1.0
 74
     0
  0
ENDTAB
  0
TABLE
  2
LAYER
  5
1BF
102
{ACAD_XDICTIONARY
360
4B3
102
}
330
0
100
AcDbSymbolTable
 70
     7
  0
LAYER
  5
1E2
330
1BF
100
AcDbSymbolTableRecord
100
AcDbLayerTableRecord
  2
0
 70
     0
 62
     7
  6
CONTINUOUS
370
    -3
390
1CC
  0
LAYER
  5
1FD
330
1BF
100
AcDbSymbolTableRecord
100
AcDbLayerTableRecord
  2
1
 70
     0
 62
     7
  6
CONTINUOUS
370
    -3
390
1CC
  0
LAYER
  5
1FE
330
1BF
100
AcDbSymbolTableRecord
100
AcDbLayerTableRecord
  2
2
 70
     0
 62
     7
  6
CONTINUOUS
370
    -3
390
1CC
  0
LAYER
  5
1FF
330
1BF
100
AcDbSymbolTableRecord
100
AcDbLayerTableRecord
  2
DEFPOINTS
 70
     0
 62
     7
  6
CONTINUOUS
290
     0
370
    -3
390
1CC
  0
LAYER
  5
4A2
330
1BF
100
AcDbSymbolTableRecord
100
AcDbLayerTableRecord
  2
AM_0
 70
     0
 62
     7
  6
CONTINUOUS
370
    30
390
1CC
1001
AcAecLayerStandard
1000

1000

  0
LAYER
  5
4A3
330
1BF
100
AcDbSymbolTableRecord
100
AcDbLayerTableRecord
  2
AM_5
 70
     0
 62
     3
  6
CONTINUOUS
370
    15
390
1CC
1001
AcAecLayerStandard
1000

1000

  0
LAYER
  5
726
330
1BF
100
AcDbSymbolTableRecord
100
AcDbLayerTableRecord
  2
AM_CL
 70
     0
 62
     1
  6
Amconstr
370
    15
390
1CC
1001
AcAecLayerStandard
1000

1000

  0
ENDTAB
  0
TABLE
  2
STYLE
  5
1C0
330
0
100
AcDbSymbolTable
 70
     7
  0
STYLE
  5
1E3
330
1C0
100
AcDbSymbolTableRecord
100
AcDbTextStyleTableRecord
  2
STANDARD
 70
     0
 40
0.0
 41
1.0
 50
0.0
 71
     0
 42
0.2
  3
txt
  4
BIGFONT
  0
STYLE
  5
29E
330
1C0
100
AcDbSymbolTableRecord
100
AcDbTextStyleTableRecord
  2

 70
     1
 40
0.0
 41
1.0
 50
0.0
 71
     0
 42
0.2
  3
genltshp.shx
  4

  0
STYLE
  5
2A3
330
1C0
100
AcDbSymbolTableRecord
100
AcDbTextStyleTableRecord
  2
ACANSTS
 70
     0
 40
1.0
 41
1.0
 50
0.0
 71
     0
 42
0.2
  3
romans.shx
  4
extfont.shx
  0
STYLE
  5
2B0
330
1C0
100
AcDbSymbolTableRecord
100
AcDbTextStyleTableRecord
  2
ACANSGDT
 70
     0
 40
0.0
 41
1.0
 50
0.0
 71
     0
 42
0.2
  3
amgdt.shx
  4

  0
STYLE
  5
4A4
330
1C0
100
AcDbSymbolTableRecord
100
AcDbTextStyleTableRecord
  2

 70
     1
 40
0.0
 41
1.0
 50
0.0
 71
     0
 42
2.5
  3
ltypeshp.shx
  4

  0
STYLE
  5
4A5
330
1C0
100
AcDbSymbolTableRecord
100
AcDbTextStyleTableRecord
  2
ACISOTS
 70
     0
 40
1.0
 41
1.0
 50
0.0
 71
     0
 42
2.5
  3
isocp.shx
  4
extfont.shx
  0
STYLE
  5
4A6
330
1C0
100
AcDbSymbolTableRecord
100
AcDbTextStyleTableRecord
  2
ACISOGDT
 70
     0
 40
0.0
 41
1.0
 50
0.0
 71
     0
 42
2.5
  3
amgdt.shx
  4

  0
ENDTAB
  0
TABLE
  2
VIEW
  5
1C3
330
0
100
AcDbSymbolTable
 70
     0
  0
ENDTAB
  0
TABLE
  2
UCS
  5
1C4
330
0
100
AcDbSymbolTable
 70
     0
  0
ENDTAB
  0
TABLE
  2
APPID
  5
1C6
330
0
100
AcDbSymbolTable
 70
    13
  0
APPID
  5
1E4
330
1C6
100
AcDbSymbolTableRecord
100
AcDbRegAppTableRecord
  2
ACAD
 70
     0
  0
APPID
  5
235
330
1C6
100
AcDbSymbolTableRecord
100
AcDbRegAppTableRecord
  2
MCAD_NO_VIS
 70
     0
  0
APPID
  5
236
330
1C6
100
AcDbSymbolTableRecord
100
AcDbRegAppTableRecord
  2
ACAD_TEMP_GRAPHIC
 70
     0
  0
APPID
  5
264
330
1C6
100
AcDbSymbolTableRecord
100
AcDbRegAppTableRecord
  2
AD_DRAW
 70
     0
  0
APPID
  5
267
330
1C6
100
AcDbSymbolTableRecord
100
AcDbRegAppTableRecord
  2
ACATTRIBSERVICES
 70
     0
  0
APPID
  5
288
330
1C6
100
AcDbSymbolTableRecord
100
AcDbRegAppTableRecord
  2
DESIGNERASSEMBLIES
 70
     0
  0
APPID
  5
28E
330
1C6
100
AcDbSymbolTableRecord
100
AcDbRegAppTableRecord
  2
ACADM_DIM_EDIT
 70
     0
  0
APPID
  5
28F
330
1C6
100
AcDbSymbolTableRecord
100
AcDbRegAppTableRecord
  2
AMDT_DM_ADJ
 70
     0
  0
APPID
  5
4B0
330
1C6
100
AcDbSymbolTableRecord
100
AcDbRegAppTableRecord
  2
ACAD_DSTYLE_DIMJOGGED_JOGANGLE_SYMBOL
 70
     0
  0
APPID
  5
4B1
330
1C6
100
AcDbSymbolTableRecord
100
AcDbRegAppTableRecord
  2
ACAD_PSEXT
 70
     0
  0
APPID
  5
4B2
330
1C6
100
AcDbSymbolTableRecord
100
AcDbRegAppTableRecord
  2
AcAecLayerStandard
 70
     0
  0
APPID
  5
602
330
1C6
100
AcDbSymbolTableRecord
100
AcDbRegAppTableRecord
  2
ACAD_EXEMPT_FROM_CAD_STANDARDS
 70
     0
  0
APPID
  5
9BB
330
1C6
100
AcDbSymbolTableRecord
100
AcDbRegAppTableRecord
  2
ACAD_DSTYLE_DIMARC_LENGTH_SYMBOL
 70
     0
  0
ENDTAB
  0
TABLE
  2
DIMSTYLE
  5
1C7
330
0
100
AcDbSymbolTable
 70
    18
100
AcDbDimStyleTable
 71
     5
340
200
340
4A7
340
4AD
340
4AC
340
2C7
  0
DIMSTYLE
105
200
102
{ACAD_REACTORS
330
15D
330
15E
330
15F
330
162
330
16B
330
16C
330
16D
102
}
330
1C7
100
AcDbSymbolTableRecord
100
AcDbDimStyleTableRecord
  2
DIMSTYLE
 70
     0
 41
1.0
 42
2.54
 44
2.54
 73
     0
 74
     0
140
3.2
147
1.6
173
     1
279
     2
340
1E3
  0
DIMSTYLE
105
2BE
330
1C7
100
AcDbSymbolTableRecord
100
AcDbDimStyleTableRecord
  2
AM_ANSI
 70
     0
  4
mm
 41
0.1
 42
0.05
 43
0.5
 44
0.1
 47
0.1
 48
0.1
 78
     7
 79
     2
140
0.12
141
0.0
146
0.71
147
0.06
176
   256
177
   256
178
     2
274
     4
284
     7
340
1E3
371
    -1
372
    -1
1001
ACAD_DSTYLE_DIMARC_LENGTH_SYMBOL
1070
   379
1070
     1
  0
DIMSTYLE
105
2BF
330
1C7
100
AcDbSymbolTableRecord
100
AcDbDimStyleTableRecord
  2
AM_ANSI$3
 70
     0
  4
mm
 41
0.1
 42
0.05
 43
0.5
 44
0.1
 47
0.1
 48
0.1
 78
     7
 79
     2
140
0.12
141
0.0
146
0.71
147
0.06
176
   256
177
   256
178
     2
274
     4
284
     7
288
     1
289
     0
340
1E3
371
    -1
372
    -1
1001
ACAD_DSTYLE_DIMARC_LENGTH_SYMBOL
1070
   379
1070
     1
  0
DIMSTYLE
105
2C0
330
1C7
100
AcDbSymbolTableRecord
100
AcDbDimStyleTableRecord
  2
AM_ANSI$4
 70
     0
  4
mm
 41
0.1
 42
0.05
 43
0.5
 44
0.1
 47
0.1
 48
0.1
 78
     7
 79
     2
140
0.12
141
0.0
146
0.71
147
0.06
176
   256
177
   256
178
     2
274
     4
284
     7
288
     1
289
     0
340
1E3
371
    -1
372
    -1
1001
ACAD_DSTYLE_DIMARC_LENGTH_SYMBOL
1070
   379
1070
     1
  0
DIMSTYLE
105
2C1
330
1C7
100
AcDbSymbolTableRecord
100
AcDbDimStyleTableRecord
  2
AM_ANSI$7
 70
     0
  4
mm
 41
0.1
 42
0.05
 43
0.5
 44
0.1
 47
0.1
 48
0.1
 78
     7
 79
     2
140
0.24
141
0.0
146
0.71
147
0.06
176
   256
177
   256
178
     2
274
     4
284
     7
340
1E3
371
    -1
372
    -1
1001
ACAD_DSTYLE_DIMARC_LENGTH_SYMBOL
1070
   379
1070
     1
  0
DIMSTYLE
105
2C2
330
1C7
100
AcDbSymbolTableRecord
100
AcDbDimStyleTableRecord
  2
AM_ANSI$SF
 70
     0
  4
mm
 41
0.1
 42
0.05
 43
0.5
 44
0.1
 47
0.1
 48
0.1
 75
     1
 76
     1
 78
     7
 79
     2
140
0.12
141
0.0
146
0.71
147
0.06
176
   256
177
   256
178
     2
274
     4
284
     7
340
1E3
371
    -1
372
    -1
1001
ACAD_DSTYLE_DIMARC_LENGTH_SYMBOL
1070
   379
1070
     1
  0
DIMSTYLE
105
2C7
330
1C7
100
AcDbSymbolTableRecord
100
AcDbDimStyleTableRecord
  2
AM_ANSI$SH
 70
     0
  4
mm
 41
0.1
 42
0.05
 43
0.5
 44
0.1
 47
0.1
 48
0.1
 75
     1
 76
     1
 78
     7
 79
     2
140
0.12
141
0.0
146
0.71
147
0.06
173
     1
176
   256
177
   256
178
     2
274
     4
284
     7
340
1E3
343
2C3
371
    -1
372
    -1
1001
ACAD_DSTYLE_DIMARC_LENGTH_SYMBOL
1070
   379
1070
     1
  0
DIMSTYLE
105
4A7
330
1C7
100
AcDbSymbolTableRecord
100
AcDbDimStyleTableRecord
  2
SYS
 70
     0
  4
"
 41
1.0
 42
1.0
 43
10.0
 44
1.0
 47
0.1
 48
0.1
 73
     0
 74
     0
 77
     1
 78
     8
 79
     2
140
3.5
141
0.0
143
0.0393701
146
0.71
147
1.5
172
     1
176
   256
177
   256
178
     7
271
     2
272
     2
283
     0
284
     8
340
1E3
371
    -1
372
    -1
1001
ACAD_DSTYLE_DIMJOGGED_JOGANGLE_SYMBOL
1070
   384
1040
0.7853981633974483
1001
ACAD_DSTYLE_DIMARC_LENGTH_SYMBOL
1070
   379
1070
     1
  0
DIMSTYLE
105
4A8
330
1C7
100
AcDbSymbolTableRecord
100
AcDbDimStyleTableRecord
  2
SYS$3
 70
     0
  4
"
 41
2.0
 42
1.0
 43
10.0
 44
1.0
 47
0.1
 48
0.1
 73
     0
 77
     1
 78
     8
 79
     2
140
3.5
141
0.0
143
0.0393701
146
0.71
147
1.5
176
   256
177
   256
178
     2
271
     2
272
     2
283
     0
284
     8
288
     1
340
1E3
342
482
371
    -1
372
    -1
1001
ACAD_DSTYLE_DIMJOGGED_JOGANGLE_SYMBOL
1070
   384
1040
0.7853981633974483
1001
ACAD_DSTYLE_DIMARC_LENGTH_SYMBOL
1070
   379
1070
     1
  0
DIMSTYLE
105
4A9
330
1C7
100
AcDbSymbolTableRecord
100
AcDbDimStyleTableRecord
  2
SYS$4
 70
     0
  4
"
 41
2.0
 42
1.0
 43
10.0
 44
1.0
 47
0.1
 48
0.1
 73
     0
 77
     1
 78
     8
 79
     2
140
3.5
141
0.0
143
0.0393701
146
0.71
147
1.5
173
     1
176
   256
177
   256
178
     2
271
     2
272
     2
283
     0
284
     8
288
     1
340
1E3
344
482
371
    -1
372
    -1
1001
ACAD_DSTYLE_DIMJOGGED_JOGANGLE_SYMBOL
1070
   384
1040
0.7853981633974483
1001
ACAD_DSTYLE_DIMARC_LENGTH_SYMBOL
1070
   379
1070
     1
  0
DIMSTYLE
105
4AA
330
1C7
100
AcDbSymbolTableRecord
100
AcDbDimStyleTableRecord
  2
SYS$6
 70
     0
  4
"
 41
2.0
 42
1.0
 43
10.0
 44
1.0
 47
0.1
 48
0.1
 73
     0
 74
     0
 78
     8
 79
     2
140
3.5
141
0.0
143
0.0393701
146
0.71
147
1.5
172
     1
176
   256
177
   256
178
     2
271
     2
272
     2
283
     0
284
     8
340
1E3
341
482
371
    -1
372
    -1
1001
ACAD_DSTYLE_DIMJOGGED_JOGANGLE_SYMBOL
1070
   384
1040
0.7853981633974483
1001
ACAD_DSTYLE_DIMARC_LENGTH_SYMBOL
1070
   379
1070
     1
  0
DIMSTYLE
105
4AB
330
1C7
100
AcDbSymbolTableRecord
100
AcDbDimStyleTableRecord
  2
SYS$7
 70
     0
  4
"
 41
2.0
 42
1.0
 43
10.0
 44
1.0
 47
0.1
 48
0.1
 73
     0
 74
     0
 77
     1
 78
     8
 79
     2
140
5.0
141
0.0
143
0.0393701
146
0.71
147
1.5
172
     1
176
   256
177
   256
178
     2
271
     2
272
     2
283
     0
284
     8
340
1E3
341
482
342
482
371
    -1
372
    -1
1001
ACAD_DSTYLE_DIMJOGGED_JOGANGLE_SYMBOL
1070
   384
1040
0.7853981633974483
1001
ACAD_DSTYLE_DIMARC_LENGTH_SYMBOL
1070
   379
1070
     1
  0
DIMSTYLE
105
4AC
330
1C7
100
AcDbSymbolTableRecord
100
AcDbDimStyleTableRecord
  2
SYS$SF
 70
     0
  4
"
 41
2.5
 42
1.0
 43
10.0
 44
1.0
 47
0.1
 48
0.1
 73
     0
 74
     0
 75
     1
 76
     1
 77
     1
 78
     8
 79
     2
140
3.5
141
0.0
143
0.0393701
146
0.71
147
1.5
172
     1
176
   256
177
   256
178
     2
271
     2
272
     3
283
     0
284
     8
340
1E3
341
207
342
207
371
    -1
372
    -1
1001
ACAD_DSTYLE_DIMJOGGED_JOGANGLE_SYMBOL
1070
   384
1040
0.7853981633974483
1001
ACAD_DSTYLE_DIMARC_LENGTH_SYMBOL
1070
   379
1070
     1
  0
DIMSTYLE
105
4AD
330
1C7
100
AcDbSymbolTableRecord
100
AcDbDimStyleTableRecord
  2
SYS$SH
 70
     0
  4
"
 41
2.5
 42
1.0
 43
10.0
 44
1.0
 47
0.1
 48
0.1
 73
     0
 74
     0
 75
     1
 76
     1
 77
     1
 78
     8
 79
     2
140
3.5
141
0.0
143
0.0393701
144
2.0
146
0.71
147
1.5
172
     1
173
     1
176
   256
177
   256
178
     2
271
     2
272
     3
283
     0
284
     8
340
1E3
341
207
343
2C3
344
207
371
    -1
372
    -1
1001
ACAD_DSTYLE_DIMJOGGED_JOGANGLE_SYMBOL
1070
   384
1040
0.7853981633974483
1001
ACAD_DSTYLE_DIMARC_LENGTH_SYMBOL
1070
   379
1070
     1
  0
DIMSTYLE
105
4AE
330
1C7
100
AcDbSymbolTableRecord
100
AcDbDimStyleTableRecord
  2
SYS$2
 70
     0
  4
"
 41
1.0
 42
1.0
 43
10.0
 44
1.0
 47
0.1
 48
0.1
 73
     0
 74
     0
 77
     1
 78
     8
 79
     2
140
3.5
141
0.0
143
0.0393701
146
0.71
147
1.5
172
     1
176
   256
177
   256
178
     2
271
     2
272
     2
283
     0
284
     8
340
1E3
342
207
371
    -1
372
    -1
1001
ACAD_DSTYLE_DIMJOGGED_JOGANGLE_SYMBOL
1070
   384
1040
0.7853981633974483
1001
ACAD_DSTYLE_DIMARC_LENGTH_SYMBOL
1070
   379
1070
     1
  0
DIMSTYLE
105
4AF
102
{ACAD_REACTORS
330
56F
330
570
330
571
330
572
330
573
102
}
330
1C7
100
AcDbSymbolTableRecord
100
AcDbDimStyleTableRecord
  2
SYS$0
 70
     0
  4
"
 41
1.0
 42
1.0
 43
10.0
 44
1.0
 47
0.1
 48
0.1
 73
     0
 74
     0
 77
     1
 78
     8
 79
     2
140
3.200000000000001
141
0.0
143
0.0393701
146
0.71
147
1.5
172
     1
176
   256
177
   256
178
     2
271
     2
272
     2
283
     0
284
     8
340
1E3
341
482
342
207
371
    -1
372
    -1
1001
ACAD_DSTYLE_DIMJOGGED_JOGANGLE_SYMBOL
1070
   384
1040
0.7853981633974483
1001
ACAD_DSTYLE_DIMARC_LENGTH_SYMBOL
1070
   379
1070
     1
  0
DIMSTYLE
105
63A
102
{ACAD_REACTORS
330
15D
330
15E
330
15F
330
162
330
16B
330
16C
330
16D
102
}
330
1C7
100
AcDbSymbolTableRecord
100
AcDbDimStyleTableRecord
  2
DIMSTYLE$3
 70
     0
 41
1.0
 42
2.54
 44
2.54
 73
     0
 74
     0
140
3.2
147
1.6
173
     1
279
     2
340
1E3
  0
DIMSTYLE
105
79B
102
{ACAD_REACTORS
330
15D
330
15E
330
15F
330
162
330
16B
330
16C
330
16D
330
79C
330
7B4
330
7CC
330
820
102
}
330
1C7
100
AcDbSymbolTableRecord
100
AcDbDimStyleTableRecord
  2
DIMSTYLE$0
 70
     0
 41
1.0
 42
2.54
 44
2.54
 73
     0
 74
     0
140
3.2
147
1.6
173
     1
279
     2
340
1E3
  0
ENDTAB
  0
TABLE
  2
BLOCK_RECORD
  5
1BE
330
0
100
AcDbSymbolTable
 70
    53
  0
BLOCK_RECORD
  5
1F3
102
{ACAD_XDICTIONARY
360
71F
102
}
330
1BE
100
AcDbSymbolTableRecord
100
AcDbBlockTableRecord
  2
*Model_Space
340
1F6
  0
BLOCK_RECORD
  5
1EF
330
1BE
100
AcDbSymbolTableRecord
100
AcDbBlockTableRecord
  2
*Paper_Space
340
1F2
  0
BLOCK_RECORD
  5
203
330
1BE
100
AcDbSymbolTableRecord
100
AcDbBlockTableRecord
  2
$MODEL_SPACE
340
0
  0
BLOCK_RECORD
  5
205
330
1BE
100
AcDbSymbolTableRecord
100
AcDbBlockTableRecord
  2
$PAPER_SPACE
340
0
  0
BLOCK_RECORD
  5
207
330
1BE
100
AcDbSymbolTableRecord
100
AcDbBlockTableRecord
  2
_DOT
340
0
102
{BLKREFS
331
3D
331
3E
331
48
331
51
331
52
331
73
331
7D
331
87
331
88
331
93
331
94
331
BC
331
BD
331
CF
331
D0
331
DA
331
E5
331
EE
331
EF
331
330
331
331
331
33B
331
344
331
345
331
350
331
35A
331
35B
331
366
331
370
331
37A
331
37B
331
386
331
387
331
392
331
39B
331
3A5
331
3AF
331
3B0
331
3B8
331
3B9
331
3C2
331
3C3
331
3CD
331
3D8
331
3E1
331
3E2
331
5B3
331
5B4
331
5BC
331
5BD
331
5C5
331
5C6
331
5CE
331
5CF
331
5D7
331
5D8
331
714
331
715
331
71E
331
96A
331
96B
331
973
331
974
331
97D
331
97E
331
987
331
988
102
}
  0
BLOCK_RECORD
  5
209
330
1BE
100
AcDbSymbolTableRecord
100
AcDbBlockTableRecord
  2
_NONE
340
0
  0
BLOCK_RECORD
  5
20B
330
1BE
100
AcDbSymbolTableRecord
100
AcDbBlockTableRecord
  2
*D4
340
0
  0
BLOCK_RECORD
  5
20D
330
1BE
100
AcDbSymbolTableRecord
100
AcDbBlockTableRecord
  2
*D5
340
0
  0
BLOCK_RECORD
  5
20F
330
1BE
100
AcDbSymbolTableRecord
100
AcDbBlockTableRecord
  2
*D6
340
0
  0
BLOCK_RECORD
  5
215
330
1BE
100
AcDbSymbolTableRecord
100
AcDbBlockTableRecord
  2
*D7
340
0
  0
BLOCK_RECORD
  5
217
330
1BE
100
AcDbSymbolTableRecord
100
AcDbBlockTableRecord
  2
*D8
340
0
  0
BLOCK_RECORD
  5
219
330
1BE
100
AcDbSymbolTableRecord
100
AcDbBlockTableRecord
  2
*D9
340
0
  0
BLOCK_RECORD
  5
21B
330
1BE
100
AcDbSymbolTableRecord
100
AcDbBlockTableRecord
  2
*D10
340
0
  0
BLOCK_RECORD
  5
2C3
330
1BE
100
AcDbSymbolTableRecord
100
AcDbBlockTableRecord
  2
GENAXEH
340
0
  0
BLOCK_RECORD
  5
32D
330
1BE
100
AcDbSymbolTableRecord
100
AcDbBlockTableRecord
  2
*D18
340
0
  0
BLOCK_RECORD
  5
338
330
1BE
100
AcDbSymbolTableRecord
100
AcDbBlockTableRecord
  2
*D19
340
0
  0
BLOCK_RECORD
  5
341
330
1BE
100
AcDbSymbolTableRecord
100
AcDbBlockTableRecord
  2
*D20
340
0
  0
BLOCK_RECORD
  5
34D
330
1BE
100
AcDbSymbolTableRecord
100
AcDbBlockTableRecord
  2
*D21
340
0
  0
BLOCK_RECORD
  5
357
330
1BE
100
AcDbSymbolTableRecord
100
AcDbBlockTableRecord
  2
*D22
340
0
  0
BLOCK_RECORD
  5
362
330
1BE
100
AcDbSymbolTableRecord
100
AcDbBlockTableRecord
  2
*D23
340
0
  0
BLOCK_RECORD
  5
36D
330
1BE
100
AcDbSymbolTableRecord
100
AcDbBlockTableRecord
  2
*D24
340
0
  0
BLOCK_RECORD
  5
377
330
1BE
100
AcDbSymbolTableRecord
100
AcDbBlockTableRecord
  2
*D25
340
0
  0
BLOCK_RECORD
  5
383
330
1BE
100
AcDbSymbolTableRecord
100
AcDbBlockTableRecord
  2
*D26
340
0
  0
BLOCK_RECORD
  5
38F
330
1BE
100
AcDbSymbolTableRecord
100
AcDbBlockTableRecord
  2
*D27
340
0
  0
BLOCK_RECORD
  5
398
330
1BE
100
AcDbSymbolTableRecord
100
AcDbBlockTableRecord
  2
*D28
340
0
  0
BLOCK_RECORD
  5
3A2
330
1BE
100
AcDbSymbolTableRecord
100
AcDbBlockTableRecord
  2
*D29
340
0
  0
BLOCK_RECORD
  5
3AC
330
1BE
100
AcDbSymbolTableRecord
100
AcDbBlockTableRecord
  2
*D30
340
0
  0
BLOCK_RECORD
  5
3B5
330
1BE
100
AcDbSymbolTableRecord
100
AcDbBlockTableRecord
  2
*D31
340
0
  0
BLOCK_RECORD
  5
3BE
330
1BE
100
AcDbSymbolTableRecord
100
AcDbBlockTableRecord
  2
*D32
340
0
  0
BLOCK_RECORD
  5
3CA
330
1BE
100
AcDbSymbolTableRecord
100
AcDbBlockTableRecord
  2
*D33
340
0
  0
BLOCK_RECORD
  5
3D4
330
1BE
100
AcDbSymbolTableRecord
100
AcDbBlockTableRecord
  2
*D34
340
0
  0
BLOCK_RECORD
  5
3DE
330
1BE
100
AcDbSymbolTableRecord
100
AcDbBlockTableRecord
  2
*D35
340
0
  0
BLOCK_RECORD
  5
3EA
330
1BE
100
AcDbSymbolTableRecord
100
AcDbBlockTableRecord
  2
A$C336B0F16
340
0
  0
BLOCK_RECORD
  5
482
330
1BE
100
AcDbSymbolTableRecord
100
AcDbBlockTableRecord
  2
_OPEN30
340
0
  0
BLOCK_RECORD
  5
574
330
1BE
100
AcDbSymbolTableRecord
100
AcDbBlockTableRecord
  2
*D38
340
0
  0
BLOCK_RECORD
  5
580
330
1BE
100
AcDbSymbolTableRecord
100
AcDbBlockTableRecord
  2
*D39
340
0
  0
BLOCK_RECORD
  5
58C
330
1BE
100
AcDbSymbolTableRecord
100
AcDbBlockTableRecord
  2
*D40
340
0
  0
BLOCK_RECORD
  5
598
330
1BE
100
AcDbSymbolTableRecord
100
AcDbBlockTableRecord
  2
*D41
340
0
  0
BLOCK_RECORD
  5
5A4
330
1BE
100
AcDbSymbolTableRecord
100
AcDbBlockTableRecord
  2
*D42
340
0
  0
BLOCK_RECORD
  5
5E9
330
1BE
100
AcDbSymbolTableRecord
100
AcDbBlockTableRecord
  2
GENDOT
340
0
102
{BLKREFS
331
600
102
}
  0
BLOCK_RECORD
  5
6EE
330
1BE
100
AcDbSymbolTableRecord
100
AcDbBlockTableRecord
  2
_ClosedBlank
340
0
  0
BLOCK_RECORD
  5
79D
330
1BE
100
AcDbSymbolTableRecord
100
AcDbBlockTableRecord
  2
*D49
340
0
  0
BLOCK_RECORD
  5
7B5
330
1BE
100
AcDbSymbolTableRecord
100
AcDbBlockTableRecord
  2
*D50
340
0
  0
BLOCK_RECORD
  5
7CD
330
1BE
100
AcDbSymbolTableRecord
100
AcDbBlockTableRecord
  2
*D51
340
0
  0
BLOCK_RECORD
  5
821
330
1BE
100
AcDbSymbolTableRecord
100
AcDbBlockTableRecord
  2
*D52
340
0
  0
ENDTAB
  0
ENDSEC
  0
SECTION
  2
BLOCKS
  0
BLOCK
  5
1F4
330
1F3
100
AcDbEntity
  8
0
100
AcDbBlockBegin
  2
*Model_Space
 70
     0
 10
0.0
 20
0.0
 30
0.0
  3
*Model_Space
  1

  0
ENDBLK
  5
1F5
330
1F3
100
AcDbEntity
  8
0
100
AcDbBlockEnd
  0
BLOCK
  5
1F0
330
1EF
100
AcDbEntity
 67
     1
  8
0
100
AcDbBlockBegin
  2
*Paper_Space
 70
     0
 10
0.0
 20
0.0
 30
0.0
  3
*Paper_Space
  1

  0
ENDBLK
  5
1F1
330
1EF
100
AcDbEntity
 67
     1
  8
0
100
AcDbBlockEnd
  0
BLOCK
  5
204
330
203
100
AcDbEntity
  8
0
100
AcDbBlockBegin
  2
$MODEL_SPACE
 70
     0
 10
0.0
 20
0.0
 30
0.0
  3
$MODEL_SPACE
  1

  0
ENDBLK
  5
20
330
203
100
AcDbEntity
  8
0
100
AcDbBlockEnd
  0
BLOCK
  5
206
330
205
100
AcDbEntity
  8
0
100
AcDbBlockBegin
  2
$PAPER_SPACE
 70
     0
 10
0.0
 20
0.0
 30
0.0
  3
$PAPER_SPACE
  1

  0
ENDBLK
  5
1C
330
205
100
AcDbEntity
  8
0
100
AcDbBlockEnd
  0
BLOCK
  5
208
330
207
100
AcDbEntity
  8
0
100
AcDbBlockBegin
  2
_DOT
 70
     0
 10
0.0
 20
0.0
 30
0.0
  3
_DOT
  1

  0
POLYLINE
  5
30
330
207
100
AcDbEntity
  8
0
  6
ByBlock
 62
     0
100
AcDb2dPolyline
 66
     1
 10
0.0
 20
0.0
 30
0.0
 70
     1
 40
0.4000000100000002
 41
0.4000000100000002
  0
VERTEX
  5
1AB
330
30
100
AcDbEntity
  8
0
  6
ByBlock
 62
     0
100
AcDbVertex
100
AcDb2dVertex
 10
-0.2
 20
0.0
 30
0.0
 42
1.0
  0
VERTEX
  5
1AC
330
30
100
AcDbEntity
  8
0
  6
ByBlock
 62
     0
100
AcDbVertex
100
AcDb2dVertex
 10
0.2
 20
0.0
 30
0.0
 42
1.0
  0
SEQEND
  5
1AD
330
30
100
AcDbEntity
  8
0
  6
ByBlock
 62
     0
  0
LINE
  5
34
330
207
100
AcDbEntity
  8
0
  6
ByBlock
 62
     0
100
AcDbLine
 10
-0.4000000100000002
 20
0.0
 30
0.0
 11
-3.0
 21
0.0
 31
0.0
  0
ENDBLK
  5
35
330
207
100
AcDbEntity
  8
0
100
AcDbBlockEnd
  0
BLOCK
  5
20A
330
209
100
AcDbEntity
  8
0
100
AcDbBlockBegin
  2
_NONE
 70
     0
 10
0.0
 20
0.0
 30
0.0
  3
_NONE
  1

  0
CIRCLE
  5
38
330
209
100
AcDbEntity
  8
0
  6
ByBlock
 62
     0
100
AcDbCircle
 10
0.0
 20
0.0
 30
0.0
 40
0.001
  0
ENDBLK
  5
39
330
209
100
AcDbEntity
  8
0
100
AcDbBlockEnd
  0
BLOCK
  5
20C
330
20B
100
AcDbEntity
  8
0
100
AcDbBlockBegin
  2
*D4
 70
     1
 10
0.0
 20
0.0
 30
0.0
  3
*D4
  1

  0
LINE
  5
3C
330
20B
100
AcDbEntity
  8
0
  6
Continuous
 62
     7
100
AcDbLine
 10
-6.400834999999998
 20
85.44005600000001
 30
0.0
 11
25.099165
 21
85.44005600000001
 31
0.0
  0
INSERT
  5
3D
330
20B
100
AcDbEntity
  8
0
  6
Continuous
 62
     7
100
AcDbBlockReference
  2
_DOT
 10
-6.400834999999998
 20
85.44005600000001
 30
0.0
 50
180.0
  0
INSERT
  5
3E
330
20B
100
AcDbEntity
  8
0
  6
Continuous
 62
     7
100
AcDbBlockReference
  2
_DOT
 10
25.099165
 20
85.44005600000001
 30
0.0
  0
LINE
  5
3F
330
20B
100
AcDbEntity
  8
0
  6
Continuous
 62
     7
100
AcDbLine
 10
25.099165
 20
80.980056
 30
0.0
 11
25.099165
 21
86.64005300000003
 31
0.0
  0
TEXT
  5
40
330
20B
100
AcDbEntity
  8
0
  6
Continuous
 62
     7
100
AcDbText
 10
3.406165
 20
86.24005600000002
 30
0.0
 40
3.2
  1
31.5
 41
1.3928906
100
AcDbText
  0
POINT
  5
41
330
20B
100
AcDbEntity
  8
DEFPOINTS
  6
Continuous
 62
     7
100
AcDbPoint
 10
-6.400834999999998
 20
73.94005600000001
 30
0.0
  0
POINT
  5
42
330
20B
100
AcDbEntity
  8
DEFPOINTS
  6
Continuous
 62
     7
100
AcDbPoint
 10
25.099165
 20
78.44005600000001
 30
0.0
  0
POINT
  5
43
330
20B
100
AcDbEntity
  8
DEFPOINTS
  6
Continuous
 62
     7
100
AcDbPoint
 10
25.099165
 20
85.44005600000001
 30
0.0
  0
ENDBLK
  5
44
330
20B
100
AcDbEntity
  8
0
100
AcDbBlockEnd
  0
BLOCK
  5
20E
330
20D
100
AcDbEntity
  8
0
100
AcDbBlockBegin
  2
*D5
 70
     1
 10
0.0
 20
0.0
 30
0.0
  3
*D5
  1

  0
LINE
  5
47
330
20D
100
AcDbEntity
  8
0
  6
Continuous
 62
     7
100
AcDbLine
 10
25.099165
 20
85.44005600000001
 30
0.0
 11
56.599167
 21
85.44005600000001
 31
0.0
  0
INSERT
  5
48
330
20D
100
AcDbEntity
  8
0
  6
Continuous
 62
     7
100
AcDbBlockReference
  2
_DOT
 10
56.599167
 20
85.44005600000001
 30
0.0
  0
TEXT
  5
49
330
20D
100
AcDbEntity
  8
0
  6
Continuous
 62
     7
100
AcDbText
 10
34.90616699999999
 20
86.24005600000002
 30
0.0
 40
3.2
  1
31.5
 41
1.3928906
100
AcDbText
  0
POINT
  5
4A
330
20D
100
AcDbEntity
  8
DEFPOINTS
  6
Continuous
 62
     7
100
AcDbPoint
 10
25.099165
 20
78.44005600000001
 30
0.0
  0
POINT
  5
4B
330
20D
100
AcDbEntity
  8
DEFPOINTS
  6
Continuous
 62
     7
100
AcDbPoint
 10
56.599167
 20
73.94005600000001
 30
0.0
  0
POINT
  5
4C
330
20D
100
AcDbEntity
  8
DEFPOINTS
  6
Continuous
 62
     7
100
AcDbPoint
 10
56.599167
 20
85.44005600000001
 30
0.0
  0
ENDBLK
  5
4D
330
20D
100
AcDbEntity
  8
0
100
AcDbBlockEnd
  0
BLOCK
  5
210
330
20F
100
AcDbEntity
  8
0
100
AcDbBlockBegin
  2
*D6
 70
     1
 10
0.0
 20
0.0
 30
0.0
  3
*D6
  1

  0
LINE
  5
50
330
20F
100
AcDbEntity
  8
0
  6
Continuous
 62
     7
100
AcDbLine
 10
56.599167
 20
95.440056
 30
0.0
 11
-6.400834999999998
 21
95.440056
 31
0.0
  0
INSERT
  5
51
330
20F
100
AcDbEntity
  8
0
  6
Continuous
 62
     7
100
AcDbBlockReference
  2
_DOT
 10
56.599167
 20
95.440056
 30
0.0
  0
INSERT
  5
52
330
20F
100
AcDbEntity
  8
0
  6
Continuous
 62
     7
100
AcDbBlockReference
  2
_DOT
 10
-6.400834999999998
 20
95.440056
 30
0.0
 50
180.0
  0
LINE
  5
53
330
20F
100
AcDbEntity
  8
0
  6
Continuous
 62
     7
100
AcDbLine
 10
56.599167
 20
76.48005600000001
 30
0.0
 11
56.599167
 21
96.64005300000003
 31
0.0
  0
LINE
  5
54
330
20F
100
AcDbEntity
  8
0
  6
Continuous
 62
     7
100
AcDbLine
 10
-6.400834999999998
 20
76.48005600000001
 30
0.0
 11
-6.400834999999998
 21
96.64005300000003
 31
0.0
  0
TEXT
  5
55
330
20F
100
AcDbEntity
  8
0
  6
Continuous
 62
     7
100
AcDbText
 10
22.356165
 20
96.24005600000003
 30
0.0
 40
3.2
  1
63
 41
1.028624999999999
100
AcDbText
  0
POINT
  5
56
330
20F
100
AcDbEntity
  8
DEFPOINTS
  6
Continuous
 62
     7
100
AcDbPoint
 10
56.599167
 20
73.94005600000001
 30
0.0
  0
POINT
  5
57
330
20F
100
AcDbEntity
  8
DEFPOINTS
  6
Continuous
 62
     7
100
AcDbPoint
 10
-6.400834999999998
 20
73.94005600000001
 30
0.0
  0
POINT
  5
58
330
20F
100
AcDbEntity
  8
DEFPOINTS
  6
Continuous
 62
     7
100
AcDbPoint
 10
-6.400834999999998
 20
95.440056
 30
0.0
  0
ENDBLK
  5
59
330
20F
100
AcDbEntity
  8
0
100
AcDbBlockEnd
  0
BLOCK
  5
216
330
215
100
AcDbEntity
  8
0
100
AcDbBlockBegin
  2
*D7
 70
     1
 10
0.0
 20
0.0
 30
0.0
  3
*D7
  1

  0
LINE
  5
71
330
215
100
AcDbEntity
  8
0
  6
Continuous
 62
     7
100
AcDbLine
 10
56.599167
 20
-44.55993699999999
 30
0.0
 11
68.266586
 21
-44.55993699999999
 31
0.0
  0
LINE
  5
72
330
215
100
AcDbEntity
  8
0
  6
Continuous
 62
     7
100
AcDbLine
 10
46.79916399999999
 20
-44.55993699999999
 30
0.0
 11
56.599167
 21
-44.55993699999999
 31
0.0
  0
INSERT
  5
73
330
215
100
AcDbEntity
  8
0
  6
Continuous
 62
     7
100
AcDbBlockReference
  2
_DOT
 10
56.599167
 20
-44.55993699999999
 30
0.0
  0
LINE
  5
74
330
215
100
AcDbEntity
  8
0
  6
Continuous
 62
     7
100
AcDbLine
 10
56.599167
 20
-30.599944
 30
0.0
 11
56.599167
 21
-45.759937
 31
0.0
  0
TEXT
  5
75
330
215
100
AcDbEntity
  8
0
  6
Continuous
 62
     7
100
AcDbText
 10
59.58058799999999
 20
-43.759937
 30
0.0
 40
3.2
  1
9.8
 41
1.357187499999999
100
AcDbText
  0
POINT
  5
76
330
215
100
AcDbEntity
  8
DEFPOINTS
  6
Continuous
 62
     7
100
AcDbPoint
 10
46.79916399999999
 20
3.440055799999999
 30
0.0
  0
POINT
  5
77
330
215
100
AcDbEntity
  8
DEFPOINTS
  6
Continuous
 62
     7
100
AcDbPoint
 10
56.599167
 20
-28.059944
 30
0.0
  0
POINT
  5
78
330
215
100
AcDbEntity
  8
DEFPOINTS
  6
Continuous
 62
     7
100
AcDbPoint
 10
56.599167
 20
-44.55993699999999
 30
0.0
  0
ENDBLK
  5
79
330
215
100
AcDbEntity
  8
0
100
AcDbBlockEnd
  0
BLOCK
  5
218
330
217
100
AcDbEntity
  8
0
100
AcDbBlockBegin
  2
*D8
 70
     1
 10
0.0
 20
0.0
 30
0.0
  3
*D8
  1

  0
LINE
  5
7C
330
217
100
AcDbEntity
  8
0
  6
Continuous
 62
     7
100
AcDbLine
 10
41.39916599999999
 20
-44.55993699999999
 30
0.0
 11
46.79916399999999
 21
-44.55993699999999
 31
0.0
  0
INSERT
  5
7D
330
217
100
AcDbEntity
  8
0
  6
Continuous
 62
     7
100
AcDbBlockReference
  2
_DOT
 10
46.79916399999999
 20
-44.55993699999999
 30
0.0
  0
LINE
  5
7E
330
217
100
AcDbEntity
  8
0
  6
Continuous
 62
     7
100
AcDbLine
 10
46.79916399999999
 20
0.9000559199999999
 30
0.0
 11
46.79916399999999
 21
-45.759937
 31
0.0
  0
TEXT
  5
7F
330
217
100
AcDbEntity
  8
0
  6
Continuous
 62
     7
100
AcDbText
 10
59.777087
 20
-50.96992
 30
0.0
 40
3.2
  1
  
 41
3.085875
100
AcDbText
  0
POINT
  5
80
330
217
100
AcDbEntity
  8
DEFPOINTS
  6
Continuous
 62
     7
100
AcDbPoint
 10
41.39916599999999
 20
-21.259945
 30
0.0
  0
POINT
  5
81
330
217
100
AcDbEntity
  8
DEFPOINTS
  6
Continuous
 62
     7
100
AcDbPoint
 10
46.79916399999999
 20
3.440055799999999
 30
0.0
  0
POINT
  5
82
330
217
100
AcDbEntity
  8
DEFPOINTS
  6
Continuous
 62
     7
100
AcDbPoint
 10
46.79916399999999
 20
-44.55993699999999
 30
0.0
  0
ENDBLK
  5
83
330
217
100
AcDbEntity
  8
0
100
AcDbBlockEnd
  0
BLOCK
  5
21A
330
219
100
AcDbEntity
  8
0
100
AcDbBlockBegin
  2
*D9
 70
     1
 10
0.0
 20
0.0
 30
0.0
  3
*D9
  1

  0
LINE
  5
86
330
219
100
AcDbEntity
  8
0
  6
Continuous
 62
     7
100
AcDbLine
 10
25.099165
 20
-44.55993699999999
 30
0.0
 11
41.39916599999999
 21
-44.55993699999999
 31
0.0
  0
INSERT
  5
87
330
219
100
AcDbEntity
  8
0
  6
Continuous
 62
     7
100
AcDbBlockReference
  2
_DOT
 10
25.099165
 20
-44.55993699999999
 30
0.0
 50
180.0
  0
INSERT
  5
88
330
219
100
AcDbEntity
  8
0
  6
Continuous
 62
     7
100
AcDbBlockReference
  2
_DOT
 10
41.39916599999999
 20
-44.55993699999999
 30
0.0
  0
LINE
  5
89
330
219
100
AcDbEntity
  8
0
  6
Continuous
 62
     7
100
AcDbLine
 10
25.099165
 20
-35.099936
 30
0.0
 11
25.099165
 21
-45.759937
 31
0.0
  0
LINE
  5
8A
330
219
100
AcDbEntity
  8
0
  6
Continuous
 62
     7
100
AcDbLine
 10
41.39916599999999
 20
-23.799945
 30
0.0
 11
41.39916599999999
 21
-45.759937
 31
0.0
  0
TEXT
  5
8B
330
219
100
AcDbEntity
  8
0
  6
Continuous
 62
     7
100
AcDbText
 10
27.306165
 20
-43.759937
 30
0.0
 40
3.2
  1
16.3
 41
1.3928906
100
AcDbText
  0
POINT
  5
8C
330
219
100
AcDbEntity
  8
DEFPOINTS
  6
Continuous
 62
     7
100
AcDbPoint
 10
25.099165
 20
-32.55993699999999
 30
0.0
  0
POINT
  5
8D
330
219
100
AcDbEntity
  8
DEFPOINTS
  6
Continuous
 62
     7
100
AcDbPoint
 10
41.39916599999999
 20
-21.259945
 30
0.0
  0
POINT
  5
8E
330
219
100
AcDbEntity
  8
DEFPOINTS
  6
Continuous
 62
     7
100
AcDbPoint
 10
41.39916599999999
 20
-44.55993699999999
 30
0.0
  0
ENDBLK
  5
8F
330
219
100
AcDbEntity
  8
0
100
AcDbBlockEnd
  0
BLOCK
  5
21C
330
21B
100
AcDbEntity
  8
0
100
AcDbBlockBegin
  2
*D10
 70
     1
 10
0.0
 20
0.0
 30
0.0
  3
*D10
  1

  0
LINE
  5
92
330
21B
100
AcDbEntity
  8
0
  6
Continuous
 62
     7
100
AcDbLine
 10
81.599167
 20
-28.059937
 30
0.0
 11
81.599167
 21
73.94005600000001
 31
0.0
  0
INSERT
  5
93
330
21B
100
AcDbEntity
  8
0
  6
Continuous
 62
     7
100
AcDbBlockReference
  2
_DOT
 10
81.599167
 20
-28.059937
 30
0.0
 50
270.0
  0
INSERT
  5
94
330
21B
100
AcDbEntity
  8
0
  6
Continuous
 62
     7
100
AcDbBlockReference
  2
_DOT
 10
81.599167
 20
73.94005600000001
 30
0.0
 50
90.0
  0
LINE
  5
95
330
21B
100
AcDbEntity
  8
0
  6
Continuous
 62
     7
100
AcDbLine
 10
59.13916700000001
 20
-28.059937
 30
0.0
 11
82.79916400000001
 21
-28.059937
 31
0.0
  0
LINE
  5
96
330
21B
100
AcDbEntity
  8
0
  6
Continuous
 62
     7
100
AcDbLine
 10
59.13916700000001
 20
73.94005600000001
 30
0.0
 11
82.79916400000001
 21
73.94005600000001
 31
0.0
  0
TEXT
  5
97
330
21B
100
AcDbEntity
  8
0
  6
Continuous
 62
     7
100
AcDbText
 10
80.79916700000003
 20
18.59706
 30
0.0
 40
3.2
  1
102
 50
90.00000300000001
 41
1.2527885
100
AcDbText
  0
POINT
  5
98
330
21B
100
AcDbEntity
  8
DEFPOINTS
  6
Continuous
 62
     7
100
AcDbPoint
 10
56.599167
 20
-28.059937
 30
0.0
  0
POINT
  5
99
330
21B
100
AcDbEntity
  8
DEFPOINTS
  6
Continuous
 62
     7
100
AcDbPoint
 10
56.599167
 20
73.94005600000001
 30
0.0
  0
POINT
  5
9A
330
21B
100
AcDbEntity
  8
DEFPOINTS
  6
Continuous
 62
     7
100
AcDbPoint
 10
81.599167
 20
73.94005600000001
 30
0.0
  0
ENDBLK
  5
9B
330
21B
100
AcDbEntity
  8
0
100
AcDbBlockEnd
  0
BLOCK
  5
2C5
330
2C3
100
AcDbEntity
  8
0
100
AcDbBlockBegin
  2
GENAXEH
 70
     0
 10
0.0
 20
0.0
 30
0.0
  3
GENAXEH
  1

  0
LINE
  5
2C4
330
2C3
100
AcDbEntity
  8
0
100
AcDbLine
 10
-1.0
 20
0.0
 30
0.0
 11
1.0
 21
0.0
 31
0.0
  0
ENDBLK
  5
2C6
330
2C3
100
AcDbEntity
  8
0
100
AcDbBlockEnd
  0
BLOCK
  5
32E
330
32D
100
AcDbEntity
  8
0
100
AcDbBlockBegin
  2
*D18
 70
     1
 10
0.0
 20
0.0
 30
0.0
  3
*D18
  1

  0
LINE
  5
32F
330
32D
100
AcDbEntity
  8
0
  6
Continuous
 62
     7
100
AcDbLine
 10
-6.400834999999998
 20
85.44005600000001
 30
0.0
 11
25.099165
 21
85.44005600000001
 31
0.0
  0
INSERT
  5
330
330
32D
100
AcDbEntity
  8
0
  6
Continuous
 62
     7
100
AcDbBlockReference
  2
_DOT
 10
-6.400834999999998
 20
85.44005600000001
 30
0.0
 50
180.0
  0
INSERT
  5
331
330
32D
100
AcDbEntity
  8
0
  6
Continuous
 62
     7
100
AcDbBlockReference
  2
_DOT
 10
25.099165
 20
85.44005600000001
 30
0.0
  0
LINE
  5
332
330
32D
100
AcDbEntity
  8
0
  6
Continuous
 62
     7
100
AcDbLine
 10
25.099165
 20
80.980056
 30
0.0
 11
25.099165
 21
86.64005300000003
 31
0.0
  0
TEXT
  5
333
330
32D
100
AcDbEntity
  8
0
  6
Continuous
 62
     7
100
AcDbText
 10
3.406165
 20
86.24005600000002
 30
0.0
 40
3.2
  1
31.5
 41
1.3928906
100
AcDbText
  0
POINT
  5
334
330
32D
100
AcDbEntity
  8
DEFPOINTS
  6
Continuous
 62
     7
100
AcDbPoint
 10
-6.400834999999998
 20
73.94005600000001
 30
0.0
  0
POINT
  5
335
330
32D
100
AcDbEntity
  8
DEFPOINTS
  6
Continuous
 62
     7
100
AcDbPoint
 10
25.099165
 20
78.44005600000001
 30
0.0
  0
POINT
  5
336
330
32D
100
AcDbEntity
  8
DEFPOINTS
  6
Continuous
 62
     7
100
AcDbPoint
 10
25.099165
 20
85.44005600000001
 30
0.0
  0
ENDBLK
  5
337
330
32D
100
AcDbEntity
  8
0
100
AcDbBlockEnd
  0
BLOCK
  5
339
330
338
100
AcDbEntity
  8
0
100
AcDbBlockBegin
  2
*D19
 70
     1
 10
0.0
 20
0.0
 30
0.0
  3
*D19
  1

  0
LINE
  5
33A
330
338
100
AcDbEntity
  8
0
  6
Continuous
 62
     7
100
AcDbLine
 10
25.099165
 20
85.44005600000001
 30
0.0
 11
56.599167
 21
85.44005600000001
 31
0.0
  0
INSERT
  5
33B
330
338
100
AcDbEntity
  8
0
  6
Continuous
 62
     7
100
AcDbBlockReference
  2
_DOT
 10
56.599167
 20
85.44005600000001
 30
0.0
  0
TEXT
  5
33C
330
338
100
AcDbEntity
  8
0
  6
Continuous
 62
     7
100
AcDbText
 10
34.90616699999999
 20
86.24005600000002
 30
0.0
 40
3.2
  1
31.5
 41
1.3928906
100
AcDbText
  0
POINT
  5
33D
330
338
100
AcDbEntity
  8
DEFPOINTS
  6
Continuous
 62
     7
100
AcDbPoint
 10
25.099165
 20
78.44005600000001
 30
0.0
  0
POINT
  5
33E
330
338
100
AcDbEntity
  8
DEFPOINTS
  6
Continuous
 62
     7
100
AcDbPoint
 10
56.599167
 20
73.94005600000001
 30
0.0
  0
POINT
  5
33F
330
338
100
AcDbEntity
  8
DEFPOINTS
  6
Continuous
 62
     7
100
AcDbPoint
 10
56.599167
 20
85.44005600000001
 30
0.0
  0
ENDBLK
  5
340
330
338
100
AcDbEntity
  8
0
100
AcDbBlockEnd
  0
BLOCK
  5
342
330
341
100
AcDbEntity
  8
0
100
AcDbBlockBegin
  2
*D20
 70
     1
 10
0.0
 20
0.0
 30
0.0
  3
*D20
  1

  0
LINE
  5
343
330
341
100
AcDbEntity
  8
0
  6
Continuous
 62
     7
100
AcDbLine
 10
56.599167
 20
95.440056
 30
0.0
 11
-6.400834999999998
 21
95.440056
 31
0.0
  0
INSERT
  5
344
330
341
100
AcDbEntity
  8
0
  6
Continuous
 62
     7
100
AcDbBlockReference
  2
_DOT
 10
56.599167
 20
95.440056
 30
0.0
  0
INSERT
  5
345
330
341
100
AcDbEntity
  8
0
  6
Continuous
 62
     7
100
AcDbBlockReference
  2
_DOT
 10
-6.400834999999998
 20
95.440056
 30
0.0
 50
180.0
  0
LINE
  5
346
330
341
100
AcDbEntity
  8
0
  6
Continuous
 62
     7
100
AcDbLine
 10
56.599167
 20
76.48005600000001
 30
0.0
 11
56.599167
 21
96.64005300000003
 31
0.0
  0
LINE
  5
347
330
341
100
AcDbEntity
  8
0
  6
Continuous
 62
     7
100
AcDbLine
 10
-6.400834999999998
 20
76.48005600000001
 30
0.0
 11
-6.400834999999998
 21
96.64005300000003
 31
0.0
  0
TEXT
  5
348
330
341
100
AcDbEntity
  8
0
  6
Continuous
 62
     7
100
AcDbText
 10
22.356165
 20
96.24005600000003
 30
0.0
 40
3.2
  1
63
 41
1.028624999999999
100
AcDbText
  0
POINT
  5
349
330
341
100
AcDbEntity
  8
DEFPOINTS
  6
Continuous
 62
     7
100
AcDbPoint
 10
56.599167
 20
73.94005600000001
 30
0.0
  0
POINT
  5
34A
330
341
100
AcDbEntity
  8
DEFPOINTS
  6
Continuous
 62
     7
100
AcDbPoint
 10
-6.400834999999998
 20
73.94005600000001
 30
0.0
  0
POINT
  5
34B
330
341
100
AcDbEntity
  8
DEFPOINTS
  6
Continuous
 62
     7
100
AcDbPoint
 10
-6.400834999999998
 20
95.440056
 30
0.0
  0
ENDBLK
  5
34C
330
341
100
AcDbEntity
  8
0
100
AcDbBlockEnd
  0
BLOCK
  5
34E
330
34D
100
AcDbEntity
  8
0
100
AcDbBlockBegin
  2
*D21
 70
     1
 10
0.0
 20
0.0
 30
0.0
  3
*D21
  1

  0
LINE
  5
34F
330
34D
100
AcDbEntity
  8
0
  6
Continuous
 62
     7
100
AcDbLine
 10
71.59916700000002
 20
60.44005600000001
 30
0.0
 11
71.59916700000002
 21
35.440056
 31
0.0
  0
INSERT
  5
350
330
34D
100
AcDbEntity
  8
0
  6
Continuous
 62
     7
100
AcDbBlockReference
  2
_DOT
 10
71.59916700000002
 20
35.440056
 30
0.0
 50
270.0
  0
LINE
  5
351
330
34D
100
AcDbEntity
  8
0
  6
Continuous
 62
     7
100
AcDbLine
 10
56.339164
 20
35.440056
 30
0.0
 11
72.79916400000001
 21
35.440056
 31
0.0
  0
TEXT
  5
352
330
34D
100
AcDbEntity
  8
0
  6
Continuous
 62
     7
100
AcDbText
 10
70.79916700000002
 20
45.19705599999999
 30
0.0
 40
3.2
  1
25
 50
90.00000300000001
 41
1.028624999999999
100
AcDbText
  0
POINT
  5
353
330
34D
100
AcDbEntity
  8
DEFPOINTS
  6
Continuous
 62
     7
100
AcDbPoint
 10
49.399166
 20
60.44005600000001
 30
0.0
  0
POINT
  5
354
330
34D
100
AcDbEntity
  8
DEFPOINTS
  6
Continuous
 62
     7
100
AcDbPoint
 10
53.79916399999999
 20
35.440056
 30
0.0
  0
POINT
  5
355
330
34D
100
AcDbEntity
  8
DEFPOINTS
  6
Continuous
 62
     7
100
AcDbPoint
 10
71.59916700000002
 20
35.440056
 30
0.0
  0
ENDBLK
  5
356
330
34D
100
AcDbEntity
  8
0
100
AcDbBlockEnd
  0
BLOCK
  5
358
330
357
100
AcDbEntity
  8
0
100
AcDbBlockBegin
  2
*D22
 70
     1
 10
0.0
 20
0.0
 30
0.0
  3
*D22
  1

  0
LINE
  5
359
330
357
100
AcDbEntity
  8
0
  6
Continuous
 62
     7
100
AcDbLine
 10
71.59916700000002
 20
73.94005600000001
 30
0.0
 11
71.59916700000002
 21
60.44005600000001
 31
0.0
  0
INSERT
  5
35A
330
357
100
AcDbEntity
  8
0
  6
Continuous
 62
     7
100
AcDbBlockReference
  2
_DOT
 10
71.59916700000002
 20
73.94005600000001
 30
0.0
 50
90.0
  0
INSERT
  5
35B
330
357
100
AcDbEntity
  8
0
  6
Continuous
 62
     7
100
AcDbBlockReference
  2
_DOT
 10
71.59916700000002
 20
60.44005600000001
 30
0.0
 50
270.0
  0
LINE
  5
35C
330
357
100
AcDbEntity
  8
0
  6
Continuous
 62
     7
100
AcDbLine
 10
51.939166
 20
60.44005600000001
 30
0.0
 11
72.79916400000001
 21
60.44005600000001
 31
0.0
  0
TEXT
  5
35D
330
357
100
AcDbEntity
  8
0
  6
Continuous
 62
     7
100
AcDbText
 10
70.79916700000002
 20
61.24705600000001
 30
0.0
 40
3.2
  1
13.5
 50
90.00000300000001
 41
1.3928906
100
AcDbText
  0
POINT
  5
35E
330
357
100
AcDbEntity
  8
DEFPOINTS
  6
Continuous
 62
     7
100
AcDbPoint
 10
56.599167
 20
73.94005600000001
 30
0.0
  0
POINT
  5
35F
330
357
100
AcDbEntity
  8
DEFPOINTS
  6
Continuous
 62
     7
100
AcDbPoint
 10
49.399166
 20
60.44005600000001
 30
0.0
  0
POINT
  5
360
330
357
100
AcDbEntity
  8
DEFPOINTS
  6
Continuous
 62
     7
100
AcDbPoint
 10
71.59916700000002
 20
60.44005600000001
 30
0.0
  0
ENDBLK
  5
361
330
357
100
AcDbEntity
  8
0
100
AcDbBlockEnd
  0
BLOCK
  5
363
330
362
100
AcDbEntity
  8
0
100
AcDbBlockBegin
  2
*D23
 70
     1
 10
0.0
 20
0.0
 30
0.0
  3
*D23
  1

  0
LINE
  5
364
330
362
100
AcDbEntity
  8
0
  6
Continuous
 62
     7
100
AcDbLine
 10
56.599167
 20
-44.55993699999999
 30
0.0
 11
68.266586
 21
-44.55993699999999
 31
0.0
  0
LINE
  5
365
330
362
100
AcDbEntity
  8
0
  6
Continuous
 62
     7
100
AcDbLine
 10
46.79916399999999
 20
-44.55993699999999
 30
0.0
 11
56.599167
 21
-44.55993699999999
 31
0.0
  0
INSERT
  5
366
330
362
100
AcDbEntity
  8
0
  6
Continuous
 62
     7
100
AcDbBlockReference
  2
_DOT
 10
56.599167
 20
-44.55993699999999
 30
0.0
  0
LINE
  5
367
330
362
100
AcDbEntity
  8
0
  6
Continuous
 62
     7
100
AcDbLine
 10
56.599167
 20
-30.599944
 30
0.0
 11
56.599167
 21
-45.759937
 31
0.0
  0
TEXT
  5
368
330
362
100
AcDbEntity
  8
0
  6
Continuous
 62
     7
100
AcDbText
 10
59.58058799999999
 20
-43.759937
 30
0.0
 40
3.2
  1
9.8
 41
1.357187499999999
100
AcDbText
  0
POINT
  5
369
330
362
100
AcDbEntity
  8
DEFPOINTS
  6
Continuous
 62
     7
100
AcDbPoint
 10
46.79916399999999
 20
3.440055799999999
 30
0.0
  0
POINT
  5
36A
330
362
100
AcDbEntity
  8
DEFPOINTS
  6
Continuous
 62
     7
100
AcDbPoint
 10
56.599167
 20
-28.059944
 30
0.0
  0
POINT
  5
36B
330
362
100
AcDbEntity
  8
DEFPOINTS
  6
Continuous
 62
     7
100
AcDbPoint
 10
56.599167
 20
-44.55993699999999
 30
0.0
  0
ENDBLK
  5
36C
330
362
100
AcDbEntity
  8
0
100
AcDbBlockEnd
  0
BLOCK
  5
36E
330
36D
100
AcDbEntity
  8
0
100
AcDbBlockBegin
  2
*D24
 70
     1
 10
0.0
 20
0.0
 30
0.0
  3
*D24
  1

  0
LINE
  5
36F
330
36D
100
AcDbEntity
  8
0
  6
Continuous
 62
     7
100
AcDbLine
 10
41.39916599999999
 20
-44.55993699999999
 30
0.0
 11
46.79916399999999
 21
-44.55993699999999
 31
0.0
  0
INSERT
  5
370
330
36D
100
AcDbEntity
  8
0
  6
Continuous
 62
     7
100
AcDbBlockReference
  2
_DOT
 10
46.79916399999999
 20
-44.55993699999999
 30
0.0
  0
LINE
  5
371
330
36D
100
AcDbEntity
  8
0
  6
Continuous
 62
     7
100
AcDbLine
 10
46.79916399999999
 20
0.9000559199999999
 30
0.0
 11
46.79916399999999
 21
-45.759937
 31
0.0
  0
TEXT
  5
372
330
36D
100
AcDbEntity
  8
0
  6
Continuous
 62
     7
100
AcDbText
 10
59.777087
 20
-50.96992
 30
0.0
 40
3.2
  1
  
 41
3.085875
100
AcDbText
  0
POINT
  5
373
330
36D
100
AcDbEntity
  8
DEFPOINTS
  6
Continuous
 62
     7
100
AcDbPoint
 10
41.39916599999999
 20
-21.259945
 30
0.0
  0
POINT
  5
374
330
36D
100
AcDbEntity
  8
DEFPOINTS
  6
Continuous
 62
     7
100
AcDbPoint
 10
46.79916399999999
 20
3.440055799999999
 30
0.0
  0
POINT
  5
375
330
36D
100
AcDbEntity
  8
DEFPOINTS
  6
Continuous
 62
     7
100
AcDbPoint
 10
46.79916399999999
 20
-44.55993699999999
 30
0.0
  0
ENDBLK
  5
376
330
36D
100
AcDbEntity
  8
0
100
AcDbBlockEnd
  0
BLOCK
  5
378
330
377
100
AcDbEntity
  8
0
100
AcDbBlockBegin
  2
*D25
 70
     1
 10
0.0
 20
0.0
 30
0.0
  3
*D25
  1

  0
LINE
  5
379
330
377
100
AcDbEntity
  8
0
  6
Continuous
 62
     7
100
AcDbLine
 10
25.099165
 20
-44.55993699999999
 30
0.0
 11
41.39916599999999
 21
-44.55993699999999
 31
0.0
  0
INSERT
  5
37A
330
377
100
AcDbEntity
  8
0
  6
Continuous
 62
     7
100
AcDbBlockReference
  2
_DOT
 10
25.099165
 20
-44.55993699999999
 30
0.0
 50
180.0
  0
INSERT
  5
37B
330
377
100
AcDbEntity
  8
0
  6
Continuous
 62
     7
100
AcDbBlockReference
  2
_DOT
 10
41.39916599999999
 20
-44.55993699999999
 30
0.0
  0
LINE
  5
37C
330
377
100
AcDbEntity
  8
0
  6
Continuous
 62
     7
100
AcDbLine
 10
25.099165
 20
-35.099936
 30
0.0
 11
25.099165
 21
-45.759937
 31
0.0
  0
LINE
  5
37D
330
377
100
AcDbEntity
  8
0
  6
Continuous
 62
     7
100
AcDbLine
 10
41.39916599999999
 20
-23.799945
 30
0.0
 11
41.39916599999999
 21
-45.759937
 31
0.0
  0
TEXT
  5
37E
330
377
100
AcDbEntity
  8
0
  6
Continuous
 62
     7
100
AcDbText
 10
27.306165
 20
-43.759937
 30
0.0
 40
3.2
  1
16.3
 41
1.3928906
100
AcDbText
  0
POINT
  5
37F
330
377
100
AcDbEntity
  8
DEFPOINTS
  6
Continuous
 62
     7
100
AcDbPoint
 10
25.099165
 20
-32.55993699999999
 30
0.0
  0
POINT
  5
380
330
377
100
AcDbEntity
  8
DEFPOINTS
  6
Continuous
 62
     7
100
AcDbPoint
 10
41.39916599999999
 20
-21.259945
 30
0.0
  0
POINT
  5
381
330
377
100
AcDbEntity
  8
DEFPOINTS
  6
Continuous
 62
     7
100
AcDbPoint
 10
41.39916599999999
 20
-44.55993699999999
 30
0.0
  0
ENDBLK
  5
382
330
377
100
AcDbEntity
  8
0
100
AcDbBlockEnd
  0
BLOCK
  5
384
330
383
100
AcDbEntity
  8
0
100
AcDbBlockBegin
  2
*D26
 70
     1
 10
0.0
 20
0.0
 30
0.0
  3
*D26
  1

  0
LINE
  5
385
330
383
100
AcDbEntity
  8
0
  6
Continuous
 62
     7
100
AcDbLine
 10
81.599167
 20
-28.059937
 30
0.0
 11
81.599167
 21
73.94005600000001
 31
0.0
  0
INSERT
  5
386
330
383
100
AcDbEntity
  8
0
  6
Continuous
 62
     7
100
AcDbBlockReference
  2
_DOT
 10
81.599167
 20
-28.059937
 30
0.0
 50
270.0
  0
INSERT
  5
387
330
383
100
AcDbEntity
  8
0
  6
Continuous
 62
     7
100
AcDbBlockReference
  2
_DOT
 10
81.599167
 20
73.94005600000001
 30
0.0
 50
90.0
  0
LINE
  5
388
330
383
100
AcDbEntity
  8
0
  6
Continuous
 62
     7
100
AcDbLine
 10
59.13916700000001
 20
-28.059937
 30
0.0
 11
82.79916400000001
 21
-28.059937
 31
0.0
  0
LINE
  5
389
330
383
100
AcDbEntity
  8
0
  6
Continuous
 62
     7
100
AcDbLine
 10
59.13916700000001
 20
73.94005600000001
 30
0.0
 11
82.79916400000001
 21
73.94005600000001
 31
0.0
  0
TEXT
  5
38A
330
383
100
AcDbEntity
  8
0
  6
Continuous
 62
     7
100
AcDbText
 10
80.79916700000003
 20
18.59706
 30
0.0
 40
3.2
  1
102
 50
90.00000300000001
 41
1.2527885
100
AcDbText
  0
POINT
  5
38B
330
383
100
AcDbEntity
  8
DEFPOINTS
  6
Continuous
 62
     7
100
AcDbPoint
 10
56.599167
 20
-28.059937
 30
0.0
  0
POINT
  5
38C
330
383
100
AcDbEntity
  8
DEFPOINTS
  6
Continuous
 62
     7
100
AcDbPoint
 10
56.599167
 20
73.94005600000001
 30
0.0
  0
POINT
  5
38D
330
383
100
AcDbEntity
  8
DEFPOINTS
  6
Continuous
 62
     7
100
AcDbPoint
 10
81.599167
 20
73.94005600000001
 30
0.0
  0
ENDBLK
  5
38E
330
383
100
AcDbEntity
  8
0
100
AcDbBlockEnd
  0
BLOCK
  5
390
330
38F
100
AcDbEntity
  8
0
100
AcDbBlockBegin
  2
*D27
 70
     1
 10
0.0
 20
0.0
 30
0.0
  3
*D27
  1

  0
LINE
  5
391
330
38F
100
AcDbEntity
  8
0
  6
Continuous
 62
     7
100
AcDbLine
 10
71.59916700000002
 20
-14.55994399999999
 30
0.0
 11
71.59916700000002
 21
-28.059937
 31
0.0
  0
INSERT
  5
392
330
38F
100
AcDbEntity
  8
0
  6
Continuous
 62
     7
100
AcDbBlockReference
  2
_DOT
 10
71.59916700000002
 20
-28.059937
 30
0.0
 50
270.0
  0
TEXT
  5
393
330
38F
100
AcDbEntity
  8
0
  6
Continuous
 62
     7
100
AcDbText
 10
70.79916700000002
 20
-27.25294
 30
0.0
 40
3.2
  1
13.5
 50
90.00000300000001
 41
1.3928906
100
AcDbText
  0
POINT
  5
394
330
38F
100
AcDbEntity
  8
DEFPOINTS
  6
Continuous
 62
     7
100
AcDbPoint
 10
48.099167
 20
-14.55994399999999
 30
0.0
  0
POINT
  5
395
330
38F
100
AcDbEntity
  8
DEFPOINTS
  6
Continuous
 62
     7
100
AcDbPoint
 10
56.599167
 20
-28.059937
 30
0.0
  0
POINT
  5
396
330
38F
100
AcDbEntity
  8
DEFPOINTS
  6
Continuous
 62
     7
100
AcDbPoint
 10
71.59916700000002
 20
-28.059937
 30
0.0
  0
ENDBLK
  5
397
330
38F
100
AcDbEntity
  8
0
100
AcDbBlockEnd
  0
BLOCK
  5
399
330
398
100
AcDbEntity
  8
0
100
AcDbBlockBegin
  2
*D28
 70
     1
 10
0.0
 20
0.0
 30
0.0
  3
*D28
  1

  0
LINE
  5
39A
330
398
100
AcDbEntity
  8
0
  6
Continuous
 62
     7
100
AcDbLine
 10
71.59916700000002
 20
10.44005599999999
 30
0.0
 11
71.59916700000002
 21
-14.55994399999999
 31
0.0
  0
INSERT
  5
39B
330
398
100
AcDbEntity
  8
0
  6
Continuous
 62
     7
100
AcDbBlockReference
  2
_DOT
 10
71.59916700000002
 20
-14.55994399999999
 30
0.0
 50
270.0
  0
LINE
  5
39C
330
398
100
AcDbEntity
  8
0
  6
Continuous
 62
     7
100
AcDbLine
 10
50.639167
 20
-14.55994399999999
 30
0.0
 11
72.79916400000001
 21
-14.55994399999999
 31
0.0
  0
TEXT
  5
39D
330
398
100
AcDbEntity
  8
0
  6
Continuous
 62
     7
100
AcDbText
 10
70.79916700000002
 20
-4.802944199999999
 30
0.0
 40
3.2
  1
25
 50
90.00000300000001
 41
1.028624999999999
100
AcDbText
  0
POINT
  5
39E
330
398
100
AcDbEntity
  8
DEFPOINTS
  6
Continuous
 62
     7
100
AcDbPoint
 10
53.79916399999999
 20
10.44005599999999
 30
0.0
  0
POINT
  5
39F
330
398
100
AcDbEntity
  8
DEFPOINTS
  6
Continuous
 62
     7
100
AcDbPoint
 10
48.099167
 20
-14.55994399999999
 30
0.0
  0
POINT
  5
3A0
330
398
100
AcDbEntity
  8
DEFPOINTS
  6
Continuous
 62
     7
100
AcDbPoint
 10
71.59916700000002
 20
-14.55994399999999
 30
0.0
  0
ENDBLK
  5
3A1
330
398
100
AcDbEntity
  8
0
100
AcDbBlockEnd
  0
BLOCK
  5
3A3
330
3A2
100
AcDbEntity
  8
0
100
AcDbBlockBegin
  2
*D29
 70
     1
 10
0.0
 20
0.0
 30
0.0
  3
*D29
  1

  0
LINE
  5
3A4
330
3A2
100
AcDbEntity
  8
0
  6
Continuous
 62
     7
100
AcDbLine
 10
71.59916700000002
 20
35.440056
 30
0.0
 11
71.59916700000002
 21
10.44005599999999
 31
0.0
  0
INSERT
  5
3A5
330
3A2
100
AcDbEntity
  8
0
  6
Continuous
 62
     7
100
AcDbBlockReference
  2
_DOT
 10
71.59916700000002
 20
10.44005599999999
 30
0.0
 50
270.0
  0
LINE
  5
3A6
330
3A2
100
AcDbEntity
  8
0
  6
Continuous
 62
     7
100
AcDbLine
 10
56.339164
 20
10.44005599999999
 30
0.0
 11
72.79916400000001
 21
10.44005599999999
 31
0.0
  0
TEXT
  5
3A7
330
3A2
100
AcDbEntity
  8
0
  6
Continuous
 62
     7
100
AcDbText
 10
70.79916700000002
 20
20.19705599999999
 30
0.0
 40
3.2
  1
25
 50
90.00000300000001
 41
1.028624999999999
100
AcDbText
  0
POINT
  5
3A8
330
3A2
100
AcDbEntity
  8
DEFPOINTS
  6
Continuous
 62
     7
100
AcDbPoint
 10
53.79916399999999
 20
35.440056
 30
0.0
  0
POINT
  5
3A9
330
3A2
100
AcDbEntity
  8
DEFPOINTS
  6
Continuous
 62
     7
100
AcDbPoint
 10
53.79916399999999
 20
10.44005599999999
 30
0.0
  0
POINT
  5
3AA
330
3A2
100
AcDbEntity
  8
DEFPOINTS
  6
Continuous
 62
     7
100
AcDbPoint
 10
71.59916700000002
 20
10.44005599999999
 30
0.0
  0
ENDBLK
  5
3AB
330
3A2
100
AcDbEntity
  8
0
100
AcDbBlockEnd
  0
BLOCK
  5
3AD
330
3AC
100
AcDbEntity
  8
0
100
AcDbBlockBegin
  2
*D30
 70
     1
 10
0.0
 20
0.0
 30
0.0
  3
*D30
  1

  0
LINE
  5
3AE
330
3AC
100
AcDbEntity
  8
0
  6
Continuous
 62
     7
100
AcDbLine
 10
27.927595
 20
142.9576999999999
 30
0.0
 11
22.270741
 21
137.30084
 31
0.0
  0
INSERT
  5
3AF
330
3AC
100
AcDbEntity
  8
0
  6
Continuous
 62
     7
100
AcDbBlockReference
  2
_DOT
 10
27.927595
 20
142.9576999999999
 30
0.0
 50
45.000029
  0
INSERT
  5
3B0
330
3AC
100
AcDbEntity
  8
0
  6
Continuous
 62
     7
100
AcDbBlockReference
  2
_DOT
 10
22.270741
 20
137.30084
 30
0.0
 50
225.0000299999999
  0
TEXT
  5
3B1
330
3AC
100
AcDbEntity
  8
0
  6
Continuous
 62
     7
100
AcDbText
 10
-1.720501499999999
 20
121.92927
 30
0.0
 40
3.2
  1
  
 41
3.085875
100
AcDbText
  0
POINT
  5
3B2
330
3AC
100
AcDbEntity
  8
DEFPOINTS
  6
Continuous
 62
     7
100
AcDbPoint
 10
27.927595
 20
142.9576999999999
 30
0.0
  0
POINT
  5
3B3
330
3AC
100
AcDbEntity
  8
DEFPOINTS
  6
Continuous
 62
     7
100
AcDbPoint
 10
22.270741
 20
137.30084
 30
0.0
  0
ENDBLK
  5
3B4
330
3AC
100
AcDbEntity
  8
0
100
AcDbBlockEnd
  0
BLOCK
  5
3B6
330
3B5
100
AcDbEntity
  8
0
100
AcDbBlockBegin
  2
*D31
 70
     1
 10
0.0
 20
0.0
 30
0.0
  3
*D31
  1

  0
LINE
  5
3B7
330
3B5
100
AcDbEntity
  8
0
  6
Continuous
 62
     7
100
AcDbLine
 10
39.57073599999999
 20
57.611626
 30
0.0
 11
45.227589
 21
63.26848199999999
 31
0.0
  0
INSERT
  5
3B8
330
3B5
100
AcDbEntity
  8
0
  6
Continuous
 62
     7
100
AcDbBlockReference
  2
_DOT
 10
39.57073599999999
 20
57.611626
 30
0.0
 50
225.0000200000001
  0
INSERT
  5
3B9
330
3B5
100
AcDbEntity
  8
0
  6
Continuous
 62
     7
100
AcDbBlockReference
  2
_DOT
 10
45.227589
 20
63.26848199999999
 30
0.0
 50
45.00001899999999
  0
TEXT
  5
3BA
330
3B5
100
AcDbEntity
  8
0
  6
Continuous
 62
     7
100
AcDbText
 10
71.829176
 20
86.24005600000002
 30
0.0
 40
3.2
  1
  
 41
3.085875
100
AcDbText
  0
POINT
  5
3BB
330
3B5
100
AcDbEntity
  8
DEFPOINTS
  6
Continuous
 62
     7
100
AcDbPoint
 10
39.57073599999999
 20
57.611626
 30
0.0
  0
POINT
  5
3BC
330
3B5
100
AcDbEntity
  8
DEFPOINTS
  6
Continuous
 62
     7
100
AcDbPoint
 10
45.227589
 20
63.26848199999999
 30
0.0
  0
ENDBLK
  5
3BD
330
3B5
100
AcDbEntity
  8
0
100
AcDbBlockEnd
  0
BLOCK
  5
3BF
330
3BE
100
AcDbEntity
  8
0
100
AcDbBlockBegin
  2
*D32
 70
     1
 10
0.0
 20
0.0
 30
0.0
  3
*D32
  1

  0
LINE
  5
3C0
330
3BE
100
AcDbEntity
  8
0
  6
Continuous
 62
     7
100
AcDbLine
 10
71.59916700000002
 20
142.6292899999999
 30
0.0
 11
71.59916700000002
 21
152.77829
 31
0.0
  0
LINE
  5
3C1
330
3BE
100
AcDbEntity
  8
0
  6
Continuous
 62
     7
100
AcDbLine
 10
71.59916700000002
 20
142.6292899999999
 30
0.0
 11
71.59916700000002
 21
141.22928
 31
0.0
  0
INSERT
  5
3C2
330
3BE
100
AcDbEntity
  8
0
  6
Continuous
 62
     7
100
AcDbBlockReference
  2
_DOT
 10
71.59916700000002
 20
142.6292899999999
 30
0.0
 50
90.0
  0
INSERT
  5
3C3
330
3BE
100
AcDbEntity
  8
0
  6
Continuous
 62
     7
100
AcDbBlockReference
  2
_DOT
 10
71.59916700000002
 20
141.22928
 30
0.0
 50
270.0
  0
LINE
  5
3C4
330
3BE
100
AcDbEntity
  8
0
  6
Continuous
 62
     7
100
AcDbLine
 10
59.13916700000001
 20
141.22928
 30
0.0
 11
72.79916400000001
 21
141.22928
 31
0.0
  0
TEXT
  5
3C5
330
3BE
100
AcDbEntity
  8
0
  6
Continuous
 62
     7
100
AcDbText
 10
70.79916700000002
 20
144.0922899999999
 30
0.0
 40
3.2
  1
1.4
 50
90.00000300000001
 41
1.628624999999999
100
AcDbText
  0
POINT
  5
3C6
330
3BE
100
AcDbEntity
  8
DEFPOINTS
  6
Continuous
 62
     7
100
AcDbPoint
 10
56.599167
 20
142.6292899999999
 30
0.0
  0
POINT
  5
3C7
330
3BE
100
AcDbEntity
  8
DEFPOINTS
  6
Continuous
 62
     7
100
AcDbPoint
 10
56.599167
 20
141.22928
 30
0.0
  0
POINT
  5
3C8
330
3BE
100
AcDbEntity
  8
DEFPOINTS
  6
Continuous
 62
     7
100
AcDbPoint
 10
71.59916700000002
 20
141.22928
 30
0.0
  0
ENDBLK
  5
3C9
330
3BE
100
AcDbEntity
  8
0
100
AcDbBlockEnd
  0
BLOCK
  5
3CB
330
3CA
100
AcDbEntity
  8
0
100
AcDbBlockBegin
  2
*D33
 70
     1
 10
0.0
 20
0.0
 30
0.0
  3
*D33
  1

  0
LINE
  5
3CC
330
3CA
100
AcDbEntity
  8
0
  6
Continuous
 62
     7
100
AcDbLine
 10
71.59916700000002
 20
141.22928
 30
0.0
 11
71.59916700000002
 21
139.02927
 31
0.0
  0
INSERT
  5
3CD
330
3CA
100
AcDbEntity
  8
0
  6
Continuous
 62
     7
100
AcDbBlockReference
  2
_DOT
 10
71.59916700000002
 20
139.02927
 30
0.0
 50
270.0
  0
LINE
  5
3CE
330
3CA
100
AcDbEntity
  8
0
  6
Continuous
 62
     7
100
AcDbLine
 10
59.13916700000001
 20
139.02927
 30
0.0
 11
72.79916400000001
 21
139.02927
 31
0.0
  0
TEXT
  5
3CF
330
3CA
100
AcDbEntity
  8
0
  6
Continuous
 62
     7
100
AcDbText
 10
64.72974
 20
144.4326799999998
 30
0.0
 40
3.2
  1
  
 50
90.00000300000001
 41
3.085875
100
AcDbText
  0
POINT
  5
3D0
330
3CA
100
AcDbEntity
  8
DEFPOINTS
  6
Continuous
 62
     7
100
AcDbPoint
 10
56.599167
 20
141.22928
 30
0.0
  0
POINT
  5
3D1
330
3CA
100
AcDbEntity
  8
DEFPOINTS
  6
Continuous
 62
     7
100
AcDbPoint
 10
56.599167
 20
139.02927
 30
0.0
  0
POINT
  5
3D2
330
3CA
100
AcDbEntity
  8
DEFPOINTS
  6
Continuous
 62
     7
100
AcDbPoint
 10
71.59916700000002
 20
139.02927
 30
0.0
  0
ENDBLK
  5
3D3
330
3CA
100
AcDbEntity
  8
0
100
AcDbBlockEnd
  0
BLOCK
  5
3D5
330
3D4
100
AcDbEntity
  8
0
100
AcDbBlockBegin
  2
*D34
 70
     1
 10
0.0
 20
0.0
 30
0.0
  3
*D34
  1

  0
LINE
  5
3D6
330
3D4
100
AcDbEntity
  8
0
  6
Continuous
 62
     7
100
AcDbLine
 10
71.59916700000002
 20
137.62926
 30
0.0
 11
71.59916700000002
 21
127.82188
 31
0.0
  0
LINE
  5
3D7
330
3D4
100
AcDbEntity
  8
0
  6
Continuous
 62
     7
100
AcDbLine
 10
71.59916700000002
 20
139.02927
 30
0.0
 11
71.59916700000002
 21
137.62926
 31
0.0
  0
INSERT
  5
3D8
330
3D4
100
AcDbEntity
  8
0
  6
Continuous
 62
     7
100
AcDbBlockReference
  2
_DOT
 10
71.59916700000002
 20
137.62926
 30
0.0
 50
270.0
  0
TEXT
  5
3D9
330
3D4
100
AcDbEntity
  8
0
  6
Continuous
 62
     7
100
AcDbText
 10
70.79916700000002
 20
127.8218899999999
 30
0.0
 40
3.2
  1
1.4
 50
90.00000300000001
 41
1.628624999999999
100
AcDbText
  0
POINT
  5
3DA
330
3D4
100
AcDbEntity
  8
DEFPOINTS
  6
Continuous
 62
     7
100
AcDbPoint
 10
56.599167
 20
139.02927
 30
0.0
  0
POINT
  5
3DB
330
3D4
100
AcDbEntity
  8
DEFPOINTS
  6
Continuous
 62
     7
100
AcDbPoint
 10
56.599167
 20
137.62926
 30
0.0
  0
POINT
  5
3DC
330
3D4
100
AcDbEntity
  8
DEFPOINTS
  6
Continuous
 62
     7
100
AcDbPoint
 10
71.59916700000002
 20
137.62926
 30
0.0
  0
ENDBLK
  5
3DD
330
3D4
100
AcDbEntity
  8
0
100
AcDbBlockEnd
  0
BLOCK
  5
3DF
330
3DE
100
AcDbEntity
  8
0
100
AcDbBlockBegin
  2
*D35
 70
     1
 10
0.0
 20
0.0
 30
0.0
  3
*D35
  1

  0
LINE
  5
3E0
330
3DE
100
AcDbEntity
  8
0
  6
Continuous
 62
     7
100
AcDbLine
 10
81.599167
 20
137.62926
 30
0.0
 11
81.599167
 21
142.6292899999999
 31
0.0
  0
INSERT
  5
3E1
330
3DE
100
AcDbEntity
  8
0
  6
Continuous
 62
     7
100
AcDbBlockReference
  2
_DOT
 10
81.599167
 20
137.62926
 30
0.0
 50
270.0
  0
INSERT
  5
3E2
330
3DE
100
AcDbEntity
  8
0
  6
Continuous
 62
     7
100
AcDbBlockReference
  2
_DOT
 10
81.599167
 20
142.6292899999999
 30
0.0
 50
90.0
  0
LINE
  5
3E3
330
3DE
100
AcDbEntity
  8
0
  6
Continuous
 62
     7
100
AcDbLine
 10
59.13916700000001
 20
137.62926
 30
0.0
 11
82.79916400000001
 21
137.62926
 31
0.0
  0
LINE
  5
3E4
330
3DE
100
AcDbEntity
  8
0
  6
Continuous
 62
     7
100
AcDbLine
 10
59.13916700000001
 20
142.6292899999999
 30
0.0
 11
82.79916400000001
 21
142.6292899999999
 31
0.0
  0
TEXT
  5
3E5
330
3DE
100
AcDbEntity
  8
0
  6
Continuous
 62
     7
100
AcDbText
 10
80.79916700000003
 20
138.9862699999999
 30
0.0
 40
3.2
  1
5
 50
90.00000300000001
100
AcDbText
  0
POINT
  5
3E6
330
3DE
100
AcDbEntity
  8
DEFPOINTS
  6
Continuous
 62
     7
100
AcDbPoint
 10
56.599167
 20
137.62926
 30
0.0
  0
POINT
  5
3E7
330
3DE
100
AcDbEntity
  8
DEFPOINTS
  6
Continuous
 62
     7
100
AcDbPoint
 10
56.599167
 20
142.6292899999999
 30
0.0
  0
POINT
  5
3E8
330
3DE
100
AcDbEntity
  8
DEFPOINTS
  6
Continuous
 62
     7
100
AcDbPoint
 10
81.599167
 20
142.6292899999999
 30
0.0
  0
ENDBLK
  5
3E9
330
3DE
100
AcDbEntity
  8
0
100
AcDbBlockEnd
  0
BLOCK
  5
47F
330
3EA
100
AcDbEntity
  8
0
100
AcDbBlockBegin
  2
A$C336B0F16
 70
     0
 10
0.0
 20
0.0
 30
0.0
  3
A$C336B0F16
  1

  0
LINE
  5
3EB
330
3EA
100
AcDbEntity
  8
0
  6
Continuous
 62
     7
100
AcDbLine
 10
380.9999997251955
 20
272.9999999347271
 30
0.0
 11
380.9999997251955
 21
-0.0000000652728431
 31
0.0
  0
LINE
  5
3EC
330
3EA
100
AcDbEntity
  8
0
  6
Continuous
 62
     7
100
AcDbLine
 10
-0.0000002748045063
 20
-0.0000000652728431
 30
0.0
 11
380.9999997251955
 21
-0.0000000652728431
 31
0.0
  0
LINE
  5
3ED
330
3EA
100
AcDbEntity
  8
0
  6
Continuous
 62
     7
100
AcDbLine
 10
-0.0000002748045063
 20
272.9999999347271
 30
0.0
 11
380.9999997251955
 21
272.9999999347271
 31
0.0
  0
LINE
  5
3EE
330
3EA
100
AcDbEntity
  8
0
  6
Continuous
 62
     7
100
AcDbLine
 10
-0.0000002748045063
 20
272.9999999347271
 30
0.0
 11
-0.0000002748045063
 21
-0.0000000652728431
 31
0.0
  0
LINE
  5
3EF
330
3EA
100
AcDbEntity
  8
0
  6
Continuous
 62
     7
100
AcDbLine
 10
19.99999972519549
 20
272.9999999347271
 30
0.0
 11
19.99999972519549
 21
184.9999999347271
 31
0.0
  0
LINE
  5
3F0
330
3EA
100
AcDbEntity
  8
0
  6
Continuous
 62
     7
100
AcDbLine
 10
-0.0000002748045063
 20
264.9999999347272
 30
0.0
 11
109.9999997251955
 21
264.9999999347272
 31
0.0
  0
LINE
  5
3F1
330
3EA
100
AcDbEntity
  8
0
  6
Continuous
 62
     7
100
AcDbLine
 10
-0.0000002748045063
 20
248.9999999347272
 30
0.0
 11
109.9999997251955
 21
248.9999999347272
 31
0.0
  0
LINE
  5
3F2
330
3EA
100
AcDbEntity
  8
0
  6
Continuous
 62
     7
100
AcDbLine
 10
19.99999972519549
 20
224.9999999347271
 30
0.0
 11
109.9999997251955
 21
224.9999999347271
 31
0.0
  0
LINE
  5
3F3
330
3EA
100
AcDbEntity
  8
0
  6
Continuous
 62
     7
100
AcDbLine
 10
19.99999972519549
 20
216.9999999347272
 30
0.0
 11
109.9999997251955
 21
216.9999999347272
 31
0.0
  0
LINE
  5
3F4
330
3EA
100
AcDbEntity
  8
0
  6
Continuous
 62
     7
100
AcDbLine
 10
-0.0000002748045063
 20
208.9999999347272
 30
0.0
 11
109.9999997251955
 21
208.9999999347272
 31
0.0
  0
LINE
  5
3F5
330
3EA
100
AcDbEntity
  8
0
  6
Continuous
 62
     7
100
AcDbLine
 10
19.99999972519549
 20
200.9999999347272
 30
0.0
 11
109.9999997251955
 21
200.9999999347272
 31
0.0
  0
LINE
  5
3F6
330
3EA
100
AcDbEntity
  8
0
  6
Continuous
 62
     7
100
AcDbLine
 10
19.99999972519549
 20
192.9999999347271
 30
0.0
 11
109.9999997251955
 21
192.9999999347271
 31
0.0
  0
LINE
  5
3F7
330
3EA
100
AcDbEntity
  8
0
  6
Continuous
 62
     7
100
AcDbLine
 10
-0.0000002748045063
 20
184.9999999347271
 30
0.0
 11
109.9999997251955
 21
184.9999999347271
 31
0.0
  0
LINE
  5
3F8
330
3EA
100
AcDbEntity
  8
0
  6
Continuous
 62
     7
100
AcDbLine
 10
-0.0000002748045063
 20
272.9999999347271
 30
0.0
 11
-0.0000002748045063
 21
184.9999999347271
 31
0.0
  0
LINE
  5
3F9
330
3EA
100
AcDbEntity
  8
0
  6
Continuous
 62
     7
100
AcDbLine
 10
-0.0000002748045063
 20
272.9999999347271
 30
0.0
 11
109.9999997251955
 21
272.9999999347271
 31
0.0
  0
LINE
  5
3FA
330
3EA
100
AcDbEntity
  8
0
  6
Continuous
 62
     7
100
AcDbLine
 10
109.9999997251955
 20
272.9999999347271
 30
0.0
 11
109.9999997251955
 21
184.9999999347271
 31
0.0
  0
LINE
  5
3FB
330
3EA
100
AcDbEntity
  8
0
  6
Continuous
 62
     7
100
AcDbLine
 10
-0.0000002748045063
 20
232.9999999347271
 30
0.0
 11
109.9999997251955
 21
232.9999999347271
 31
0.0
  0
LINE
  5
3FC
330
3EA
100
AcDbEntity
  8
0
  6
Continuous
 62
     7
100
AcDbLine
 10
19.99999972519549
 20
224.9999999347271
 30
0.0
 11
109.9999997251955
 21
224.9999999347271
 31
0.0
  0
LINE
  5
3FD
330
3EA
100
AcDbEntity
  8
0
  6
Continuous
 62
     7
100
AcDbLine
 10
-0.0000002748045063
 20
256.9999999347272
 30
0.0
 11
109.9999997251955
 21
256.9999999347272
 31
0.0
  0
LINE
  5
3FE
330
3EA
100
AcDbEntity
  8
0
  6
Continuous
 62
     7
100
AcDbLine
 10
-0.0000002748045063
 20
240.9999999347272
 30
0.0
 11
109.9999997251955
 21
240.9999999347272
 31
0.0
  0
LINE
  5
3FF
330
3EA
100
AcDbEntity
  8
0
  6
Continuous
 62
     3
100
AcDbLine
 10
204.5991647251955
 20
173.9400559347272
 30
0.0
 11
204.5991647251955
 21
71.94005593472716
 31
0.0
  0
LINE
  5
400
330
3EA
100
AcDbEntity
  8
0
  6
Continuous
 62
     3
100
AcDbLine
 10
267.5991667251955
 20
173.9400559347272
 30
0.0
 11
267.5991667251955
 21
71.94005593472716
 31
0.0
  0
LINE
  5
401
330
3EA
100
AcDbEntity
  8
0
  6
Continuous
 62
     3
100
AcDbLine
 10
204.5991647251955
 20
173.9400559347272
 30
0.0
 11
230.8991637251955
 21
173.9400559347272
 31
0.0
  0
LINE
  5
402
330
3EA
100
AcDbEntity
  8
0
  6
Continuous
 62
     3
100
AcDbLine
 10
204.5991647251955
 20
71.94006293472715
 30
0.0
 11
230.8991637251955
 21
71.94006293472715
 31
0.0
  0
LINE
  5
403
330
3EA
100
AcDbEntity
  8
0
  6
CENTER
 62
     7
100
AcDbLine
 10
229.5591637251955
 20
240.1292699347271
 30
0.0
 11
242.6391657251955
 21
240.1292699347271
 31
0.0
  0
LINE
  5
404
330
3EA
100
AcDbEntity
  8
0
  6
Continuous
 62
     3
100
AcDbLine
 10
232.0991647251955
 20
173.9400559347272
 30
0.0
 11
232.0991647251955
 21
71.94005593472716
 31
0.0
  0
LINE
  5
405
330
3EA
100
AcDbEntity
  8
0
  6
CENTER
 62
     7
100
AcDbLine
 10
236.0991647251955
 20
246.669269934727
 30
0.0
 11
236.0991647251955
 21
233.5892599347271
 31
0.0
  0
LINE
  5
406
330
3EA
100
AcDbEntity
  8
0
  6
Continuous
 62
     3
100
AcDbLine
 10
240.0991647251955
 20
173.9400559347272
 30
0.0
 11
240.0991647251955
 21
71.94005593472716
 31
0.0
  0
LINE
  5
407
330
3EA
100
AcDbEntity
  8
0
  6
PHANTOM
 62
     7
100
AcDbLine
 10
267.5991667251955
 20
237.6292599347272
 30
0.0
 11
267.5991667251955
 21
239.0292699347272
 31
0.0
  0
LINE
  5
408
330
3EA
100
AcDbEntity
  8
0
  6
Continuous
 62
     3
100
AcDbLine
 10
239.9449407251955
 20
241.2292799347271
 30
0.0
 11
267.5991667251955
 21
241.2292799347271
 31
0.0
  0
LINE
  5
409
330
3EA
100
AcDbEntity
  8
0
  6
Continuous
 62
     3
100
AcDbLine
 10
239.2216567251955
 20
242.629289934727
 30
0.0
 11
267.5991667251955
 21
242.629289934727
 31
0.0
  0
LINE
  5
40A
330
3EA
100
AcDbEntity
  8
0
  6
Continuous
 62
     3
100
AcDbLine
 10
267.5991667251955
 20
242.629289934727
 30
0.0
 11
267.5991667251955
 21
241.2292799347271
 31
0.0
  0
LINE
  5
40B
330
3EA
100
AcDbEntity
  8
0
  6
PHANTOM
 62
     7
100
AcDbLine
 10
239.2991577251955
 20
237.6292599347272
 30
0.0
 11
267.5991667251955
 21
237.6292599347272
 31
0.0
  0
LINE
  5
40C
330
3EA
100
AcDbEntity
  8
0
  6
PHANTOM
 62
     7
100
AcDbLine
 10
239.9721467251955
 20
239.0292699347272
 30
0.0
 11
267.5991667251955
 21
239.0292699347272
 31
0.0
  0
LINE
  5
40D
330
3EA
100
AcDbEntity
  8
0
  6
Continuous
 62
     3
100
AcDbLine
 10
232.9766727251955
 20
242.629289934727
 30
0.0
 11
204.5991647251955
 21
242.629289934727
 31
0.0
  0
LINE
  5
40E
330
3EA
100
AcDbEntity
  8
0
  6
Continuous
 62
     3
100
AcDbLine
 10
232.2533887251955
 20
241.2292799347271
 30
0.0
 11
204.5991647251955
 21
241.2292799347271
 31
0.0
  0
LINE
  5
40F
330
3EA
100
AcDbEntity
  8
0
  6
Continuous
 62
     3
100
AcDbLine
 10
204.5991647251955
 20
242.629289934727
 30
0.0
 11
204.5991647251955
 21
241.2292799347271
 31
0.0
  0
LINE
  5
410
330
3EA
100
AcDbEntity
  8
0
  6
Continuous
 62
     3
100
AcDbLine
 10
232.0991647251955
 20
173.9400559347272
 30
0.0
 11
267.5991667251955
 21
173.9400559347272
 31
0.0
  0
LINE
  5
411
330
3EA
100
AcDbEntity
  8
0
  6
Continuous
 62
     3
100
AcDbLine
 10
232.0991647251955
 20
71.94006293472715
 30
0.0
 11
267.5991667251955
 21
71.94006293472715
 31
0.0
  0
LINE
  5
412
330
3EA
100
AcDbEntity
  8
0
  6
Continuous
 62
     3
100
AcDbLine
 10
230.8991637251955
 20
90.94005573472715
 30
0.0
 11
241.2991657251955
 21
90.94005573472715
 31
0.0
  0
LINE
  5
413
330
3EA
100
AcDbEntity
  8
0
  6
Continuous
 62
     3
100
AcDbLine
 10
230.8991637251955
 20
113.4400559347271
 30
0.0
 11
241.2991657251955
 21
113.4400559347271
 31
0.0
  0
LINE
  5
414
330
3EA
100
AcDbEntity
  8
0
  6
Continuous
 62
     3
100
AcDbLine
 10
230.8991637251955
 20
132.4400559347271
 30
0.0
 11
241.2991657251955
 21
132.4400559347271
 31
0.0
  0
LINE
  5
415
330
3EA
100
AcDbEntity
  8
0
  6
Continuous
 62
     3
100
AcDbLine
 10
230.8991637251955
 20
154.9400559347272
 30
0.0
 11
241.2991657251955
 21
154.9400559347272
 31
0.0
  0
LINE
  5
416
330
3EA
100
AcDbEntity
  8
0
  6
Continuous
 62
     3
100
AcDbLine
 10
241.2991657251955
 20
154.9400559347272
 30
0.0
 11
241.2991657251955
 21
132.4400559347271
 31
0.0
  0
LINE
  5
417
330
3EA
100
AcDbEntity
  8
0
  6
Continuous
 62
     3
100
AcDbLine
 10
230.8991637251955
 20
173.9400559347272
 30
0.0
 11
230.8991637251955
 21
154.9400559347272
 31
0.0
  0
LINE
  5
418
330
3EA
100
AcDbEntity
  8
0
  6
Continuous
 62
     3
100
AcDbLine
 10
230.8991637251955
 20
132.4400559347271
 30
0.0
 11
230.8991637251955
 21
113.4400559347271
 31
0.0
  0
LINE
  5
419
330
3EA
100
AcDbEntity
  8
0
  6
Continuous
 62
     3
100
AcDbLine
 10
230.8991637251955
 20
90.94005573472715
 30
0.0
 11
230.8991637251955
 21
71.94005593472716
 31
0.0
  0
LINE
  5
41A
330
3EA
100
AcDbEntity
  8
0
  6
Continuous
 62
     3
100
AcDbLine
 10
241.2991657251955
 20
113.4400559347271
 30
0.0
 11
241.2991657251955
 21
90.94005573472715
 31
0.0
  0
LINE
  5
41B
330
3EA
100
AcDbEntity
  8
0
  6
CENTER
 62
     7
100
AcDbLine
 10
221.3991627251955
 20
135.4400559347271
 30
0.0
 11
207.3991632251955
 21
135.4400559347271
 31
0.0
  0
LINE
  5
41C
330
3EA
100
AcDbEntity
  8
0
  6
CENTER
 62
     7
100
AcDbLine
 10
214.3991632251955
 20
142.4400559347271
 30
0.0
 11
214.3991632251955
 21
128.4400559347271
 31
0.0
  0
LINE
  5
41D
330
3EA
100
AcDbEntity
  8
0
  6
CENTER
 62
     7
100
AcDbLine
 10
221.3991627251955
 20
110.4400559347271
 30
0.0
 11
207.3991632251955
 21
110.4400559347271
 31
0.0
  0
LINE
  5
41E
330
3EA
100
AcDbEntity
  8
0
  6
CENTER
 62
     7
100
AcDbLine
 10
214.3991632251955
 20
117.4400559347271
 30
0.0
 11
214.3991632251955
 21
103.4400557347271
 31
0.0
  0
LINE
  5
41F
330
3EA
100
AcDbEntity
  8
0
  6
CENTER
 62
     7
100
AcDbLine
 10
226.7991647251955
 20
85.44005593472716
 30
0.0
 11
212.7991646251955
 21
85.44005593472716
 31
0.0
  0
LINE
  5
420
330
3EA
100
AcDbEntity
  8
0
  6
CENTER
 62
     7
100
AcDbLine
 10
219.7991645251955
 20
92.44005573472716
 30
0.0
 11
219.7991645251955
 21
78.44005593472715
 31
0.0
  0
LINE
  5
421
330
3EA
100
AcDbEntity
  8
0
  6
CENTER
 62
     7
100
AcDbLine
 10
259.0991667251955
 20
85.44005593472716
 30
0.0
 11
245.6991647251955
 21
85.44005593472716
 31
0.0
  0
LINE
  5
422
330
3EA
100
AcDbEntity
  8
0
  6
CENTER
 62
     7
100
AcDbLine
 10
252.3991657251955
 20
92.14005563472715
 30
0.0
 11
252.3991657251955
 21
78.74005493472715
 31
0.0
  0
LINE
  5
423
330
3EA
100
AcDbEntity
  8
0
  6
CENTER
 62
     7
100
AcDbLine
 10
264.7991637251955
 20
110.4400559347271
 30
0.0
 11
250.7991637251955
 21
110.4400559347271
 31
0.0
  0
LINE
  5
424
330
3EA
100
AcDbEntity
  8
0
  6
CENTER
 62
     7
100
AcDbLine
 10
257.7991637251955
 20
117.4400559347271
 30
0.0
 11
257.7991637251955
 21
103.4400557347271
 31
0.0
  0
LINE
  5
425
330
3EA
100
AcDbEntity
  8
0
  6
CENTER
 62
     7
100
AcDbLine
 10
264.7991637251955
 20
135.4400559347271
 30
0.0
 11
250.7991637251955
 21
135.4400559347271
 31
0.0
  0
LINE
  5
426
330
3EA
100
AcDbEntity
  8
0
  6
CENTER
 62
     7
100
AcDbLine
 10
257.7991637251955
 20
142.4400559347271
 30
0.0
 11
257.7991637251955
 21
128.4400559347271
 31
0.0
  0
LINE
  5
427
330
3EA
100
AcDbEntity
  8
0
  6
CENTER
 62
     7
100
AcDbLine
 10
260.3991657251955
 20
160.4400559347272
 30
0.0
 11
246.3991657251955
 21
160.4400559347272
 31
0.0
  0
LINE
  5
428
330
3EA
100
AcDbEntity
  8
0
  6
CENTER
 62
     7
100
AcDbLine
 10
253.3991657251955
 20
167.4400559347272
 30
0.0
 11
253.3991657251955
 21
153.4400559347271
 31
0.0
  0
LINE
  5
429
330
3EA
100
AcDbEntity
  8
0
  6
CENTER
 62
     7
100
AcDbLine
 10
225.7991647251955
 20
160.4400559347272
 30
0.0
 11
211.7991646151955
 21
160.4400559347272
 31
0.0
  0
LINE
  5
42A
330
3EA
100
AcDbEntity
  8
0
  6
CENTER
 62
     7
100
AcDbLine
 10
218.7991645251955
 20
167.4400559347272
 30
0.0
 11
218.7991645251955
 21
153.4400559347271
 31
0.0
  0
LINE
  5
42B
330
3EA
100
AcDbEntity
  8
0
  6
CENTER
 62
     7
100
AcDbLine
 10
236.0991647251955
 20
178.4400559347272
 30
0.0
 11
236.0991647251955
 21
67.44006293472716
 31
0.0
  0
LINE
  5
42C
330
3EA
100
AcDbEntity
  8
0
  6
CENTER
 62
     7
100
AcDbLine
 10
214.3991632251955
 20
245.6292899347272
 30
0.0
 11
214.3991632251955
 21
238.2292799347272
 31
0.0
  0
LINE
  5
42D
330
3EA
100
AcDbEntity
  8
0
  6
CENTER
 62
     7
100
AcDbLine
 10
218.7991645251955
 20
245.6292899347272
 30
0.0
 11
218.7991645251955
 21
238.2292799347272
 31
0.0
  0
LINE
  5
42E
330
3EA
100
AcDbEntity
  8
0
  6
CENTER
 62
     7
100
AcDbLine
 10
253.3991657251955
 20
245.6292899347272
 30
0.0
 11
253.3991657251955
 21
238.2292799347272
 31
0.0
  0
LINE
  5
42F
330
3EA
100
AcDbEntity
  8
0
  6
CENTER
 62
     7
100
AcDbLine
 10
257.7991637251955
 20
245.6292899347272
 30
0.0
 11
257.7991637251955
 21
238.2292799347272
 31
0.0
  0
CIRCLE
  5
430
330
3EA
100
AcDbEntity
  8
0
  6
Continuous
 62
     3
100
AcDbCircle
 10
252.3991657251955
 20
85.44005593472716
 30
0.0
 40
3.7
  0
CIRCLE
  5
431
330
3EA
100
AcDbEntity
  8
0
  6
Continuous
 62
     3
100
AcDbCircle
 10
236.0991647251955
 20
240.1292699347271
 30
0.0
 40
4.0
  0
ARC
  5
432
330
3EA
100
AcDbEntity
  8
0
  6
Continuous
 62
     7
100
AcDbCircle
 10
236.0991647251955
 20
169.3567199347271
 30
0.0
 40
6.0833335
100
AcDbArc
 50
48.88792499999996
 51
131.1120699999997
  0
ARC
  5
433
330
3EA
100
AcDbEntity
  8
0
  6
Continuous
 62
     7
100
AcDbCircle
 10
236.0991647251955
 20
76.52339693472716
 30
0.0
 40
6.0833335
100
AcDbArc
 50
228.8879100000005
 51
311.1120899999995
  0
CIRCLE
  5
434
330
3EA
100
AcDbEntity
  8
0
  6
Continuous
 62
     3
100
AcDbCircle
 10
218.7991645251955
 20
160.4400559347272
 30
0.0
 40
4.0
  0
CIRCLE
  5
435
330
3EA
100
AcDbEntity
  8
0
  6
Continuous
 62
     3
100
AcDbCircle
 10
214.3991632251955
 20
135.4400559347271
 30
0.0
 40
4.0
  0
CIRCLE
  5
436
330
3EA
100
AcDbEntity
  8
0
  6
Continuous
 62
     3
100
AcDbCircle
 10
253.3991657251955
 20
160.4400559347272
 30
0.0
 40
4.0
  0
CIRCLE
  5
437
330
3EA
100
AcDbEntity
  8
0
  6
Continuous
 62
     3
100
AcDbCircle
 10
257.7991637251955
 20
135.4400559347271
 30
0.0
 40
4.0
  0
CIRCLE
  5
438
330
3EA
100
AcDbEntity
  8
0
  6
Continuous
 62
     3
100
AcDbCircle
 10
214.3991632251955
 20
110.4400559347271
 30
0.0
 40
4.0
  0
CIRCLE
  5
439
330
3EA
100
AcDbEntity
  8
0
  6
Continuous
 62
     3
100
AcDbCircle
 10
219.7991645251955
 20
85.44005593472716
 30
0.0
 40
4.0
  0
CIRCLE
  5
43A
330
3EA
100
AcDbEntity
  8
0
  6
Continuous
 62
     3
100
AcDbCircle
 10
257.7991637251955
 20
110.4400559347271
 30
0.0
 40
4.0
  0
CIRCLE
  5
43B
330
3EA
100
AcDbEntity
  8
0
  6
Continuous
 62
     3
100
AcDbCircle
 10
218.7991645251955
 20
160.4400559347272
 30
0.0
 40
2.75
  0
CIRCLE
  5
43C
330
3EA
100
AcDbEntity
  8
0
  6
Continuous
 62
     3
100
AcDbCircle
 10
214.3991632251955
 20
135.4400559347271
 30
0.0
 40
2.75
  0
CIRCLE
  5
43D
330
3EA
100
AcDbEntity
  8
0
  6
Continuous
 62
     3
100
AcDbCircle
 10
214.3991632251955
 20
110.4400559347271
 30
0.0
 40
2.75
  0
CIRCLE
  5
43E
330
3EA
100
AcDbEntity
  8
0
  6
Continuous
 62
     3
100
AcDbCircle
 10
253.3991657251955
 20
160.4400559347272
 30
0.0
 40
2.75
  0
CIRCLE
  5
43F
330
3EA
100
AcDbEntity
  8
0
  6
Continuous
 62
     3
100
AcDbCircle
 10
257.7991637251955
 20
135.4400559347271
 30
0.0
 40
2.75
  0
CIRCLE
  5
440
330
3EA
100
AcDbEntity
  8
0
  6
Continuous
 62
     3
100
AcDbCircle
 10
257.7991637251955
 20
110.4400559347271
 30
0.0
 40
2.75
  0
CIRCLE
  5
441
330
3EA
100
AcDbEntity
  8
0
  6
Continuous
 62
     3
100
AcDbCircle
 10
252.3991657251955
 20
85.44005593472716
 30
0.0
 40
2.45
  0
CIRCLE
  5
442
330
3EA
100
AcDbEntity
  8
0
  6
Continuous
 62
     3
100
AcDbCircle
 10
219.7991645251955
 20
85.44005593472716
 30
0.0
 40
2.75
  0
TEXT
  5
443
330
3EA
100
AcDbEntity
  8
0
  6
Continuous
 62
     7
100
AcDbText
 10
22.85699972519561
 20
203.3999999347272
 30
0.0
 40
3.2
  1
丁番係数：　8.5
 41
0.84496202
100
AcDbText
  0
TEXT
  5
444
330
3EA
100
AcDbEntity
  8
0
  6
Continuous
 62
     7
100
AcDbText
 10
5.656999725195504
 20
267.3999999347271
 30
0.0
 40
3.2
  1
品　名
 41
0.85537027
100
AcDbText
  0
TEXT
  5
445
330
3EA
100
AcDbEntity
  8
0
  6
Continuous
 62
     7
100
AcDbText
 10
5.656999725195504
 20
259.3999999347271
 30
0.0
 40
3.2
  1
品　番
 41
0.85537027
100
AcDbText
  0
TEXT
  5
446
330
3EA
100
AcDbEntity
  8
0
  6
Continuous
 62
     7
100
AcDbText
 10
5.656999725195504
 20
251.3999999347272
 30
0.0
 40
3.2
  1
材　質
 41
0.85537027
100
AcDbText
  0
TEXT
  5
447
330
3EA
100
AcDbEntity
  8
0
  6
Continuous
 62
     7
100
AcDbText
 10
5.656999725195504
 20
243.3999999347272
 30
0.0
 40
3.2
  1
仕上げ
 41
0.85537027
100
AcDbText
  0
TEXT
  5
448
330
3EA
100
AcDbEntity
  8
0
  6
Continuous
 62
     7
100
AcDbText
 10
22.85699972519561
 20
211.3999999347272
 30
0.0
 40
3.2
  1
＊
 41
0.90047268
100
AcDbText
  0
TEXT
  5
449
330
3EA
100
AcDbEntity
  8
0
  6
Continuous
 62
     7
100
AcDbText
 10
22.85699972519561
 20
219.3999999347272
 30
0.0
 40
3.2
  1
＊
 41
0.90047268
100
AcDbText
  0
TEXT
  5
44A
330
3EA
100
AcDbEntity
  8
0
  6
Continuous
 62
     7
100
AcDbText
 10
2.456999725195487
 20
227.3999999347271
 30
0.0
 40
3.2
  1
セットビス
 41
0.84892707
100
AcDbText
  0
TEXT
  5
44B
330
3EA
100
AcDbEntity
  8
0
  6
Continuous
 62
     7
100
AcDbText
 10
7.256999725195498
 20
203.3999999347272
 30
0.0
 40
3.2
  1
備考
 41
0.8643907499999999
100
AcDbText
  0
TEXT
  5
44C
330
3EA
100
AcDbEntity
  8
0
  6
Continuous
 62
     7
100
AcDbText
 10
4.056999725195566
 20
235.3999999347271
 30
0.0
 40
3.2
  1
左右勝手
 41
0.8512700499999999
100
AcDbText
  0
TEXT
  5
44D
330
3EA
100
AcDbEntity
  8
0
  6
Continuous
 62
     7
100
AcDbText
 10
22.85699972519561
 20
267.3999999347271
 30
0.0
 40
3.2
  1
中厚丁番
 41
0.8512700499999999
100
AcDbText
  0
TEXT
  5
44E
330
3EA
100
AcDbEntity
  8
0
  6
Continuous
 62
     7
100
AcDbText
 10
22.85699972519561
 20
259.3999999347271
 30
0.0
 40
3.2
  1
ＤＨ－２５５Ｓ－１０２
 41
0.8440946700000001
100
AcDbText
  0
TEXT
  5
44F
330
3EA
100
AcDbEntity
  8
0
  6
Continuous
 62
     7
100
AcDbText
 10
22.85699972519561
 20
251.3999999347272
 30
0.0
 40
3.2
  1
羽根：ステンレス／軸：ステンレス
 41
0.8428951399999997
100
AcDbText
  0
TEXT
  5
450
330
3EA
100
AcDbEntity
  8
0
  6
Continuous
 62
     7
100
AcDbText
 10
22.94265972519557
 20
243.3999999347272
 30
0.0
 40
3.2
  1
羽根：HL／軸：生地
 41
0.7811973000000001
100
AcDbText
  0
DIMENSION
  5
451
330
3EA
100
AcDbEntity
  8
0
  6
Continuous
 62
     7
100
AcDbDimension
  2
*D18
 10
236.0991647251955
 20
185.4400559347272
 30
0.0
 11
220.3491647251955
 21
185.4400559347272
 31
0.0
 12
210.9999997251955
 22
99.99999993472716
 32
0.0
 71
     5
 42
-1.0
  3
DIMSTYLE
100
AcDbAlignedDimension
 13
204.5991647251955
 23
173.9400559347272
 33
0.0
 14
236.0991647251955
 24
178.4400559347272
 34
0.0
100
AcDbRotatedDimension
1001
ACAD
1000
DSTYLE
1002
{
1070
    77
1070
     1
1070
   172
1070
     1
1070
    75
1070
     1
1002
}
  0
DIMENSION
  5
452
330
3EA
100
AcDbEntity
  8
0
  6
Continuous
 62
     7
100
AcDbDimension
  2
*D19
 10
267.5991667251955
 20
185.4400559347272
 30
0.0
 11
251.8491667251955
 21
185.4400559347272
 31
0.0
 12
210.9999997251955
 22
99.99999993472716
 32
0.0
 71
     5
 42
-1.0
  3
DIMSTYLE
100
AcDbAlignedDimension
 13
236.0991647251955
 23
178.4400559347272
 33
0.0
 14
267.5991667251955
 24
173.9400559347272
 34
0.0
100
AcDbRotatedDimension
1001
ACAD
1000
DSTYLE
1002
{
1070
     6
1000
_NONE
1070
    77
1070
     1
1070
   172
1070
     1
1070
    75
1070
     1
1070
    76
1070
     1
1002
}
  0
DIMENSION
  5
453
330
3EA
100
AcDbEntity
  8
0
  6
Continuous
 62
     7
100
AcDbDimension
  2
*D20
 10
204.5991647251955
 20
195.4400559347271
 30
0.0
 11
236.0991647251955
 21
195.4400559347271
 31
0.0
 12
210.9999997251955
 22
99.99999993472716
 32
0.0
 71
     5
 42
-1.0
  3
DIMSTYLE
100
AcDbAlignedDimension
 13
267.5991667251955
 23
173.9400559347272
 33
0.0
 14
204.5991647251955
 24
173.9400559347272
 34
0.0
100
AcDbRotatedDimension
1001
ACAD
1000
DSTYLE
1002
{
1070
    77
1070
     1
1070
   172
1070
     1
1002
}
  0
DIMENSION
  5
454
330
3EA
100
AcDbEntity
  8
0
  6
Continuous
 62
     7
100
AcDbDimension
  2
*D21
 10
282.5991667251955
 20
135.4400559347271
 30
0.0
 11
282.5991667251955
 21
147.9400559347271
 31
0.0
 12
210.9999997251955
 22
99.99999993472716
 32
0.0
 71
     5
 42
-1.0
  3
DIMSTYLE
100
AcDbAlignedDimension
 13
260.3991657251955
 23
160.4400559347272
 33
0.0
 14
264.7991637251955
 24
135.4400559347271
 34
0.0
 50
90.0
100
AcDbRotatedDimension
1001
ACAD
1000
DSTYLE
1002
{
1070
     6
1000
_NONE
1070
    77
1070
     1
1070
   172
1070
     1
1070
    75
1070
     1
1002
}
  0
DIMENSION
  5
455
330
3EA
100
AcDbEntity
  8
0
  6
Continuous
 62
     7
100
AcDbDimension
  2
*D22
 10
282.5991667251955
 20
160.4400559347272
 30
0.0
 11
282.5991667251955
 21
167.1900559347271
 31
0.0
 12
210.9999997251955
 22
99.99999993472716
 32
0.0
 71
     5
 42
13.5
  3
DIMSTYLE
100
AcDbAlignedDimension
 13
267.5991667251955
 23
173.9400559347272
 33
0.0
 14
260.3991657251955
 24
160.4400559347272
 34
0.0
 50
90.0
100
AcDbRotatedDimension
1001
ACAD
1000
DSTYLE
1002
{
1070
    77
1070
     1
1070
   172
1070
     1
1070
    75
1070
     1
1002
}
  0
DIMENSION
  5
456
330
3EA
100
AcDbEntity
  8
0
  6
Continuous
 62
     7
100
AcDbDimension
  2
*D23
 10
267.5991667251955
 20
55.44006293472716
 30
0.0
 11
274.9235877251955
 21
55.44006293472716
 31
0.0
 12
210.9999997251955
 22
99.99999993472716
 32
0.0
 71
     5
 42
-1.0
  3
DIMSTYLE
100
AcDbAlignedDimension
 13
257.7991637251955
 23
103.4400557347271
 33
0.0
 14
267.5991667251955
 24
71.94005593472716
 34
0.0
100
AcDbRotatedDimension
1001
ACAD
1000
DSTYLE
1002
{
1070
     6
1000
_NONE
1070
    77
1070
     1
1070
   172
1070
     1
1070
    75
1070
     1
1002
}
  0
POLYLINE
  5
457
330
3EA
100
AcDbEntity
  8
0
  6
Continuous
 62
     7
100
AcDb2dPolyline
 66
     1
 10
0.0
 20
0.0
 30
0.0
  0
VERTEX
  5
458
330
457
100
AcDbEntity
  8
0
  6
Continuous
 62
     7
100
AcDbVertex
100
AcDb2dVertex
 10
255.0991627251955
 20
55.44006293472716
 30
0.0
  0
VERTEX
  5
459
330
457
100
AcDbEntity
  8
0
  6
Continuous
 62
     7
100
AcDbVertex
100
AcDb2dVertex
 10
259.2618477251955
 20
48.23008293472716
 30
0.0
  0
VERTEX
  5
45A
330
457
100
AcDbEntity
  8
0
  6
Continuous
 62
     7
100
AcDbVertex
100
AcDb2dVertex
 10
279.4630807251955
 20
48.23007993472716
 30
0.0
  0
SEQEND
  5
45B
330
457
100
AcDbEntity
  8
0
  6
Continuous
 62
     7
  0
LINE
  5
45C
330
3EA
100
AcDbEntity
  8
0
  6
Continuous
 62
     7
100
AcDbLine
 10
255.0991627251955
 20
55.44006293472716
 30
0.0
 11
257.1498697251955
 21
53.01213593472716
 31
0.0
  0
LINE
  5
45D
330
3EA
100
AcDbEntity
  8
0
  6
Continuous
 62
     7
100
AcDbLine
 10
255.0991627251955
 20
55.44006293472716
 30
0.0
 11
256.1764567251955
 21
52.45013593472716
 31
0.0
  0
TEXT
  5
45E
330
3EA
100
AcDbEntity
  8
0
  6
Continuous
 62
     7
100
AcDbText
 10
270.7770867251955
 20
49.03007993472716
 30
0.0
 40
3.2
  1
5.4
 41
1.357187499999999
100
AcDbText
  0
DIMENSION
  5
45F
330
3EA
100
AcDbEntity
  8
0
  6
Continuous
 62
     7
100
AcDbDimension
  2
*D24
 10
257.7991637251955
 20
55.44006293472716
 30
0.0
 11
275.1200867251955
 21
48.23007993472716
 31
0.0
 12
210.9999997251955
 22
99.99999993472716
 32
0.0
 71
     5
 42
-1.0
  3
DIMSTYLE
100
AcDbAlignedDimension
 13
252.3991657251955
 23
78.74005493472715
 33
0.0
 14
257.7991637251955
 24
103.4400557347271
 34
0.0
100
AcDbRotatedDimension
1001
ACAD
1000
DSTYLE
1002
{
1070
     6
1000
_NONE
1070
    77
1070
     1
1070
   172
1070
     1
1070
    75
1070
     1
1002
}
  0
DIMENSION
  5
460
330
3EA
100
AcDbEntity
  8
0
  6
Continuous
 62
     7
100
AcDbDimension
  2
*D25
 10
252.3991657251955
 20
55.44006293472716
 30
0.0
 11
244.2491647251955
 21
55.44006293472716
 31
0.0
 12
210.9999997251955
 22
99.99999993472716
 32
0.0
 71
     5
 42
-1.0
  3
DIMSTYLE
100
AcDbAlignedDimension
 13
236.0991647251955
 23
67.44006293472716
 33
0.0
 14
252.3991657251955
 24
78.74005493472715
 34
0.0
100
AcDbRotatedDimension
1001
ACAD
1000
DSTYLE
1002
{
1070
    77
1070
     1
1070
   172
1070
     1
1002
}
  0
DIMENSION
  5
461
330
3EA
100
AcDbEntity
  8
0
  6
Continuous
 62
     7
100
AcDbDimension
  2
*D26
 10
292.5991667251955
 20
173.9400559347272
 30
0.0
 11
292.5991667251955
 21
122.9400599347271
 31
0.0
 12
210.9999997251955
 22
99.99999993472716
 32
0.0
 71
     5
 42
-1.0
  3
DIMSTYLE
100
AcDbAlignedDimension
 13
267.5991667251955
 23
71.94006293472715
 33
0.0
 14
267.5991667251955
 24
173.9400559347272
 34
0.0
 50
90.0
100
AcDbRotatedDimension
1001
ACAD
1000
DSTYLE
1002
{
1070
    77
1070
     1
1070
   172
1070
     1
1002
}
  0
DIMENSION
  5
462
330
3EA
100
AcDbEntity
  8
0
  6
Continuous
 62
     7
100
AcDbDimension
  2
*D27
 10
282.5991667251955
 20
71.94006293472715
 30
0.0
 11
282.5991667251955
 21
78.69005993472716
 31
0.0
 12
210.9999997251955
 22
99.99999993472716
 32
0.0
 71
     5
 42
-1.0
  3
DIMSTYLE
100
AcDbAlignedDimension
 13
259.0991667251955
 23
85.44005593472716
 33
0.0
 14
267.5991667251955
 24
71.94006293472715
 34
0.0
 50
90.0
100
AcDbRotatedDimension
1001
ACAD
1000
DSTYLE
1002
{
1070
     6
1000
_NONE
1070
    77
1070
     1
1070
   172
1070
     1
1070
    75
1070
     1
1070
    76
1070
     1
1002
}
  0
DIMENSION
  5
463
330
3EA
100
AcDbEntity
  8
0
  6
Continuous
 62
     7
100
AcDbDimension
  2
*D28
 10
282.5991667251955
 20
85.44005593472716
 30
0.0
 11
282.5991667251955
 21
97.94005573472716
 31
0.0
 12
210.9999997251955
 22
99.99999993472716
 32
0.0
 71
     5
 42
-1.0
  3
DIMSTYLE
100
AcDbAlignedDimension
 13
264.7991637251955
 23
110.4400559347271
 33
0.0
 14
259.0991667251955
 24
85.44005593472716
 34
0.0
 50
90.0
100
AcDbRotatedDimension
1001
ACAD
1000
DSTYLE
1002
{
1070
     6
1000
_NONE
1070
    77
1070
     1
1070
   172
1070
     1
1070
    75
1070
     1
1002
}
  0
DIMENSION
  5
464
330
3EA
100
AcDbEntity
  8
0
  6
Continuous
 62
     7
100
AcDbDimension
  2
*D29
 10
282.5991667251955
 20
110.4400559347271
 30
0.0
 11
282.5991667251955
 21
122.9400559347271
 31
0.0
 12
210.9999997251955
 22
99.99999993472716
 32
0.0
 71
     5
 42
-1.0
  3
DIMSTYLE
100
AcDbAlignedDimension
 13
264.7991637251955
 23
135.4400559347271
 33
0.0
 14
264.7991637251955
 24
110.4400559347271
 34
0.0
 50
90.0
100
AcDbRotatedDimension
1001
ACAD
1000
DSTYLE
1002
{
1070
     6
1000
_NONE
1070
    77
1070
     1
1070
   172
1070
     1
1070
    75
1070
     1
1002
}
  0
POLYLINE
  5
465
330
3EA
100
AcDbEntity
  8
0
  6
Continuous
 62
     7
100
AcDb2dPolyline
 66
     1
 10
0.0
 20
0.0
 30
0.0
  0
VERTEX
  5
466
330
465
100
AcDbEntity
  8
0
  6
Continuous
 62
     7
100
AcDbVertex
100
AcDb2dVertex
 10
233.2707407251955
 20
237.3008399347272
 30
0.0
  0
VERTEX
  5
467
330
465
100
AcDbEntity
  8
0
  6
Continuous
 62
     7
100
AcDbVertex
100
AcDb2dVertex
 10
217.0991628251955
 20
221.1292699347271
 30
0.0
  0
VERTEX
  5
468
330
465
100
AcDbEntity
  8
0
  6
Continuous
 62
     7
100
AcDbVertex
100
AcDb2dVertex
 10
209.2794983251955
 20
221.1292699347271
 30
0.0
  0
SEQEND
  5
469
330
465
100
AcDbEntity
  8
0
  6
Continuous
 62
     7
  0
TEXT
  5
46A
330
3EA
100
AcDbEntity
  8
0
  6
Continuous
 62
     7
100
AcDbText
 10
209.2794982251955
 20
221.9292699347271
 30
0.0
 40
3.2
  1
%%C8
 41
0.92336176
100
AcDbText
  0
DIMENSION
  5
46B
330
3EA
100
AcDbEntity
  8
0
  6
Continuous
 62
     7
100
AcDbDimension
  2
*D30
 10
238.9275937251955
 20
242.9576999347271
 30
0.0
 11
212.0224982251955
 21
221.1292699347271
 31
0.0
 12
210.9999997251955
 22
99.99999993472716
 32
0.0
 70
     3
 71
     5
 42
-1.0
  3
DIMSTYLE
100
AcDbDiametricDimension
 15
233.2707397251955
 25
237.3008499347271
 35
0.0
 40
0.0
1001
ACAD
1000
DSTYLE
1002
{
1070
    77
1070
     1
1070
   172
1070
     1
1002
}
  0
POLYLINE
  5
46C
330
3EA
100
AcDbEntity
  8
0
  6
Continuous
 62
     7
100
AcDb2dPolyline
 66
     1
 10
0.0
 20
0.0
 30
0.0
  0
VERTEX
  5
46D
330
46C
100
AcDbEntity
  8
0
  6
Continuous
 62
     7
100
AcDbVertex
100
AcDb2dVertex
 10
256.2275887251955
 20
163.2684819347271
 30
0.0
  0
VERTEX
  5
46E
330
46C
100
AcDbEntity
  8
0
  6
Continuous
 62
     7
100
AcDbVertex
100
AcDb2dVertex
 10
278.3991617251955
 20
185.4400559347272
 30
0.0
  0
VERTEX
  5
46F
330
46C
100
AcDbEntity
  8
0
  6
Continuous
 62
     7
100
AcDbVertex
100
AcDb2dVertex
 10
317.1151697251954
 20
185.4400559347272
 30
0.0
  0
SEQEND
  5
470
330
46C
100
AcDbEntity
  8
0
  6
Continuous
 62
     7
  0
TEXT
  5
471
330
3EA
100
AcDbEntity
  8
0
  6
Continuous
 62
     7
100
AcDbText
 10
282.8291757251955
 20
186.2400559347272
 30
0.0
 40
3.2
  1
８－%%C５．５×%%C８サラ
 41
0.8440946700000001
100
AcDbText
  0
DIMENSION
  5
472
330
3EA
100
AcDbEntity
  8
0
  6
Continuous
 62
     7
100
AcDbDimension
  2
*D31
 10
250.5707347251955
 20
157.6116249347271
 30
0.0
 11
299.9721757251955
 21
185.4400559347272
 31
0.0
 12
210.9999997251955
 22
99.99999993472716
 32
0.0
 70
     3
 71
     5
 42
-1.0
  3
DIMSTYLE
100
AcDbDiametricDimension
 15
256.2275887251955
 25
163.2684789347272
 35
0.0
 40
0.0
1001
ACAD
1000
DSTYLE
1002
{
1070
    77
1070
     1
1070
   172
1070
     1
1002
}
  0
DIMENSION
  5
473
330
3EA
100
AcDbEntity
  8
0
  6
Continuous
 62
     7
100
AcDbDimension
  2
*D32
 10
282.5991667251955
 20
241.2292799347271
 30
0.0
 11
282.5991667251955
 21
248.4352899347271
 31
0.0
 12
210.9999997251955
 22
99.99999993472716
 32
0.0
 71
     5
 42
-1.0
  3
DIMSTYLE
100
AcDbAlignedDimension
 13
267.5991667251955
 23
242.629289934727
 33
0.0
 14
267.5991667251955
 24
241.2292799347271
 34
0.0
 50
90.0
100
AcDbRotatedDimension
1001
ACAD
1000
DSTYLE
1002
{
1070
    77
1070
     1
1070
   172
1070
     1
1070
    75
1070
     1
1002
}
  0
POLYLINE
  5
474
330
3EA
100
AcDbEntity
  8
0
  6
Continuous
 62
     7
100
AcDb2dPolyline
 66
     1
 10
0.0
 20
0.0
 30
0.0
  0
VERTEX
  5
475
330
474
100
AcDbEntity
  8
0
  6
Continuous
 62
     7
100
AcDbVertex
100
AcDb2dVertex
 10
282.5991667251955
 20
240.1292699347271
 30
0.0
  0
VERTEX
  5
476
330
474
100
AcDbEntity
  8
0
  6
Continuous
 62
     7
100
AcDbVertex
100
AcDb2dVertex
 10
276.5297387251955
 20
243.6334499347271
 30
0.0
  0
VERTEX
  5
477
330
474
100
AcDbEntity
  8
0
  6
Continuous
 62
     7
100
AcDbVertex
100
AcDb2dVertex
 10
276.5297387251955
 20
253.1186699347272
 30
0.0
  0
SEQEND
  5
478
330
474
100
AcDbEntity
  8
0
  6
Continuous
 62
     7
  0
LINE
  5
479
330
3EA
100
AcDbEntity
  8
0
  6
Continuous
 62
     7
100
AcDbLine
 10
282.5991667251955
 20
240.1292699347271
 30
0.0
 11
279.6092387251955
 21
241.2065599347271
 31
0.0
  0
LINE
  5
47A
330
3EA
100
AcDbEntity
  8
0
  6
Continuous
 62
     7
100
AcDbLine
 10
282.5991667251955
 20
240.1292699347271
 30
0.0
 11
280.1712377251955
 21
242.1799799347271
 31
0.0
  0
TEXT
  5
47B
330
3EA
100
AcDbEntity
  8
0
  6
Continuous
 62
     7
100
AcDbText
 10
275.7297397251955
 20
244.432679934727
 30
0.0
 40
3.2
  1
2.2
 50
90.00000300000001
 41
1.357187499999999
100
AcDbText
  0
DIMENSION
  5
47C
330
3EA
100
AcDbEntity
  8
0
  6
Continuous
 62
     7
100
AcDbDimension
  2
*D33
 10
282.5991667251955
 20
239.0292699347272
 30
0.0
 11
276.5297387251955
 21
248.7756799347271
 31
0.0
 12
210.9999997251955
 22
99.99999993472716
 32
0.0
 71
     5
 42
-1.0
  3
DIMSTYLE
100
AcDbAlignedDimension
 13
267.5991667251955
 23
241.2292799347271
 33
0.0
 14
267.5991667251955
 24
239.0292699347272
 34
0.0
 50
90.0
100
AcDbRotatedDimension
1001
ACAD
1000
DSTYLE
1002
{
1070
     6
1000
_NONE
1070
    77
1070
     1
1070
   172
1070
     1
1070
    75
1070
     1
1002
}
  0
DIMENSION
  5
47D
330
3EA
100
AcDbEntity
  8
0
  6
Continuous
 62
     7
100
AcDbDimension
  2
*D34
 10
282.5991667251955
 20
237.6292599347272
 30
0.0
 11
282.5991667251955
 21
232.1648899347271
 31
0.0
 12
210.9999997251955
 22
99.99999993472716
 32
0.0
 71
     5
 42
-1.0
  3
DIMSTYLE
100
AcDbAlignedDimension
 13
267.5991667251955
 23
239.0292699347272
 33
0.0
 14
267.5991667251955
 24
237.6292599347272
 34
0.0
 50
90.0
100
AcDbRotatedDimension
1001
ACAD
1000
DSTYLE
1002
{
1070
     6
1000
_NONE
1070
    77
1070
     1
1070
   172
1070
     1
1070
    75
1070
     1
1070
    76
1070
     1
1002
}
  0
DIMENSION
  5
47E
330
3EA
100
AcDbEntity
  8
0
  6
Continuous
 62
     7
100
AcDbDimension
  2
*D35
 10
292.5991667251955
 20
242.629289934727
 30
0.0
 11
292.5991667251955
 21
240.1292699347271
 31
0.0
 12
210.9999997251955
 22
99.99999993472716
 32
0.0
 71
     5
 42
-1.0
  3
DIMSTYLE
100
AcDbAlignedDimension
 13
267.5991667251955
 23
237.6292599347272
 33
0.0
 14
267.5991667251955
 24
242.629289934727
 34
0.0
 50
90.0
100
AcDbRotatedDimension
1001
ACAD
1000
DSTYLE
1002
{
1070
    77
1070
     1
1070
   172
1070
     1
1002
}
  0
ENDBLK
  5
480
330
3EA
100
AcDbEntity
  8
0
100
AcDbBlockEnd
  0
BLOCK
  5
483
330
482
100
AcDbEntity
  8
0
100
AcDbBlockBegin
  2
_OPEN30
 70
     0
 10
0.0
 20
0.0
 30
0.0
  3
_OPEN30
  1

  0
LINE
  5
484
330
482
100
AcDbEntity
  8
0
  6
ByBlock
 62
     0
100
AcDbLine
 10
-1.0
 20
0.26794919
 30
0.0
 11
0.0
 21
0.0
 31
0.0
  0
LINE
  5
485
330
482
100
AcDbEntity
  8
0
  6
ByBlock
 62
     0
100
AcDbLine
 10
0.0
 20
0.0
 30
0.0
 11
-1.0
 21
-0.26794919
 31
0.0
  0
LINE
  5
486
330
482
100
AcDbEntity
  8
0
  6
ByBlock
 62
     0
100
AcDbLine
 10
0.0
 20
0.0
 30
0.0
 11
-1.0
 21
0.0
 31
0.0
  0
ENDBLK
  5
487
330
482
100
AcDbEntity
  8
0
100
AcDbBlockEnd
  0
BLOCK
  5
57E
330
574
100
AcDbEntity
  8
0
100
AcDbBlockBegin
  2
*D38
 70
     1
 10
0.0
 20
0.0
 30
0.0
  3
*D38
  1

  0
LINE
  5
5B0
330
574
100
AcDbEntity
  8
AM_5
100
AcDbLine
 10
50.39916599999997
 20
60.14005600000001
 30
0.0
 11
72.59916700000002
 21
60.14005600000001
 31
0.0
  0
LINE
  5
5B1
330
574
100
AcDbEntity
  8
AM_5
100
AcDbLine
 10
57.59916700000002
 20
73.94005600000003
 30
0.0
 11
72.59916700000002
 21
73.94005600000003
 31
0.0
  0
LINE
  5
5B2
330
574
100
AcDbEntity
  8
AM_5
100
AcDbLine
 10
71.59916700000002
 20
61.14005600000002
 30
0.0
 11
71.59916700000002
 21
72.94005600000002
 31
0.0
  0
INSERT
  5
5B3
330
574
100
AcDbEntity
  8
AM_5
100
AcDbBlockReference
  2
_DOT
 10
71.59916700000002
 20
60.14005600000001
 30
0.0
 50
270.0
  0
INSERT
  5
5B4
330
574
100
AcDbEntity
  8
AM_5
100
AcDbBlockReference
  2
_DOT
 10
71.59916700000002
 20
73.94005600000003
 30
0.0
 50
90.0
  0
MTEXT
  5
5B5
330
574
100
AcDbEntity
  8
AM_5
 62
     2
100
AcDbMText
 10
68.49916700000001
 20
67.04005600000003
 30
0.0
 40
3.200000000000001
 41
0.0
 71
     5
 72
     1
  1
13.8
 11
0.0000000000000001
 21
1.0
 31
0.0
 73
     1
 44
1.0
1001
ACAD
1000
MTEXTBEGIN
1070
    73
1070
     1
1070
    44
1040
1.0
1070
    74
1070
     0
1000
MTEXTEND
  0
POINT
  5
5B6
330
574
100
AcDbEntity
  8
DEFPOINTS
 62
     0
100
AcDbPoint
 10
49.39916599999998
 20
60.14005600000001
 30
0.0
  0
POINT
  5
5B7
330
574
100
AcDbEntity
  8
DEFPOINTS
 62
     0
100
AcDbPoint
 10
56.59916700000002
 20
73.94005600000003
 30
0.0
  0
POINT
  5
5B8
330
574
100
AcDbEntity
  8
DEFPOINTS
 62
     0
100
AcDbPoint
 10
71.59916700000002
 20
73.94005600000003
 30
0.0
  0
ENDBLK
  5
57F
330
574
100
AcDbEntity
  8
0
100
AcDbBlockEnd
  0
BLOCK
  5
58A
330
580
100
AcDbEntity
  8
0
100
AcDbBlockBegin
  2
*D39
 70
     1
 10
0.0
 20
0.0
 30
0.0
  3
*D39
  1

  0
LINE
  5
5B9
330
580
100
AcDbEntity
  8
AM_5
100
AcDbLine
 10
50.39916599999997
 20
60.14005600000001
 30
0.0
 11
72.59916700000013
 21
60.14005600000001
 31
0.0
  0
LINE
  5
5BA
330
580
100
AcDbEntity
  8
AM_5
100
AcDbLine
 10
54.79916400000002
 20
35.340056
 30
0.0
 11
72.59916700000013
 21
35.340056
 31
0.0
  0
LINE
  5
5BB
330
580
100
AcDbEntity
  8
AM_5
100
AcDbLine
 10
71.59916700000014
 20
59.14005600000002
 30
0.0
 11
71.59916700000014
 21
36.340056
 31
0.0
  0
INSERT
  5
5BC
330
580
100
AcDbEntity
  8
AM_5
100
AcDbBlockReference
  2
_DOT
 10
71.59916700000014
 20
60.14005600000001
 30
0.0
 50
90.0
  0
INSERT
  5
5BD
330
580
100
AcDbEntity
  8
AM_5
100
AcDbBlockReference
  2
_DOT
 10
71.59916700000014
 20
35.340056
 30
0.0
 50
270.0
  0
MTEXT
  5
5BE
330
580
100
AcDbEntity
  8
AM_5
 62
     2
100
AcDbMText
 10
68.49916700000012
 20
47.74005600000001
 30
0.0
 40
3.200000000000001
 41
0.0
 71
     5
 72
     1
  1
24.8
 11
0.0000000000000001
 21
1.0
 31
0.0
 73
     1
 44
1.0
1001
ACAD
1000
MTEXTBEGIN
1070
    73
1070
     1
1070
    44
1040
1.0
1070
    74
1070
     0
1000
MTEXTEND
  0
POINT
  5
5BF
330
580
100
AcDbEntity
  8
DEFPOINTS
 62
     0
100
AcDbPoint
 10
49.39916599999998
 20
60.14005600000001
 30
0.0
  0
POINT
  5
5C0
330
580
100
AcDbEntity
  8
DEFPOINTS
 62
     0
100
AcDbPoint
 10
53.79916400000002
 20
35.340056
 30
0.0
  0
POINT
  5
5C1
330
580
100
AcDbEntity
  8
DEFPOINTS
 62
     0
100
AcDbPoint
 10
71.59916700000014
 20
35.340056
 30
0.0
  0
ENDBLK
  5
58B
330
580
100
AcDbEntity
  8
0
100
AcDbBlockEnd
  0
BLOCK
  5
596
330
58C
100
AcDbEntity
  8
0
100
AcDbBlockBegin
  2
*D40
 70
     1
 10
0.0
 20
0.0
 30
0.0
  3
*D40
  1

  0
LINE
  5
5C2
330
58C
100
AcDbEntity
  8
AM_5
100
AcDbLine
 10
54.79916400000002
 20
35.340056
 30
0.0
 11
72.59916700000026
 21
35.340056
 31
0.0
  0
LINE
  5
5C3
330
58C
100
AcDbEntity
  8
AM_5
100
AcDbLine
 10
54.79916400000002
 20
10.54005599999999
 30
0.0
 11
72.59916700000025
 21
10.54005599999999
 31
0.0
  0
LINE
  5
5C4
330
58C
100
AcDbEntity
  8
AM_5
100
AcDbLine
 10
71.59916700000026
 20
34.34005600000001
 30
0.0
 11
71.59916700000025
 21
11.54005599999998
 31
0.0
  0
INSERT
  5
5C5
330
58C
100
AcDbEntity
  8
AM_5
100
AcDbBlockReference
  2
_DOT
 10
71.59916700000026
 20
35.340056
 30
0.0
 50
90.0
  0
INSERT
  5
5C6
330
58C
100
AcDbEntity
  8
AM_5
100
AcDbBlockReference
  2
_DOT
 10
71.59916700000025
 20
10.54005599999999
 30
0.0
 50
270.0
  0
MTEXT
  5
5C7
330
58C
100
AcDbEntity
  8
AM_5
 62
     2
100
AcDbMText
 10
68.49916700000026
 20
22.94005600000001
 30
0.0
 40
3.200000000000001
 41
0.0
 71
     5
 72
     1
  1
24.8
 11
0.0000000000000001
 21
1.0
 31
0.0
 73
     1
 44
1.0
1001
ACAD
1000
MTEXTBEGIN
1070
    73
1070
     1
1070
    44
1040
1.0
1070
    74
1070
     0
1000
MTEXTEND
  0
POINT
  5
5C8
330
58C
100
AcDbEntity
  8
DEFPOINTS
 62
     0
100
AcDbPoint
 10
53.79916400000002
 20
35.340056
 30
0.0
  0
POINT
  5
5C9
330
58C
100
AcDbEntity
  8
DEFPOINTS
 62
     0
100
AcDbPoint
 10
53.79916400000002
 20
10.54005599999999
 30
0.0
  0
POINT
  5
5CA
330
58C
100
AcDbEntity
  8
DEFPOINTS
 62
     0
100
AcDbPoint
 10
71.59916700000025
 20
10.54005599999999
 30
0.0
  0
ENDBLK
  5
597
330
58C
100
AcDbEntity
  8
0
100
AcDbBlockEnd
  0
BLOCK
  5
5A2
330
598
100
AcDbEntity
  8
0
100
AcDbBlockBegin
  2
*D41
 70
     1
 10
0.0
 20
0.0
 30
0.0
  3
*D41
  1

  0
LINE
  5
5CB
330
598
100
AcDbEntity
  8
AM_5
100
AcDbLine
 10
54.79916400000002
 20
10.54005599999999
 30
0.0
 11
72.5991670000003
 21
10.54005599999999
 31
0.0
  0
LINE
  5
5CC
330
598
100
AcDbEntity
  8
AM_5
100
AcDbLine
 10
49.09916700000002
 20
-14.25994399999999
 30
0.0
 11
72.5991670000003
 21
-14.25994399999999
 31
0.0
  0
LINE
  5
5CD
330
598
100
AcDbEntity
  8
AM_5
100
AcDbLine
 10
71.59916700000031
 20
9.540055999999987
 30
0.0
 11
71.59916700000031
 21
-13.259944
 31
0.0
  0
INSERT
  5
5CE
330
598
100
AcDbEntity
  8
AM_5
100
AcDbBlockReference
  2
_DOT
 10
71.59916700000031
 20
10.54005599999999
 30
0.0
 50
90.0
  0
INSERT
  5
5CF
330
598
100
AcDbEntity
  8
AM_5
100
AcDbBlockReference
  2
_DOT
 10
71.59916700000031
 20
-14.25994399999999
 30
0.0
 50
270.0
  0
MTEXT
  5
5D0
330
598
100
AcDbEntity
  8
AM_5
 62
     2
100
AcDbMText
 10
68.49916700000031
 20
-1.859943999999993
 30
0.0
 40
3.200000000000001
 41
0.0
 71
     5
 72
     1
  1
24.8
 11
0.0000000000000001
 21
1.0
 31
0.0
 73
     1
 44
1.0
1001
ACAD
1000
MTEXTBEGIN
1070
    73
1070
     1
1070
    44
1040
1.0
1070
    74
1070
     0
1000
MTEXTEND
  0
POINT
  5
5D1
330
598
100
AcDbEntity
  8
DEFPOINTS
 62
     0
100
AcDbPoint
 10
53.79916400000002
 20
10.54005599999999
 30
0.0
  0
POINT
  5
5D2
330
598
100
AcDbEntity
  8
DEFPOINTS
 62
     0
100
AcDbPoint
 10
48.09916700000002
 20
-14.25994399999999
 30
0.0
  0
POINT
  5
5D3
330
598
100
AcDbEntity
  8
DEFPOINTS
 62
     0
100
AcDbPoint
 10
71.59916700000031
 20
-14.25994399999999
 30
0.0
  0
ENDBLK
  5
5A3
330
598
100
AcDbEntity
  8
0
100
AcDbBlockEnd
  0
BLOCK
  5
5AE
330
5A4
100
AcDbEntity
  8
0
100
AcDbBlockBegin
  2
*D42
 70
     1
 10
0.0
 20
0.0
 30
0.0
  3
*D42
  1

  0
LINE
  5
5D4
330
5A4
100
AcDbEntity
  8
AM_5
100
AcDbLine
 10
49.09916700000002
 20
-14.25994399999999
 30
0.0
 11
72.59916700000037
 21
-14.25994399999999
 31
0.0
  0
LINE
  5
5D5
330
5A4
100
AcDbEntity
  8
AM_5
100
AcDbLine
 10
57.59916700000002
 20
-28.059944
 30
0.0
 11
72.59916700000037
 21
-28.05994400000001
 31
0.0
  0
LINE
  5
5D6
330
5A4
100
AcDbEntity
  8
AM_5
100
AcDbLine
 10
71.59916700000036
 20
-15.259944
 30
0.0
 11
71.59916700000036
 21
-27.059944
 31
0.0
  0
INSERT
  5
5D7
330
5A4
100
AcDbEntity
  8
AM_5
100
AcDbBlockReference
  2
_DOT
 10
71.59916700000036
 20
-14.25994399999999
 30
0.0
 50
90.0
  0
INSERT
  5
5D8
330
5A4
100
AcDbEntity
  8
AM_5
100
AcDbBlockReference
  2
_DOT
 10
71.59916700000036
 20
-28.059944
 30
0.0
 50
270.0
  0
MTEXT
  5
5D9
330
5A4
100
AcDbEntity
  8
AM_5
 62
     2
100
AcDbMText
 10
68.49916700000036
 20
-21.15994399999999
 30
0.0
 40
3.200000000000001
 41
0.0
 71
     5
 72
     1
  1
13.8
 11
0.0000000000000001
 21
1.0
 31
0.0
 73
     1
 44
1.0
1001
ACAD
1000
MTEXTBEGIN
1070
    73
1070
     1
1070
    44
1040
1.0
1070
    74
1070
     0
1000
MTEXTEND
  0
POINT
  5
5DA
330
5A4
100
AcDbEntity
  8
DEFPOINTS
 62
     0
100
AcDbPoint
 10
48.09916700000002
 20
-14.25994399999999
 30
0.0
  0
POINT
  5
5DB
330
5A4
100
AcDbEntity
  8
DEFPOINTS
 62
     0
100
AcDbPoint
 10
56.59916700000002
 20
-28.059944
 30
0.0
  0
POINT
  5
5DC
330
5A4
100
AcDbEntity
  8
DEFPOINTS
 62
     0
100
AcDbPoint
 10
71.59916700000036
 20
-28.059944
 30
0.0
  0
ENDBLK
  5
5AF
330
5A4
100
AcDbEntity
  8
0
100
AcDbBlockEnd
  0
BLOCK
  5
5EA
330
5E9
100
AcDbEntity
  8
0
100
AcDbBlockBegin
  2
GENDOT
 70
     0
 10
0.0
 20
0.0
 30
0.0
  3
GENDOT
  1

  0
LINE
  5
5EB
330
5E9
100
AcDbEntity
  8
0
100
AcDbLine
 10
0.0
 20
0.0
 30
0.0
 11
-1.0
 21
0.0
 31
0.0
  0
LWPOLYLINE
  5
5EC
330
5E9
100
AcDbEntity
  8
0
100
AcDbPolyline
 90
        2
 70
     1
 43
0.25
 10
-0.125
 20
0.0
 42
1.0
 10
0.125
 20
0.0
 42
1.0
  0
ENDBLK
  5
5ED
330
5E9
100
AcDbEntity
  8
0
100
AcDbBlockEnd
  0
BLOCK
  5
6F2
330
6EE
100
AcDbEntity
  8
0
100
AcDbBlockBegin
  2
_ClosedBlank
 70
     0
 10
0.0
 20
0.0
 30
0.0
  3
_ClosedBlank
  1

  0
LINE
  5
6EF
330
6EE
100
AcDbEntity
  8
0
  6
ByBlock
 62
     0
370
    -2
100
AcDbLine
 10
-1.0
 20
0.1666666666666666
 30
0.0
 11
0.0
 21
0.0
 31
0.0
  0
LINE
  5
6F0
330
6EE
100
AcDbEntity
  8
0
  6
ByBlock
 62
     0
370
    -2
100
AcDbLine
 10
0.0
 20
0.0
 30
0.0
 11
-1.0
 21
-0.1666666666666666
 31
0.0
  0
LINE
  5
6F1
330
6EE
100
AcDbEntity
  8
0
  6
ByBlock
 62
     0
370
    -2
100
AcDbLine
 10
-1.0
 20
0.1666666666666666
 30
0.0
 11
-1.0
 21
-0.1666666666666666
 31
0.0
  0
ENDBLK
  5
6F3
330
6EE
100
AcDbEntity
  8
0
100
AcDbBlockEnd
  0
BLOCK
  5
7A8
330
79D
100
AcDbEntity
  8
0
100
AcDbBlockBegin
  2
*D49
 70
     1
 10
0.0
 20
0.0
 30
0.0
  3
*D49
  1

  0
LINE
  5
983
330
79D
100
AcDbEntity
  8
AM_5
 62
     0
370
    -2
100
AcDbLine
 10
57.599167
 20
141.22928
 30
0.0
 11
72.61355544807066
 21
141.2292799999999
 31
0.0
  0
LINE
  5
984
330
79D
100
AcDbEntity
  8
AM_5
 62
     0
370
    -2
100
AcDbLine
 10
57.59916700000001
 20
142.7292899999999
 30
0.0
 11
72.61355544807066
 21
142.7292899999998
 31
0.0
  0
LINE
  5
985
330
79D
100
AcDbEntity
  8
AM_5
 62
     0
370
    -2
100
AcDbLine
 10
71.61355544807065
 20
140.2292799999999
 30
0.0
 11
71.61355544807065
 21
139.2292799999999
 31
0.0
  0
LINE
  5
986
330
79D
100
AcDbEntity
  8
AM_5
 62
     0
370
    -2
100
AcDbLine
 10
71.61355544807065
 20
143.7292899999999
 30
0.0
 11
71.61355544807065
 21
153.2626233333332
 31
0.0
  0
INSERT
  5
987
330
79D
100
AcDbEntity
  8
AM_5
 62
     0
370
    -2
100
AcDbBlockReference
  2
_DOT
 10
71.61355544807065
 20
141.2292799999999
 30
0.0
 50
90.0
  0
INSERT
  5
988
330
79D
100
AcDbEntity
  8
AM_5
 62
     0
370
    -2
100
AcDbBlockReference
  2
_DOT
 10
71.61355544807065
 20
142.7292899999998
 30
0.0
 50
270.0
  0
MTEXT
  5
989
330
79D
100
AcDbEntity
  8
AM_5
 62
     0
100
AcDbMText
 10
68.41355544807064
 20
148.9959566666666
 30
0.0
 40
3.2
 41
0.0
 71
     5
 72
     1
  1
\A1;1.5
 11
0.0000000000000001
 21
1.0
 31
0.0
 73
     1
 44
1.0
1001
ACAD
1000
MTEXTBEGIN
1070
    73
1070
     1
1070
    44
1040
1.0
1070
    74
1070
     0
1000
MTEXTEND
  0
POINT
  5
98A
330
79D
100
AcDbEntity
  8
DEFPOINTS
 62
     0
100
AcDbPoint
 10
56.599167
 20
141.22928
 30
0.0
  0
POINT
  5
98B
330
79D
100
AcDbEntity
  8
DEFPOINTS
 62
     0
100
AcDbPoint
 10
56.59916700000001
 20
142.7292899999999
 30
0.0
  0
POINT
  5
98C
330
79D
100
AcDbEntity
  8
DEFPOINTS
 62
     0
100
AcDbPoint
 10
71.61355544807065
 20
142.7292899999998
 30
0.0
  0
ENDBLK
  5
7A9
330
79D
100
AcDbEntity
  8
0
100
AcDbBlockEnd
  0
BLOCK
  5
7C0
330
7B5
100
AcDbEntity
  8
0
100
AcDbBlockBegin
  2
*D50
 70
     1
 10
0.0
 20
0.0
 30
0.0
  3
*D50
  1

  0
LINE
  5
979
330
7B5
100
AcDbEntity
  8
AM_5
 62
     0
370
    -2
100
AcDbLine
 10
57.599167
 20
139.02927
 30
0.0
 11
72.61355544807066
 21
139.0292699999999
 31
0.0
  0
LINE
  5
97A
330
7B5
100
AcDbEntity
  8
AM_5
 62
     0
370
    -2
100
AcDbLine
 10
57.599167
 20
137.52926
 30
0.0
 11
72.61355544807066
 21
137.5292599999999
 31
0.0
  0
LINE
  5
97B
330
7B5
100
AcDbEntity
  8
AM_5
 62
     0
370
    -2
100
AcDbLine
 10
71.61355544807065
 20
140.0292699999999
 30
0.0
 11
71.61355544807065
 21
141.0292699999999
 31
0.0
  0
LINE
  5
97C
330
7B5
100
AcDbEntity
  8
AM_5
 62
     0
370
    -2
100
AcDbLine
 10
71.61355544807065
 20
136.5292599999999
 30
0.0
 11
71.61355544807065
 21
126.9959266666666
 31
0.0
  0
INSERT
  5
97D
330
7B5
100
AcDbEntity
  8
AM_5
 62
     0
370
    -2
100
AcDbBlockReference
  2
_DOT
 10
71.61355544807065
 20
139.0292699999999
 30
0.0
 50
270.0
  0
INSERT
  5
97E
330
7B5
100
AcDbEntity
  8
AM_5
 62
     0
370
    -2
100
AcDbBlockReference
  2
_DOT
 10
71.61355544807065
 20
137.5292599999999
 30
0.0
 50
90.0
  0
MTEXT
  5
97F
330
7B5
100
AcDbEntity
  8
AM_5
 62
     0
100
AcDbMText
 10
68.41355544807064
 20
131.2625933333333
 30
0.0
 40
3.2
 41
0.0
 71
     5
 72
     1
  1
\A1;1.5
 11
0.0000000000000001
 21
1.0
 31
0.0
 73
     1
 44
1.0
1001
ACAD
1000
MTEXTBEGIN
1070
    73
1070
     1
1070
    44
1040
1.0
1070
    74
1070
     0
1000
MTEXTEND
  0
POINT
  5
980
330
7B5
100
AcDbEntity
  8
DEFPOINTS
 62
     0
100
AcDbPoint
 10
56.599167
 20
139.02927
 30
0.0
  0
POINT
  5
981
330
7B5
100
AcDbEntity
  8
DEFPOINTS
 62
     0
100
AcDbPoint
 10
56.599167
 20
137.52926
 30
0.0
  0
POINT
  5
982
330
7B5
100
AcDbEntity
  8
DEFPOINTS
 62
     0
100
AcDbPoint
 10
71.61355544807065
 20
137.5292599999999
 30
0.0
  0
ENDBLK
  5
7C1
330
7B5
100
AcDbEntity
  8
0
100
AcDbBlockEnd
  0
BLOCK
  5
7D8
330
7CD
100
AcDbEntity
  8
0
100
AcDbBlockBegin
  2
*D51
 70
     1
 10
0.0
 20
0.0
 30
0.0
  3
*D51
  1

  0
LINE
  5
96F
330
7CD
100
AcDbEntity
  8
AM_5
 62
     0
370
    -2
100
AcDbLine
 10
57.599167
 20
137.52926
 30
0.0
 11
82.61355544807065
 21
137.5292599999999
 31
0.0
  0
LINE
  5
970
330
7CD
100
AcDbEntity
  8
AM_5
 62
     0
370
    -2
100
AcDbLine
 10
57.599167
 20
142.7292899999999
 30
0.0
 11
82.61355544807065
 21
142.7292899999998
 31
0.0
  0
LINE
  5
971
330
7CD
100
AcDbEntity
  8
AM_5
 62
     0
370
    -2
100
AcDbLine
 10
81.61355544807065
 20
138.5292599999999
 30
0.0
 11
81.61355544807065
 21
141.7292899999998
 31
0.0
  0
LINE
  5
972
330
7CD
100
AcDbEntity
  8
AM_5
 62
     0
370
    -2
100
AcDbLine
 10
81.61355544807065
 20
142.7292899999998
 30
0.0
 11
81.61355544807065
 21
153.3292899999999
 31
0.0
  0
INSERT
  5
973
330
7CD
100
AcDbEntity
  8
AM_5
 62
     0
370
    -2
100
AcDbBlockReference
  2
_DOT
 10
81.61355544807065
 20
137.5292599999999
 30
0.0
 50
270.0
  0
INSERT
  5
974
330
7CD
100
AcDbEntity
  8
AM_5
 62
     0
370
    -2
100
AcDbBlockReference
  2
_DOT
 10
81.61355544807065
 20
142.7292899999998
 30
0.0
 50
90.0
  0
MTEXT
  5
975
330
7CD
100
AcDbEntity
  8
AM_5
 62
     0
100
AcDbMText
 10
78.41355544807064
 20
148.5292899999999
 30
0.0
 40
3.2
 41
0.0
 71
     5
 72
     1
  1
\A1;5.2
 11
0.0000000000000001
 21
1.0
 31
0.0
 73
     1
 44
1.0
1001
ACAD
1000
MTEXTBEGIN
1070
    73
1070
     1
1070
    44
1040
1.0
1070
    74
1070
     0
1000
MTEXTEND
  0
POINT
  5
976
330
7CD
100
AcDbEntity
  8
DEFPOINTS
 62
     0
100
AcDbPoint
 10
56.599167
 20
137.52926
 30
0.0
  0
POINT
  5
977
330
7CD
100
AcDbEntity
  8
DEFPOINTS
 62
     0
100
AcDbPoint
 10
56.599167
 20
142.7292899999999
 30
0.0
  0
POINT
  5
978
330
7CD
100
AcDbEntity
  8
DEFPOINTS
 62
     0
100
AcDbPoint
 10
81.61355544807065
 20
142.7292899999998
 30
0.0
  0
ENDBLK
  5
7D9
330
7CD
100
AcDbEntity
  8
0
100
AcDbBlockEnd
  0
BLOCK
  5
82C
330
821
100
AcDbEntity
  8
0
100
AcDbBlockBegin
  2
*D52
 70
     1
 10
0.0
 20
0.0
 30
0.0
  3
*D52
  1

  0
LINE
  5
962
330
821
100
AcDbEntity
  8
AM_5
 62
     0
370
    -2
100
AcDbLine
 10
57.599167
 20
139.02927
 30
0.0
 11
72.61355544807066
 21
139.0292699999999
 31
0.0
  0
LINE
  5
963
330
821
100
AcDbEntity
  8
AM_5
 62
     0
370
    -2
100
AcDbLine
 10
57.599167
 20
141.22928
 30
0.0
 11
72.61355544807066
 21
141.2292799999999
 31
0.0
  0
LINE
  5
964
330
821
100
AcDbEntity
  8
AM_5
 62
     0
370
    -2
100
AcDbLine
 10
71.61355544807065
 20
138.02927
 30
0.0
 11
71.61355544807065
 21
137.02927
 31
0.0
  0
LINE
  5
965
330
821
100
AcDbEntity
  8
AM_5
 62
     0
370
    -2
100
AcDbLine
 10
71.61355544807065
 20
142.2292799999999
 30
0.0
 11
71.61355544807065
 21
143.2292799999999
 31
0.0
  0
LINE
  5
966
330
821
100
AcDbEntity
  8
AM_5
 62
     0
370
    -2
100
AcDbLine
 10
71.61355544807065
 20
140.129275
 30
0.0
 11
57.69321476349481
 21
146.2841830888281
 31
0.0
  0
LINE
  5
967
330
821
100
AcDbEntity
  8
AM_5
 62
     0
370
    -2
100
AcDbLine
 10
57.69321476349481
 20
146.2841830888281
 30
0.0
 11
57.69321476349481
 21
155.884183088828
 31
0.0
  0
MTEXT
  5
968
330
821
100
AcDbEntity
  8
AM_5
 62
     0
100
AcDbMText
 10
54.49321476349478
 20
151.084183088828
 30
0.0
 40
3.2
 41
0.0
 71
     5
 72
     1
  1
\A1;2.2
 11
0.0000000000000001
 21
1.0
 31
0.0
 73
     1
 44
1.0
1001
ACAD
1000
MTEXTBEGIN
1070
    73
1070
     1
1070
    44
1040
1.0
1070
    74
1070
     0
1000
MTEXTEND
  0
LINE
  5
969
330
821
100
AcDbEntity
  8
AM_5
 62
     0
370
    -2
100
AcDbLine
 10
71.61355544807065
 20
139.0292699999999
 30
0.0
 11
71.61355544807065
 21
141.2292799999999
 31
0.0
  0
INSERT
  5
96A
330
821
100
AcDbEntity
  8
AM_5
 62
     0
370
    -2
100
AcDbBlockReference
  2
_DOT
 10
71.61355544807065
 20
139.0292699999999
 30
0.0
 50
90.0
  0
INSERT
  5
96B
330
821
100
AcDbEntity
  8
AM_5
 62
     0
370
    -2
100
AcDbBlockReference
  2
_DOT
 10
71.61355544807065
 20
141.2292799999999
 30
0.0
 50
270.0
  0
POINT
  5
96C
330
821
100
AcDbEntity
  8
DEFPOINTS
 62
     0
100
AcDbPoint
 10
56.599167
 20
139.02927
 30
0.0
  0
POINT
  5
96D
330
821
100
AcDbEntity
  8
DEFPOINTS
 62
     0
100
AcDbPoint
 10
56.599167
 20
141.22928
 30
0.0
  0
POINT
  5
96E
330
821
100
AcDbEntity
  8
DEFPOINTS
 62
     0
100
AcDbPoint
 10
71.61355544807065
 20
141.2292799999999
 30
0.0
  0
ENDBLK
  5
82D
330
821
100
AcDbEntity
  8
0
100
AcDbBlockEnd
  0
ENDSEC
  0
SECTION
  2
ENTITIES
  0
LINE
  5
F7
330
1F3
100
AcDbEntity
  8
0
  6
Continuous
 62
     7
100
AcDbLine
 10
170.0
 20
173.0
 30
0.0
 11
170.0
 21
-100.0
 31
0.0
  0
LINE
  5
F8
330
1F3
100
AcDbEntity
  8
0
  6
Continuous
 62
     7
100
AcDbLine
 10
-211.0
 20
-100.0
 30
0.0
 11
170.0
 21
-100.0
 31
0.0
  0
LINE
  5
F9
330
1F3
100
AcDbEntity
  8
0
  6
Continuous
 62
     7
100
AcDbLine
 10
-211.0
 20
173.0
 30
0.0
 11
170.0
 21
173.0
 31
0.0
  0
LINE
  5
FA
330
1F3
100
AcDbEntity
  8
0
  6
Continuous
 62
     7
100
AcDbLine
 10
-211.0
 20
173.0
 30
0.0
 11
-211.0
 21
-100.0
 31
0.0
  0
LINE
  5
FB
330
1F3
100
AcDbEntity
  8
0
  6
Continuous
 62
     7
100
AcDbLine
 10
-191.0
 20
173.0
 30
0.0
 11
-191.0
 21
85.0
 31
0.0
  0
LINE
  5
FC
330
1F3
100
AcDbEntity
  8
0
  6
Continuous
 62
     7
100
AcDbLine
 10
-211.0
 20
165.0
 30
0.0
 11
-101.0
 21
165.0
 31
0.0
  0
LINE
  5
FD
330
1F3
100
AcDbEntity
  8
0
  6
Continuous
 62
     7
100
AcDbLine
 10
-211.0
 20
149.0
 30
0.0
 11
-101.0
 21
149.0
 31
0.0
  0
LINE
  5
FE
330
1F3
100
AcDbEntity
  8
0
  6
Continuous
 62
     7
100
AcDbLine
 10
-191.0
 20
125.0
 30
0.0
 11
-101.0
 21
125.0
 31
0.0
  0
LINE
  5
FF
330
1F3
100
AcDbEntity
  8
0
  6
Continuous
 62
     7
100
AcDbLine
 10
-191.0
 20
117.0
 30
0.0
 11
-101.0
 21
117.0
 31
0.0
  0
LINE
  5
100
330
1F3
100
AcDbEntity
  8
0
  6
Continuous
 62
     7
100
AcDbLine
 10
-211.0
 20
109.0
 30
0.0
 11
-101.0
 21
109.0
 31
0.0
  0
LINE
  5
101
330
1F3
100
AcDbEntity
  8
0
  6
Continuous
 62
     7
100
AcDbLine
 10
-191.0
 20
101.0
 30
0.0
 11
-101.0
 21
101.0
 31
0.0
  0
LINE
  5
102
330
1F3
100
AcDbEntity
  8
0
  6
Continuous
 62
     7
100
AcDbLine
 10
-191.0
 20
93.0
 30
0.0
 11
-101.0
 21
93.0
 31
0.0
  0
LINE
  5
103
330
1F3
100
AcDbEntity
  8
0
  6
Continuous
 62
     7
100
AcDbLine
 10
-211.0
 20
85.0
 30
0.0
 11
-101.0
 21
85.0
 31
0.0
  0
LINE
  5
104
330
1F3
100
AcDbEntity
  8
0
  6
Continuous
 62
     7
100
AcDbLine
 10
-211.0
 20
173.0
 30
0.0
 11
-211.0
 21
85.0
 31
0.0
  0
LINE
  5
105
330
1F3
100
AcDbEntity
  8
0
  6
Continuous
 62
     7
100
AcDbLine
 10
-211.0
 20
173.0
 30
0.0
 11
-101.0
 21
173.0
 31
0.0
  0
LINE
  5
106
330
1F3
100
AcDbEntity
  8
0
  6
Continuous
 62
     7
100
AcDbLine
 10
-101.0
 20
173.0
 30
0.0
 11
-101.0
 21
85.0
 31
0.0
  0
LINE
  5
107
330
1F3
100
AcDbEntity
  8
0
  6
Continuous
 62
     7
100
AcDbLine
 10
-211.0
 20
133.0
 30
0.0
 11
-101.0
 21
133.0
 31
0.0
  0
LINE
  5
108
330
1F3
100
AcDbEntity
  8
0
  6
Continuous
 62
     7
100
AcDbLine
 10
-191.0
 20
125.0
 30
0.0
 11
-101.0
 21
125.0
 31
0.0
  0
LINE
  5
109
330
1F3
100
AcDbEntity
  8
0
  6
Continuous
 62
     7
100
AcDbLine
 10
-211.0
 20
157.0
 30
0.0
 11
-101.0
 21
157.0
 31
0.0
  0
LINE
  5
10A
330
1F3
100
AcDbEntity
  8
0
  6
Continuous
 62
     7
100
AcDbLine
 10
-211.0
 20
141.0
 30
0.0
 11
-101.0
 21
141.0
 31
0.0
  0
LINE
  5
10B
330
1F3
100
AcDbEntity
  8
0
  6
Continuous
 62
     3
100
AcDbLine
 10
-6.400834999999998
 20
73.94005600000001
 30
0.0
 11
-6.400834999999998
 21
-28.059944
 31
0.0
  0
LINE
  5
10C
330
1F3
100
AcDbEntity
  8
0
  6
Continuous
 62
     3
100
AcDbLine
 10
56.599167
 20
73.94005600000001
 30
0.0
 11
56.599167
 21
-28.059944
 31
0.0
  0
LINE
  5
10D
330
1F3
100
AcDbEntity
  8
0
  6
Continuous
 62
     3
100
AcDbLine
 10
-6.400834999999998
 20
73.94005600000001
 30
0.0
 11
19.899164
 21
73.94005600000001
 31
0.0
  0
LINE
  5
10E
330
1F3
100
AcDbEntity
  8
0
  6
Continuous
 62
     3
100
AcDbLine
 10
-6.400834999999998
 20
-28.059937
 30
0.0
 11
19.899164
 21
-28.059937
 31
0.0
  0
LINE
  5
10F
330
1F3
100
AcDbEntity
  8
0
  6
CENTER
 62
     7
 48
0.6
100
AcDbLine
 10
18.559164
 20
140.1292699999999
 30
0.0
 11
31.63916599999999
 21
140.1292699999999
 31
0.0
  0
LINE
  5
110
330
1F3
100
AcDbEntity
  8
0
  6
Continuous
 62
     3
100
AcDbLine
 10
20.999165
 20
73.94005600000001
 30
0.0
 11
20.99916507445822
 21
-28.059944
 31
0.0
  0
LINE
  5
111
330
1F3
100
AcDbEntity
  8
0
  6
CENTER
 62
     7
 48
0.6
100
AcDbLine
 10
25.099165
 20
146.6692699999999
 30
0.0
 11
25.099165
 21
133.5892599999999
 31
0.0
  0
LINE
  5
112
330
1F3
100
AcDbEntity
  8
0
  6
Continuous
 62
     3
100
AcDbLine
 10
29.199165
 20
73.94005600000001
 30
0.0
 11
29.199165
 21
-28.05993699999999
 31
0.0
  0
LINE
  5
113
330
1F3
100
AcDbEntity
  8
0
  6
PHANTOM
 62
     7
100
AcDbLine
 10
56.599167
 20
137.52926
 30
0.0
 11
56.599167
 21
139.02927
 31
0.0
  0
LINE
  5
114
330
1F3
100
AcDbEntity
  8
0
  6
Continuous
 62
     3
100
AcDbLine
 10
28.94494099999999
 20
141.22928
 30
0.0
 11
56.599167
 21
141.22928
 31
0.0
  0
LINE
  5
115
330
1F3
100
AcDbEntity
  8
0
  6
Continuous
 62
     3
100
AcDbLine
 10
28.221657
 20
142.7292899999999
 30
0.0
 11
56.599167
 21
142.7292899999999
 31
0.0
  0
LINE
  5
116
330
1F3
100
AcDbEntity
  8
0
  6
Continuous
 62
     3
100
AcDbLine
 10
56.59916700000001
 20
142.7292899999999
 30
0.0
 11
56.599167
 21
141.22928
 31
0.0
  0
LINE
  5
117
330
1F3
100
AcDbEntity
  8
0
  6
PHANTOM
 62
     7
100
AcDbLine
 10
28.299158
 20
137.52926
 30
0.0
 11
56.599167
 21
137.52926
 31
0.0
  0
LINE
  5
118
330
1F3
100
AcDbEntity
  8
0
  6
PHANTOM
 62
     7
100
AcDbLine
 10
28.97214699999999
 20
139.02927
 30
0.0
 11
56.599167
 21
139.02927
 31
0.0
  0
LINE
  5
119
330
1F3
100
AcDbEntity
  8
0
  6
Continuous
 62
     3
100
AcDbLine
 10
21.976673
 20
142.7292899999999
 30
0.0
 11
-6.400834999999998
 21
142.7292899999999
 31
0.0
  0
LINE
  5
11A
330
1F3
100
AcDbEntity
  8
0
  6
Continuous
 62
     3
100
AcDbLine
 10
21.253389
 20
141.22928
 30
0.0
 11
-6.400834999999998
 21
141.22928
 31
0.0
  0
LINE
  5
11B
330
1F3
100
AcDbEntity
  8
0
  6
Continuous
 62
     3
100
AcDbLine
 10
-6.400834999999997
 20
142.7292899999999
 30
0.0
 11
-6.400834999999998
 21
141.22928
 31
0.0
  0
LINE
  5
11C
330
1F3
100
AcDbEntity
  8
0
  6
Continuous
 62
     3
100
AcDbLine
 10
20.999165
 20
73.94005600000001
 30
0.0
 11
56.599167
 21
73.94005600000001
 31
0.0
  0
LINE
  5
11D
330
1F3
100
AcDbEntity
  8
0
  6
Continuous
 62
     3
100
AcDbLine
 10
20.99916507445822
 20
-28.059937
 30
0.0
 11
56.599167
 21
-28.059937
 31
0.0
  0
LINE
  5
11E
330
1F3
100
AcDbEntity
  8
0
  6
Continuous
 62
     3
100
AcDbLine
 10
19.899164
 20
-9.0599442
 30
0.0
 11
30.29916599999999
 21
-9.0599442
 31
0.0
  0
LINE
  5
11F
330
1F3
100
AcDbEntity
  8
0
  6
Continuous
 62
     3
100
AcDbLine
 10
19.899164
 20
13.440056
 30
0.0
 11
30.29916599999999
 21
13.440056
 31
0.0
  0
LINE
  5
120
330
1F3
100
AcDbEntity
  8
0
  6
Continuous
 62
     3
100
AcDbLine
 10
19.899164
 20
32.44005599999999
 30
0.0
 11
30.29916599999999
 21
32.44005599999999
 31
0.0
  0
LINE
  5
121
330
1F3
100
AcDbEntity
  8
0
  6
Continuous
 62
     3
100
AcDbLine
 10
19.899164
 20
54.94005600000001
 30
0.0
 11
30.29916599999999
 21
54.94005600000001
 31
0.0
  0
LINE
  5
122
330
1F3
100
AcDbEntity
  8
0
  6
Continuous
 62
     3
100
AcDbLine
 10
30.29916599999999
 20
54.94005600000001
 30
0.0
 11
30.29916599999999
 21
32.44005599999999
 31
0.0
  0
LINE
  5
123
330
1F3
100
AcDbEntity
  8
0
  6
Continuous
 62
     3
100
AcDbLine
 10
19.899164
 20
73.94005600000001
 30
0.0
 11
19.899164
 21
54.94005600000001
 31
0.0
  0
LINE
  5
124
330
1F3
100
AcDbEntity
  8
0
  6
Continuous
 62
     3
100
AcDbLine
 10
19.899164
 20
32.44005599999999
 30
0.0
 11
19.899164
 21
13.440056
 31
0.0
  0
LINE
  5
125
330
1F3
100
AcDbEntity
  8
0
  6
Continuous
 62
     3
100
AcDbLine
 10
19.899164
 20
-9.0599442
 30
0.0
 11
19.899164
 21
-28.059944
 31
0.0
  0
LINE
  5
126
330
1F3
100
AcDbEntity
  8
0
  6
Continuous
 62
     3
100
AcDbLine
 10
30.29916599999999
 20
13.440056
 30
0.0
 11
30.29916599999999
 21
-9.0599442
 31
0.0
  0
LINE
  5
137
330
1F3
100
AcDbEntity
  8
0
  6
CENTER
 62
     7
100
AcDbLine
 10
25.099165
 20
78.44005600000001
 30
0.0
 11
25.099165
 21
-32.55993699999999
 31
0.0
  0
LINE
  5
138
330
1F3
100
AcDbEntity
  8
0
  6
CENTER
 62
     7
100
AcDbLine
 10
3.399163499999999
 20
145.62929
 30
0.0
 11
3.399163499999999
 21
138.22928
 31
0.0
  0
LINE
  5
139
330
1F3
100
AcDbEntity
  8
0
  6
CENTER
 62
     7
100
AcDbLine
 10
7.799164799999999
 20
145.62929
 30
0.0
 11
7.799164799999999
 21
138.22928
 31
0.0
  0
LINE
  5
13A
330
1F3
100
AcDbEntity
  8
0
  6
CENTER
 62
     7
100
AcDbLine
 10
42.39916599999999
 20
145.62929
 30
0.0
 11
42.39916599999999
 21
138.22928
 31
0.0
  0
LINE
  5
13B
330
1F3
100
AcDbEntity
  8
0
  6
CENTER
 62
     7
100
AcDbLine
 10
46.79916399999999
 20
145.62929
 30
0.0
 11
46.79916399999999
 21
138.22928
 31
0.0
  0
CIRCLE
  5
13D
330
1F3
100
AcDbEntity
  8
0
  6
Continuous
 62
     3
100
AcDbCircle
 10
25.099165
 20
140.1292699999999
 30
0.0
 40
4.099999999999999
  0
ARC
  5
13E
330
1F3
100
AcDbEntity
  8
0
  6
Continuous
 62
     7
100
AcDbCircle
 10
25.09916499338406
 20
69.08671987032971
 30
0.0
 40
6.353333629670276
100
AcDbArc
 50
49.80955308221358
 51
130.1904420397375
  0
ARC
  5
13F
330
1F3
100
AcDbEntity
  8
0
  6
Continuous
 62
     7
100
AcDbCircle
 10
25.09916089413966
 20
-23.20659959867189
 30
0.0
 40
6.353333401329877
100
AcDbArc
 50
229.8095866057233
 51
310.1905112163383
  0
TEXT
  5
14F
330
1F3
100
AcDbEntity
  8
0
  6
Continuous
 62
     7
100
AcDbText
 10
-188.1429999999999
 20
103.4
 30
0.0
 40
3.2
  1
丁番係数：　8.5
 41
0.84496202
100
AcDbText
  0
TEXT
  5
150
330
1F3
100
AcDbEntity
  8
0
  6
Continuous
 62
     7
100
AcDbText
 10
-205.343
 20
167.4
 30
0.0
 40
3.2
  1
品　名
 41
0.85537027
100
AcDbText
  0
TEXT
  5
151
330
1F3
100
AcDbEntity
  8
0
  6
Continuous
 62
     7
100
AcDbText
 10
-205.343
 20
159.4
 30
0.0
 40
3.2
  1
品　番
 41
0.85537027
100
AcDbText
  0
TEXT
  5
152
330
1F3
100
AcDbEntity
  8
0
  6
Continuous
 62
     7
100
AcDbText
 10
-205.343
 20
151.4
 30
0.0
 40
3.2
  1
材　質
 41
0.85537027
100
AcDbText
  0
TEXT
  5
153
330
1F3
100
AcDbEntity
  8
0
  6
Continuous
 62
     7
100
AcDbText
 10
-205.343
 20
143.4
 30
0.0
 40
3.2
  1
仕上げ
 41
0.85537027
100
AcDbText
  0
TEXT
  5
154
330
1F3
100
AcDbEntity
  8
0
  6
Continuous
 62
     7
100
AcDbText
 10
-188.1429999999999
 20
111.4
 30
0.0
 40
3.2
  1
＊
 41
0.90047268
100
AcDbText
  0
TEXT
  5
155
330
1F3
100
AcDbEntity
  8
0
  6
Continuous
 62
     7
100
AcDbText
 10
-188.1429999999999
 20
119.4
 30
0.0
 40
3.2
  1
＊
 41
0.90047268
100
AcDbText
  0
TEXT
  5
156
330
1F3
100
AcDbEntity
  8
0
  6
Continuous
 62
     7
100
AcDbText
 10
-208.543
 20
127.4
 30
0.0
 40
3.2
  1
セットビス
 41
0.84892707
100
AcDbText
  0
TEXT
  5
157
330
1F3
100
AcDbEntity
  8
0
  6
Continuous
 62
     7
100
AcDbText
 10
-203.743
 20
103.4
 30
0.0
 40
3.2
  1
備考
 41
0.8643907499999999
100
AcDbText
  0
TEXT
  5
158
330
1F3
100
AcDbEntity
  8
0
  6
Continuous
 62
     7
100
AcDbText
 10
-206.9429999999999
 20
135.4
 30
0.0
 40
3.2
  1
左右勝手
 41
0.8512700499999999
100
AcDbText
  0
TEXT
  5
159
330
1F3
100
AcDbEntity
  8
0
  6
Continuous
 62
     7
100
AcDbText
 10
-188.1429999999999
 20
167.4
 30
0.0
 40
3.2
  1
中厚丁番
 41
0.8512700499999999
100
AcDbText
  0
TEXT
  5
15A
330
1F3
100
AcDbEntity
  8
0
  6
Continuous
 62
     7
100
AcDbText
 10
-188.1429999999999
 20
159.4
 30
0.0
 40
3.2
  1
ＤＨ－２５５Ｓ－１０２
 41
0.8440946700000001
100
AcDbText
  0
TEXT
  5
15B
330
1F3
100
AcDbEntity
  8
0
  6
Continuous
 62
     7
100
AcDbText
 10
-188.1429999999999
 20
151.4
 30
0.0
 40
3.2
  1
羽根：ステンレス／軸：ステンレス
 41
0.8428951399999997
100
AcDbText
  0
TEXT
  5
15C
330
1F3
100
AcDbEntity
  8
0
  6
Continuous
 62
     7
100
AcDbText
 10
-188.0573399999999
 20
143.4
 30
0.0
 40
3.2
  1
羽根：ヘアーライン／軸：生地
 41
0.7811973000000001
100
AcDbText
  0
DIMENSION
  5
15D
330
1F3
100
AcDbEntity
  8
0
  6
Continuous
 62
     7
100
AcDbDimension
  2
*D4
 10
25.099165
 20
85.44005600000001
 30
0.0
 11
9.349164999999999
 21
85.44005600000001
 31
0.0
 71
     5
 42
-1.0
  3
DIMSTYLE
100
AcDbAlignedDimension
 13
-6.400834999999998
 23
73.94005600000001
 33
0.0
 14
25.099165
 24
78.44005600000001
 34
0.0
100
AcDbRotatedDimension
1001
ACAD
1000
DSTYLE
1002
{
1070
    77
1070
     1
1070
   172
1070
     1
1070
    75
1070
     1
1002
}
  0
DIMENSION
  5
15E
330
1F3
100
AcDbEntity
  8
0
  6
Continuous
 62
     7
100
AcDbDimension
  2
*D5
 10
56.599167
 20
85.44005600000001
 30
0.0
 11
40.84916699999999
 21
85.44005600000001
 31
0.0
 71
     5
 42
-1.0
  3
DIMSTYLE
100
AcDbAlignedDimension
 13
25.099165
 23
78.44005600000001
 33
0.0
 14
56.599167
 24
73.94005600000001
 34
0.0
100
AcDbRotatedDimension
1001
ACAD
1000
DSTYLE
1002
{
1070
     6
1000
_NONE
1070
    77
1070
     1
1070
   172
1070
     1
1070
    75
1070
     1
1070
    76
1070
     1
1002
}
  0
DIMENSION
  5
15F
330
1F3
100
AcDbEntity
  8
0
  6
Continuous
 62
     7
100
AcDbDimension
  2
*D6
 10
-6.400834999999998
 20
95.440056
 30
0.0
 11
25.099165
 21
95.440056
 31
0.0
 71
     5
 42
-1.0
  3
DIMSTYLE
100
AcDbAlignedDimension
 13
56.599167
 23
73.94005600000001
 33
0.0
 14
-6.400834999999998
 24
73.94005600000001
 34
0.0
100
AcDbRotatedDimension
1001
ACAD
1000
DSTYLE
1002
{
1070
    77
1070
     1
1070
   172
1070
     1
1002
}
  0
DIMENSION
  5
162
330
1F3
100
AcDbEntity
  8
0
  6
Continuous
 62
     7
100
AcDbDimension
  2
*D7
 10
56.599167
 20
-44.55993699999999
 30
0.0
 11
63.923588
 21
-44.55993699999999
 31
0.0
 71
     5
 42
-1.0
  3
DIMSTYLE
100
AcDbAlignedDimension
 13
46.79916399999999
 23
3.440055799999999
 33
0.0
 14
56.599167
 24
-28.059944
 34
0.0
100
AcDbRotatedDimension
1001
ACAD
1000
DSTYLE
1002
{
1070
     6
1000
_NONE
1070
    77
1070
     1
1070
   172
1070
     1
1070
    75
1070
     1
1002
}
  0
POLYLINE
  5
163
330
1F3
100
AcDbEntity
  8
0
  6
Continuous
 62
     7
100
AcDb2dPolyline
 66
     1
 10
0.0
 20
0.0
 30
0.0
  0
VERTEX
  5
1AE
330
163
100
AcDbEntity
  8
0
  6
Continuous
 62
     7
100
AcDbVertex
100
AcDb2dVertex
 10
44.09916299999999
 20
-44.55993699999999
 30
0.0
  0
VERTEX
  5
1AF
330
163
100
AcDbEntity
  8
0
  6
Continuous
 62
     7
100
AcDbVertex
100
AcDb2dVertex
 10
48.261848
 20
-51.769917
 30
0.0
  0
VERTEX
  5
1B0
330
163
100
AcDbEntity
  8
0
  6
Continuous
 62
     7
100
AcDbVertex
100
AcDb2dVertex
 10
68.463081
 20
-51.76992
 30
0.0
  0
SEQEND
  5
1B1
330
163
100
AcDbEntity
  8
0
  6
Continuous
 62
     7
  0
LINE
  5
168
330
1F3
100
AcDbEntity
  8
0
  6
Continuous
 62
     7
100
AcDbLine
 10
44.09916299999999
 20
-44.55993699999999
 30
0.0
 11
46.14987
 21
-46.987864
 31
0.0
  0
LINE
  5
169
330
1F3
100
AcDbEntity
  8
0
  6
Continuous
 62
     7
100
AcDbLine
 10
44.09916299999999
 20
-44.55993699999999
 30
0.0
 11
45.176457
 21
-47.54986399999999
 31
0.0
  0
TEXT
  5
16A
330
1F3
100
AcDbEntity
  8
0
  6
Continuous
 62
     7
100
AcDbText
 10
59.777087
 20
-50.96992
 30
0.0
 40
3.2
  1
5.4
 41
1.357187499999999
100
AcDbText
  0
DIMENSION
  5
16B
330
1F3
100
AcDbEntity
  8
0
  6
Continuous
 62
     7
100
AcDbDimension
  2
*D8
 10
46.79916399999999
 20
-44.55993699999999
 30
0.0
 11
64.120087
 21
-51.76992
 31
0.0
 71
     5
 42
-1.0
  3
DIMSTYLE
100
AcDbAlignedDimension
 13
41.39916599999999
 23
-21.259945
 33
0.0
 14
46.79916399999999
 24
3.440055799999999
 34
0.0
100
AcDbRotatedDimension
1001
ACAD
1000
DSTYLE
1002
{
1070
     6
1000
_NONE
1070
    77
1070
     1
1070
   172
1070
     1
1070
    75
1070
     1
1002
}
  0
DIMENSION
  5
16C
330
1F3
100
AcDbEntity
  8
0
  6
Continuous
 62
     7
100
AcDbDimension
  2
*D9
 10
41.39916599999999
 20
-44.55993699999999
 30
0.0
 11
33.249165
 21
-44.55993699999999
 31
0.0
 71
     5
 42
-1.0
  3
DIMSTYLE
100
AcDbAlignedDimension
 13
25.099165
 23
-32.55993699999999
 33
0.0
 14
41.39916599999999
 24
-21.259945
 34
0.0
100
AcDbRotatedDimension
1001
ACAD
1000
DSTYLE
1002
{
1070
    77
1070
     1
1070
   172
1070
     1
1002
}
  0
DIMENSION
  5
16D
330
1F3
100
AcDbEntity
  8
0
  6
Continuous
 62
     7
100
AcDbDimension
  2
*D10
 10
81.599167
 20
73.94005600000001
 30
0.0
 11
81.599167
 21
22.94005999999999
 31
0.0
 71
     5
 42
-1.0
  3
DIMSTYLE
100
AcDbAlignedDimension
 13
56.599167
 23
-28.059937
 33
0.0
 14
56.599167
 24
73.94005600000001
 34
0.0
 50
90.0
100
AcDbRotatedDimension
1001
ACAD
1000
DSTYLE
1002
{
1070
    77
1070
     1
1070
   172
1070
     1
1002
}
  0
LINE
  5
54F
330
1F3
100
AcDbEntity
  8
0
  6
CENTER
 62
     7
100
AcDbLine
 10
10.39916299999998
 20
35.340056
 30
0.0
 11
-3.600836499999985
 21
35.340056
 31
0.0
  0
LINE
  5
550
330
1F3
100
AcDbEntity
  8
0
  6
CENTER
 62
     7
100
AcDbLine
 10
3.399163499999986
 20
42.340056
 30
0.0
 11
3.399163499999986
 21
28.34005600000001
 31
0.0
  0
LINE
  5
551
330
1F3
100
AcDbEntity
  8
0
  6
CENTER
 62
     7
100
AcDbLine
 10
10.39916299999998
 20
10.54005599999999
 30
0.0
 11
-3.600836499999985
 21
10.54005599999999
 31
0.0
  0
LINE
  5
552
330
1F3
100
AcDbEntity
  8
0
  6
CENTER
 62
     7
100
AcDbLine
 10
3.399163499999986
 20
17.54005599999999
 30
0.0
 11
3.399163499999986
 21
3.54005579999999
 31
0.0
  0
LINE
  5
553
330
1F3
100
AcDbEntity
  8
0
  6
CENTER
 62
     7
100
AcDbLine
 10
15.79916499999999
 20
-14.25994399999999
 30
0.0
 11
1.799164899999993
 21
-14.25994399999999
 31
0.0
  0
LINE
  5
554
330
1F3
100
AcDbEntity
  8
0
  6
CENTER
 62
     7
100
AcDbLine
 10
8.799164799999999
 20
-7.259944200000006
 30
0.0
 11
8.799164799999999
 21
-21.25994400000001
 31
0.0
  0
LINE
  5
555
330
1F3
100
AcDbEntity
  8
0
  6
CENTER
 62
     7
100
AcDbLine
 10
48.09916700000002
 20
-14.25994399999999
 30
0.0
 11
34.699165
 21
-14.25994399999999
 31
0.0
  0
LINE
  5
556
330
1F3
100
AcDbEntity
  8
0
  6
CENTER
 62
     7
100
AcDbLine
 10
41.39916599999998
 20
-7.559944299999997
 30
0.0
 11
41.39916599999998
 21
-20.95994500000001
 31
0.0
  0
LINE
  5
557
330
1F3
100
AcDbEntity
  8
0
  6
CENTER
 62
     7
100
AcDbLine
 10
53.79916400000002
 20
10.54005599999999
 30
0.0
 11
39.79916399999999
 21
10.54005599999999
 31
0.0
  0
LINE
  5
558
330
1F3
100
AcDbEntity
  8
0
  6
CENTER
 62
     7
100
AcDbLine
 10
46.79916400000002
 20
17.54005599999999
 30
0.0
 11
46.79916400000002
 21
3.54005579999999
 31
0.0
  0
LINE
  5
559
330
1F3
100
AcDbEntity
  8
0
  6
CENTER
 62
     7
100
AcDbLine
 10
53.79916400000002
 20
35.340056
 30
0.0
 11
39.79916399999999
 21
35.340056
 31
0.0
  0
LINE
  5
55A
330
1F3
100
AcDbEntity
  8
0
  6
CENTER
 62
     7
100
AcDbLine
 10
46.79916400000002
 20
42.340056
 30
0.0
 11
46.79916400000002
 21
28.34005600000001
 31
0.0
  0
LINE
  5
55B
330
1F3
100
AcDbEntity
  8
0
  6
CENTER
 62
     7
100
AcDbLine
 10
49.39916599999998
 20
60.14005600000001
 30
0.0
 11
35.39916599999998
 21
60.14005600000001
 31
0.0
  0
LINE
  5
55C
330
1F3
100
AcDbEntity
  8
0
  6
CENTER
 62
     7
100
AcDbLine
 10
42.39916599999998
 20
67.14005600000001
 30
0.0
 11
42.39916599999998
 21
53.14005599999998
 31
0.0
  0
LINE
  5
55D
330
1F3
100
AcDbEntity
  8
0
  6
CENTER
 62
     7
100
AcDbLine
 10
14.79916499999999
 20
60.14005600000001
 30
0.0
 11
0.799164889999986
 21
60.14005600000001
 31
0.0
  0
LINE
  5
55E
330
1F3
100
AcDbEntity
  8
0
  6
CENTER
 62
     7
100
AcDbLine
 10
7.799164799999999
 20
67.14005600000001
 30
0.0
 11
7.799164799999999
 21
53.14005599999998
 31
0.0
  0
CIRCLE
  5
55F
330
1F3
100
AcDbEntity
  8
0
  6
Continuous
 62
     3
100
AcDbCircle
 10
41.39916599999998
 20
-14.25994399999999
 30
0.0
 40
3.7
  0
CIRCLE
  5
560
330
1F3
100
AcDbEntity
  8
0
  6
Continuous
 62
     3
100
AcDbCircle
 10
7.799164799999999
 20
60.14005600000001
 30
0.0
 40
4.0
  0
CIRCLE
  5
561
330
1F3
100
AcDbEntity
  8
0
  6
Continuous
 62
     3
100
AcDbCircle
 10
3.399163499999986
 20
35.340056
 30
0.0
 40
4.0
  0
CIRCLE
  5
562
330
1F3
100
AcDbEntity
  8
0
  6
Continuous
 62
     3
100
AcDbCircle
 10
42.39916599999998
 20
60.14005600000001
 30
0.0
 40
4.0
  0
CIRCLE
  5
563
330
1F3
100
AcDbEntity
  8
0
  6
Continuous
 62
     3
100
AcDbCircle
 10
46.79916400000002
 20
35.340056
 30
0.0
 40
4.0
  0
CIRCLE
  5
564
330
1F3
100
AcDbEntity
  8
0
  6
Continuous
 62
     3
100
AcDbCircle
 10
3.399163499999986
 20
10.54005599999999
 30
0.0
 40
4.0
  0
CIRCLE
  5
565
330
1F3
100
AcDbEntity
  8
0
  6
Continuous
 62
     3
100
AcDbCircle
 10
8.799164799999999
 20
-14.25994399999999
 30
0.0
 40
4.0
  0
CIRCLE
  5
566
330
1F3
100
AcDbEntity
  8
0
  6
Continuous
 62
     3
100
AcDbCircle
 10
46.79916400000002
 20
10.54005599999999
 30
0.0
 40
4.0
  0
CIRCLE
  5
567
330
1F3
100
AcDbEntity
  8
0
  6
Continuous
 62
     3
100
AcDbCircle
 10
7.799164799999999
 20
60.14005600000001
 30
0.0
 40
2.75
  0
CIRCLE
  5
568
330
1F3
100
AcDbEntity
  8
0
  6
Continuous
 62
     3
100
AcDbCircle
 10
3.399163499999986
 20
35.340056
 30
0.0
 40
2.75
  0
CIRCLE
  5
569
330
1F3
100
AcDbEntity
  8
0
  6
Continuous
 62
     3
100
AcDbCircle
 10
3.399163499999986
 20
10.54005599999999
 30
0.0
 40
2.75
  0
CIRCLE
  5
56A
330
1F3
100
AcDbEntity
  8
0
  6
Continuous
 62
     3
100
AcDbCircle
 10
42.39916599999998
 20
60.14005600000001
 30
0.0
 40
2.75
  0
CIRCLE
  5
56B
330
1F3
100
AcDbEntity
  8
0
  6
Continuous
 62
     3
100
AcDbCircle
 10
46.79916400000002
 20
35.340056
 30
0.0
 40
2.75
  0
CIRCLE
  5
56C
330
1F3
100
AcDbEntity
  8
0
  6
Continuous
 62
     3
100
AcDbCircle
 10
46.79916400000002
 20
10.54005599999999
 30
0.0
 40
2.75
  0
CIRCLE
  5
56D
330
1F3
100
AcDbEntity
  8
0
  6
Continuous
 62
     3
100
AcDbCircle
 10
41.39916599999998
 20
-14.25994399999999
 30
0.0
 40
2.45
  0
CIRCLE
  5
56E
330
1F3
100
AcDbEntity
  8
0
  6
Continuous
 62
     3
100
AcDbCircle
 10
8.799164799999999
 20
-14.25994399999999
 30
0.0
 40
2.75
  0
DIMENSION
  5
56F
330
1F3
100
AcDbEntity
  8
AM_5
100
AcDbDimension
  2
*D38
 10
71.59916700000002
 20
73.94005600000003
 30
0.0
 11
68.49916700000001
 21
67.04005600000003
 31
0.0
 70
    32
 71
     5
 42
13.80000000000001
  3
SYS$0
100
AcDbAlignedDimension
 13
49.39916599999998
 23
60.14005600000001
 33
0.0
 14
56.59916700000002
 24
73.94005600000003
 34
0.0
 50
90.0
100
AcDbRotatedDimension
  0
DIMENSION
  5
570
330
1F3
100
AcDbEntity
  8
AM_5
100
AcDbDimension
  2
*D39
 10
71.59916700000014
 20
35.340056
 30
0.0
 11
68.49916700000012
 21
47.74005600000001
 31
0.0
 70
    32
 71
     5
 42
24.80000000000001
  3
SYS$0
100
AcDbAlignedDimension
 13
49.39916599999998
 23
60.14005600000001
 33
0.0
 14
53.79916400000002
 24
35.340056
 34
0.0
 50
90.0
100
AcDbRotatedDimension
  0
DIMENSION
  5
571
330
1F3
100
AcDbEntity
  8
AM_5
100
AcDbDimension
  2
*D40
 10
71.59916700000025
 20
10.54005599999999
 30
0.0
 11
68.49916700000026
 21
22.94005600000001
 31
0.0
 70
    32
 71
     5
 42
24.80000000000001
  3
SYS$0
100
AcDbAlignedDimension
 13
53.79916400000002
 23
35.340056
 33
0.0
 14
53.79916400000002
 24
10.54005599999999
 34
0.0
 50
90.0
100
AcDbRotatedDimension
  0
DIMENSION
  5
572
330
1F3
100
AcDbEntity
  8
AM_5
100
AcDbDimension
  2
*D41
 10
71.59916700000031
 20
-14.25994399999999
 30
0.0
 11
68.49916700000031
 21
-1.859943999999993
 31
0.0
 70
    32
 71
     5
 42
24.79999999999999
  3
SYS$0
100
AcDbAlignedDimension
 13
53.79916400000002
 23
10.54005599999999
 33
0.0
 14
48.09916700000002
 24
-14.25994399999999
 34
0.0
 50
90.0
100
AcDbRotatedDimension
  0
DIMENSION
  5
573
330
1F3
100
AcDbEntity
  8
AM_5
100
AcDbDimension
  2
*D42
 10
71.59916700000036
 20
-28.059944
 30
0.0
 11
68.49916700000036
 21
-21.15994399999999
 31
0.0
 70
    32
 71
     5
 42
13.8
  3
SYS$0
100
AcDbAlignedDimension
 13
48.09916700000002
 23
-14.25994399999999
 33
0.0
 14
56.59916700000002
 24
-28.059944
 34
0.0
 50
90.0
100
AcDbRotatedDimension
  0
LINE
  5
5FB
330
1F3
100
AcDbEntity
  8
AM_5
100
AcDbLine
 10
107.4712625528386
 20
85.41865416775804
 30
0.0
 11
65.79715461679558
 21
85.41865416775795
 31
0.0
  0
LINE
  5
5FC
330
1F3
100
AcDbEntity
  8
AM_5
100
AcDbLine
 10
65.79715461679558
 20
85.41865416775795
 30
0.0
 11
46.474852522955
 21
64.54332516808449
 31
0.0
  0
MTEXT
  5
5FD
330
1F3
100
AcDbEntity
  8
AM_5
 62
     2
100
AcDbMText
 10
87.5369625745373
 20
88.668654167758
 30
0.0
 40
3.5
 41
0.0
 71
     5
 72
     1
  1
8-%%c5.5×\U+22058サラ
 73
     1
 44
1.0
1001
ACAD
1000
MTEXTBEGIN
1070
    73
1070
     1
1070
    44
1040
1.0
1070
    74
1070
     0
1000
MTEXTEND
  0
LINE
  5
5FE
330
1F3
100
AcDbEntity
  8
AM_5
100
AcDbLine
 10
39.68204165136326
 20
57.20454322127704
 30
0.0
 11
45.11629034863669
 21
63.07556877872301
 31
0.0
  0
LWPOLYLINE
  5
5FF
330
1F3
100
AcDbEntity
  8
AM_5
100
AcDbPolyline
 90
        2
 70
     1
 43
0.5
 10
39.51222137957347
 20
57.02107367260684
 42
1.0
 10
39.85186192315306
 20
57.38801276994724
 42
1.0
  0
INSERT
  5
600
330
1F3
100
AcDbEntity
  8
AM_5
100
AcDbBlockReference
  2
GENDOT
 10
45.11629034863669
 20
63.07556877872301
 30
0.0
 41
1.999999999999994
 42
1.999999999999999
 43
2.0
 50
227.2125098300961
  0
LINE
  5
718
330
1F3
100
AcDbEntity
  8
AM_5
100
AcDbLine
 10
-0.5507507529710907
 20
121.5204057964752
 30
0.0
 11
11.44924924702897
 21
121.5204057964752
 31
0.0
  0
LINE
  5
719
330
1F3
100
AcDbEntity
  8
AM_5
100
AcDbLine
 10
11.44924924702897
 20
121.5204057964752
 30
0.0
 11
22.08271953591137
 21
136.0169644712024
 31
0.0
  0
MTEXT
  5
71B
330
1F3
100
AcDbEntity
  8
AM_5
 62
     2
100
AcDbMText
 10
4.699249247028909
 20
124.7704057964752
 30
0.0
 40
3.5
 41
0.0
 71
     5
 72
     1
  1
\U+22058.2
 73
     1
 44
1.0
1001
ACAD
1000
MTEXTBEGIN
1070
    73
1070
     1
1070
    44
1040
1.0
1070
    74
1070
     0
1000
MTEXTEND
  0
LINE
  5
71C
330
1F3
100
AcDbEntity
  8
AM_5
100
AcDbLine
 10
27.52415056916925
 20
143.4352411113861
 30
0.0
 11
22.67417943083071
 21
136.8232988886137
 31
0.0
  0
INSERT
  5
71E
330
1F3
100
AcDbEntity
  8
AM_5
100
AcDbBlockReference
  2
_DOT
 10
22.67417943083071
 20
136.8232988886137
 30
0.0
 50
53.73932464597971
  0
POLYLINE
  5
721
330
1F3
100
AcDbEntity
  8
0
  6
ByBlock
 62
     3
100
AcDb2dPolyline
 66
     1
 10
0.0
 20
0.0
 30
0.0
 70
     1
 40
0.4000000100000002
 41
0.4000000100000002
  0
VERTEX
  5
722
330
721
100
AcDbEntity
  8
0
  6
ByBlock
 62
     3
100
AcDbVertex
100
AcDb2dVertex
 10
27.64244254815312
 20
143.5965079948684
 30
0.0
 42
1.0
  0
VERTEX
  5
723
330
721
100
AcDbEntity
  8
0
  6
ByBlock
 62
     3
100
AcDbVertex
100
AcDb2dVertex
 10
27.40585859018538
 20
143.2739742279039
 30
0.0
 42
1.0
  0
SEQEND
  5
724
330
721
100
AcDbEntity
  8
0
  6
ByBlock
 62
     3
  0
DIMENSION
  5
79C
330
1F3
100
AcDbEntity
  8
AM_5
100
AcDbDimension
  2
*D49
 10
71.61355544807065
 20
142.7292899999998
 30
0.0
 11
68.41355544807064
 21
148.9959566666666
 31
0.0
 70
    32
 71
     5
 42
1.500009999999917
  3
DIMSTYLE$0
100
AcDbAlignedDimension
 13
56.599167
 23
141.22928
 33
0.0
 14
56.59916700000001
 24
142.7292899999999
 34
0.0
 50
90.0
100
AcDbRotatedDimension
1001
ACAD
1000
DSTYLE
1002
{
1070
    42
1040
1.0
1070
    44
1040
1.0
1070
   343
1005
207
1070
   344
1005
207
1070
    77
1070
     1
1070
   145
1040
1.0
1070
   271
1070
     1
1070
   279
1070
     0
1002
}
  0
DIMENSION
  5
7B4
330
1F3
100
AcDbEntity
  8
AM_5
100
AcDbDimension
  2
*D50
 10
71.61355544807065
 20
137.5292599999999
 30
0.0
 11
68.41355544807064
 21
131.2625933333333
 31
0.0
 70
    32
 71
     5
 42
1.500010000000003
  3
DIMSTYLE$0
100
AcDbAlignedDimension
 13
56.599167
 23
139.02927
 33
0.0
 14
56.599167
 24
137.52926
 34
0.0
 50
90.00000000000003
100
AcDbRotatedDimension
1001
ACAD
1000
DSTYLE
1002
{
1070
    42
1040
1.0
1070
    44
1040
1.0
1070
   343
1005
207
1070
   344
1005
207
1070
    77
1070
     1
1070
   145
1040
1.0
1070
   271
1070
     1
1070
   279
1070
     0
1002
}
  0
DIMENSION
  5
7CC
330
1F3
100
AcDbEntity
  8
AM_5
100
AcDbDimension
  2
*D51
 10
81.61355544807065
 20
142.7292899999998
 30
0.0
 11
78.41355544807064
 21
148.5292899999999
 31
0.0
 70
    32
 71
     5
 42
5.200029999999912
  3
DIMSTYLE$0
100
AcDbAlignedDimension
 13
56.599167
 23
137.52926
 33
0.0
 14
56.599167
 24
142.7292899999999
 34
0.0
 50
90.00000000000003
100
AcDbRotatedDimension
1001
ACAD
1000
DSTYLE
1002
{
1070
    42
1040
1.0
1070
    44
1040
1.0
1070
   343
1005
207
1070
   344
1005
207
1070
    77
1070
     1
1070
   145
1040
1.0
1070
   271
1070
     1
1070
   279
1070
     0
1002
}
  0
DIMENSION
  5
820
330
1F3
100
AcDbEntity
  8
AM_5
100
AcDbDimension
  2
*D52
 10
71.61355544807065
 20
141.2292799999999
 30
0.0
 11
57.69321476349478
 21
147.8841830888281
 31
0.0
 70
   160
 71
     5
 42
2.200009999999991
  3
DIMSTYLE$0
100
AcDbAlignedDimension
 13
56.599167
 23
139.02927
 33
0.0
 14
56.599167
 24
141.22928
 34
0.0
 50
90.00000000000003
100
AcDbRotatedDimension
1001
ACAD
1000
DSTYLE
1002
{
1070
    42
1040
1.0
1070
    44
1040
1.0
1070
   343
1005
207
1070
   344
1005
207
1070
    77
1070
     1
1070
   145
1040
1.0
1070
   271
1070
     1
1070
   279
1070
     1
1002
}
  0
ENDSEC
  0
SECTION
  2
OBJECTS
  0
DICTIONARY
  5
1C9
330
0
100
AcDbDictionary
281
     1
  3
ACAD_COLOR
350
1EC
  3
ACAD_GROUP
350
1CA
  3
ACAD_LAYOUT
350
1EB
  3
ACAD_MATERIAL
350
1CD
  3
ACAD_MLINESTYLE
350
1E8
  3
ACAD_PLOTSETTINGS
350
1EA
  3
ACAD_PLOTSTYLENAME
350
1CB
  3
ACAD_TABLESTYLE
350
1ED
  3
ACAD_VISUALSTYLE
350
1D1
  3
AcDbVariableDictionary
350
2D2
  3
AcmDictionary
350
289
  3
AMG
350
230
  3
AMGSNAPSETTINGS
350
2CA
  3
DWGPROPS
350
9AE
  0
DICTIONARY
  5
4B3
330
1BF
100
AcDbDictionary
280
     1
281
     1
  3
ACAD_LAYERSTATES
360
4B4
  0
DICTIONARY
  5
71F
330
1F3
100
AcDbDictionary
280
     1
281
     1
  3
ACAD_SORTENTS
360
720
  0
DICTIONARY
  5
1EC
102
{ACAD_REACTORS
330
1C9
102
}
330
1C9
100
AcDbDictionary
281
     1
  0
DICTIONARY
  5
1CA
102
{ACAD_REACTORS
330
1C9
102
}
330
1C9
100
AcDbDictionary
281
     1
  0
DICTIONARY
  5
1EB
102
{ACAD_REACTORS
330
1C9
102
}
330
1C9
100
AcDbDictionary
281
     1
  3
Model
350
1F6
  3
レイアウト1
350
1F2
  0
DICTIONARY
  5
1CD
102
{ACAD_REACTORS
330
1C9
102
}
330
1C9
100
AcDbDictionary
281
     1
  3
ByBlock
350
1CF
  3
ByLayer
350
1CE
  3
Global
350
1D0
  0
DICTIONARY
  5
1E8
102
{ACAD_REACTORS
330
1C9
102
}
330
1C9
100
AcDbDictionary
281
     1
  3
Standard
350
1E9
  0
DICTIONARY
  5
1EA
102
{ACAD_REACTORS
330
1C9
102
}
330
1C9
100
AcDbDictionary
281
     1
  0
ACDBDICTIONARYWDFLT
  5
1CB
102
{ACAD_REACTORS
330
1C9
102
}
330
1C9
100
AcDbDictionary
281
     1
  3
Normal
350
1CC
100
AcDbDictionaryWithDefault
340
1CC
  0
DICTIONARY
  5
1ED
102
{ACAD_REACTORS
330
1C9
102
}
330
1C9
100
AcDbDictionary
281
     1
  3
Standard
350
1EE
  0
DICTIONARY
  5
1D1
102
{ACAD_REACTORS
330
1C9
102
}
330
1C9
100
AcDbDictionary
281
     1
  3
2dWireframe
350
1D7
  3
3D Hidden
350
1D9
  3
3dWireframe
350
1D8
  3
Basic
350
1D6
  3
Brighten
350
1DD
  3
ColorChange
350
1E1
  3
Conceptual
350
1DA
  3
Dim
350
1DC
  3
Facepattern
350
1E0
  3
Flat
350
1D2
  3
FlatWithEdges
350
1D3
  3
Gouraud
350
1D4
  3
GouraudWithEdges
350
1D5
  3
Linepattern
350
1DF
  3
Realistic
350
1DB
  3
Thicken
350
1DE
  0
DICTIONARY
  5
2D2
102
{ACAD_REACTORS
330
1C9
102
}
330
1C9
100
AcDbDictionary
281
     1
  3
CTABLESTYLE
350
2D3
  3
DIMASSOC
350
9AD
  3
INDEXCTL
350
9AC
  3
SORTENTS
350
9AB
  0
DICTIONARY
  5
289
102
{ACAD_REACTORS
330
1C9
102
}
330
1C9
100
AcDbDictionary
281
     1
  3
AcmStdDictionary
350
294
  3
AMDTSECTSYM_ARROWCOLOR
350
2B5
  0
DICTIONARY
  5
230
102
{ACAD_REACTORS
330
1C9
102
}
330
1C9
100
AcDbDictionary
281
     1
  0
DICTIONARY
  5
2CA
102
{ACAD_REACTORS
330
1C9
102
}
330
1C9
100
AcDbDictionary
281
     1
  0
XRECORD
  5
9AE
102
{ACAD_REACTORS
330
1C9
102
}
330
1C9
100
AcDbXrecord
280
     1
  1
DWGPROPS COOKIE
  2

  3

  4

  6

  7

  8
Administrator
  9

300
=
301
=
302
=
303
=
304
=
305
=
306
=
307
=
308
=
309
=
 40
0.0629950462962963
 41
2452815.812088194
 42
2456652.342945776
  1

 90
        0
  0
DICTIONARY
  5
4B4
102
{ACAD_REACTORS
330
4B3
102
}
330
4B3
100
AcDbDictionary
281
     1
  0
SORTENTSTABLE
  5
720
102
{ACAD_REACTORS
330
71F
102
}
330
71F
100
AcDbSortentsTable
330
1F3
331
104
  5
104
331
10C
  5
10C
331
153
  5
153
331
114
  5
114
331
15B
  5
15B
331
564
  5
564
331
11C
  5
11C
331
163
  5
163
331
56C
  5
56C
331
5FC
  5
5FC
331
71B
  5
71B
331
124
  5
124
331
16B
  5
16B
331
FD
  5
FD
331
555
  5
555
331
55D
  5
55D
331
105
  5
105
331
10D
  5
10D
331
154
  5
154
331
115
  5
115
331
15C
  5
15C
331
11D
  5
11D
331
565
  5
565
331
56D
  5
56D
331
5FD
  5
5FD
331
71C
  5
71C
331
125
  5
125
331
16C
  5
16C
331
13D
  5
13D
331
FE
  5
FE
331
556
  5
556
331
55E
  5
55E
331
106
  5
106
331
10E
  5
10E
331
155
  5
155
331
116
  5
116
331
15D
  5
15D
331
566
  5
566
331
11E
  5
11E
331
56E
  5
56E
331
5FE
  5
5FE
331
126
  5
126
331
16D
  5
16D
331
13E
  5
13E
331
F7
  5
F7
331
FF
  5
FF
331
54F
  5
54F
331
557
  5
557
331
55F
  5
55F
331
107
  5
107
331
156
  5
156
331
10F
  5
10F
331
117
  5
117
331
15E
  5
15E
331
11F
  5
11F
331
567
  5
567
331
56F
  5
56F
331
5FF
  5
5FF
331
71E
  5
725
331
137
  5
137
331
13F
  5
13F
331
F8
  5
F8
331
550
  5
550
331
558
  5
558
331
100
  5
100
331
14F
  5
14F
331
108
  5
108
331
110
  5
110
331
157
  5
157
331
560
  5
560
331
118
  5
118
331
15F
  5
15F
331
568
  5
568
331
570
  5
570
331
600
  5
600
331
120
  5
120
331
138
  5
138
331
F9
  5
F9
331
551
  5
551
331
559
  5
559
331
101
  5
101
331
109
  5
109
331
150
  5
150
331
158
  5
158
331
111
  5
111
331
119
  5
119
331
561
  5
561
331
569
  5
569
331
571
  5
571
331
718
  5
718
331
121
  5
121
331
168
  5
168
331
139
  5
139
331
FA
  5
FA
331
552
  5
552
331
55A
  5
55A
331
102
  5
102
331
10A
  5
10A
331
151
  5
151
331
112
  5
112
331
159
  5
159
331
562
  5
562
331
11A
  5
11A
331
56A
  5
56A
331
572
  5
572
331
719
  5
719
331
169
  5
169
331
122
  5
122
331
13A
  5
13A
331
FB
  5
FB
331
721
  5
71E
331
553
  5
553
331
55B
  5
55B
331
103
  5
103
331
10B
  5
10B
331
152
  5
152
331
113
  5
113
331
15A
  5
15A
331
11B
  5
11B
331
162
  5
162
331
563
  5
563
331
56B
  5
56B
331
573
  5
573
331
5FB
  5
5FB
331
123
  5
123
331
16A
  5
16A
331
13B
  5
13B
331
FC
  5
FC
331
554
  5
554
331
55C
  5
55C
  0
LAYOUT
  5
1F6
102
{ACAD_XDICTIONARY
360
9B9
102
}
102
{ACAD_REACTORS
330
1EB
102
}
330
1EB
100
AcDbPlotSettings
  1

  2
\\CAD-SRV01\FX DocuColor 1250 PLW
  4

  6

 40
0.0
 41
0.0
 42
0.0
 43
0.0
 44
0.0
 45
0.0
 46
0.0
 47
0.0
 48
0.0
 49
0.0
140
0.0
141
0.0
142
1.0
143
1.0
 70
  1712
 72
     0
 73
     0
 74
     0
  7

 75
     0
147
1.0
148
0.0
149
0.0
100
AcDbLayout
  1
Model
 70
     1
 71
     0
 10
0.0
 20
0.0
 11
12.0
 21
9.0
 12
0.0
 22
0.0
 32
0.0
 14
0.0
 24
0.0
 34
0.0
 15
0.0
 25
0.0
 35
0.0
146
0.0
 13
0.0
 23
0.0
 33
0.0
 16
1.0
 26
0.0
 36
0.0
 17
0.0
 27
1.0
 37
0.0
 76
     0
330
1F3
331
1F7
  0
LAYOUT
  5
1F2
102
{ACAD_XDICTIONARY
360
9B7
102
}
102
{ACAD_REACTORS
330
1EB
102
}
330
1EB
100
AcDbPlotSettings
  1

  2
\\CAD-SRV01\FX DocuColor 1250 PLW
  4

  6

 40
0.0
 41
0.0
 42
0.0
 43
0.0
 44
0.0
 45
0.0
 46
0.0
 47
0.0
 48
0.0
 49
0.0
140
0.0
141
0.0
142
1.0
143
1.0
 70
   688
 72
     0
 73
     0
 74
     5
  7

 75
    16
147
1.0
148
0.0
149
0.0
100
AcDbLayout
  1
レイアウト1
 70
     1
 71
     1
 10
-211.0
 20
-100.0
 11
170.0
 21
173.0
 12
0.0
 22
0.0
 32
0.0
 14
1.000000000000000E+20
 24
1.000000000000000E+20
 34
1.000000000000000E+20
 15
-1.000000000000000E+20
 25
-1.000000000000000E+20
 35
-1.000000000000000E+20
146
0.0
 13
0.0
 23
0.0
 33
0.0
 16
1.0
 26
0.0
 36
0.0
 17
0.0
 27
1.0
 37
0.0
 76
     0
330
1EF
  0
MATERIAL
  5
1CF
102
{ACAD_XDICTIONARY
360
9B1
102
}
102
{ACAD_REACTORS
330
1CD
102
}
330
1CD
100
AcDbMaterial
  1
ByBlock
  0
MATERIAL
  5
1CE
102
{ACAD_XDICTIONARY
360
9AF
102
}
102
{ACAD_REACTORS
330
1CD
102
}
330
1CD
100
AcDbMaterial
  1
ByLayer
  0
MATERIAL
  5
1D0
102
{ACAD_XDICTIONARY
360
9B3
102
}
102
{ACAD_REACTORS
330
1CD
102
}
330
1CD
100
AcDbMaterial
  1
Global
  0
MLINESTYLE
  5
1E9
102
{ACAD_REACTORS
330
1E8
102
}
330
1E8
100
AcDbMlineStyle
  2
STANDARD
 70
     0
  3

 62
   256
 51
90.0
 52
90.0
 71
     2
 49
0.5
 62
   256
  6
BYLAYER
 49
-0.5
 62
   256
  6
BYLAYER
  0
ACDBPLACEHOLDER
  5
1CC
102
{ACAD_REACTORS
330
1CB
102
}
330
1CB
  0
TABLESTYLE
  5
1EE
102
{ACAD_XDICTIONARY
360
9B5
102
}
102
{ACAD_REACTORS
330
1ED
102
}
330
1ED
100
AcDbTableStyle
  3
Standard
 70
     0
 71
     0
 40
0.06
 41
0.06
280
     0
281
     0
  7
STANDARD
140
0.18
170
     2
 62
     0
 63
     7
283
     0
274
    -2
284
     1
 64
     0
275
    -2
285
     1
 65
     0
276
    -2
286
     1
 66
     0
277
    -2
287
     1
 67
     0
278
    -2
288
     1
 68
     0
279
    -2
289
     1
 69
     0
  7
STANDARD
140
0.25
170
     5
 62
     0
 63
     7
283
     0
274
    -2
284
     1
 64
     0
275
    -2
285
     1
 65
     0
276
    -2
286
     1
 66
     0
277
    -2
287
     1
 67
     0
278
    -2
288
     1
 68
     0
279
    -2
289
     1
 69
     0
  7
STANDARD
140
0.18
170
     5
 62
     0
 63
     7
283
     0
274
    -2
284
     1
 64
     0
275
    -2
285
     1
 65
     0
276
    -2
286
     1
 66
     0
277
    -2
287
     1
 67
     0
278
    -2
288
     1
 68
     0
279
    -2
289
     1
 69
     0
  0
VISUALSTYLE
  5
1D7
102
{ACAD_REACTORS
330
1D1
102
}
330
1D1
100
AcDbVisualStyle
  2
2dWireframe
 70
     4
 71
     0
 72
     2
 73
     0
 90
        0
 40
-0.6
 41
-30.0
 62
     5
 63
     7
 74
     1
 91
        4
 64
     7
 65
   257
 75
     1
175
     1
 42
1.0
 92
        0
 66
   257
 43
1.0
 76
     1
 77
     6
 78
     2
 67
     7
 79
     5
170
     0
171
     0
290
     0
174
     0
 93
        1
 44
0.0
173
     0
291
     0
 45
0.0
1001
ACAD
1000
AcDbSavedByObjectVersion
1070
     0
  0
VISUALSTYLE
  5
1D9
102
{ACAD_REACTORS
330
1D1
102
}
330
1D1
100
AcDbVisualStyle
  2
3D Hidden
 70
     6
 71
     1
 72
     2
 73
     2
 90
        0
 40
-0.6
 41
-30.0
 62
     5
 63
     7
 74
     2
 91
        2
 64
     7
 65
   257
 75
     2
175
     1
 42
40.0
 92
        0
 66
   257
 43
1.0
 76
     1
 77
     6
 78
     2
 67
     7
 79
     3
170
     0
171
     0
290
     0
174
     0
 93
        1
 44
0.0
173
     0
291
     0
 45
0.0
1001
ACAD
1000
AcDbSavedByObjectVersion
1070
     0
  0
VISUALSTYLE
  5
1D8
102
{ACAD_REACTORS
330
1D1
102
}
330
1D1
100
AcDbVisualStyle
  2
3dWireframe
 70
     5
 71
     0
 72
     2
 73
     0
 90
        0
 40
-0.6
 41
-30.0
 62
     5
 63
     7
 74
     1
 91
        4
 64
     7
 65
   257
 75
     1
175
     1
 42
1.0
 92
        0
 66
   257
 43
1.0
 76
     1
 77
     6
 78
     2
 67
     7
 79
     5
170
     0
171
     0
290
     0
174
     0
 93
        1
 44
0.0
173
     0
291
     0
 45
0.0
1001
ACAD
1000
AcDbSavedByObjectVersion
1070
     0
  0
VISUALSTYLE
  5
1D6
102
{ACAD_REACTORS
330
1D1
102
}
330
1D1
100
AcDbVisualStyle
  2
Basic
 70
     7
 71
     1
 72
     0
 73
     1
 90
        0
 40
-0.6
 41
-30.0
 62
     5
 63
     7
 74
     0
 91
        4
 64
     7
 65
   257
 75
     1
175
     1
 42
1.0
 92
        8
 66
     7
 43
1.0
 76
     1
 77
     6
 78
     2
 67
     7
 79
     5
170
     0
171
     0
290
     0
174
     0
 93
        1
 44
0.0
173
     0
291
     1
 45
0.0
1001
ACAD
1000
AcDbSavedByObjectVersion
1070
     0
  0
VISUALSTYLE
  5
1DD
102
{ACAD_REACTORS
330
1D1
102
}
330
1D1
100
AcDbVisualStyle
  2
Brighten
 70
    12
 71
     2
 72
     2
 73
     0
 90
        0
 40
-0.6
 41
-30.0
 62
     5
 63
     7
 74
     1
 91
        4
 64
     7
 65
   257
 75
     1
175
     1
 42
1.0
 92
        8
 66
     7
 43
1.0
 76
     1
 77
     6
 78
     2
 67
     7
 79
     5
170
     0
171
     0
290
     0
174
     0
 93
        1
 44
50.0
173
     0
291
     1
 45
0.0
1001
ACAD
1000
AcDbSavedByObjectVersion
1070
     0
  0
VISUALSTYLE
  5
1E1
102
{ACAD_REACTORS
330
1D1
102
}
330
1D1
100
AcDbVisualStyle
  2
ColorChange
 70
    16
 71
     2
 72
     2
 73
     3
 90
        0
 40
-0.6
 41
-30.0
 62
     5
 63
     8
 74
     1
 91
        4
 64
     7
 65
   257
 75
     1
175
     1
 42
1.0
 92
        8
 66
     8
 43
1.0
 76
     1
 77
     6
 78
     2
 67
     7
 79
     5
170
     0
171
     0
290
     0
174
     0
 93
        1
 44
0.0
173
     0
291
     1
 45
0.0
1001
ACAD
1000
AcDbSavedByObjectVersion
1070
     0
  0
VISUALSTYLE
  5
1DA
102
{ACAD_REACTORS
330
1D1
102
}
330
1D1
100
AcDbVisualStyle
  2
Conceptual
 70
     9
 71
     3
 72
     2
 73
     0
 90
        0
 40
-0.6
 41
-30.0
 62
     5
 63
     7
 74
     2
 91
        2
 64
     7
 65
   257
 75
     1
175
     1
 42
40.0
 92
        8
 66
     7
 43
1.0
 76
     1
 77
     6
 78
     2
 67
     7
 79
     3
170
     0
171
     0
290
     0
174
     0
 93
        1
 44
0.0
173
     0
291
     0
 45
0.0
1001
ACAD
1000
AcDbSavedByObjectVersion
1070
     0
  0
VISUALSTYLE
  5
1DC
102
{ACAD_REACTORS
330
1D1
102
}
330
1D1
100
AcDbVisualStyle
  2
Dim
 70
    11
 71
     2
 72
     2
 73
     0
 90
        0
 40
-0.6
 41
-30.0
 62
     5
 63
     7
 74
     1
 91
        4
 64
     7
 65
   257
 75
     1
175
     1
 42
1.0
 92
        8
 66
     7
 43
1.0
 76
     1
 77
     6
 78
     2
 67
     7
 79
     5
170
     0
171
     0
290
     0
174
     0
 93
        1
 44
-50.0
173
     0
291
     1
 45
0.0
1001
ACAD
1000
AcDbSavedByObjectVersion
1070
     0
  0
VISUALSTYLE
  5
1E0
102
{ACAD_REACTORS
330
1D1
102
}
330
1D1
100
AcDbVisualStyle
  2
Facepattern
 70
    15
 71
     2
 72
     2
 73
     0
 90
        0
 40
-0.6
 41
-30.0
 62
     5
 63
     7
 74
     1
 91
        4
 64
     7
 65
   257
 75
     1
175
     1
 42
1.0
 92
        8
 66
     7
 43
1.0
 76
     1
 77
     6
 78
     2
 67
     7
 79
     5
170
     0
171
     0
290
     0
174
     0
 93
        1
 44
0.0
173
     0
291
     1
 45
0.0
1001
ACAD
1000
AcDbSavedByObjectVersion
1070
     0
  0
VISUALSTYLE
  5
1D2
102
{ACAD_REACTORS
330
1D1
102
}
330
1D1
100
AcDbVisualStyle
  2
Flat
 70
     0
 71
     2
 72
     1
 73
     1
 90
        2
 40
-0.6
 41
30.0
 62
     5
 63
     7
 74
     0
 91
        4
 64
     7
 65
   257
 75
     1
175
     1
 42
1.0
 92
        8
 66
     7
 43
1.0
 76
     1
 77
     6
 78
     2
 67
     7
 79
     5
170
     0
171
     0
290
     0
174
     0
 93
       13
 44
0.0
173
     0
291
     1
 45
0.0
1001
ACAD
1000
AcDbSavedByObjectVersion
1070
     0
  0
VISUALSTYLE
  5
1D3
102
{ACAD_REACTORS
330
1D1
102
}
330
1D1
100
AcDbVisualStyle
  2
FlatWithEdges
 70
     1
 71
     2
 72
     1
 73
     1
 90
        2
 40
-0.6
 41
30.0
 62
     5
 63
     7
 74
     1
 91
        4
 64
     7
 65
   257
 75
     1
175
     1
 42
1.0
 92
        0
 66
   257
 43
1.0
 76
     1
 77
     6
 78
     2
 67
     7
 79
     5
170
     0
171
     0
290
     0
174
     0
 93
       13
 44
0.0
173
     0
291
     1
 45
0.0
1001
ACAD
1000
AcDbSavedByObjectVersion
1070
     0
  0
VISUALSTYLE
  5
1D4
102
{ACAD_REACTORS
330
1D1
102
}
330
1D1
100
AcDbVisualStyle
  2
Gouraud
 70
     2
 71
     2
 72
     2
 73
     1
 90
        2
 40
-0.6
 41
30.0
 62
     5
 63
     7
 74
     0
 91
        4
 64
     7
 65
   257
 75
     1
175
     1
 42
1.0
 92
        0
 66
     7
 43
1.0
 76
     1
 77
     6
 78
     2
 67
     7
 79
     5
170
     0
171
     0
290
     0
174
     0
 93
       13
 44
0.0
173
     0
291
     1
 45
0.0
1001
ACAD
1000
AcDbSavedByObjectVersion
1070
     0
  0
VISUALSTYLE
  5
1D5
102
{ACAD_REACTORS
330
1D1
102
}
330
1D1
100
AcDbVisualStyle
  2
GouraudWithEdges
 70
     3
 71
     2
 72
     2
 73
     1
 90
        2
 40
-0.6
 41
30.0
 62
     5
 63
     7
 74
     1
 91
        4
 64
     7
 65
   257
 75
     1
175
     1
 42
1.0
 92
        0
 66
   257
 43
1.0
 76
     1
 77
     6
 78
     2
 67
     7
 79
     5
170
     0
171
     0
290
     0
174
     0
 93
       13
 44
0.0
173
     0
291
     1
 45
0.0
1001
ACAD
1000
AcDbSavedByObjectVersion
1070
     0
  0
VISUALSTYLE
  5
1DF
102
{ACAD_REACTORS
330
1D1
102
}
330
1D1
100
AcDbVisualStyle
  2
Linepattern
 70
    14
 71
     2
 72
     2
 73
     0
 90
        0
 40
-0.6
 41
-30.0
 62
     5
 63
     7
 74
     1
 91
        4
 64
     7
 65
   257
 75
     7
175
     7
 42
1.0
 92
        8
 66
     7
 43
1.0
 76
     1
 77
     6
 78
     2
 67
     7
 79
     5
170
     0
171
     0
290
     0
174
     0
 93
        1
 44
0.0
173
     0
291
     1
 45
0.0
1001
ACAD
1000
AcDbSavedByObjectVersion
1070
     0
  0
VISUALSTYLE
  5
1DB
102
{ACAD_REACTORS
330
1D1
102
}
330
1D1
100
AcDbVisualStyle
  2
Realistic
 70
     8
 71
     2
 72
     2
 73
     0
 90
        0
 40
-0.6
 41
-30.0
 62
     5
 63
     7
 74
     1
 91
        0
 64
     7
 65
   257
 75
     1
175
     1
 42
1.0
 92
        8
 66
     8
 43
1.0
 76
     1
 77
     6
 78
     2
 67
     7
 79
     5
170
     0
171
     0
290
     0
174
     0
 93
       13
 44
0.0
173
     0
291
     0
 45
0.0
1001
ACAD
1000
AcDbSavedByObjectVersion
1070
     0
  0
VISUALSTYLE
  5
1DE
102
{ACAD_REACTORS
330
1D1
102
}
330
1D1
100
AcDbVisualStyle
  2
Thicken
 70
    13
 71
     2
 72
     2
 73
     0
 90
        0
 40
-0.6
 41
-30.0
 62
     5
 63
     7
 74
     1
 91
        4
 64
     7
 65
   257
 75
     1
175
     1
 42
1.0
 92
       12
 66
     7
 43
1.0
 76
     1
 77
     6
 78
     2
 67
     7
 79
     5
170
     0
171
     0
290
     0
174
     0
 93
        1
 44
0.0
173
     0
291
     1
 45
0.0
1001
ACAD
1000
AcDbSavedByObjectVersion
1070
     0
  0
DICTIONARYVAR
  5
2D3
102
{ACAD_REACTORS
330
2D2
102
}
330
2D2
100
DictionaryVariables
280
     0
  1
STANDARD
  0
DICTIONARYVAR
  5
9AD
102
{ACAD_REACTORS
330
2D2
102
}
330
2D2
100
DictionaryVariables
280
     0
  1
1
  0
DICTIONARYVAR
  5
9AC
102
{ACAD_REACTORS
330
2D2
102
}
330
2D2
100
DictionaryVariables
280
     0
  1
0
  0
DICTIONARYVAR
  5
9AB
102
{ACAD_REACTORS
330
2D2
102
}
330
2D2
100
DictionaryVariables
280
     0
  1
127
  0
DICTIONARY
  5
294
102
{ACAD_REACTORS
330
289
102
}
330
289
100
AcDbDictionary
281
     1
  0
XRECORD
  5
2B5
102
{ACAD_REACTORS
330
289
102
}
330
289
100
AcDbXrecord
280
     1
 90
-1023410169
  0
DICTIONARY
  5
9B9
330
1F6
100
AcDbDictionary
280
     1
281
     1
  3
ACAD_XREC_ROUNDTRIP
360
9BA
  0
DICTIONARY
  5
9B7
330
1F2
100
AcDbDictionary
280
     1
281
     1
  3
ACAD_XREC_ROUNDTRIP
360
9B8
  0
DICTIONARY
  5
9B1
330
1CF
100
AcDbDictionary
280
     1
281
     1
  3
ACAD_XREC_ROUNDTRIP
360
9B2
  0
DICTIONARY
  5
9AF
330
1CE
100
AcDbDictionary
280
     1
281
     1
  3
ACAD_XREC_ROUNDTRIP
360
9B0
  0
DICTIONARY
  5
9B3
330
1D0
100
AcDbDictionary
280
     1
281
     1
  3
ACAD_XREC_ROUNDTRIP
360
9B4
  0
DICTIONARY
  5
9B5
330
1EE
100
AcDbDictionary
280
     1
281
     1
  3
ACAD_XREC_ROUNDTRIP
360
9B6
  0
XRECORD
  5
9BA
102
{ACAD_REACTORS
330
9B9
102
}
330
9B9
100
AcDbXrecord
280
     1
102
SHADEPLOT
 70
     0
102
SHADEPLOTRESLEVEL
 70
     2
102
SHADEPLOTCUSTOMDPI
 70
   300
  0
XRECORD
  5
9B8
102
{ACAD_REACTORS
330
9B7
102
}
330
9B7
100
AcDbXrecord
280
     1
102
SHADEPLOT
 70
     0
102
SHADEPLOTRESLEVEL
 70
     2
102
SHADEPLOTCUSTOMDPI
 70
   300
  0
XRECORD
  5
9B2
102
{ACAD_REACTORS
330
9B1
102
}
330
9B1
100
AcDbXrecord
280
     1
102
MATERIAL
148
0.0
149
0.0
149
0.0
 93
        0
 94
       63
282
     0
 72
     1
 77
     1
171
     1
175
     1
179
     1
273
     0
  0
XRECORD
  5
9B0
102
{ACAD_REACTORS
330
9AF
102
}
330
9AF
100
AcDbXrecord
280
     1
102
MATERIAL
148
0.0
149
0.0
149
0.0
 93
        0
 94
       63
282
     0
 72
     1
 77
     1
171
     1
175
     1
179
     1
273
     0
  0
XRECORD
  5
9B4
102
{ACAD_REACTORS
330
9B3
102
}
330
9B3
100
AcDbXrecord
280
     1
102
MATERIAL
148
0.0
149
0.0
149
0.0
 93
        0
 94
       63
282
     0
 72
     1
 77
     1
171
     1
175
     1
179
     1
273
     0
  0
XRECORD
  5
9B6
102
{ACAD_REACTORS
330
9B5
102
}
330
9B5
100
AcDbXrecord
280
     1
102
ACAD_ROUNDTRIP_PRE2007_TABLESTYLE
 90
      512
 91
        0
  1

 92
      512
 93
        0
  2

 94
      512
 95
        0
  3

  0
ENDSEC
  0
EOF
