  0
SECTION
  2
HEADER
  9
$ACADVER
  1
AC1015
  9
$ACADMAINTVER
 70
     6
  9
$DWGCODEPAGE
  3
ANSI_932
  9
$INSBASE
 10
0.0
 20
0.0
 30
0.0
  9
$EXTMIN
 10
3423.547826521642
 20
-2790.482271409578
 30
0.0
  9
$EXTMAX
 10
3843.547826521642
 20
-2493.482271409578
 30
0.0
  9
$LIMMIN
 10
1735.132052145826
 20
-6087.884660833434
  9
$LIMMAX
 10
2155.132052145826
 20
-5790.884660833434
  9
$ORTHOMODE
 70
     0
  9
$REGENMODE
 70
     1
  9
$FILLMODE
 70
     1
  9
$QTEXTMODE
 70
     0
  9
$MIRRTEXT
 70
     0
  9
$LTSCALE
 40
1.0
  9
$ATTMODE
 70
     1
  9
$TEXTSIZE
 40
3.5
  9
$TRACEWID
 40
1.0
  9
$TEXTSTYLE
  7
STANDARD
  9
$CLAYER
  8
000済
  9
$CELTYPE
  6
ByLayer
  9
$CECOLOR
 62
   256
  9
$CELTSCALE
 40
0.5
  9
$DISPSILH
 70
     0
  9
$DIMSCALE
 40
1.0
  9
$DIMASZ
 40
1.0
  9
$DIMEXO
 40
1.0
  9
$DIMDLI
 40
10.0
  9
$DIMRND
 40
0.0
  9
$DIMDLE
 40
0.0
  9
$DIMEXE
 40
1.0
  9
$DIMTP
 40
0.1
  9
$DIMTM
 40
0.1
  9
$DIMTXT
 40
3.5
  9
$DIMCEN
 40
0.0
  9
$DIMTSZ
 40
0.0
  9
$DIMTOL
 70
     0
  9
$DIMLIM
 70
     0
  9
$DIMTIH
 70
     0
  9
$DIMTOH
 70
     0
  9
$DIMSE1
 70
     0
  9
$DIMSE2
 70
     0
  9
$DIMTAD
 70
     1
  9
$DIMZIN
 70
     8
  9
$DIMBLK
  1

  9
$DIMASO
 70
     1
  9
$DIMSHO
 70
     1
  9
$DIMPOST
  1

  9
$DIMAPOST
  1
"
  9
$DIMALT
 70
     0
  9
$DIMALTD
 70
     2
  9
$DIMALTF
 40
0.0393701
  9
$DIMLFAC
 40
1.0
  9
$DIMTOFL
 70
     1
  9
$DIMTVP
 40
0.0
  9
$DIMTIX
 70
     0
  9
$DIMSOXD
 70
     0
  9
$DIMSAH
 70
     0
  9
$DIMBLK1
  1

  9
$DIMBLK2
  1

  9
$DIMSTYLE
  2
SYS
  9
$DIMCLRD
 70
   256
  9
$DIMCLRE
 70
   256
  9
$DIMCLRT
 70
     7
  9
$DIMTFAC
 40
0.71
  9
$DIMGAP
 40
1.5
  9
$DIMJUST
 70
     0
  9
$DIMSD1
 70
     0
  9
$DIMSD2
 70
     0
  9
$DIMTOLJ
 70
     0
  9
$DIMTZIN
 70
     8
  9
$DIMALTZ
 70
     0
  9
$DIMALTTZ
 70
     0
  9
$DIMUPT
 70
     0
  9
$DIMDEC
 70
     1
  9
$DIMTDEC
 70
     2
  9
$DIMALTU
 70
     2
  9
$DIMALTTD
 70
     2
  9
$DIMTXSTY
  7
STANDARD
  9
$DIMAUNIT
 70
     0
  9
$DIMADEC
 70
     0
  9
$DIMALTRND
 40
0.0
  9
$DIMAZIN
 70
     2
  9
$DIMDSEP
 70
    46
  9
$DIMATFIT
 70
     3
  9
$DIMFRAC
 70
     0
  9
$DIMLDRBLK
  1

  9
$DIMLUNIT
 70
     2
  9
$DIMLWD
 70
    -1
  9
$DIMLWE
 70
    -1
  9
$DIMTMOVE
 70
     0
  9
$LUNITS
 70
     2
  9
$LUPREC
 70
     2
  9
$SKETCHINC
 40
1.0
  9
$FILLETRAD
 40
2.0
  9
$AUNITS
 70
     0
  9
$AUPREC
 70
     0
  9
$MENU
  1
.
  9
$ELEVATION
 40
0.0
  9
$PELEVATION
 40
0.0
  9
$THICKNESS
 40
0.0
  9
$LIMCHECK
 70
     0
  9
$CHAMFERA
 40
0.0
  9
$CHAMFERB
 40
0.0
  9
$CHAMFERC
 40
20.0
  9
$CHAMFERD
 40
0.0
  9
$SKPOLY
 70
     0
  9
$TDCREATE
 40
2455567.561054317
  9
$TDUCREATE
 40
2455567.186054317
  9
$TDUPDATE
 40
2459741.941918889
  9
$TDUUPDATE
 40
2459741.566918889
  9
$TDINDWG
 40
8.3687683681
  9
$TDUSRTIMER
 40
8.3687655671
  9
$USRTIMER
 70
     1
  9
$ANGBASE
 50
0.0
  9
$ANGDIR
 70
     0
  9
$PDMODE
 70
     0
  9
$PDSIZE
 40
-3.0
  9
$PLINEWID
 40
0.0
  9
$SPLFRAME
 70
     0
  9
$SPLINETYPE
 70
     6
  9
$SPLINESEGS
 70
     8
  9
$HANDSEED
  5
533CC
  9
$SURFTAB1
 70
     6
  9
$SURFTAB2
 70
     6
  9
$SURFTYPE
 70
     6
  9
$SURFU
 70
     6
  9
$SURFV
 70
     6
  9
$UCSBASE
  2

  9
$UCSNAME
  2

  9
$UCSORG
 10
0.0
 20
0.0
 30
0.0
  9
$UCSXDIR
 10
1.0
 20
0.0
 30
0.0
  9
$UCSYDIR
 10
0.0
 20
1.0
 30
0.0
  9
$UCSORTHOREF
  2

  9
$UCSORTHOVIEW
 70
     0
  9
$UCSORGTOP
 10
0.0
 20
0.0
 30
0.0
  9
$UCSORGBOTTOM
 10
0.0
 20
0.0
 30
0.0
  9
$UCSORGLEFT
 10
0.0
 20
0.0
 30
0.0
  9
$UCSORGRIGHT
 10
0.0
 20
0.0
 30
0.0
  9
$UCSORGFRONT
 10
0.0
 20
0.0
 30
0.0
  9
$UCSORGBACK
 10
0.0
 20
0.0
 30
0.0
  9
$PUCSBASE
  2

  9
$PUCSNAME
  2

  9
$PUCSORG
 10
0.0
 20
0.0
 30
0.0
  9
$PUCSXDIR
 10
1.0
 20
0.0
 30
0.0
  9
$PUCSYDIR
 10
0.0
 20
1.0
 30
0.0
  9
$PUCSORTHOREF
  2

  9
$PUCSORTHOVIEW
 70
     0
  9
$PUCSORGTOP
 10
0.0
 20
0.0
 30
0.0
  9
$PUCSORGBOTTOM
 10
0.0
 20
0.0
 30
0.0
  9
$PUCSORGLEFT
 10
0.0
 20
0.0
 30
0.0
  9
$PUCSORGRIGHT
 10
0.0
 20
0.0
 30
0.0
  9
$PUCSORGFRONT
 10
0.0
 20
0.0
 30
0.0
  9
$PUCSORGBACK
 10
0.0
 20
0.0
 30
0.0
  9
$USERI1
 70
     0
  9
$USERI2
 70
     0
  9
$USERI3
 70
     0
  9
$USERI4
 70
     0
  9
$USERI5
 70
     0
  9
$USERR1
 40
0.0
  9
$USERR2
 40
0.0
  9
$USERR3
 40
0.0
  9
$USERR4
 40
0.0
  9
$USERR5
 40
0.0
  9
$WORLDVIEW
 70
     1
  9
$SHADEDGE
 70
     3
  9
$SHADEDIF
 70
    70
  9
$TILEMODE
 70
     1
  9
$MAXACTVP
 70
    64
  9
$PINSBASE
 10
0.0
 20
0.0
 30
0.0
  9
$PLIMCHECK
 70
     0
  9
$PEXTMIN
 10
1.000000000000000E+20
 20
1.000000000000000E+20
 30
1.000000000000000E+20
  9
$PEXTMAX
 10
-1.000000000000000E+20
 20
-1.000000000000000E+20
 30
-1.000000000000000E+20
  9
$PLIMMIN
 10
-3.17498779296875
 20
-3.174999952316284
  9
$PLIMMAX
 10
293.4970092773438
 20
206.692492723465
  9
$UNITMODE
 70
     0
  9
$VISRETAIN
 70
     1
  9
$PLINEGEN
 70
     0
  9
$PSLTSCALE
 70
     1
  9
$TREEDEPTH
 70
  3020
  9
$CMLSTYLE
  2
Standard
  9
$CMLJUST
 70
     0
  9
$CMLSCALE
 40
20.0
  9
$PROXYGRAPHICS
 70
     1
  9
$MEASUREMENT
 70
     1
  9
$CELWEIGHT
370
    -1
  9
$ENDCAPS
280
     0
  9
$JOINSTYLE
280
     0
  9
$LWDISPLAY
290
     1
  9
$INSUNITS
 70
     4
  9
$HYPERLINKBASE
  1

  9
$STYLESHEET
  1
monochrome.ctb
  9
$XEDIT
290
     1
  9
$CEPSNTYPE
380
     0
  9
$PSTYLEMODE
290
     1
  9
$FINGERPRINTGUID
  2
{E0FB5660-30B4-4D8A-8C1D-9D7E99D72F0A}
  9
$VERSIONGUID
  2
{FFE8357E-E2C3-4F3A-9C9C-97D463A3E100}
  9
$EXTNAMES
290
     1
  9
$PSVPSCALE
 40
0.0
  9
$OLESTARTUP
290
     0
  0
ENDSEC
  0
SECTION
  2
CLASSES
  0
CLASS
  1
ACDBDICTIONARYWDFLT
  2
AcDbDictionaryWithDefault
  3
ObjectDBX Classes
 90
        0
280
     0
281
     0
  0
CLASS
  1
ACDBPLACEHOLDER
  2
AcDbPlaceHolder
  3
ObjectDBX Classes
 90
        0
280
     0
281
     0
  0
CLASS
  1
LAYOUT
  2
AcDbLayout
  3
ObjectDBX Classes
 90
        0
280
     0
281
     0
  0
CLASS
  1
AMGSETTINGSOBJ
  2
AmgSettingsObj
  3
AmgSettingsObj|...|...
 90
        0
280
     0
281
     0
  0
CLASS
  1
ACME_DOCUMENT
  2
AcMeDbDoc
  3
AcMeServices
 90
        0
280
     1
281
     0
  0
CLASS
  1
ACMESCOPE
  2
AcMeScope
  3
AcMeScope|...|...
 90
        0
280
     0
281
     0
  0
CLASS
  1
ACMECOMMANDHISTORY
  2
AcMeCommandHistory
  3
AcMeServices
 90
        0
280
     1
281
     0
  0
CLASS
  1
DICTIONARYVAR
  2
AcDbDictionaryVar
  3
ObjectDBX Classes
 90
        0
280
     0
281
     0
  0
CLASS
  1
ACIMSYSVARMAN
  2
AcImSysVarManager
  3
AcImSysVarManager|...|...
 90
        0
280
     0
281
     0
  0
CLASS
  1
ACIMREALSYSVAR
  2
AcImRealSysVar
  3
AcMeServices
 90
        0
280
     1
281
     0
  0
CLASS
  1
ACIMINTSYSVAR
  2
AcImIntSysVar
  3
AcImIntSysVar|...|...
 90
        0
280
     0
281
     0
  0
CLASS
  1
ACMEDRAWINGMAN
  2
AcMeDrawingMan
  3
AcMeServices
 90
        0
280
     1
281
     0
  0
CLASS
  1
ACMEVIEW
  2
AcMeView
  3
AcMeServices
 90
        0
280
     1
281
     0
  0
CLASS
  1
ACDBENTITYCACHE
  2
AcMeEntityCache
  3
AcMeServices
 90
        0
280
     1
281
     0
  0
CLASS
  1
GSMANAGER
  2
AcMeGSManager
  3
AcMeServices
 90
        0
280
     1
281
     0
  0
CLASS
  1
AMDTINTERNALREACTOR
  2
AmdtInternalReactor
  3
AcMeServices
 90
        0
280
     1
281
     0
  0
CLASS
  1
ACMESTATEMGR
  2
AcMeStateMgr
  3
AcMeStateMgr|...|...
 90
        0
280
     0
281
     0
  0
CLASS
  1
ACGREFMASTER
  2
AcGrefMaster
  3
AcAttribServices
 90
        0
280
     1
281
     0
  0
CLASS
  1
ACME_DATABASE
  2
AcMeDbDatabase
  3
AcMeServices
 90
        0
280
     1
281
     0
  0
CLASS
  1
ACRFINSADJUSTERMGR
  2
AcRfInsAdjusterMgr
  3
AcMeServices
 90
        0
280
     1
281
     0
  0
CLASS
  1
ACGREFACADMASTER
  2
AcGrefacadMaster
  3
AcGrefServices
 90
        0
280
     1
281
     0
  0
CLASS
  1
AMIMASTER
  2
AmiMaster
  3
AmiServices
 90
        0
280
     1
281
     0
  0
CLASS
  1
ACMDATADICTIONARY
  2
AcmDataDictionary
  3
AcmDataDictionary|...|...
 90
        0
280
     0
281
     0
  0
CLASS
  1
ACMDATAENTRYBLOCK
  2
AcmDataEntryBlock
  3
AcmDataEntryBlock|...|...
 90
        0
280
     0
281
     0
  0
CLASS
  1
ACIMSTRSYSVAR
  2
AcImStrSysVar
  3
AcImStrSysVar|...|...
 90
        0
280
     0
281
     0
  0
CLASS
  1
ACMSTANDARDISO
  2
AcmStandardISO
  3
AcmStandardISO|...|...
 90
        0
280
     0
281
     0
  0
CLASS
  1
AMGOBJPROPCFG
  2
AmgObjPropCfg
  3
AmgObjPropCfg|...|...
 90
        0
280
     0
281
     0
  0
CLASS
  1
AMDTEDGESTANDARDISO
  2
AmdtEdgeStdISO
  3
AmdtEdgeStdISO|...|...
 90
        0
280
     0
281
     0
  0
CLASS
  1
ACMSURFSTANDARDISO
  2
AcmSurfTextStdISO
  3
AcmSurfTextStdISO|...|...
 90
        0
280
     0
281
     0
  0
CLASS
  1
ACMFCFSTANDARDISO
  2
AcmFCFStdISO
  3
AcmFCFStdISO|...|...
 90
        0
280
     0
281
     0
  0
CLASS
  1
ACMWELDSTANDARDISO
  2
AcmWeldingStdISO
  3
AcmWeldingStdISO|...|...
 90
        0
280
     0
281
     0
  0
CLASS
  1
ACMIDSTANDARDISO
  2
AcmIdStdISO
  3
AcmIdStdISO|...|...
 90
        0
280
     0
281
     0
  0
CLASS
  1
ACMDATUMSTANDARDISO
  2
AcmDatumStdISO
  3
AcmDatumStdISO|...|...
 90
        0
280
     0
281
     0
  0
CLASS
  1
ACMBOMSTANDARDISO
  2
AcmBOMStdISO
  3
AcmBOMStdISO|...|...
 90
        0
280
     0
281
     0
  0
CLASS
  1
ACMDETAILSTANDARDISO
  2
AmdtDetailSymStdISO
  3
AmdtDetailSymStdISO|...|...
 90
        0
280
     0
281
     0
  0
CLASS
  1
ACMSECTIONSTANDARDISO
  2
AmdtSectionSymStdISO
  3
AmdtSectionSymStdISO|...|...
 90
        0
280
     0
281
     0
  0
CLASS
  1
ACMCENTERLINESTANDARDISO
  2
AmdtCenterLineStdISO
  3
AmdtCenterLineStdISO|...|...
 90
        0
280
     0
281
     0
  0
CLASS
  1
ACAMGLAYSTD
  2
AcAmgLayStd
  3
AcAmgLayStd|...|...
 90
        0
280
     0
281
     0
  0
CLASS
  1
ACAMGDIMSTD
  2
AcAmgDimStd
  3
AcAmgDimStd|...|...
 90
        0
280
     0
281
     0
  0
CLASS
  1
ACAMGTITLESTD
  2
AcAmgTitleStd
  3
AcAmgTitleStd|...|...
 90
        0
280
     0
281
     0
  0
CLASS
  1
ACAMGFILTERDAT
  2
AcAmgFilterDat
  3
"AcadM|Product Description: AutoCAD Mechanical|Company: Autodesk"
 90
        0
280
     1
281
     0
  0
CLASS
  1
LAYER_INDEX
  2
AcDbLayerIndex
  3
ObjectDBX Classes
 90
        0
280
     0
281
     0
  0
CLASS
  1
IDBUFFER
  2
AcDbIdBuffer
  3
ObjectDBX Classes
 90
        0
280
     0
281
     0
  0
CLASS
  1
PLOTSETTINGS
  2
AcDbPlotSettings
  3
ObjectDBX Classes
 90
        0
280
     0
281
     0
  0
CLASS
  1
AMDTFORMULAUPDATEDISPATCHER
  2
AmdtFormulaUpdateDispatcher
  3
AcMeServices
 90
        0
280
     1
281
     0
  0
CLASS
  1
ACMSTANDARDANSI
  2
AcmStandardANSI
  3
AcmStandardANSI|...|...
 90
        0
280
     0
281
     0
  0
CLASS
  1
ACMSURFSTANDARDANSI
  2
AcmSurfTextStdANSI
  3
AcmSurfTextStdANSI|...|...
 90
        0
280
     0
281
     0
  0
CLASS
  1
ACMFCFSTANDARDANSI
  2
AcmFCFStdANSI
  3
AcmFCFStdANSI|...|...
 90
        0
280
     0
281
     0
  0
CLASS
  1
ACMWELDSTANDARDANSI
  2
AcmWeldingStdANSI
  3
AcmWeldingStdANSI|...|...
 90
        0
280
     0
281
     0
  0
CLASS
  1
ACMIDSTANDARDANSI
  2
AcmIdStdANSI
  3
AcmIdStdANSI|...|...
 90
        0
280
     0
281
     0
  0
CLASS
  1
ACMDATUMSTANDARDANSI
  2
AcmDatumStdANSI
  3
AcmDatumStdANSI|...|...
 90
        0
280
     0
281
     0
  0
CLASS
  1
ACMBOMSTANDARDANSI
  2
AcmBOMStdANSI
  3
AcmBOMStdANSI|...|...
 90
        0
280
     0
281
     0
  0
CLASS
  1
ACMDETAILSTANDARDANSI
  2
AmdtDetailSymStdANSI
  3
AmdtDetailSymStdANSI|...|...
 90
        0
280
     0
281
     0
  0
CLASS
  1
ACMSECTIONSTANDARDANSI
  2
AmdtSectionSymStdANSI
  3
AmdtSectionSymStdANSI|...|...
 90
        0
280
     0
281
     0
  0
CLASS
  1
ACMCENTERLINESTANDARDANSI
  2
AmdtCenterLineStdANSI
  3
AmdtCenterLineStdANSI|...|...
 90
        0
280
     0
281
     0
  0
CLASS
  1
ACMBOM
  2
AcmBom
  3
AcmBom|...|...
 90
        0
280
     0
281
     0
  0
CLASS
  1
ACMDATAENTRYPART
  2
AcmDataEntryPart
  3
AcmDataEntryPart|...|...
 90
        0
280
     0
281
     0
  0
CLASS
  1
ACMPARTREF
  2
AcmPartRef
  3
AcmPartRef|...|...
 90
        0
280
     0
281
     1
  0
CLASS
  1
ACDBCIRCARCRES
  2
AcDbCircArcRes
  3
AcDbCircArcRes|...|...
 90
        0
280
     0
281
     0
  0
CLASS
  1
ACMBOMROW
  2
AcmBomRow
  3
AcmBomRow|...|...
 90
        0
280
     0
281
     0
  0
CLASS
  1
ACMBALLOON
  2
AcmBalloon
  3
AcmBalloon|...|...
 90
        0
280
     0
281
     1
  0
CLASS
  1
AMDTNOTE
  2
AmdtNote
  3
AmdtNote|...|...
 90
        0
280
     0
281
     1
  0
CLASS
  1
STDPART2D
  2
AmgStdPart
  3
AmgStdPart|...|...
 90
        0
280
     0
281
     1
  0
CLASS
  1
ACDBSTDPARTRES_LINE
  2
AcDbStdPartRes_Line
  3
AcDbStdPartRes_Line|...|...
 90
        0
280
     0
281
     0
  0
CLASS
  1
ACMDATAENTRY
  2
AcmDataEntry
  3
AcmDataEntry|...|...
 90
        0
280
     0
281
     0
  0
CLASS
  1
ACDBOPPOLYLINERES
  2
AcDbOpPolylineRes
  3
AcDbOpPolylineRes|...|...
 90
        0
280
     0
281
     0
  0
CLASS
  1
ACMPARTLIST
  2
AcmPartList
  3
AcmPartList|...|...
 90
        0
280
     0
281
     1
  0
CLASS
  1
ACDBLINERES
  2
AcDbLineRes
  3
AcDbLineRes|...|...
 90
        0
280
     0
281
     0
  0
CLASS
  1
ACRFINSADJ
  2
AcRfInsAdjuster
  3
AcRfInsAdjuster|...|...
 90
        0
280
     0
281
     0
  0
CLASS
  1
AM_DRAWING_MGR
  2
AcDmDwgMgr
  3
AcMechDwgViewMgmt
 90
        0
280
     1
281
     0
  0
CLASS
  1
AM_DWG_DOCUMENT
  2
AcDmDwgDocument
  3
AcMechDwgViewMgmt
 90
        0
280
     1
281
     0
  0
CLASS
  1
AM_DWG_SHEET
  2
AcDmSheet
  3
AcMechDwgViewMgmt
 90
        0
280
     1
281
     0
  0
CLASS
  1
AM_VIEWDIMPARMAP
  2
AcDmViewDimParMap
  3
AcMechDwgViewMgmt
 90
        0
280
     1
281
     0
  0
CLASS
  1
AM_DWGMGR_NAME
  2
AcDmDwgMgrName
  3
AcMechDwgViewMgmt
 90
        0
280
     1
281
     0
  0
CLASS
  1
AMDTMENUSTATEMGR
  2
AmdtMenuStateMgr
  3
McadcomServices
 90
        0
280
     1
281
     0
  0
CLASS
  1
AMDTMCOMMENUSTATE
  2
AmdtMcomMenuState
  3
McadcomServices
 90
        0
280
     1
281
     0
  0
CLASS
  1
ASAPP
  2
AcAsAppObject
  3
AutoSurfServices
 90
        0
280
     1
281
     0
  0
CLASS
  1
IM_STATIC_MAN
  2
AcImStaticVarManager
  3
AcMeServices
 90
        0
280
     1
281
     0
  0
CLASS
  1
ACIMDBLSTATICVAR
  2
AcImDblStaticVar
  3
AcMeServices
 90
        0
280
     1
281
     0
  0
CLASS
  1
ACIMSTRSTATICVAR
  2
AcImStrStaticVar
  3
AcMeServices
 90
        0
280
     1
281
     0
  0
CLASS
  1
ACIMINTSTATICVAR
  2
AcImIntStaticVar
  3
AcMeServices
 90
        0
280
     1
281
     0
  0
CLASS
  1
ACASGREFMASTER
  2
AcAsGrefMaster
  3
AutoSurfResolverServices
 90
        0
280
     1
281
     0
  0
CLASS
  1
ACADGREFMODULE
  2
AcAdGrefModule
  3
AdGrefServices
 90
        0
280
     1
281
     0
  0
CLASS
  1
AMDTMAPISURFMOUDULE
  2
AmdtMApiSurfModule
  3
MApiSurfServices
 90
        0
280
     1
281
     0
  0
CLASS
  1
MAPIAMMOUDLE
  2
MApiAmModule
  3
MApiAmServices
 90
        0
280
     1
281
     0
  0
CLASS
  1
AMDTADMENUSTATE
  2
AmdtAdMenuState
  3
DesignerServices
 90
        0
280
     1
281
     0
  0
CLASS
  1
ADAPPL
  2
AcAdAppl
  3
DesignerServices
 90
        0
280
     1
281
     0
  0
CLASS
  1
DEPMGR
  2
AcAdDepMgr
  3
DesignerServices
 90
        0
280
     1
281
     0
  0
CLASS
  1
PARAMMGR
  2
AcAdParamMgr
  3
DesignerServices
 90
        0
280
     1
281
     0
  0
CLASS
  1
PARAMSCOPE
  2
AcAdParamScope
  3
DesignerServices
 90
        0
280
     1
281
     0
  0
CLASS
  1
NAMEDAPPL
  2
AcAdNamedAppl
  3
DesignerServices
 90
        0
280
     1
281
     0
  0
CLASS
  1
ADHNTMPLT
  2
AdHoleNoteTemplateMgr
  3
DesignerServices
 90
        0
280
     1
281
     0
  0
CLASS
  1
AM_HNTEMPLATE_MGR_NAME
  2
AdHoleNoteTemplateMgrName
  3
DesignerServices
 90
        0
280
     1
281
     0
  0
CLASS
  1
AMDTDMMENUSTATE
  2
AmdtDmMenuState
  3
AcMechDwgViewMgmt
 90
        0
280
     1
281
     0
  0
CLASS
  1
MAPIADMODULE
  2
MApiAdModule
  3
MApiAdServices
 90
        0
280
     1
281
     0
  0
CLASS
  1
AMDTAMMENUSTATE
  2
AmdtAmMenuState
  3
DesignerAssemblies
 90
        0
280
     1
281
     0
  0
CLASS
  1
ACAMPROJECT
  2
AcAmProject
  3
AcAmProject|...|...
 90
        0
280
     0
281
     0
  0
CLASS
  1
ACAMGRCOMPDEF
  2
AcAmGrCompDef
  3
AcAmGrCompDef|...|...
 90
        0
280
     0
281
     0
  0
CLASS
  1
ACCMCONTEXT
  2
AcCmContext
  3
DesignerAssemblies
 90
        0
280
     1
281
     0
  0
CLASS
  1
ACAMCOMPDEF
  2
AcAmCompDef
  3
AcAmCompDef|...|...
 90
        0
280
     0
281
     0
  0
CLASS
  1
ACAMCOMPDEFMGR
  2
AcAmCompDefMgr
  3
AcAmCompDefMgr|...|...
 90
        0
280
     0
281
     0
  0
CLASS
  1
ACAMCONTEXTMGR
  2
AcAmContextMgr
  3
AcAmContextMgr|...|...
 90
        0
280
     0
281
     0
  0
CLASS
  1
ACAMCONTEXTMODELER
  2
AcAmContextModeler
  3
AcAmContextModeler|...|...
 90
        0
280
     0
281
     0
  0
CLASS
  1
CATALOGSTATE
  2
AcAmCatalogState
  3
DesignerAssemblies
 90
        0
280
     1
281
     0
  0
CLASS
  1
ACAMGRCOMPDEFSET
  2
AcAmGrCompDefSet
  3
DesignerAssemblies
 90
        0
280
     1
281
     0
  0
CLASS
  1
AMDTBROWSERDBTAB
  2
AmdtBrowserDbTab
  3
McadcomServices
 90
        0
280
     1
281
     0
  0
CLASS
  1
CBROWSERAPPOBJECT
  2
CBrowserAppObject
  3
McadcomServices
 90
        0
280
     1
281
     0
  0
CLASS
  1
DM_PLACEHOLDER
  2
AcDmSelsetPlaceholder
  3
AcMechDwgViewMgmt
 90
        0
280
     1
281
     0
  0
CLASS
  1
ACMPICKOBJ
  2
AcmPickEnt
  3
"AcmSymBB|Product Description: AutoCAD Mechanical|Company: Autodesk"
 90
        0
280
     1
281
     1
  0
CLASS
  1
ACMNOTESTANDARDISO
  2
AmdtNoteStdISO
  3
AmdtNoteStdISO|...|...
 90
        0
280
     0
281
     0
  0
CLASS
  1
ACMNOTESTANDARDANSI
  2
AmdtNoteStdANSI
  3
AmdtNoteStdANSI|...|...
 90
        0
280
     0
281
     0
  0
CLASS
  1
ACMTHREADLINESTANDARDISO
  2
AmdtThreadLineStdISO
  3
AmdtThreadLineStdISO|...|...
 90
        0
280
     0
281
     0
  0
CLASS
  1
ACMTHREADLINESTANDARDANSI
  2
AmdtThreadLineStdANSI
  3
AmdtThreadLineStdANSI|...|...
 90
        0
280
     0
281
     0
  0
CLASS
  1
TABLESTYLE
  2
AcDbTableStyle
  3
ObjectDBX Classes
 90
     4095
280
     0
281
     0
  0
CLASS
  1
SORTENTSTABLE
  2
AcDbSortentsTable
  3
ObjectDBX Classes
 90
        0
280
     0
281
     0
  0
CLASS
  1
MATERIAL
  2
AcDbMaterial
  3
ObjectDBX Classes
 90
     1153
280
     0
281
     0
  0
CLASS
  1
VISUALSTYLE
  2
AcDbVisualStyle
  3
ObjectDBX Classes
 90
     4095
280
     0
281
     0
  0
CLASS
  1
ACRFATTGENMGR
  2
AcRfAttGeneralMgr
  3
AcAttribServices
 90
        0
280
     1
281
     0
  0
CLASS
  1
ACRFOBJATTMGR
  2
AcRfObjAttGroupMgr
  3
AcAttribServices
 90
        0
280
     1
281
     0
  0
CLASS
  1
ACRFMCADAPIATTHOLDER
  2
AcRfMCADAPIAttHolder
  3
AcAttribServices
 90
        0
280
     1
281
     0
  0
CLASS
  1
AMDTSYSATTR
  2
AmdtSystemAttribute
  3
AmdtSystemAttribute|...|...
 90
        0
280
     0
281
     0
  0
CLASS
  1
ACMTAPERSTANDARDISO
  2
AcmTaperStdISO
  3
AcmTaperStdISO|...|...
 90
        0
280
     0
281
     0
  0
CLASS
  1
CAMSSTRUCTBTNSTATE
  2
StructBtnState
  3
L"DesignerAssemblies"
 90
        0
280
     1
281
     0
  0
CLASS
  1
DIMASSOC
  2
AcDbDimAssoc
  3
"AcDbDimAssoc|Product Desc:     AcDim ARX App For Dimension|Company:          Autodesk, Inc.|WEB Address:      www.autodesk.com"
 90
        0
280
     0
281
     0
  0
CLASS
  1
AMDTNOTETEMPLATEDB
  2
AmdtNoteTemplateDB
  3
AmdtNoteTemplateDB|...|...
 90
        0
280
     0
281
     0
  0
CLASS
  1
ACMTAPERSTANDARDANSI
  2
AcmTaperStdANSI
  3
AcmTaperStdANSI|...|...
 90
        0
280
     0
281
     0
  0
CLASS
  1
ACAMGHOLECHARTSTDANSI
  2
AcAmgHoleChartStdANSI
  3
AcAmgHoleChartStdANSI|...|...
 90
        0
280
     0
281
     0
  0
CLASS
  1
AMDTACMWBLOCKBOMENTITY
  2
AmdtAcmWblockBomEntity
  3
AmdtAcmWblockBomEntity|...|...
 90
        0
280
     0
281
     1
  0
CLASS
  1
EXACXREFPANELOBJECT
  2
ExAcXREFPanelObject
  3
EXAC_ESW
 90
     1025
280
     1
281
     0
  0
CLASS
  1
NPOCOLLECTION
  2
AcDbImpNonPersistentObjectsCollection
  3
ObjectDBX Classes
 90
     1153
280
     1
281
     0
  0
CLASS
  1
LARGE_RADIAL_DIMENSION
  2
AcDbRadialDimensionLarge
  3
ObjectDBX Classes
 90
     1025
280
     0
281
     1
  0
CLASS
  1
SCALE
  2
AcDbScale
  3
ObjectDBX Classes
 90
     1153
280
     0
281
     0
  0
CLASS
  1
ACDBSECTIONVIEWSTYLE
  2
AcDbSectionViewStyle
  3
ObjectDBX Classes
 90
     1025
280
     0
281
     0
  0
CLASS
  1
ACDBDETAILVIEWSTYLE
  2
AcDbDetailViewStyle
  3
ObjectDBX Classes
 90
     1025
280
     0
281
     0
  0
CLASS
  1
MLEADERSTYLE
  2
AcDbMLeaderStyle
  3
ACDB_MLEADERSTYLE_CLASS
 90
     4095
280
     0
281
     0
  0
ENDSEC
  0
SECTION
  2
TABLES
  0
TABLE
  2
VPORT
  5
8
102
{ACAD_XDICTIONARY
360
5338C
102
}
330
0
100
AcDbSymbolTable
 70
     1
  0
VPORT
  5
B0EC
330
8
100
AcDbSymbolTableRecord
100
AcDbViewportTableRecord
  2
*Active
 70
     0
 10
0.0
 20
0.0
 11
1.0
 21
1.0
 12
3633.547826521641
 22
-2641.982271409578
 13
0.0
 23
0.0
 14
2.5
 24
2.5
 15
10.0
 25
10.0
 16
0.0
 26
0.0
 36
1.0
 17
0.0
 27
0.0
 37
0.0
 40
299.7595818815331
 41
1.993095512082854
 42
50.0
 43
-1370.695619172059
 44
-1370.695619172059
 50
0.0
 51
0.0
 71
     0
 72
   100
 73
     1
 74
     3
 75
     0
 76
     0
 77
     0
 78
     0
281
     0
 65
     0
110
0.0
120
0.0
130
0.0
111
1.0
121
0.0
131
0.0
112
0.0
122
1.0
132
0.0
 79
     0
146
0.0
  0
ENDTAB
  0
TABLE
  2
LTYPE
  5
5
330
0
100
AcDbSymbolTable
 70
    34
  0
LTYPE
  5
14
330
5
100
AcDbSymbolTableRecord
100
AcDbLinetypeTableRecord
  2
ByBlock
 70
     0
  3

 72
    65
 73
     0
 40
0.0
  0
LTYPE
  5
15
330
5
100
AcDbSymbolTableRecord
100
AcDbLinetypeTableRecord
  2
ByLayer
 70
     0
  3

 72
    65
 73
     0
 40
0.0
  0
LTYPE
  5
16
330
5
100
AcDbSymbolTableRecord
100
AcDbLinetypeTableRecord
  2
Continuous
 70
     0
  3
Solid line
 72
    65
 73
     0
 40
0.0
  0
LTYPE
  5
4F
330
5
100
AcDbSymbolTableRecord
100
AcDbLinetypeTableRecord
  2
AM_ISO02W050
 70
     0
  3
__ __ __ __ __ __ __ __ __ __ __ __ __ __ __
 72
    65
 73
     2
 40
7.5
 49
6.0
 74
     0
 49
-1.5
 74
     0
  0
LTYPE
  5
52
330
5
100
AcDbSymbolTableRecord
100
AcDbLinetypeTableRecord
  2
Amconstr
 70
     0
  3
_______________________
 72
    65
 73
     2
 40
9999.0
 49
9999.0
 74
     0
 49
0.0
 74
     0
  0
LTYPE
  5
64
330
5
100
AcDbSymbolTableRecord
100
AcDbLinetypeTableRecord
  2
ACISOWELD
 70
     0
  3
_ _ _ _ _
 72
    65
 73
     2
 40
2.0
 49
2.0
 74
     0
 49
-1.0
 74
     0
  0
LTYPE
  5
65
330
5
100
AcDbSymbolTableRecord
100
AcDbLinetypeTableRecord
  2
ACISOTGB
 70
     0
  3
__ . . __ . .
 72
    65
 73
     6
 40
9.0
 49
4.0
 74
     0
 49
-1.0
 74
     0
 49
1.0
 74
     0
 49
-1.0
 74
     0
 49
1.0
 74
     0
 49
-1.0
 74
     0
  0
LTYPE
  5
66
330
5
100
AcDbSymbolTableRecord
100
AcDbLinetypeTableRecord
  2
ACISOTGL
 70
     0
  3
_ _ _ _ _
 72
    65
 73
     2
 40
3.0
 49
2.0
 74
     0
 49
-1.0
 74
     0
  0
LTYPE
  5
69
330
5
100
AcDbSymbolTableRecord
100
AcDbLinetypeTableRecord
  2
CENTER
 70
     0
  3
__ . __
 72
    65
 73
     4
 40
7.0
 49
4.0
 74
     0
 49
-1.0
 74
     0
 49
1.0
 74
     0
 49
-1.0
 74
     0
  0
LTYPE
  5
A6E
330
5
100
AcDbSymbolTableRecord
100
AcDbLinetypeTableRecord
  2
PHANTOM2
 70
     0
  3
Phantom (.5x) ___ _ _ ___ _ _ ___ _ _ ___ _ _
 72
    65
 73
     6
 40
31.75
 49
15.875
 74
     0
 49
-3.175
 74
     0
 49
3.175
 74
     0
 49
-3.175
 74
     0
 49
3.175
 74
     0
 49
-3.175
 74
     0
  0
LTYPE
  5
4DED
330
5
100
AcDbSymbolTableRecord
100
AcDbLinetypeTableRecord
  2
中線
 70
     0
  3
___________________
 72
    65
 73
     2
 40
2.0
 49
1.0
 74
     0
 49
1.0
 74
     0
  0
LTYPE
  5
4DF6
330
5
100
AcDbSymbolTableRecord
100
AcDbLinetypeTableRecord
  2
細線
 70
     0
  3
___________________
 72
    65
 73
     2
 40
2.0
 49
1.0
 74
     0
 49
1.0
 74
     0
  0
LTYPE
  5
4DF7
330
5
100
AcDbSymbolTableRecord
100
AcDbLinetypeTableRecord
  2
太線
 70
     0
  3
___________________
 72
    65
 73
     2
 40
2.0
 49
1.0
 74
     0
 49
1.0
 74
     0
  0
LTYPE
  5
4EA7
330
5
100
AcDbSymbolTableRecord
100
AcDbLinetypeTableRecord
  2
文字
 70
     0
  3
_________________
 72
    65
 73
     2
 40
2.0
 49
1.0
 74
     0
 49
1.0
 74
     0
  0
LTYPE
  5
4EA9
330
5
100
AcDbSymbolTableRecord
100
AcDbLinetypeTableRecord
  2
寸法線
 70
     0
  3
________________
 72
    65
 73
     2
 40
2.0
 49
1.0
 74
     0
 49
1.0
 74
     0
  0
LTYPE
  5
4F12
330
5
100
AcDbSymbolTableRecord
100
AcDbLinetypeTableRecord
  2
ハッチング
 70
     0
  3
_________________
 72
    65
 73
     2
 40
2.0
 49
1.0
 74
     0
 49
1.0
 74
     0
  0
LTYPE
  5
5180
330
5
100
AcDbSymbolTableRecord
100
AcDbLinetypeTableRecord
  2
陰線1
 70
     0
  3
__ __ __ __
 72
    65
 73
     2
 40
4.0
 49
2.2
 74
     0
 49
-1.8
 74
     0
  0
LTYPE
  5
5182
330
5
100
AcDbSymbolTableRecord
100
AcDbLinetypeTableRecord
  2
切断線
 70
     0
  3
/\/-/\/-/\/-/\/-/\/-/\/
 72
    65
 73
     2
 40
11.0001
 49
0.0001
 74
     4
 75
   135
340
56
 46
0.04
 50
0.0
 44
0.0
 45
0.0
 49
-11.0
 74
     0
  0
LTYPE
  5
5183
330
5
100
AcDbSymbolTableRecord
100
AcDbLinetypeTableRecord
  2
想像線1
 70
     0
  3
__ __ __ _____ __ __ ____
 72
    65
 73
     6
 40
14.5
 49
6.0
 74
     0
 49
-1.5
 74
     0
 49
2.0
 74
     0
 49
-1.5
 74
     0
 49
2.0
 74
     0
 49
-1.5
 74
     0
  0
LTYPE
  5
5185
330
5
100
AcDbSymbolTableRecord
100
AcDbLinetypeTableRecord
  2
中心線1
 70
     0
  3
___ _ ___ _ ___
 72
    65
 73
     4
 40
18.0
 49
12.0
 74
     0
 49
-2.0
 74
     0
 49
2.0
 74
     0
 49
-2.0
 74
     0
  0
LTYPE
  5
5188
330
5
100
AcDbSymbolTableRecord
100
AcDbLinetypeTableRecord
  2
補助線
 70
     0
  3
______________
 72
    65
 73
     2
 40
2.0
 49
1.0
 74
     0
 49
1.0
 74
     0
  0
LTYPE
  5
6427
330
5
100
AcDbSymbolTableRecord
100
AcDbLinetypeTableRecord
  2
HIDDEN
 70
     0
  3
Hidden __ __ __ __ __ __ __ __ __ __ __ __ __ _
 72
    65
 73
     2
 40
0.375
 49
0.25
 74
     0
 49
-0.125
 74
     0
  0
LTYPE
  5
AC81
330
5
100
AcDbSymbolTableRecord
100
AcDbLinetypeTableRecord
  2
破断線
 70
     0
  3
/\/-/\/-/\/-/\/-/\/-/\/
 72
    65
 73
     2
 40
0.4401
 49
0.0001
 74
     4
 75
   136
340
AC80
 46
0.0016
 50
0.0
 44
0.0
 45
0.0
 49
-0.44
 74
     0
  0
LTYPE
  5
AC9E
330
5
100
AcDbSymbolTableRecord
100
AcDbLinetypeTableRecord
  2
Amzigzag
 70
     0
  3
/\/-/\/-/\/-/\/-/\/-/\/
 72
    65
 73
     2
 40
11.0001
 49
0.0001
 74
     4
 75
   135
340
56
 46
0.04
 50
0.0
 44
0.0
 45
0.0
 49
-11.0
 74
     0
  0
LTYPE
  5
AF0F
330
5
100
AcDbSymbolTableRecord
100
AcDbLinetypeTableRecord
  2
genzigzag
 70
     0
  3
/\/-/\/-/\/-/\/-/\/-/\/
 72
    65
 73
     2
 40
12.0001
 49
0.0001
 74
     4
 75
   135
340
AC80
 46
2.0
 50
0.0
 44
0.0
 45
0.0
 49
-12.0
 74
     0
  0
LTYPE
  5
AF95
330
5
100
AcDbSymbolTableRecord
100
AcDbLinetypeTableRecord
  2
AM_ISO08W050
 70
     0
  3
____ . ____ . ____ . ____ . ____ . ____ . ____
 72
    65
 73
     4
 40
18.0
 49
12.0
 74
     0
 49
-1.5
 74
     0
 49
3.0
 74
     0
 49
-1.5
 74
     0
  0
LTYPE
  5
AF96
330
5
100
AcDbSymbolTableRecord
100
AcDbLinetypeTableRecord
  2
AM_ISO09W050
 70
     0
  3
_____ . . _____ . . _____ . . ____ .. ____
 72
    65
 73
     6
 40
22.5
 49
12.0
 74
     0
 49
-1.5
 74
     0
 49
3.0
 74
     0
 49
-1.5
 74
     0
 49
3.0
 74
     0
 49
-1.5
 74
     0
  0
LTYPE
  5
AF97
330
5
100
AcDbSymbolTableRecord
100
AcDbLinetypeTableRecord
  2
AM_ISO08W050x2
 70
     0
  3
__ . __ . __ . __ . __ . __
 72
    65
 73
     4
 40
9.0
 49
6.0
 74
     0
 49
-0.75
 74
     0
 49
1.5
 74
     0
 49
-0.75
 74
     0
  0
LTYPE
  5
AF98
330
5
100
AcDbSymbolTableRecord
100
AcDbLinetypeTableRecord
  2
AM_ISO02W050x2
 70
     0
  3
 _ _ _ _ _ _ _ _ _ _ _ _
 72
    65
 73
     2
 40
3.75
 49
3.0
 74
     0
 49
-0.75
 74
     0
  0
LTYPE
  5
1D53A
330
5
100
AcDbSymbolTableRecord
100
AcDbLinetypeTableRecord
  2
DASHED
 70
     0
  3
__ __ __ __ __ __ __ __ __ __ __ __ __ __ __
 72
    65
 73
     2
 40
3.5
 49
2.0
 74
     0
 49
-1.5
 74
     0
  0
LTYPE
  5
1D53B
330
5
100
AcDbSymbolTableRecord
100
AcDbLinetypeTableRecord
  2
CENTER2
 70
     0
  3
Center (.5x) ___ _ ___ _ ___ _ ___ _ ___ _ ___
 72
    65
 73
     4
 40
1.125
 49
0.75
 74
     0
 49
-0.125
 74
     0
 49
0.125
 74
     0
 49
-0.125
 74
     0
  0
LTYPE
  5
1D53C
330
5
100
AcDbSymbolTableRecord
100
AcDbLinetypeTableRecord
  2
HIDDEN2
 70
     0
  3
Hidden (.5x) _ _ _ _ _ _ _ _ _ _ _ _ _ _ _ _ _
 72
    65
 73
     2
 40
0.1875
 49
0.125
 74
     0
 49
-0.0625
 74
     0
  0
LTYPE
  5
1D53D
330
5
100
AcDbSymbolTableRecord
100
AcDbLinetypeTableRecord
  2
Amzigzag2
 70
     0
  3
/\/-/\/-/\/-/\/-/\/-/\/
 72
    65
 73
     2
 40
0.4401
 49
0.0001
 74
     4
 75
   136
340
AC80
 46
0.0016
 50
0.0
 44
0.0
 45
0.0
 49
-0.44
 74
     0
  0
LTYPE
  5
1D53E
330
5
100
AcDbSymbolTableRecord
100
AcDbLinetypeTableRecord
  2
ACANSTGB
 70
     0
  3
__ . . __ . .
 72
    65
 73
     6
 40
0.35433070866
 49
0.15748031496
 74
     0
 49
-0.03937007874
 74
     0
 49
0.03937007874
 74
     0
 49
-0.03937007874
 74
     0
 49
0.03937007874
 74
     0
 49
-0.03937007874
 74
     0
  0
LTYPE
  5
1D53F
330
5
100
AcDbSymbolTableRecord
100
AcDbLinetypeTableRecord
  2
ACANSTGL
 70
     0
  3
_ _ _ _ _
 72
    65
 73
     2
 40
0.11811023622
 49
0.07874015748
 74
     0
 49
-0.03937007874
 74
     0
  0
LTYPE
  5
3215C
330
5
100
AcDbSymbolTableRecord
100
AcDbLinetypeTableRecord
  2
PHANTOM
 70
     0
  3
_____ _ _ _____ _ _ _____ _ _ _____ _ _ ____  
 72
    65
 73
     6
 40
15.5
 49
8.0
 74
     0
 49
-1.5
 74
     0
 49
1.5
 74
     0
 49
-1.5
 74
     0
 49
1.5
 74
     0
 49
-1.5
 74
     0
  0
ENDTAB
  0
TABLE
  2
LAYER
  5
2
102
{ACAD_XDICTIONARY
360
3F95
102
}
330
0
100
AcDbSymbolTable
 70
    25
  0
LAYER
  5
10
330
2
100
AcDbSymbolTableRecord
100
AcDbLayerTableRecord
  2
0
 70
     0
 62
     7
  6
Continuous
370
    -3
390
F
  0
LAYER
  5
6D1
330
2
100
AcDbSymbolTableRecord
100
AcDbLayerTableRecord
  2
Defpoints
 70
     0
 62
     7
  6
Continuous
290
     0
370
    -3
390
F
  0
LAYER
  5
5F85
330
2
100
AcDbSymbolTableRecord
100
AcDbLayerTableRecord
  2
AM_0
 70
     0
 62
     7
  6
中線
370
    30
390
F
1001
AcAecLayerStandard
1000

1000

  0
LAYER
  5
AC9F
330
2
100
AcDbSymbolTableRecord
100
AcDbLayerTableRecord
  2
size
 70
     0
 62
     5
  6
Continuous
290
     0
370
    25
390
F
  0
LAYER
  5
ACA0
330
2
100
AcDbSymbolTableRecord
100
AcDbLayerTableRecord
  2
waku
 70
     0
 62
     7
  6
Continuous
370
    35
390
F
  0
LAYER
  5
ACA1
330
2
100
AcDbSymbolTableRecord
100
AcDbLayerTableRecord
  2
AM_6
 70
     0
 62
     2
  6
文字
370
    13
390
F
1001
AcAecLayerStandard
1000

1000

  0
LAYER
  5
ACC8
330
2
100
AcDbSymbolTableRecord
100
AcDbLayerTableRecord
  2
hyomoji
 70
     0
 62
     2
  6
Continuous
370
    13
390
F
  0
LAYER
  5
ACC9
330
2
100
AcDbSymbolTableRecord
100
AcDbLayerTableRecord
  2
hyosen1
 70
     0
 62
     1
  6
Continuous
370
    25
390
F
  0
LAYER
  5
ACCA
330
2
100
AcDbSymbolTableRecord
100
AcDbLayerTableRecord
  2
hyosen2
 70
     0
 62
     1
  6
Continuous
370
    13
390
F
  0
LAYER
  5
AD60
330
2
100
AcDbSymbolTableRecord
100
AcDbLayerTableRecord
  2
AM_1
 70
     0
 62
    30
  6
太線
370
    40
390
F
1001
AcAecLayerStandard
1000

1000

  0
LAYER
  5
AD64
330
2
100
AcDbSymbolTableRecord
100
AcDbLayerTableRecord
  2
AM_2
 70
     0
 62
     1
  6
細線
370
     9
390
F
1001
AcAecLayerStandard
1000

1000

  0
LAYER
  5
AD67
330
2
100
AcDbSymbolTableRecord
100
AcDbLayerTableRecord
  2
AM_3
 70
     0
 62
     6
  6
陰線1
370
     9
390
F
1001
AcAecLayerStandard
1000

1000

  0
LAYER
  5
AD68
330
2
100
AcDbSymbolTableRecord
100
AcDbLayerTableRecord
  2
AM_5
 70
     0
 62
     3
  6
寸法線
370
     9
390
F
1001
AcAecLayerStandard
1000

1000

  0
LAYER
  5
AD69
330
2
100
AcDbSymbolTableRecord
100
AcDbLayerTableRecord
  2
AM_7
 70
     0
 62
     4
  6
中心線1
370
     9
390
F
1001
AcAecLayerStandard
1000

1000

  0
LAYER
  5
AD6A
330
2
100
AcDbSymbolTableRecord
100
AcDbLayerTableRecord
  2
AM_8
 70
     0
 62
     1
  6
ハッチング
370
     9
390
F
1001
AcAecLayerStandard
1000

1000

  0
LAYER
  5
AD6E
330
2
100
AcDbSymbolTableRecord
100
AcDbLayerTableRecord
  2
AM_10
 70
     0
 62
     7
  6
切断線
370
    13
390
F
1001
AcAecLayerStandard
1000

1000

  0
LAYER
  5
AD6F
330
2
100
AcDbSymbolTableRecord
100
AcDbLayerTableRecord
  2
AM_11
 70
     0
 62
     2
  6
想像線1
370
     9
390
F
1001
AcAecLayerStandard
1000

1000

  0
LAYER
  5
B1B6
330
2
100
AcDbSymbolTableRecord
100
AcDbLayerTableRecord
  2
AM_CL
 70
     0
 62
     1
  6
Amconstr
370
    15
390
F
1001
AcAecLayerStandard
1000

1000

  0
LAYER
  5
B2EB
330
2
100
AcDbSymbolTableRecord
100
AcDbLayerTableRecord
  2
AM_14
 70
     0
 62
     5
  6
細線
370
     9
390
F
1001
AcAecLayerStandard
1000

1000

  0
LAYER
  5
B2EC
330
2
100
AcDbSymbolTableRecord
100
AcDbLayerTableRecord
  2
AM_15
 70
     0
 62
     6
  6
陰線1
370
     9
390
F
1001
AcAecLayerStandard
1000

1000

  0
LAYER
  5
CA46
330
2
100
AcDbSymbolTableRecord
100
AcDbLayerTableRecord
  2
001本体
 70
     0
 62
   121
  6
中線
370
    30
390
F
1001
AcAecLayerStandard
1000

1000

  0
LAYER
  5
EB4F
330
2
100
AcDbSymbolTableRecord
100
AcDbLayerTableRecord
  2
AM_4
 70
     0
 62
     3
  6
補助線
370
     9
390
F
1001
AcAecLayerStandard
1000

1000

  0
LAYER
  5
1E1B6
330
2
100
AcDbSymbolTableRecord
100
AcDbLayerTableRecord
  2
AM_12
 70
     0
 62
     7
  6
Continuous
290
     0
370
    15
390
F
  0
LAYER
  5
24E2B
330
2
100
AcDbSymbolTableRecord
100
AcDbLayerTableRecord
  2
000済
 70
     0
 62
    50
  6
中線
370
    30
390
F
1001
AcAecLayerStandard
1000

1000

  0
ENDTAB
  0
TABLE
  2
STYLE
  5
3
330
0
100
AcDbSymbolTable
 70
    11
  0
STYLE
  5
11
330
3
100
AcDbSymbolTableRecord
100
AcDbTextStyleTableRecord
  2
STANDARD
 70
     0
 40
0.0
 41
0.7
 50
0.0
 71
     0
 42
3.5
  3
romans.shx
  4
extfont.shx
  0
STYLE
  5
56
330
3
100
AcDbSymbolTableRecord
100
AcDbTextStyleTableRecord
  2

 70
     1
 40
0.0
 41
1.0
 50
0.0
 71
     0
 42
2.5
  3
ltypeshp.shx
  4

  0
STYLE
  5
58
330
3
100
AcDbSymbolTableRecord
100
AcDbTextStyleTableRecord
  2
ACISOTS
 70
     0
 40
1.0
 41
1.0
 50
0.0
 71
     0
 42
2.5
  3
isocp.shx
  4
extfont.shx
  0
STYLE
  5
63
330
3
100
AcDbSymbolTableRecord
100
AcDbTextStyleTableRecord
  2
ACISOGDT
 70
     0
 40
0.0
 41
1.0
 50
0.0
 71
     0
 42
2.5
  3
amgdt.shx
  4

  0
STYLE
  5
A74
330
3
100
AcDbSymbolTableRecord
100
AcDbTextStyleTableRecord
  2
DIM
 70
     0
 40
0.0
 41
1.0
 50
0.0
 71
     0
 42
2.5
  3
monotxt.shx
  4
extfont.shx
  0
STYLE
  5
AC80
330
3
100
AcDbSymbolTableRecord
100
AcDbTextStyleTableRecord
  2

 70
     1
 40
0.0
 41
1.0
 50
0.0
 71
     0
 42
3.2
  3
genltshp.shx
  4

  0
STYLE
  5
CA48
330
3
100
AcDbSymbolTableRecord
100
AcDbTextStyleTableRecord
  2
横書き
 70
     0
 40
0.0
 41
1.0
 50
0.0
 71
     0
 42
3.5
  3
TXT.shx
  4
bigfont.shx
  0
STYLE
  5
CA49
330
3
100
AcDbSymbolTableRecord
100
AcDbTextStyleTableRecord
  2
横書き2
 70
     0
 40
0.0
 41
1.0
 50
0.0
 71
     0
 42
4.0
  3
TXT.shx
  4
extfont2.shx
  0
STYLE
  5
CA4A
330
3
100
AcDbSymbolTableRecord
100
AcDbTextStyleTableRecord
  2
明朝
 70
     0
 40
0.0
 41
1.0
 50
0.0
 71
     0
 42
3.0
  3
MS Mincho.ttf
  4

1001
ACAD
1000
MS Mincho
1071
    32785
  0
STYLE
  5
1D540
330
3
100
AcDbSymbolTableRecord
100
AcDbTextStyleTableRecord
  2
ACANSTS
 70
     0
 40
1.0
 41
1.0
 50
0.0
 71
     0
 42
3.2
  3
romans.shx
  4
extfont.shx
  0
STYLE
  5
1D541
330
3
100
AcDbSymbolTableRecord
100
AcDbTextStyleTableRecord
  2
ACANSGDT
 70
     0
 40
0.0
 41
1.0
 50
0.0
 71
     0
 42
3.2
  3
amgdt.shx
  4

  0
ENDTAB
  0
TABLE
  2
VIEW
  5
6
330
0
100
AcDbSymbolTable
 70
     6
  0
VIEW
  5
AE1
330
6
100
AcDbSymbolTableRecord
100
AcDbViewTableRecord
  2
AM_VIEW1
 70
     0
 40
148.5
 10
1876.338856879554
 20
-5865.134660833434
 41
282.4136094674557
 11
0.0
 21
0.0
 31
1.0
 12
0.0
 22
0.0
 32
0.0
 42
50.0
 43
-1370.695619172059
 44
-1370.695619172059
 50
0.0
 71
     0
281
     0
 72
     0
  0
VIEW
  5
AE2
330
6
100
AcDbSymbolTableRecord
100
AcDbViewTableRecord
  2
AM_VIEW2
 70
     0
 40
148.5
 10
2013.925247412098
 20
-5865.134660833434
 41
282.4136094674557
 11
0.0
 21
0.0
 31
1.0
 12
0.0
 22
0.0
 32
0.0
 42
50.0
 43
-1370.695619172059
 44
-1370.695619172059
 50
0.0
 71
     0
281
     0
 72
     0
  0
VIEW
  5
AE3
330
6
100
AcDbSymbolTableRecord
100
AcDbViewTableRecord
  2
AM_VIEW3
 70
     0
 40
148.5
 10
1876.338856879554
 20
-6013.634660833434
 41
282.4136094674557
 11
0.0
 21
0.0
 31
1.0
 12
0.0
 22
0.0
 32
0.0
 42
50.0
 43
-1370.695619172059
 44
-1370.695619172059
 50
0.0
 71
     0
281
     0
 72
     0
  0
VIEW
  5
AE4
330
6
100
AcDbSymbolTableRecord
100
AcDbViewTableRecord
  2
AM_VIEW4
 70
     0
 40
148.5
 10
2013.925247412098
 20
-6013.634660833434
 41
282.4136094674557
 11
0.0
 21
0.0
 31
1.0
 12
0.0
 22
0.0
 32
0.0
 42
50.0
 43
-1370.695619172059
 44
-1370.695619172059
 50
0.0
 71
     0
281
     0
 72
     0
  0
VIEW
  5
AE5
330
6
100
AcDbSymbolTableRecord
100
AcDbViewTableRecord
  2
AM_VIEW5
 70
     0
 40
148.5
 10
1945.132052145826
 20
-5939.384660833434
 41
282.4136094674557
 11
0.0
 21
0.0
 31
1.0
 12
0.0
 22
0.0
 32
0.0
 42
50.0
 43
-1370.695619172059
 44
-1370.695619172059
 50
0.0
 71
     0
281
     0
 72
     0
  0
VIEW
  5
AE6
330
6
100
AcDbSymbolTableRecord
100
AcDbViewTableRecord
  2
AM_VIEW6
 70
     0
 40
296.9970300000004
 10
1945.132052145826
 20
-5939.384660833434
 41
564.8215706627218
 11
0.0
 21
0.0
 31
1.0
 12
0.0
 22
0.0
 32
0.0
 42
50.0
 43
-1370.695619172059
 44
-1370.695619172059
 50
0.0
 71
     0
281
     0
 72
     0
  0
ENDTAB
  0
TABLE
  2
UCS
  5
7
330
0
100
AcDbSymbolTable
 70
     0
  0
ENDTAB
  0
TABLE
  2
APPID
  5
9
330
0
100
AcDbSymbolTable
 70
    81
  0
APPID
  5
12
330
9
100
AcDbSymbolTableRecord
100
AcDbRegAppTableRecord
  2
ACAD
 70
     0
  0
APPID
  5
30
330
9
100
AcDbSymbolTableRecord
100
AcDbRegAppTableRecord
  2
MCAD_NO_VIS
 70
     0
  0
APPID
  5
31
330
9
100
AcDbSymbolTableRecord
100
AcDbRegAppTableRecord
  2
ACAD_TEMP_GRAPHIC
 70
     0
  0
APPID
  5
44
330
9
100
AcDbSymbolTableRecord
100
AcDbRegAppTableRecord
  2
ACATTRIBSERVICES
 70
     0
  0
APPID
  5
7A1
330
9
100
AcDbSymbolTableRecord
100
AcDbRegAppTableRecord
  2
GENIUS_GENDIMSH_14
 70
     0
  0
APPID
  5
A49
330
9
100
AcDbSymbolTableRecord
100
AcDbRegAppTableRecord
  2
GENIUS_GENREC_14
 70
     0
  0
APPID
  5
A4A
330
9
100
AcDbSymbolTableRecord
100
AcDbRegAppTableRecord
  2
GENIUS_GENOBJ-N-REC_13
 70
     0
  0
APPID
  5
A4B
330
9
100
AcDbSymbolTableRecord
100
AcDbRegAppTableRecord
  2
GENIUS_GENODEF_13
 70
     0
  0
APPID
  5
A4C
330
9
100
AcDbSymbolTableRecord
100
AcDbRegAppTableRecord
  2
DCO15
 70
     0
  0
APPID
  5
ADC
330
9
100
AcDbSymbolTableRecord
100
AcDbRegAppTableRecord
  2
GENIUS_GENOLIS_13
 70
     0
  0
APPID
  5
ADD
330
9
100
AcDbSymbolTableRecord
100
AcDbRegAppTableRecord
  2
GENIUS_GENOENT_13
 70
     0
  0
APPID
  5
ADE
330
9
100
AcDbSymbolTableRecord
100
AcDbRegAppTableRecord
  2
GENIUS_GENOBJ-N-TIT_13
 70
     0
  0
APPID
  5
ADF
330
9
100
AcDbSymbolTableRecord
100
AcDbRegAppTableRecord
  2
GENIUS_GENTITLE_13
 70
     0
  0
APPID
  5
AE0
330
9
100
AcDbSymbolTableRecord
100
AcDbRegAppTableRecord
  2
GENIUS_GENOREF_13
 70
     0
  0
APPID
  5
AE7
330
9
100
AcDbSymbolTableRecord
100
AcDbRegAppTableRecord
  2
GENIUS_GENSCREG_15
 70
     0
  0
APPID
  5
AE8
330
9
100
AcDbSymbolTableRecord
100
AcDbRegAppTableRecord
  2
GENIUS_GENOBJ-N-SDF_13
 70
     0
  0
APPID
  5
FAF
330
9
100
AcDbSymbolTableRecord
100
AcDbRegAppTableRecord
  2
GENIUS_GENBLLY_14
 70
     0
  0
APPID
  5
FB0
330
9
100
AcDbSymbolTableRecord
100
AcDbRegAppTableRecord
  2
GENIUS_GENTRA_14
 70
     0
  0
APPID
  5
1285
330
9
100
AcDbSymbolTableRecord
100
AcDbRegAppTableRecord
  2
GENIUS_GENDTOL_13
 70
     0
  0
APPID
  5
142D
330
9
100
AcDbSymbolTableRecord
100
AcDbRegAppTableRecord
  2
GENIUS_GENOBJ-N-CEN_13
 70
     0
  0
APPID
  5
1AB5
330
9
100
AcDbSymbolTableRecord
100
AcDbRegAppTableRecord
  2
GENIUS_GENOBJ-N-CRS_13
 70
     0
  0
APPID
  5
1B36
330
9
100
AcDbSymbolTableRecord
100
AcDbRegAppTableRecord
  2
GENIUS_GENOBJ-N-HTC_13
 70
     0
  0
APPID
  5
1B37
330
9
100
AcDbSymbolTableRecord
100
AcDbRegAppTableRecord
  2
GENIUS_GENHATCH_13
 70
     0
  0
APPID
  5
216D
330
9
100
AcDbSymbolTableRecord
100
AcDbRegAppTableRecord
  2
GENIUS_GENOBJ-N-FIL_13
 70
     0
  0
APPID
  5
2356
330
9
100
AcDbSymbolTableRecord
100
AcDbRegAppTableRecord
  2
GEVID990412420
 70
     0
  0
APPID
  5
2357
330
9
100
AcDbSymbolTableRecord
100
AcDbRegAppTableRecord
  2
GEVDC
 70
     0
  0
APPID
  5
2358
330
9
100
AcDbSymbolTableRecord
100
AcDbRegAppTableRecord
  2
GEVCON
 70
     0
  0
APPID
  5
235B
330
9
100
AcDbSymbolTableRecord
100
AcDbRegAppTableRecord
  2
GEVRADREF
 70
     0
  0
APPID
  5
2360
330
9
100
AcDbSymbolTableRecord
100
AcDbRegAppTableRecord
  2
GENIUS_GENBH_13
 70
     0
  0
APPID
  5
2362
330
9
100
AcDbSymbolTableRecord
100
AcDbRegAppTableRecord
  2
GENIUS_GENOBJ-NBEHI-BHF_13
 70
     0
  0
APPID
  5
2364
330
9
100
AcDbSymbolTableRecord
100
AcDbRegAppTableRecord
  2
GENIUS_GENOBJ-NBEHI-BHB_13
 70
     0
  0
APPID
  5
2379
330
9
100
AcDbSymbolTableRecord
100
AcDbRegAppTableRecord
  2
GENIUS_GENOBJ-F-SCPASSM_13
 70
     0
  0
APPID
  5
3D74
330
9
100
AcDbSymbolTableRecord
100
AcDbRegAppTableRecord
  2
GENIUS_GENDIM_13
 70
     0
  0
APPID
  5
3D76
330
9
100
AcDbSymbolTableRecord
100
AcDbRegAppTableRecord
  2
GENIUS_GE3DTOL_13
 70
     0
  0
APPID
  5
3D9C
330
9
100
AcDbSymbolTableRecord
100
AcDbRegAppTableRecord
  2
AD_DRAW
 70
     0
  0
APPID
  5
3DE8
330
9
100
AcDbSymbolTableRecord
100
AcDbRegAppTableRecord
  2
ASURF_PCURVE_APPNAME
 70
     0
  0
APPID
  5
3DED
330
9
100
AcDbSymbolTableRecord
100
AcDbRegAppTableRecord
  2
AMG_3D2D_5.0
 70
     0
  0
APPID
  5
3E1B
330
9
100
AcDbSymbolTableRecord
100
AcDbRegAppTableRecord
  2
DESIGNERASSEMBLIES
 70
     0
  0
APPID
  5
3E20
330
9
100
AcDbSymbolTableRecord
100
AcDbRegAppTableRecord
  2
ACADM_DIM_EDIT
 70
     0
  0
APPID
  5
3E21
330
9
100
AcDbSymbolTableRecord
100
AcDbRegAppTableRecord
  2
AMDT_DM_ADJ
 70
     0
  0
APPID
  5
4143
330
9
100
AcDbSymbolTableRecord
100
AcDbRegAppTableRecord
  2
GENIUS_GENFIL_13
 70
     0
  0
APPID
  5
4144
330
9
100
AcDbSymbolTableRecord
100
AcDbRegAppTableRecord
  2
GENIUS_GENOBJ-N-CHA_13
 70
     0
  0
APPID
  5
4E17
330
9
100
AcDbSymbolTableRecord
100
AcDbRegAppTableRecord
  2
GEVID1008153417
 70
     0
  0
APPID
  5
4E58
330
9
100
AcDbSymbolTableRecord
100
AcDbRegAppTableRecord
  2
GEVID1008153418
 70
     0
  0
APPID
  5
4E5E
330
9
100
AcDbSymbolTableRecord
100
AcDbRegAppTableRecord
  2
GEVID1008153419
 70
     0
  0
APPID
  5
4E64
330
9
100
AcDbSymbolTableRecord
100
AcDbRegAppTableRecord
  2
GEVID1008153420
 70
     0
  0
APPID
  5
4E75
330
9
100
AcDbSymbolTableRecord
100
AcDbRegAppTableRecord
  2
GEVID1008153421
 70
     0
  0
APPID
  5
4EB7
330
9
100
AcDbSymbolTableRecord
100
AcDbRegAppTableRecord
  2
GENIUS_AMGTXT_16
 70
     0
  0
APPID
  5
7645
330
9
100
AcDbSymbolTableRecord
100
AcDbRegAppTableRecord
  2
GENIUS_GENOBJ-N-DIM_13
 70
     0
  0
APPID
  5
AAD0
330
9
100
AcDbSymbolTableRecord
100
AcDbRegAppTableRecord
  2
ACAD_DSTYLE_DIMARC_LENGTH_SYMBOL
 70
     0
  0
APPID
  5
AAD1
330
9
100
AcDbSymbolTableRecord
100
AcDbRegAppTableRecord
  2
ACAD_DSTYLE_DIMJOGGED_JOGANGLE_SYMBOL
 70
     0
  0
APPID
  5
AAFD
330
9
100
AcDbSymbolTableRecord
100
AcDbRegAppTableRecord
  2
ACAD_PSEXT
 70
     0
  0
APPID
  5
AD61
330
9
100
AcDbSymbolTableRecord
100
AcDbRegAppTableRecord
  2
AcAecLayerStandard
 70
     0
  0
APPID
  5
AEE3
330
9
100
AcDbSymbolTableRecord
100
AcDbRegAppTableRecord
  2
ACAD_EXEMPT_FROM_CAD_STANDARDS
 70
     0
  0
APPID
  5
B1BE
330
9
100
AcDbSymbolTableRecord
100
AcDbRegAppTableRecord
  2
GENIUS_GENCEN_19
 70
     0
  0
APPID
  5
B4DF
330
9
100
AcDbSymbolTableRecord
100
AcDbRegAppTableRecord
  2
ACAD_MLEADERVER
 70
     0
  0
APPID
  5
CA4C
330
9
100
AcDbSymbolTableRecord
100
AcDbRegAppTableRecord
  2
ACAD_DSTYLE_DIMRADIAL_EXTENSION
 70
     0
  0
APPID
  5
1ED6D
330
9
100
AcDbSymbolTableRecord
100
AcDbRegAppTableRecord
  2
ACAD_DSTYLE_DIMINSPECT
 70
     0
  0
APPID
  5
219D8
330
9
100
AcDbSymbolTableRecord
100
AcDbRegAppTableRecord
  2
ACDBBLOCKREPETAG
 70
     0
  0
APPID
  5
219D9
330
9
100
AcDbSymbolTableRecord
100
AcDbRegAppTableRecord
  2
AcDbDynamicBlockGUID
 70
     0
  0
APPID
  5
532FB
330
9
100
AcDbSymbolTableRecord
100
AcDbRegAppTableRecord
  2
HC_SUPERPART
 70
     0
  0
APPID
  5
532FC
330
9
100
AcDbSymbolTableRecord
100
AcDbRegAppTableRecord
  2
HC_SP4BLOCK
 70
     0
  0
APPID
  5
532FD
330
9
100
AcDbSymbolTableRecord
100
AcDbRegAppTableRecord
  2
HC_XDATA_SPRING
 70
     0
  0
APPID
  5
532FE
330
9
100
AcDbSymbolTableRecord
100
AcDbRegAppTableRecord
  2
HCCAD_FRAME
 70
     0
  0
APPID
  5
532FF
330
9
100
AcDbSymbolTableRecord
100
AcDbRegAppTableRecord
  2
GENIUS_GENOBJ-N-ZOO_13
 70
     0
  0
APPID
  5
53300
330
9
100
AcDbSymbolTableRecord
100
AcDbRegAppTableRecord
  2
GENIUS_GENSYMENT_13
 70
     0
  0
APPID
  5
53301
330
9
100
AcDbSymbolTableRecord
100
AcDbRegAppTableRecord
  2
GENIUS_GENSCSYM_13
 70
     0
  0
APPID
  5
53302
330
9
100
AcDbSymbolTableRecord
100
AcDbRegAppTableRecord
  2
GENIUS_GENOBJ-N-REV_13
 70
     0
  0
APPID
  5
53303
330
9
100
AcDbSymbolTableRecord
100
AcDbRegAppTableRecord
  2
GENIUS_GENOBJ-N-RSSYM_13
 70
     0
  0
APPID
  5
53304
330
9
100
AcDbSymbolTableRecord
100
AcDbRegAppTableRecord
  2
GENIUS_GENREV_15
 70
     0
  0
APPID
  5
53305
330
9
100
AcDbSymbolTableRecord
100
AcDbRegAppTableRecord
  2
HRA
 70
     0
  0
APPID
  5
53306
330
9
100
AcDbSymbolTableRecord
100
AcDbRegAppTableRecord
  2
HTIT
 70
     0
  0
APPID
  5
53307
330
9
100
AcDbSymbolTableRecord
100
AcDbRegAppTableRecord
  2
GENIUS_GENZOO_17
 70
     0
  0
APPID
  5
53308
330
9
100
AcDbSymbolTableRecord
100
AcDbRegAppTableRecord
  2
GENIUS_GENCRS_20
 70
     0
  0
APPID
  5
53309
330
9
100
AcDbSymbolTableRecord
100
AcDbRegAppTableRecord
  2
GENIUS_GENOBJ-N-CRC_13
 70
     0
  0
APPID
  5
5330A
330
9
100
AcDbSymbolTableRecord
100
AcDbRegAppTableRecord
  2
GENIUS_GENCRC_14
 70
     0
  0
APPID
  5
5330B
330
9
100
AcDbSymbolTableRecord
100
AcDbRegAppTableRecord
  2
GENIUS_GENOBJ-N-DIMLI_13
 70
     0
  0
APPID
  5
5330C
330
9
100
AcDbSymbolTableRecord
100
AcDbRegAppTableRecord
  2
GENIUS_GENOBJ-N-FITL_13
 70
     0
  0
APPID
  5
5330D
330
9
100
AcDbSymbolTableRecord
100
AcDbRegAppTableRecord
  2
GENIUS_GENFITL_13
 70
     0
  0
APPID
  5
5330E
330
9
100
AcDbSymbolTableRecord
100
AcDbRegAppTableRecord
  2
GENLAYCOLOR
 70
     0
  0
APPID
  5
53384
330
9
100
AcDbSymbolTableRecord
100
AcDbRegAppTableRecord
  2
PLOTTRANSPARENCY
 70
     0
  0
ENDTAB
  0
TABLE
  2
DIMSTYLE
  5
A
330
0
100
AcDbSymbolTable
 70
    30
100
AcDbDimStyleTable
  0
DIMSTYLE
105
A76
330
A
100
AcDbSymbolTableRecord
100
AcDbDimStyleTableRecord
  2
STANDARD
 70
     0
 41
3.0
 42
1.0
 43
7.0
 44
2.0
 73
     0
 74
     0
 77
     1
140
2.8
141
0.0
143
0.0394
147
0.7
171
     4
172
     1
173
     1
176
     3
177
     3
271
     3
178
     2
271
     3
272
     3
273
     8
274
     4
289
     0
340
A74
341
A66
343
A66
344
A66
  0
DIMSTYLE
105
2515
330
A
100
AcDbSymbolTableRecord
100
AcDbDimStyleTableRecord
  2
SYS
 70
     0
  4
"
 41
1.0
 42
1.0
 43
10.0
 44
1.0
 47
0.1
 48
0.1
 73
     0
 74
     0
 77
     1
 78
     8
 79
     2
140
3.5
141
0.0
143
0.0393701
146
0.71
147
1.5
172
     1
176
   256
177
   256
271
     2
178
     7
271
     2
272
     2
283
     0
284
     8
340
11
371
    -1
372
    -1
1001
ACAD_DSTYLE_DIMARC_LENGTH_SYMBOL
1070
   379
1070
     1
  0
DIMSTYLE
105
2516
102
{ACAD_REACTORS
330
3797A
330
379FC
102
}
330
A
100
AcDbSymbolTableRecord
100
AcDbDimStyleTableRecord
  2
SYS$3
 70
     0
  4
"
 41
2.0
 42
1.0
 43
10.0
 44
1.0
 47
0.1
 48
0.1
 73
     0
 77
     1
 78
     8
 79
     2
140
3.2
141
0.0
143
0.0393701
146
0.71
147
1.0
176
   256
177
   256
271
     2
178
     2
271
     2
272
     2
283
     0
284
     8
288
     1
340
11
342
A66
371
    -1
372
    -1
1001
ACAD_DSTYLE_DIMARC_LENGTH_SYMBOL
1070
   379
1070
     1
  0
DIMSTYLE
105
2517
330
A
100
AcDbSymbolTableRecord
100
AcDbDimStyleTableRecord
  2
SYS$4
 70
     0
  4
"
 41
2.0
 42
1.0
 43
10.0
 44
1.0
 47
0.1
 48
0.1
 73
     0
 77
     1
 78
     8
 79
     2
140
3.2
141
0.0
143
0.0393701
146
0.71
147
1.0
173
     1
176
   256
177
   256
271
     2
178
     2
271
     2
272
     2
283
     0
284
     8
288
     1
340
11
344
A66
371
    -1
372
    -1
1001
ACAD_DSTYLE_DIMARC_LENGTH_SYMBOL
1070
   379
1070
     1
  0
DIMSTYLE
105
2518
330
A
100
AcDbSymbolTableRecord
100
AcDbDimStyleTableRecord
  2
SYS$6
 70
     0
  4
"
 41
2.0
 42
1.0
 43
10.0
 44
1.0
 47
0.1
 48
0.1
 73
     0
 74
     0
 78
     8
 79
     2
140
3.5
141
0.0
143
0.0393701
146
0.71
147
1.5
172
     1
176
   256
177
   256
271
     2
178
     2
271
     2
272
     2
283
     0
284
     8
340
11
341
A66
371
    -1
372
    -1
1001
ACAD_DSTYLE_DIMARC_LENGTH_SYMBOL
1070
   379
1070
     1
  0
DIMSTYLE
105
2519
330
A
100
AcDbSymbolTableRecord
100
AcDbDimStyleTableRecord
  2
SYS$7
 70
     0
  4
"
 41
2.0
 42
1.0
 43
10.0
 44
1.0
 47
0.1
 48
0.1
 73
     0
 74
     0
 77
     1
 78
     8
 79
     2
140
3.2
141
0.0
143
0.0393701
146
0.71
147
1.0
172
     1
176
   256
177
   256
271
     2
178
     2
271
     2
272
     2
283
     0
284
     8
340
11
341
A66
342
A66
371
    -1
372
    -1
1001
ACAD_DSTYLE_DIMARC_LENGTH_SYMBOL
1070
   379
1070
     1
  0
DIMSTYLE
105
251A
330
A
100
AcDbSymbolTableRecord
100
AcDbDimStyleTableRecord
  2
SYS$SF
 70
     0
  4
"
 41
2.5
 42
1.0
 43
10.0
 44
1.0
 47
0.1
 48
0.1
 73
     0
 74
     0
 75
     1
 76
     1
 77
     1
 78
     8
 79
     2
140
3.5
141
0.0
143
0.0393701
146
0.71
147
1.5
172
     1
176
   256
177
   256
271
     2
178
     2
271
     2
272
     3
283
     0
284
     8
340
11
341
6C4
342
6C4
371
    -1
372
    -1
1001
ACAD_DSTYLE_DIMARC_LENGTH_SYMBOL
1070
   379
1070
     1
  0
DIMSTYLE
105
251B
330
A
100
AcDbSymbolTableRecord
100
AcDbDimStyleTableRecord
  2
SYS$SH
 70
     0
  4
"
 41
2.5
 42
1.0
 43
10.0
 44
1.0
 47
0.1
 48
0.1
 73
     0
 74
     0
 75
     1
 76
     1
 77
     1
 78
     8
 79
     2
140
3.5
141
0.0
143
0.0393701
144
2.0
146
0.71
147
1.5
172
     1
173
     1
176
   256
177
   256
271
     2
178
     2
271
     2
272
     3
283
     0
284
     8
340
11
341
6C4
343
72
344
6C4
371
    -1
372
    -1
1001
ACAD_DSTYLE_DIMARC_LENGTH_SYMBOL
1070
   379
1070
     1
  0
DIMSTYLE
105
2A59
330
A
100
AcDbSymbolTableRecord
100
AcDbDimStyleTableRecord
  2
SYS$2
 70
     0
  4
"
 41
1.0
 42
1.0
 43
10.0
 44
1.0
 47
0.1
 48
0.1
 73
     0
 74
     0
 77
     1
 78
     8
 79
     2
140
3.2
141
0.0
143
0.0393701
146
0.71
147
1.0
172
     1
176
   256
177
   256
271
     2
178
     2
271
     2
272
     2
283
     0
284
     8
340
11
342
6C4
371
    -1
372
    -1
1001
ACAD_DSTYLE_DIMARC_LENGTH_SYMBOL
1070
   379
1070
     1
  0
DIMSTYLE
105
2AAB
102
{ACAD_REACTORS
330
37A1B
330
37A64
330
37A4E
330
38978
330
330E5
330
3303E
330
4150F
102
}
330
A
100
AcDbSymbolTableRecord
100
AcDbDimStyleTableRecord
  2
SYS$0
 70
     0
  4
"
 41
1.0
 42
1.0
 43
10.0
 44
1.0
 47
0.1
 48
0.1
 73
     0
 74
     0
 77
     1
 78
     8
 79
     2
140
3.200000000000001
141
0.0
143
0.0393701
146
0.71
147
1.0
172
     1
176
   256
177
   256
271
     2
178
     2
271
     2
272
     2
283
     0
284
     8
340
11
341
A66
342
6C4
371
    -1
372
    -1
1001
ACAD_DSTYLE_DIMARC_LENGTH_SYMBOL
1070
   379
1070
     1
  0
DIMSTYLE
105
AF99
330
A
100
AcDbSymbolTableRecord
100
AcDbDimStyleTableRecord
  2
AM_ISO
 70
     0
  4
"
 41
2.5
 42
1.0
 43
10.0
 44
1.0
 47
0.1
 48
0.1
 73
     0
 74
     0
 77
     1
 78
     8
 79
     2
140
3.5
141
0.0
143
0.0393701
146
0.71
147
1.5
172
     1
176
   256
177
   256
271
     2
178
     2
271
     2
272
     3
274
     4
283
     0
284
     8
340
11
371
    -1
372
    -1
  0
DIMSTYLE
105
AF9A
330
A
100
AcDbSymbolTableRecord
100
AcDbDimStyleTableRecord
  2
AM_ISO$3
 70
     0
  4
"
 41
2.5
 42
1.0
 43
10.0
 44
1.0
 47
0.1
 48
0.1
 73
     0
 77
     1
 78
     8
 79
     2
140
3.5
141
0.0
143
0.0393701
146
0.71
147
1.5
176
   256
177
   256
271
     2
178
     2
271
     2
272
     3
274
     4
283
     0
284
     8
288
     1
289
     0
340
11
371
    -1
372
    -1
  0
DIMSTYLE
105
AF9B
330
A
100
AcDbSymbolTableRecord
100
AcDbDimStyleTableRecord
  2
AM_ISO$4
 70
     0
  4
"
 41
2.5
 42
1.0
 43
10.0
 44
1.0
 47
0.1
 48
0.1
 73
     0
 77
     1
 78
     8
 79
     2
140
3.5
141
0.0
143
0.0393701
146
0.71
147
1.5
176
   256
177
   256
271
     2
178
     2
271
     2
272
     3
274
     4
283
     0
284
     8
288
     1
289
     0
340
11
371
    -1
372
    -1
  0
DIMSTYLE
105
AF9C
330
A
100
AcDbSymbolTableRecord
100
AcDbDimStyleTableRecord
  2
AM_ISO$6
 70
     0
  4
"
 41
2.5
 42
1.0
 43
10.0
 44
1.0
 47
0.1
 48
0.1
 73
     0
 74
     0
 78
     8
 79
     2
140
3.5
141
0.0
143
0.0393701
146
0.71
147
1.5
172
     1
176
   256
177
   256
271
     2
178
     2
271
     2
272
     3
274
     4
283
     0
284
     8
340
11
371
    -1
372
    -1
  0
DIMSTYLE
105
AF9D
330
A
100
AcDbSymbolTableRecord
100
AcDbDimStyleTableRecord
  2
AM_ISO$7
 70
     0
  4
"
 41
2.5
 42
1.0
 43
10.0
 44
1.0
 47
0.1
 48
0.1
 73
     0
 74
     0
 77
     1
 78
     8
 79
     2
140
5.0
141
0.0
143
0.0393701
146
0.71
147
1.5
172
     1
176
   256
177
   256
271
     2
178
     2
271
     2
272
     3
274
     4
283
     0
284
     8
340
11
371
    -1
372
    -1
  0
DIMSTYLE
105
AF9E
330
A
100
AcDbSymbolTableRecord
100
AcDbDimStyleTableRecord
  2
AM_ISO$SF
 70
     0
  4
"
 41
2.5
 42
1.0
 43
10.0
 44
1.0
 47
0.1
 48
0.1
 73
     0
 74
     0
 75
     1
 76
     1
 77
     1
 78
     8
 79
     2
140
3.5
141
0.0
143
0.0393701
146
0.71
147
1.5
172
     1
176
   256
177
   256
271
     2
178
     2
271
     2
272
     3
274
     4
283
     0
284
     8
340
11
371
    -1
372
    -1
  0
DIMSTYLE
105
AF9F
330
A
100
AcDbSymbolTableRecord
100
AcDbDimStyleTableRecord
  2
AM_ISO$SH
 70
     0
  4
"
 41
2.5
 42
1.0
 43
10.0
 44
1.0
 47
0.1
 48
0.1
 73
     0
 74
     0
 75
     1
 76
     1
 77
     1
 78
     8
 79
     2
140
3.5
141
0.0
143
0.0393701
144
2.0
146
0.71
147
1.5
172
     1
173
     1
176
   256
177
   256
271
     2
178
     2
271
     2
272
     3
274
     4
283
     0
284
     8
340
11
343
72
371
    -1
372
    -1
  0
DIMSTYLE
105
B658
330
A
100
AcDbSymbolTableRecord
100
AcDbDimStyleTableRecord
  2
AM_ANSI
 70
     0
  4
mm
 41
0.1
 42
0.05
 43
0.5
 44
0.1
 47
0.1
 48
0.1
 78
     7
 79
     2
140
0.12
141
0.0
146
0.71
147
0.06
176
   256
177
   256
178
     2
274
     4
284
     7
340
11
371
    -1
372
    -1
  0
DIMSTYLE
105
CA4B
330
A
100
AcDbSymbolTableRecord
100
AcDbDimStyleTableRecord
  2
原寸
 70
     0
 41
2.5
 42
1.0
 43
10.0
 44
0.7
 73
     0
 74
     0
 77
     3
 78
     8
 79
     2
140
3.5
141
0.0
147
1.0
172
     1
178
     0
179
     1
271
     2
272
     2
340
CA48
341
A66
342
A66
  0
DIMSTYLE
105
1D542
330
A
100
AcDbSymbolTableRecord
100
AcDbDimStyleTableRecord
  2
DIMSTYLE
 70
     0
 41
1.0
 42
2.54
 44
2.54
 73
     0
 74
     0
140
3.2
147
1.6
173
     1
178
     0
279
     2
340
11
  0
DIMSTYLE
105
1D543
330
A
100
AcDbSymbolTableRecord
100
AcDbDimStyleTableRecord
  2
AM_ANSI$3
 70
     0
  4
mm
 41
0.1
 42
0.05
 43
0.5
 44
0.1
 47
0.1
 48
0.1
 78
     7
 79
     2
140
0.12
141
0.0
146
0.71
147
0.06
176
   256
177
   256
178
     2
274
     4
284
     7
288
     1
289
     0
340
11
371
    -1
372
    -1
1001
ACAD_DSTYLE_DIMARC_LENGTH_SYMBOL
1070
   379
1070
     1
  0
DIMSTYLE
105
1D544
330
A
100
AcDbSymbolTableRecord
100
AcDbDimStyleTableRecord
  2
AM_ANSI$4
 70
     0
  4
mm
 41
0.1
 42
0.05
 43
0.5
 44
0.1
 47
0.1
 48
0.1
 78
     7
 79
     2
140
0.12
141
0.0
146
0.71
147
0.06
176
   256
177
   256
178
     2
274
     4
284
     7
288
     1
289
     0
340
11
371
    -1
372
    -1
1001
ACAD_DSTYLE_DIMARC_LENGTH_SYMBOL
1070
   379
1070
     1
  0
DIMSTYLE
105
1D545
330
A
100
AcDbSymbolTableRecord
100
AcDbDimStyleTableRecord
  2
AM_ANSI$7
 70
     0
  4
mm
 41
0.1
 42
0.05
 43
0.5
 44
0.1
 47
0.1
 48
0.1
 78
     7
 79
     2
140
0.24
141
0.0
146
0.71
147
0.06
176
   256
177
   256
178
     2
274
     4
284
     7
340
11
371
    -1
372
    -1
1001
ACAD_DSTYLE_DIMARC_LENGTH_SYMBOL
1070
   379
1070
     1
  0
DIMSTYLE
105
1D546
330
A
100
AcDbSymbolTableRecord
100
AcDbDimStyleTableRecord
  2
AM_ANSI$SF
 70
     0
  4
mm
 41
0.1
 42
0.05
 43
0.5
 44
0.1
 47
0.1
 48
0.1
 75
     1
 76
     1
 78
     7
 79
     2
140
0.12
141
0.0
146
0.71
147
0.06
176
   256
177
   256
178
     2
274
     4
284
     7
340
11
371
    -1
372
    -1
1001
ACAD_DSTYLE_DIMARC_LENGTH_SYMBOL
1070
   379
1070
     1
  0
DIMSTYLE
105
1D547
330
A
100
AcDbSymbolTableRecord
100
AcDbDimStyleTableRecord
  2
AM_ANSI$SH
 70
     0
  4
mm
 41
0.1
 42
0.05
 43
0.5
 44
0.1
 47
0.1
 48
0.1
 75
     1
 76
     1
 78
     7
 79
     2
140
0.12
141
0.0
146
0.71
147
0.06
173
     1
176
   256
177
   256
178
     2
274
     4
284
     7
340
11
343
72
371
    -1
372
    -1
1001
ACAD_DSTYLE_DIMARC_LENGTH_SYMBOL
1070
   379
1070
     1
  0
DIMSTYLE
105
1DA90
330
A
100
AcDbSymbolTableRecord
100
AcDbDimStyleTableRecord
  2
SYSORG4P0
 70
     0
  4
"
 41
1.0
 42
1.0
 43
10.0
 44
1.0
 47
0.2
 48
0.2000000002
 71
     1
 73
     0
 74
     0
 77
     1
 78
     8
 79
     2
140
3.5
141
0.0
143
0.0393701
144
3.999999999999794
146
0.6
147
1.5
172
     1
176
   256
177
   256
271
     2
178
     7
271
     2
272
     2
283
     0
284
     8
340
11
341
A66
342
6C4
371
    -1
372
    -1
  0
DIMSTYLE
105
1DA91
330
A
100
AcDbSymbolTableRecord
100
AcDbDimStyleTableRecord
  2
SYSORG2P0
 70
     0
  4
"
 41
1.0
 42
1.0
 43
10.0
 44
1.0
 47
0.2
 48
0.2000000002
 71
     1
 73
     0
 74
     0
 77
     1
 78
     8
 79
     2
140
3.5
141
0.0
143
0.0393701
144
2.000000119209307
146
0.6
147
1.5
172
     1
176
   256
177
   256
271
     2
178
     7
271
     2
272
     2
283
     0
284
     8
340
11
341
A66
342
6C4
371
    -1
372
    -1
  0
DIMSTYLE
105
1DA92
330
A
100
AcDbSymbolTableRecord
100
AcDbDimStyleTableRecord
  2
SYSORG0P5
 70
     0
  4
"
 41
1.0
 42
1.0
 43
10.0
 44
1.0
 47
0.1
 48
0.1
 73
     0
 74
     0
 77
     1
 78
     8
 79
     2
140
3.5
141
0.0
143
0.0393701
144
0.5
146
0.71
147
1.5
172
     1
176
   256
177
   256
271
     2
178
     7
271
     2
272
     2
283
     0
284
     8
340
11
371
    -1
372
    -1
  0
DIMSTYLE
105
32EB5
102
{ACAD_REACTORS
330
330E7
330
330E3
330
330E4
102
}
330
A
100
AcDbSymbolTableRecord
100
AcDbDimStyleTableRecord
  2
SYS0000
 70
     0
  4
"
 41
2.5
 42
1.0
 43
10.0
 44
1.0
 47
0.1
 48
0.1
 73
     0
 74
     0
 77
     1
 78
     8
 79
     2
140
3.5
141
0.0
143
0.0393701
146
0.71
147
1.5
172
     1
176
   256
177
   256
271
     1
178
     2
271
     1
272
     3
283
     0
284
     8
340
11
341
6C4
342
32DFB
371
    -1
372
    -1
  0
DIMSTYLE
105
425A4
330
A
100
AcDbSymbolTableRecord
100
AcDbDimStyleTableRecord
  2
DIMSTYLE$0
 70
     0
 41
1.0
 42
2.54
 44
2.54
 73
     0
 74
     0
140
3.2
147
1.6
173
     1
178
     0
279
     2
340
11
  0
ENDTAB
  0
TABLE
  2
BLOCK_RECORD
  5
1
330
0
100
AcDbSymbolTable
 70
   551
  0
BLOCK_RECORD
  5
1F
102
{ACAD_XDICTIONARY
360
8A
102
}
330
1
100
AcDbSymbolTableRecord
100
AcDbBlockTableRecord
  2
*Model_Space
340
22
  0
BLOCK_RECORD
  5
1B
330
1
100
AcDbSymbolTableRecord
100
AcDbBlockTableRecord
  2
*Paper_Space
340
1E
  0
BLOCK_RECORD
  5
23
330
1
100
AcDbSymbolTableRecord
100
AcDbBlockTableRecord
  2
*Paper_Space0
340
26
  0
BLOCK_RECORD
  5
72
330
1
100
AcDbSymbolTableRecord
100
AcDbBlockTableRecord
  2
GENAXEH
340
0
  0
BLOCK_RECORD
  5
6C4
330
1
100
AcDbSymbolTableRecord
100
AcDbBlockTableRecord
  2
_Dot
340
0
102
{BLKREFS
331
4FD13
331
4FD14
331
4FD25
331
4FD26
331
52B6A
331
52B6B
331
4FD49
331
4FD4A
331
4FD5B
331
4FD5C
331
4FDA3
331
4FDA4
331
4FDB5
331
4FDB6
331
4FDFA
331
4FDFB
331
4FE41
331
4FE42
331
4FE53
331
4FE54
331
4FE65
331
4FE66
331
4FE77
331
4FE78
331
4FE89
331
4FE8A
331
4FE9A
331
4FE9B
331
4FF0B
331
4FF0C
331
4FF1D
331
4FF1E
331
4FF2F
331
4FF30
331
4FF41
331
4FF42
331
4FF53
331
4FF54
331
4FF65
331
4FF66
331
4FF77
331
4FF78
331
4FF8B
331
4FF8C
331
4FF9D
331
4FF9E
331
4FFAF
331
4FFB0
331
4FFC1
331
4FFC2
331
4FFD3
331
4FFD4
331
4FFE5
331
4FFE6
331
4FFF6
331
4FFF7
331
5007B
331
5007C
331
5008D
331
5008E
331
5009F
331
500A0
331
500B1
331
500B2
331
500D5
331
500D6
331
500E7
331
500E8
331
500F9
331
500FA
331
5010B
331
5010C
331
5011D
331
5011E
331
5012E
331
5012F
331
4FD6D
331
4FD6E
331
4FD7F
331
4FD80
331
4FD91
331
4FD92
331
4FDC7
331
4FDC8
331
4FDD9
331
4FDDA
331
5220C
331
5220D
331
4FE0B
331
4FE0C
331
4FE1D
331
4FE1E
331
4FE2F
331
4FE30
331
4FEAF
331
4FEB0
331
4FEC1
331
4FEC2
331
4FED7
331
4FED8
331
4FEE9
331
4FEEA
331
52214
331
52215
331
50007
331
50008
331
50019
331
5001A
331
5002F
331
50030
331
50045
331
50046
331
50057
331
50058
331
50069
331
5006A
331
500C3
331
500C4
331
5013F
331
50140
331
50151
331
50152
331
50167
331
50168
331
50179
331
5017A
331
5018D
331
5018E
331
5019F
331
501A0
331
501B1
331
501B2
331
501C3
331
501C4
331
501D5
331
501D6
331
501E7
331
501E8
331
501F9
331
501FA
331
5020B
331
5020C
331
5021D
331
5021E
331
5022F
331
50230
331
50241
331
50242
331
50257
331
50258
331
50269
331
5026A
331
5027D
331
5027E
331
5028F
331
50290
331
502A1
331
502A2
331
502B3
331
502B4
331
502C5
331
502C6
331
502D7
331
502D8
331
502E9
331
502EA
331
502FB
331
502FC
331
5030F
331
50310
331
50321
331
50322
331
50337
331
50338
331
50349
331
5034A
331
5035B
331
5035C
331
5036D
331
5036E
331
5037F
331
50380
331
50391
331
50392
331
503A3
331
503A4
331
503B5
331
503B6
331
503C7
331
503C8
331
503DD
331
503DE
331
503EF
331
503F0
331
50401
331
50402
331
50417
331
50418
331
5042D
331
5042E
331
5043F
331
50440
331
50451
331
50452
331
50463
331
50464
331
50475
331
50476
331
50487
331
50488
331
50498
331
50499
331
504A9
331
504AA
331
504BA
331
504BB
331
504CD
331
504CE
331
504DF
331
504E0
331
504F0
331
504F1
331
50500
331
50501
331
50513
331
50514
331
50525
331
50526
331
50539
331
5053A
331
5054B
331
5054C
331
5055F
331
50560
331
50571
331
50572
331
50585
331
50586
331
50597
331
50598
331
505A8
331
505A9
331
505B8
331
505B9
331
505C8
331
505C9
331
505DB
331
505DC
331
505EB
331
505EC
331
505FD
331
505FE
331
5060F
331
50610
331
50625
331
50626
331
50637
331
50638
331
50649
331
5064A
331
5065B
331
5065C
331
5066C
331
5066D
331
5067F
331
50680
331
50691
331
50692
331
506A3
331
506A4
331
506B4
331
506B5
331
506C5
331
506C6
331
506DB
331
506DC
331
506ED
331
506EE
331
506FF
331
50700
331
50711
331
50712
331
50725
331
50726
331
50735
331
50736
331
50747
331
50748
331
5075B
331
5075C
331
5076D
331
5076E
331
5077F
331
50780
331
50793
331
50794
331
507A5
331
507A6
331
507B7
331
507B8
331
507C8
331
507C9
331
507D9
331
507DA
331
507EF
331
507F0
331
50801
331
50802
331
50813
331
50814
331
50825
331
50826
331
50837
331
50838
331
50849
331
5084A
331
5085D
331
5085E
331
5086C
331
5086D
331
5087F
331
50880
331
5088F
331
50890
331
508A1
331
508A2
331
508B3
331
508B4
331
508C7
331
508C8
331
508D9
331
508DA
331
508EB
331
508EC
331
508FC
331
508FD
331
5090D
331
5090E
331
5091E
331
5091F
331
5092F
331
50930
331
50941
331
50942
331
50953
331
50954
331
50965
331
50966
331
50979
331
5097A
331
5098B
331
5098C
331
5099C
331
5099D
331
509AD
331
509AE
331
509BF
331
509C0
331
509D1
331
509D2
331
509E5
331
509E6
331
509F7
331
509F8
331
50A09
331
50A0A
331
50A1A
331
50A1B
331
50A2B
331
50A2C
331
50A3D
331
50A3E
331
50A51
331
50A52
331
50A63
331
50A64
331
50A77
331
50A78
331
50A87
331
50A88
331
50A99
331
50A9A
331
50AAB
331
50AAC
331
50ABD
331
50ABE
331
50AD1
331
50AD2
331
50AE3
331
50AE4
331
50AF5
331
50AF6
331
50B06
331
50B07
331
50B17
331
50B18
331
50B29
331
50B2A
331
50B3B
331
50B3C
331
50B4F
331
50B50
331
50B73
331
50B74
331
50B85
331
50B86
331
50B97
331
50B98
331
50BA9
331
50BAA
331
50BBB
331
50BBC
331
50BE1
331
50BE2
331
50C05
331
50C06
331
50C17
331
50C18
331
50C29
331
50C2A
331
50C3B
331
50C3C
331
50C4D
331
50C4E
331
50C5F
331
50C60
331
50C71
331
50C72
331
50C83
331
50C84
331
50C95
331
50C96
331
50F07
331
50F08
331
50F19
331
50F1A
331
50F2B
331
50F2C
331
50F3D
331
50F3E
331
50F65
331
50F66
331
50F77
331
50F78
331
50F89
331
50F8A
331
50F9B
331
50F9C
331
50FAD
331
50FAE
331
50FBF
331
50FC0
331
50FD1
331
50FD2
331
50FE7
331
50FE8
331
50FF9
331
50FFA
331
5100B
331
5100C
331
5101D
331
5101E
331
51033
331
51034
331
51045
331
51046
331
51057
331
51058
331
51069
331
5106A
331
5107B
331
5107C
331
5108D
331
5108E
331
5109F
331
510A0
331
510B1
331
510B2
331
510C7
331
510C8
331
510D9
331
510DA
331
510EB
331
510EC
331
510FD
331
510FE
331
51121
331
51122
331
51133
331
51134
331
51145
331
51146
331
51157
331
51158
331
51169
331
5116A
331
52E9C
331
52E9D
331
52E78
331
52E79
331
511B1
331
511B2
331
50D3B
331
50D3C
331
50D4D
331
50D4E
331
50D5F
331
50D60
331
50D71
331
50D72
331
50D87
331
50D88
331
50D99
331
50D9A
331
50DAB
331
50DAC
331
50DBD
331
50DBE
331
50DCF
331
50DD0
331
50DE1
331
50DE2
331
50DF3
331
50DF4
331
50E05
331
50E06
331
50E17
331
50E18
331
50E29
331
50E2A
331
50E3B
331
50E3C
331
50E4D
331
50E4E
331
50E61
331
50E62
331
50E73
331
50E74
331
50E85
331
50E86
331
50E97
331
50E98
331
50EAB
331
50EAC
331
50EBF
331
50EC0
331
50ED1
331
50ED2
331
50EE3
331
50EE4
331
50EF5
331
50EF6
331
52E1F
331
52E20
331
50CB9
331
50CBA
331
50CD3
331
50CD4
331
50CEB
331
50CEC
331
50D01
331
50D02
331
50D13
331
50D14
331
50D25
331
50D26
331
511CF
331
511D0
331
511E1
331
511E2
331
511F3
331
511F4
331
51205
331
51206
331
51223
331
51224
331
51235
331
51236
331
5125B
331
5125C
331
5126D
331
5126E
331
52C60
331
52C61
331
51291
331
51292
331
512A3
331
512A4
331
512B5
331
512B6
331
512C7
331
512C8
331
512D9
331
512DA
331
512EB
331
512EC
331
512FD
331
512FE
331
51311
331
51312
331
51323
331
51324
331
51335
331
51336
331
51347
331
51348
331
51359
331
5135A
331
52AC7
331
52AC8
331
52AD0
331
52AD1
331
52AD9
331
52ADA
331
52AE2
331
52AE3
331
52AEB
331
52AEC
331
52AF4
331
52AF5
331
52AFD
331
52AFE
331
52B08
331
52B09
331
52B11
331
52B12
331
51467
331
51468
331
51477
331
51478
331
51489
331
5148A
331
514A2
331
514A3
331
52248
331
52249
331
5227C
331
5227D
331
514E9
331
514EA
331
514FB
331
514FC
331
52251
331
52252
331
51533
331
51534
331
51541
331
51542
331
51551
331
51552
331
51563
331
51564
331
51575
331
51576
331
51587
331
51588
331
51599
331
5159A
331
515AB
331
515AC
331
515BD
331
515BE
331
515CF
331
515D0
331
515E1
331
515E2
331
515F7
331
515F8
331
51609
331
5160A
331
5162D
331
5162E
331
52BE6
331
52BE7
331
51651
331
51652
331
51681
331
51682
331
51693
331
51694
331
516A5
331
516A6
331
516B7
331
516B8
331
516C9
331
516CA
331
516DB
331
516DC
331
516ED
331
516EE
331
516FF
331
51700
331
51711
331
51712
331
51723
331
51724
331
51735
331
51736
331
51747
331
51748
331
51758
331
51759
331
5176B
331
5176C
331
5177F
331
51780
331
517A3
331
517A4
331
52DFB
331
52DFC
331
517D9
331
517DA
331
517EB
331
517EC
331
517FD
331
517FE
331
5180F
331
51810
331
51833
331
51834
331
51859
331
5185A
331
51847
331
51848
331
5186B
331
5186C
331
5187D
331
5187E
331
51891
331
51892
331
518A3
331
518A4
331
518B5
331
518B6
331
518C7
331
518C8
331
518D9
331
518DA
331
518EB
331
518EC
331
518FD
331
518FE
331
5190F
331
51910
331
51921
331
51922
331
51935
331
51936
331
51947
331
51948
331
51959
331
5195A
331
5196B
331
5196C
331
5197F
331
51980
331
51991
331
51992
331
519A1
331
519A2
331
519D7
331
519D8
331
519FF
331
51A00
331
51A13
331
51A14
331
51A25
331
51A26
331
51A37
331
51A38
331
51A49
331
51A4A
331
51A5B
331
51A5C
331
51A6D
331
51A6E
331
51A7F
331
51A80
331
51A91
331
51A92
331
51AA3
331
51AA4
331
51AB5
331
51AB6
331
51AC7
331
51AC8
331
51AD9
331
51ADA
331
51AEB
331
51AEC
331
51AFD
331
51AFE
331
51B11
331
51B12
331
51B33
331
51B34
331
51B45
331
51B46
331
51B57
331
51B58
331
51B6B
331
51B6C
331
51B7B
331
51B7C
331
51B8D
331
51B8E
331
51BA1
331
51BA2
331
51BB3
331
51BB4
331
51BC5
331
51BC6
331
51BD7
331
51BD8
331
51BE9
331
51BEA
331
51BFB
331
51BFC
331
51C0D
331
51C0E
331
51C1F
331
51C20
331
51C31
331
51C32
331
51C45
331
51C46
331
51C57
331
51C58
331
51C67
331
51C68
331
51C79
331
51C7A
331
51C8B
331
51C8C
331
51C9F
331
51CA0
331
51CB1
331
51CB2
331
51CC3
331
51CC4
331
51CD5
331
51CD6
331
51CE7
331
51CE8
331
51CF9
331
51CFA
331
51D0B
331
51D0C
331
51D1D
331
51D1E
331
51D31
331
51D32
331
51D43
331
51D44
331
51D53
331
51D54
331
51D65
331
51D66
331
51D77
331
51D78
331
51D8B
331
51D8C
331
51D9D
331
51D9E
331
51DAF
331
51DB0
331
51DC1
331
51DC2
331
51DD3
331
51DD4
331
51DE5
331
51DE6
331
51DF7
331
51DF8
331
51E09
331
51E0A
331
51E41
331
51E42
331
51E53
331
51E54
331
51E65
331
51E66
331
51E77
331
51E78
331
51E89
331
51E8A
331
51E9B
331
51E9C
331
51EAD
331
51EAE
331
51EBF
331
51EC0
331
51ED1
331
51ED2
331
51EE3
331
51EE4
331
51EF5
331
51EF6
331
51F07
331
51F08
331
51F19
331
51F1A
331
51F29
331
51F2A
331
51F3B
331
51F3C
331
51F4D
331
51F4E
331
51F5F
331
51F60
331
51F71
331
51F72
331
51F83
331
51F84
331
51F95
331
51F96
331
51FA7
331
51FA8
331
51FB9
331
51FBA
331
51FCB
331
51FCC
331
51FDD
331
51FDE
331
51FEF
331
51FF0
331
52001
331
52002
331
52017
331
52018
331
5202B
331
5202C
331
5203D
331
5203E
331
5204F
331
52050
331
52061
331
52062
331
52073
331
52074
331
52085
331
52086
331
52097
331
52098
331
520A9
331
520AA
331
520BB
331
520BC
331
520CD
331
520CE
331
520DF
331
520E0
331
520F1
331
520F2
331
52103
331
52104
331
52115
331
52116
331
52127
331
52128
331
52139
331
5213A
331
5214B
331
5214C
331
5215D
331
5215E
331
5216F
331
52170
331
521A5
331
521A6
331
52A79
331
52A7A
331
52A82
331
52A83
331
52A8B
331
52A8C
331
52AA6
331
52AA7
331
52EB1
331
52EB2
331
52EBA
331
52EBB
331
52BCB
331
52BCC
331
52C4E
331
52C4F
331
52EA5
331
52EA6
331
52E81
331
52E82
331
52E04
331
52E05
331
52E31
331
52E32
102
}
  0
BLOCK_RECORD
  5
A66
330
1
100
AcDbSymbolTableRecord
100
AcDbBlockTableRecord
  2
_OPEN30
340
0
102
{BLKREFS
331
511C0
331
51214
331
52AC1
331
51672
331
52B92
102
}
  0
BLOCK_RECORD
  5
3E12
330
1
100
AcDbSymbolTableRecord
100
AcDbBlockTableRecord
  2
*U4
340
0
  0
BLOCK_RECORD
  5
32629
330
1
100
AcDbSymbolTableRecord
100
AcDbBlockTableRecord
  2
GENDOT
340
0
102
{BLKREFS
331
50B63
331
50B64
331
50BCF
331
50BD0
331
50BF5
331
50BF6
331
50F51
331
50F52
331
51111
331
51112
331
52C86
331
52C87
331
5136D
331
5136E
331
5137F
331
51380
331
52B1C
331
52B1D
331
51455
331
51456
331
514B5
331
514B6
331
51521
331
51522
331
5161D
331
5161E
331
52BDF
331
52BE0
331
51823
331
51824
331
519B5
331
519B6
331
519C7
331
519C8
331
51B23
331
51B24
331
51E1D
331
51E1E
331
51E2F
331
51E30
331
52180
331
52181
331
52193
331
52194
331
52C16
331
52C17
331
52C1F
331
52C20
102
}
  0
BLOCK_RECORD
  5
32DFB
330
1
100
AcDbSymbolTableRecord
100
AcDbBlockTableRecord
  2
_DotSmall
340
0
  0
BLOCK_RECORD
  5
33117
330
1
100
AcDbSymbolTableRecord
100
AcDbBlockTableRecord
  2
*D85
340
0
  0
BLOCK_RECORD
  5
33146
330
1
100
AcDbSymbolTableRecord
100
AcDbBlockTableRecord
  2
*D86
340
0
  0
BLOCK_RECORD
  5
33152
330
1
100
AcDbSymbolTableRecord
100
AcDbBlockTableRecord
  2
*D87
340
0
  0
BLOCK_RECORD
  5
3315E
330
1
100
AcDbSymbolTableRecord
100
AcDbBlockTableRecord
  2
*D88
340
0
  0
BLOCK_RECORD
  5
33173
330
1
100
AcDbSymbolTableRecord
100
AcDbBlockTableRecord
  2
*D89
340
0
  0
BLOCK_RECORD
  5
3797B
330
1
100
AcDbSymbolTableRecord
100
AcDbBlockTableRecord
  2
*D166
340
0
  0
BLOCK_RECORD
  5
379FD
330
1
100
AcDbSymbolTableRecord
100
AcDbBlockTableRecord
  2
*D167
340
0
  0
BLOCK_RECORD
  5
37A1C
330
1
100
AcDbSymbolTableRecord
100
AcDbBlockTableRecord
  2
*D168
340
0
  0
BLOCK_RECORD
  5
37A4F
330
1
100
AcDbSymbolTableRecord
100
AcDbBlockTableRecord
  2
*D169
340
0
  0
BLOCK_RECORD
  5
37A65
330
1
100
AcDbSymbolTableRecord
100
AcDbBlockTableRecord
  2
*D170
340
0
  0
BLOCK_RECORD
  5
38979
330
1
100
AcDbSymbolTableRecord
100
AcDbBlockTableRecord
  2
*D207
340
0
  0
BLOCK_RECORD
  5
41510
330
1
100
AcDbSymbolTableRecord
100
AcDbBlockTableRecord
  2
*D388
340
0
  0
BLOCK_RECORD
  5
53315
330
1
100
AcDbSymbolTableRecord
100
AcDbBlockTableRecord
  2
_ACMFILLED
340
0
  0
BLOCK_RECORD
  5
5331C
330
1
100
AcDbSymbolTableRecord
100
AcDbBlockTableRecord
  2
_ACMOPEN30
340
0
  0
BLOCK_RECORD
  5
5332B
330
1
100
AcDbSymbolTableRecord
100
AcDbBlockTableRecord
  2
_ACMFILLEDHALF
340
0
  0
ENDTAB
  0
ENDSEC
  0
SECTION
  2
BLOCKS
  0
BLOCK
  5
20
330
1F
100
AcDbEntity
  8
0
100
AcDbBlockBegin
  2
*Model_Space
 70
     0
 10
0.0
 20
0.0
 30
0.0
  3
*Model_Space
  1

  0
ENDBLK
  5
21
330
1F
100
AcDbEntity
  8
0
100
AcDbBlockEnd
  0
BLOCK
  5
1C
330
1B
100
AcDbEntity
 67
     1
  8
0
100
AcDbBlockBegin
  2
*Paper_Space
 70
     0
 10
0.0
 20
0.0
 30
0.0
  3
*Paper_Space
  1

  0
ENDBLK
  5
1D
330
1B
100
AcDbEntity
 67
     1
  8
0
100
AcDbBlockEnd
  0
BLOCK
  5
24
330
23
100
AcDbEntity
  8
0
100
AcDbBlockBegin
  2
*Paper_Space0
 70
     0
 10
0.0
 20
0.0
 30
0.0
  3
*Paper_Space0
  1

  0
ENDBLK
  5
25
330
23
100
AcDbEntity
  8
0
100
AcDbBlockEnd
  0
BLOCK
  5
74
330
72
100
AcDbEntity
  8
0
100
AcDbBlockBegin
  2
GENAXEH
 70
     0
 10
0.0
 20
0.0
 30
0.0
  3
GENAXEH
  1

  0
LINE
  5
73
330
72
100
AcDbEntity
  8
0
100
AcDbLine
 10
-1.0
 20
0.0
 30
0.0
 11
1.0
 21
0.0
 31
0.0
  0
ENDBLK
  5
75
330
72
100
AcDbEntity
  8
0
100
AcDbBlockEnd
  0
BLOCK
  5
6C7
330
6C4
100
AcDbEntity
  8
0
100
AcDbBlockBegin
  2
_Dot
 70
     0
 10
0.0
 20
0.0
 30
0.0
  3
_Dot
  1

  0
LWPOLYLINE
  5
6C5
330
6C4
100
AcDbEntity
  8
0
  6
ByBlock
 62
     0
100
AcDbPolyline
 90
        2
 70
     1
 43
0.5
 10
-0.25
 20
0.0
 42
1.0
 10
0.25
 20
0.0
 42
1.0
  0
LINE
  5
6C6
330
6C4
100
AcDbEntity
  8
0
  6
ByBlock
 62
     0
370
    -2
100
AcDbLine
 10
-0.5
 20
0.0
 30
0.0
 11
-1.0
 21
0.0
 31
0.0
  0
ENDBLK
  5
6C8
330
6C4
100
AcDbEntity
  8
0
100
AcDbBlockEnd
  0
BLOCK
  5
A6A
330
A66
100
AcDbEntity
  8
0
100
AcDbBlockBegin
  2
_OPEN30
 70
     0
 10
0.0
 20
0.0
 30
0.0
  3
_OPEN30
  1

  0
LINE
  5
A67
330
A66
100
AcDbEntity
  8
0
  6
ByBlock
 62
     0
100
AcDbLine
 10
-1.0
 20
0.26794919
 30
0.0
 11
0.0
 21
0.0
 31
0.0
  0
LINE
  5
A68
330
A66
100
AcDbEntity
  8
0
  6
ByBlock
 62
     0
100
AcDbLine
 10
0.0
 20
0.0
 30
0.0
 11
-1.0
 21
-0.26794919
 31
0.0
  0
LINE
  5
A69
330
A66
100
AcDbEntity
  8
0
  6
ByBlock
 62
     0
100
AcDbLine
 10
0.0
 20
0.0
 30
0.0
 11
-1.0
 21
0.0
 31
0.0
  0
ENDBLK
  5
A6B
330
A66
100
AcDbEntity
  8
0
100
AcDbBlockEnd
  0
BLOCK
  5
3E13
330
3E12
100
AcDbEntity
  8
0
100
AcDbBlockBegin
  2
*U4
 70
     1
 10
0.0
 20
0.0
 30
0.0
  3
*U4
  1

  0
ENDBLK
  5
3E14
330
3E12
100
AcDbEntity
  8
0
100
AcDbBlockEnd
  0
BLOCK
  5
3262A
330
32629
100
AcDbEntity
  8
0
100
AcDbBlockBegin
  2
GENDOT
 70
     0
 10
0.0
 20
0.0
 30
0.0
  3
GENDOT
  1

  0
LINE
  5
3262B
330
32629
100
AcDbEntity
  8
0
100
AcDbLine
 10
0.0
 20
0.0
 30
0.0
 11
-1.0
 21
0.0
 31
0.0
  0
LWPOLYLINE
  5
3262C
330
32629
100
AcDbEntity
  8
0
100
AcDbPolyline
 90
        2
 70
     1
 43
0.25
 10
-0.125
 20
0.0
 42
1.0
 10
0.125
 20
0.0
 42
1.0
  0
ENDBLK
  5
3262D
330
32629
100
AcDbEntity
  8
0
100
AcDbBlockEnd
  0
BLOCK
  5
32DFC
330
32DFB
100
AcDbEntity
  8
0
100
AcDbBlockBegin
  2
_DotSmall
 70
     0
 10
0.0
 20
0.0
 30
0.0
  3
_DotSmall
  1

  0
LWPOLYLINE
  5
32DFD
330
32DFB
100
AcDbEntity
  8
0
  6
ByBlock
 62
     0
100
AcDbPolyline
 90
        2
 70
     1
 43
0.5
 10
-0.0625
 20
0.0
 42
1.0
 10
0.0625
 20
0.0
 42
1.0
  0
ENDBLK
  5
32DFE
330
32DFB
100
AcDbEntity
  8
0
100
AcDbBlockEnd
  0
BLOCK
  5
33121
330
33117
100
AcDbEntity
  8
0
 48
0.5
100
AcDbBlockBegin
  2
*D85
 70
     1
 10
0.0
 20
0.0
 30
0.0
  3
*D85
  1

  0
LINE
  5
5029E
330
33117
100
AcDbEntity
  8
AM_5
100
AcDbLine
 10
3586.317788015336
 20
-2591.877636510439
 30
0.0
 11
3586.317788015336
 21
-2583.577618213006
 31
0.0
  0
LINE
  5
5029F
330
33117
100
AcDbEntity
  8
AM_5
100
AcDbLine
 10
3611.317781935662
 20
-2591.87763652713
 30
0.0
 11
3611.317781935662
 21
-2583.577618213006
 31
0.0
  0
LINE
  5
502A0
330
33117
100
AcDbEntity
  8
AM_5
100
AcDbLine
 10
3587.317788015336
 20
-2584.577618213006
 30
0.0
 11
3610.317781935662
 21
-2584.577618213006
 31
0.0
  0
INSERT
  5
502A1
330
33117
100
AcDbEntity
  8
AM_5
100
AcDbBlockReference
  2
_Dot
 10
3586.317788015336
 20
-2584.577618213006
 30
0.0
 50
180.0
  0
INSERT
  5
502A2
330
33117
100
AcDbEntity
  8
AM_5
100
AcDbBlockReference
  2
_Dot
 10
3611.317781935662
 20
-2584.577618213006
 30
0.0
  0
MTEXT
  5
502A3
330
33117
100
AcDbEntity
  8
AM_5
 62
     2
100
AcDbMText
 10
3598.817784975499
 20
-2581.977618213006
 30
0.0
 40
3.2
 41
0.0
 71
     5
 72
     1
  1
25
 73
     1
 44
1.0
  0
POINT
  5
502A4
330
33117
100
AcDbEntity
  8
Defpoints
 62
     0
100
AcDbPoint
 10
3586.317788015336
 20
-2592.877636510439
 30
0.0
  0
POINT
  5
502A5
330
33117
100
AcDbEntity
  8
Defpoints
 62
     0
100
AcDbPoint
 10
3611.317781935662
 20
-2592.87763652713
 30
0.0
  0
POINT
  5
502A6
330
33117
100
AcDbEntity
  8
Defpoints
 62
     0
100
AcDbPoint
 10
3611.317781935662
 20
-2584.577618213006
 30
0.0
  0
ENDBLK
  5
33122
330
33117
100
AcDbEntity
  8
0
 48
0.5
100
AcDbBlockEnd
  0
BLOCK
  5
33150
330
33146
100
AcDbEntity
  8
0
 48
0.5
100
AcDbBlockBegin
  2
*D86
 70
     1
 10
0.0
 20
0.0
 30
0.0
  3
*D86
  1

  0
LINE
  5
502B0
330
33146
100
AcDbEntity
  8
AM_5
100
AcDbLine
 10
3612.317784975499
 20
-2560.472232989418
 30
0.0
 11
3620.317784975499
 21
-2560.472232989418
 31
0.0
  0
LINE
  5
502B1
330
33146
100
AcDbEntity
  8
AM_5
100
AcDbLine
 10
3612.017766664952
 20
-2565.472232989418
 30
0.0
 11
3620.317784975499
 21
-2565.472232989418
 31
0.0
  0
LINE
  5
502B2
330
33146
100
AcDbEntity
  8
AM_5
100
AcDbLine
 10
3619.317784975499
 20
-2561.472232989418
 30
0.0
 11
3619.317784975499
 21
-2564.472232989418
 31
0.0
  0
INSERT
  5
502B3
330
33146
100
AcDbEntity
  8
AM_5
100
AcDbBlockReference
  2
_Dot
 10
3619.317784975499
 20
-2560.472232989418
 30
0.0
 50
90.0
  0
INSERT
  5
502B4
330
33146
100
AcDbEntity
  8
AM_5
100
AcDbBlockReference
  2
_Dot
 10
3619.317784975499
 20
-2565.472232989418
 30
0.0
 50
270.0
  0
MTEXT
  5
502B5
330
33146
100
AcDbEntity
  8
AM_5
 62
     2
100
AcDbMText
 10
3616.7177849755
 20
-2562.972232989417
 30
0.0
 40
3.2
 41
0.0
 71
     5
 72
     1
  1
5
 11
6.123233995736766E-17
 21
1.0
 31
0.0
 73
     1
 44
1.0
  0
POINT
  5
502B6
330
33146
100
AcDbEntity
  8
Defpoints
 62
     0
100
AcDbPoint
 10
3611.317784975499
 20
-2560.472232989418
 30
0.0
  0
POINT
  5
502B7
330
33146
100
AcDbEntity
  8
Defpoints
 62
     0
100
AcDbPoint
 10
3611.017766664952
 20
-2565.472232989418
 30
0.0
  0
POINT
  5
502B8
330
33146
100
AcDbEntity
  8
Defpoints
 62
     0
100
AcDbPoint
 10
3619.317784975499
 20
-2565.472232989418
 30
0.0
  0
ENDBLK
  5
33151
330
33146
100
AcDbEntity
  8
0
 48
0.5
100
AcDbBlockEnd
  0
BLOCK
  5
3315C
330
33152
100
AcDbEntity
  8
0
 48
0.5
100
AcDbBlockBegin
  2
*D87
 70
     1
 10
0.0
 20
0.0
 30
0.0
  3
*D87
  1

  0
LINE
  5
502C2
330
33152
100
AcDbEntity
  8
AM_5
100
AcDbLine
 10
3609.067784975499
 20
-2535.972232989418
 30
0.0
 11
3636.317784975499
 21
-2535.972232989418
 31
0.0
  0
LINE
  5
502C3
330
33152
100
AcDbEntity
  8
AM_5
100
AcDbLine
 10
3612.017766678066
 20
-2565.472237578976
 30
0.0
 11
3636.317784975499
 21
-2565.472237578976
 31
0.0
  0
LINE
  5
502C4
330
33152
100
AcDbEntity
  8
AM_5
100
AcDbLine
 10
3635.317784975499
 20
-2536.972232989418
 30
0.0
 11
3635.317784975499
 21
-2564.472237578976
 31
0.0
  0
INSERT
  5
502C5
330
33152
100
AcDbEntity
  8
AM_5
100
AcDbBlockReference
  2
_Dot
 10
3635.317784975499
 20
-2535.972232989418
 30
0.0
 50
90.0
  0
INSERT
  5
502C6
330
33152
100
AcDbEntity
  8
AM_5
100
AcDbBlockReference
  2
_Dot
 10
3635.317784975499
 20
-2565.472237578976
 30
0.0
 50
270.0
  0
MTEXT
  5
502C7
330
33152
100
AcDbEntity
  8
AM_5
 62
     2
100
AcDbMText
 10
3632.7177849755
 20
-2550.722235284196
 30
0.0
 40
3.2
 41
0.0
 71
     5
 72
     1
  1
29.5
 11
6.123233995736766E-17
 21
1.0
 31
0.0
 73
     1
 44
1.0
  0
POINT
  5
502C8
330
33152
100
AcDbEntity
  8
Defpoints
 62
     0
100
AcDbPoint
 10
3608.067784975499
 20
-2535.972232989418
 30
0.0
  0
POINT
  5
502C9
330
33152
100
AcDbEntity
  8
Defpoints
 62
     0
100
AcDbPoint
 10
3611.017766678066
 20
-2565.472237578976
 30
0.0
  0
POINT
  5
502CA
330
33152
100
AcDbEntity
  8
Defpoints
 62
     0
100
AcDbPoint
 10
3635.317784975499
 20
-2565.472237578976
 30
0.0
  0
ENDBLK
  5
3315D
330
33152
100
AcDbEntity
  8
0
 48
0.5
100
AcDbBlockEnd
  0
BLOCK
  5
33168
330
3315E
100
AcDbEntity
  8
0
 48
0.5
100
AcDbBlockBegin
  2
*D88
 70
     1
 10
0.0
 20
0.0
 30
0.0
  3
*D88
  1

  0
LINE
  5
502D4
330
3315E
100
AcDbEntity
  8
AM_5
100
AcDbLine
 10
3588.067784975499
 20
-2547.972232989418
 30
0.0
 11
3588.067784975499
 21
-2526.972232989418
 31
0.0
  0
LINE
  5
502D5
330
3315E
100
AcDbEntity
  8
AM_5
100
AcDbLine
 10
3609.767766664953
 20
-2547.972232989418
 30
0.0
 11
3609.767766664953
 21
-2526.972232989418
 31
0.0
  0
LINE
  5
502D6
330
3315E
100
AcDbEntity
  8
AM_5
100
AcDbLine
 10
3589.067784975499
 20
-2527.972232989418
 30
0.0
 11
3608.767766664953
 21
-2527.972232989418
 31
0.0
  0
INSERT
  5
502D7
330
3315E
100
AcDbEntity
  8
AM_5
100
AcDbBlockReference
  2
_Dot
 10
3588.067784975499
 20
-2527.972232989418
 30
0.0
 50
180.0
  0
INSERT
  5
502D8
330
3315E
100
AcDbEntity
  8
AM_5
100
AcDbBlockReference
  2
_Dot
 10
3609.767766664953
 20
-2527.972232989418
 30
0.0
  0
MTEXT
  5
502D9
330
3315E
100
AcDbEntity
  8
AM_5
 62
     2
100
AcDbMText
 10
3598.917775820226
 20
-2525.372232989418
 30
0.0
 40
3.2
 41
0.0
 71
     5
 72
     1
  1
21.7
 73
     1
 44
1.0
  0
POINT
  5
502DA
330
3315E
100
AcDbEntity
  8
Defpoints
 62
     0
100
AcDbPoint
 10
3588.067784975499
 20
-2548.972232989418
 30
0.0
  0
POINT
  5
502DB
330
3315E
100
AcDbEntity
  8
Defpoints
 62
     0
100
AcDbPoint
 10
3609.767766664953
 20
-2548.972232989418
 30
0.0
  0
POINT
  5
502DC
330
3315E
100
AcDbEntity
  8
Defpoints
 62
     0
100
AcDbPoint
 10
3609.767766664953
 20
-2527.972232989418
 30
0.0
  0
ENDBLK
  5
33169
330
3315E
100
AcDbEntity
  8
0
 48
0.5
100
AcDbBlockEnd
  0
BLOCK
  5
3317D
330
33173
100
AcDbEntity
  8
0
 48
0.5
100
AcDbBlockBegin
  2
*D89
 70
     1
 10
0.0
 20
0.0
 30
0.0
  3
*D89
  1

  0
LINE
  5
502E6
330
33173
100
AcDbEntity
  8
AM_5
100
AcDbLine
 10
3608.357763002843
 20
-2546.972232989418
 30
0.0
 11
3628.317784975499
 21
-2546.972232989418
 31
0.0
  0
LINE
  5
502E7
330
33173
100
AcDbEntity
  8
AM_5
100
AcDbLine
 10
3612.317784975499
 20
-2565.472232989418
 30
0.0
 11
3628.317784975499
 21
-2565.472232989418
 31
0.0
  0
LINE
  5
502E8
330
33173
100
AcDbEntity
  8
AM_5
100
AcDbLine
 10
3627.317784975499
 20
-2547.972232989418
 30
0.0
 11
3627.317784975499
 21
-2564.472232989418
 31
0.0
  0
INSERT
  5
502E9
330
33173
100
AcDbEntity
  8
AM_5
100
AcDbBlockReference
  2
_Dot
 10
3627.317784975499
 20
-2546.972232989418
 30
0.0
 50
90.0
  0
INSERT
  5
502EA
330
33173
100
AcDbEntity
  8
AM_5
100
AcDbBlockReference
  2
_Dot
 10
3627.317784975499
 20
-2565.472232989418
 30
0.0
 50
270.0
  0
MTEXT
  5
502EB
330
33173
100
AcDbEntity
  8
AM_5
 62
     2
100
AcDbMText
 10
3624.7177849755
 20
-2556.222232989418
 30
0.0
 40
3.2
 41
0.0
 71
     5
 72
     1
  1
18.5
 11
6.123233995736766E-17
 21
1.0
 31
0.0
 73
     1
 44
1.0
  0
POINT
  5
502EC
330
33173
100
AcDbEntity
  8
Defpoints
 62
     0
100
AcDbPoint
 10
3607.357763002843
 20
-2546.972232989418
 30
0.0
  0
POINT
  5
502ED
330
33173
100
AcDbEntity
  8
Defpoints
 62
     0
100
AcDbPoint
 10
3611.317784975499
 20
-2565.472232989418
 30
0.0
  0
POINT
  5
502EE
330
33173
100
AcDbEntity
  8
Defpoints
 62
     0
100
AcDbPoint
 10
3627.317784975499
 20
-2565.472232989418
 30
0.0
  0
ENDBLK
  5
3317E
330
33173
100
AcDbEntity
  8
0
 48
0.5
100
AcDbBlockEnd
  0
BLOCK
  5
37984
330
3797B
100
AcDbEntity
  8
0
 48
0.5
100
AcDbBlockBegin
  2
*D166
 70
     1
 10
0.0
 20
0.0
 30
0.0
  3
*D166
  1

  0
LINE
  5
50869
330
3797B
100
AcDbEntity
  8
AM_5
 48
1.01
100
AcDbLine
 10
3597.201123663492
 20
-2549.499389369092
 30
0.0
 11
3600.434376287503
 21
-2544.445076609737
 31
0.0
  0
LINE
  5
5086A
330
3797B
100
AcDbEntity
  8
AM_5
 48
1.01
100
AcDbLine
 10
3600.973251724838
 20
-2543.602691149845
 30
0.0
 11
3608.234982719228
 21
-2532.250946053472
 31
0.0
  0
LINE
  5
5086B
330
3797B
100
AcDbEntity
  8
AM_5
 48
1.01
100
AcDbLine
 10
3608.234982719228
 20
-2532.250946053472
 30
0.0
 11
3624.968316052562
 21
-2532.250946053472
 31
0.0
  0
INSERT
  5
5086C
330
3797B
100
AcDbEntity
  8
AM_5
 48
1.01
100
AcDbBlockReference
  2
_Dot
 10
3596.662248226157
 20
-2550.341774828983
 30
0.0
 50
237.3928822388772
  0
INSERT
  5
5086D
330
3797B
100
AcDbEntity
  8
AM_5
 48
1.01
100
AcDbBlockReference
  2
_Dot
 10
3600.973251724838
 20
-2543.602691149845
 30
0.0
 50
57.39288223887725
  0
MTEXT
  5
5086E
330
3797B
100
AcDbEntity
  8
AM_5
 62
     2
 48
1.01
100
AcDbMText
 10
3617.101649385895
 20
-2529.650946053473
 30
0.0
 40
3.2
 41
0.0
 71
     5
 72
     1
  1
   M8タップ
 73
     1
 44
1.0
  0
POINT
  5
5086F
330
3797B
100
AcDbEntity
  8
Defpoints
 62
     0
 48
1.01
100
AcDbPoint
 10
3600.973251724838
 20
-2543.602691149845
 30
0.0
  0
POINT
  5
50870
330
3797B
100
AcDbEntity
  8
Defpoints
 62
     0
 48
1.01
100
AcDbPoint
 10
3596.662248226157
 20
-2550.341774828983
 30
0.0
  0
ENDBLK
  5
37985
330
3797B
100
AcDbEntity
  8
0
 48
0.5
100
AcDbBlockEnd
  0
BLOCK
  5
37A07
330
379FD
100
AcDbEntity
  8
0
 48
0.5
100
AcDbBlockBegin
  2
*D167
 70
     1
 10
0.0
 20
0.0
 30
0.0
  3
*D167
  1

  0
LINE
  5
5087A
330
379FD
100
AcDbEntity
  8
AM_5
100
AcDbLine
 10
3641.280559274846
 20
-2589.035499567317
 30
0.0
 11
3608.429892608178
 21
-2589.035499567317
 31
0.0
  0
LINE
  5
5087B
330
379FD
100
AcDbEntity
  8
AM_5
100
AcDbLine
 10
3608.429892608178
 20
-2589.035499567317
 30
0.0
 11
3601.999370833012
 21
-2597.091704213522
 31
0.0
  0
LINE
  5
5087C
330
379FD
100
AcDbEntity
  8
AM_5
100
AcDbLine
 10
3595.636199117984
 20
-2605.063532212485
 30
0.0
 11
3595.012358741533
 21
-2605.845083992413
 31
0.0
  0
MTEXT
  5
5087D
330
379FD
100
AcDbEntity
  8
AM_5
 62
     2
100
AcDbMText
 10
3625.355225941513
 20
-2586.435499567317
 30
0.0
 40
3.2
 41
0.0
 71
     5
 72
     1
  1
    2-%%c4.5×%%c8.5サラ
 73
     1
 44
1.0
  0
LINE
  5
5087E
330
379FD
100
AcDbEntity
  8
AM_5
100
AcDbLine
 10
3596.260039494434
 20
-2604.281980432556
 30
0.0
 11
3601.375530456562
 21
-2597.873255993451
 31
0.0
  0
INSERT
  5
5087F
330
379FD
100
AcDbEntity
  8
AM_5
100
AcDbBlockReference
  2
_Dot
 10
3596.260039494434
 20
-2604.281980432556
 30
0.0
 50
51.40287530572196
  0
INSERT
  5
50880
330
379FD
100
AcDbEntity
  8
AM_5
100
AcDbBlockReference
  2
_Dot
 10
3601.375530456562
 20
-2597.873255993451
 30
0.0
 50
231.402875305722
  0
POINT
  5
50881
330
379FD
100
AcDbEntity
  8
Defpoints
 62
     0
100
AcDbPoint
 10
3601.375530456562
 20
-2597.873255993451
 30
0.0
  0
POINT
  5
50882
330
379FD
100
AcDbEntity
  8
Defpoints
 62
     0
100
AcDbPoint
 10
3596.260039494434
 20
-2604.281980432556
 30
0.0
  0
ENDBLK
  5
37A08
330
379FD
100
AcDbEntity
  8
0
 48
0.5
100
AcDbBlockEnd
  0
BLOCK
  5
37A26
330
37A1C
100
AcDbEntity
  8
0
 48
0.5
100
AcDbBlockBegin
  2
*D168
 70
     1
 10
0.0
 20
0.0
 30
0.0
  3
*D168
  1

  0
LINE
  5
5088C
330
37A1C
100
AcDbEntity
  8
AM_5
100
AcDbLine
 10
3670.317784975499
 20
-2619.504842204085
 30
0.0
 11
3657.317783975499
 21
-2619.504842204085
 31
0.0
  0
LINE
  5
5088D
330
37A1C
100
AcDbEntity
  8
AM_5
100
AcDbLine
 10
3670.317784975499
 20
-2740.552617472639
 30
0.0
 11
3657.317783975499
 21
-2740.552617472639
 31
0.0
  0
LINE
  5
5088E
330
37A1C
100
AcDbEntity
  8
AM_5
100
AcDbLine
 10
3658.317783975499
 20
-2620.504842204085
 30
0.0
 11
3658.317783975499
 21
-2739.552617472639
 31
0.0
  0
INSERT
  5
5088F
330
37A1C
100
AcDbEntity
  8
AM_5
100
AcDbBlockReference
  2
_Dot
 10
3658.317783975499
 20
-2619.504842204085
 30
0.0
 50
90.0
  0
INSERT
  5
50890
330
37A1C
100
AcDbEntity
  8
AM_5
100
AcDbBlockReference
  2
_Dot
 10
3658.317783975499
 20
-2740.552617472639
 30
0.0
 50
270.0
  0
MTEXT
  5
50891
330
37A1C
100
AcDbEntity
  8
AM_5
 62
     2
100
AcDbMText
 10
3655.7177839755
 20
-2680.028729838361
 30
0.0
 40
3.2
 41
0.0
 71
     5
 72
     1
  1
121
 11
6.123233995736766E-17
 21
1.0
 31
0.0
 73
     1
 44
1.0
  0
POINT
  5
50892
330
37A1C
100
AcDbEntity
  8
Defpoints
 62
     0
100
AcDbPoint
 10
3671.317784975499
 20
-2619.504842204085
 30
0.0
  0
POINT
  5
50893
330
37A1C
100
AcDbEntity
  8
Defpoints
 62
     0
100
AcDbPoint
 10
3671.317784975499
 20
-2740.552617472639
 30
0.0
  0
POINT
  5
50894
330
37A1C
100
AcDbEntity
  8
Defpoints
 62
     0
100
AcDbPoint
 10
3658.317783975499
 20
-2740.552617472639
 30
0.0
  0
ENDBLK
  5
37A27
330
37A1C
100
AcDbEntity
  8
0
 48
0.5
100
AcDbBlockEnd
  0
BLOCK
  5
37A59
330
37A4F
100
AcDbEntity
  8
0
 48
0.5
100
AcDbBlockBegin
  2
*D169
 70
     1
 10
0.0
 20
0.0
 30
0.0
  3
*D169
  1

  0
LINE
  5
5089E
330
37A4F
100
AcDbEntity
  8
AM_5
100
AcDbLine
 10
3607.067784975499
 20
-2601.077618213006
 30
0.0
 11
3622.317785975499
 21
-2601.077618213006
 31
0.0
  0
LINE
  5
5089F
330
37A4F
100
AcDbEntity
  8
AM_5
100
AcDbLine
 10
3607.067784975499
 20
-2756.077618213006
 30
0.0
 11
3622.317785975499
 21
-2756.077618213006
 31
0.0
  0
LINE
  5
508A0
330
37A4F
100
AcDbEntity
  8
AM_5
100
AcDbLine
 10
3621.317785975499
 20
-2602.077618213006
 30
0.0
 11
3621.317785975499
 21
-2755.077618213006
 31
0.0
  0
INSERT
  5
508A1
330
37A4F
100
AcDbEntity
  8
AM_5
100
AcDbBlockReference
  2
_Dot
 10
3621.317785975499
 20
-2601.077618213006
 30
0.0
 50
90.0
  0
INSERT
  5
508A2
330
37A4F
100
AcDbEntity
  8
AM_5
100
AcDbBlockReference
  2
_Dot
 10
3621.317785975499
 20
-2756.077618213006
 30
0.0
 50
270.0
  0
MTEXT
  5
508A3
330
37A4F
100
AcDbEntity
  8
AM_5
 62
     2
100
AcDbMText
 10
3618.7177859755
 20
-2678.577618213005
 30
0.0
 40
3.2
 41
0.0
 71
     5
 72
     1
  1
155
 11
6.123233995736766E-17
 21
1.0
 31
0.0
 73
     1
 44
1.0
  0
POINT
  5
508A4
330
37A4F
100
AcDbEntity
  8
Defpoints
 62
     0
100
AcDbPoint
 10
3606.067784975499
 20
-2601.077618213006
 30
0.0
  0
POINT
  5
508A5
330
37A4F
100
AcDbEntity
  8
Defpoints
 62
     0
100
AcDbPoint
 10
3606.067784975499
 20
-2756.077618213006
 30
0.0
  0
POINT
  5
508A6
330
37A4F
100
AcDbEntity
  8
Defpoints
 62
     0
100
AcDbPoint
 10
3621.317785975499
 20
-2756.077618213006
 30
0.0
  0
ENDBLK
  5
37A5A
330
37A4F
100
AcDbEntity
  8
0
 48
0.5
100
AcDbBlockEnd
  0
BLOCK
  5
37A6F
330
37A65
100
AcDbEntity
  8
0
 48
0.5
100
AcDbBlockBegin
  2
*D170
 70
     1
 10
0.0
 20
0.0
 30
0.0
  3
*D170
  1

  0
LINE
  5
508B0
330
37A65
100
AcDbEntity
  8
AM_5
100
AcDbLine
 10
3612.317784975499
 20
-2592.577636511632
 30
0.0
 11
3630.317784975499
 21
-2592.577636511632
 31
0.0
  0
LINE
  5
508B1
330
37A65
100
AcDbEntity
  8
AM_5
100
AcDbLine
 10
3612.317781948776
 20
-2764.577618213006
 30
0.0
 11
3630.317784975499
 21
-2764.577618213006
 31
0.0
  0
LINE
  5
508B2
330
37A65
100
AcDbEntity
  8
AM_5
100
AcDbLine
 10
3629.317784975499
 20
-2593.577636511632
 30
0.0
 11
3629.317784975499
 21
-2763.577618213006
 31
0.0
  0
INSERT
  5
508B3
330
37A65
100
AcDbEntity
  8
AM_5
100
AcDbBlockReference
  2
_Dot
 10
3629.317784975499
 20
-2592.577636511632
 30
0.0
 50
90.0
  0
INSERT
  5
508B4
330
37A65
100
AcDbEntity
  8
AM_5
100
AcDbBlockReference
  2
_Dot
 10
3629.317784975499
 20
-2764.577618213006
 30
0.0
 50
270.0
  0
MTEXT
  5
508B5
330
37A65
100
AcDbEntity
  8
AM_5
 62
     2
100
AcDbMText
 10
3626.7177849755
 20
-2678.577627362318
 30
0.0
 40
3.2
 41
0.0
 71
     5
 72
     1
  1
172
 11
6.123233995736766E-17
 21
1.0
 31
0.0
 73
     1
 44
1.0
  0
POINT
  5
508B6
330
37A65
100
AcDbEntity
  8
Defpoints
 62
     0
100
AcDbPoint
 10
3611.317784975499
 20
-2592.577636511632
 30
0.0
  0
POINT
  5
508B7
330
37A65
100
AcDbEntity
  8
Defpoints
 62
     0
100
AcDbPoint
 10
3611.317781948776
 20
-2764.577618213006
 30
0.0
  0
POINT
  5
508B8
330
37A65
100
AcDbEntity
  8
Defpoints
 62
     0
100
AcDbPoint
 10
3629.317784975499
 20
-2764.577618213006
 30
0.0
  0
ENDBLK
  5
37A70
330
37A65
100
AcDbEntity
  8
0
 48
0.5
100
AcDbBlockEnd
  0
BLOCK
  5
38984
330
38979
100
AcDbEntity
  8
0
 48
0.5
100
AcDbBlockBegin
  2
*D207
 70
     1
 10
0.0
 20
0.0
 30
0.0
  3
*D207
  1

  0
LINE
  5
50B4B
330
38979
100
AcDbEntity
  8
AM_5
100
AcDbLine
 10
3691.817784975499
 20
-2614.557057780256
 30
0.0
 11
3701.817784975499
 21
-2614.557057780256
 31
0.0
  0
LINE
  5
50B4C
330
38979
100
AcDbEntity
  8
AM_5
100
AcDbLine
 10
3691.817784975499
 20
-2632.557057780256
 30
0.0
 11
3701.817784975499
 21
-2632.557057780256
 31
0.0
  0
LINE
  5
50B4D
330
38979
100
AcDbEntity
  8
AM_5
100
AcDbLine
 10
3700.817784975499
 20
-2615.557057780256
 30
0.0
 11
3700.817784975499
 21
-2631.557057780256
 31
0.0
  0
LINE
  5
50B4E
330
38979
100
AcDbEntity
  8
AM_5
100
AcDbLine
 10
3700.817784975499
 20
-2632.557057780256
 30
0.0
 11
3700.817784975499
 21
-2652.645057780257
 31
0.0
  0
INSERT
  5
50B4F
330
38979
100
AcDbEntity
  8
AM_5
100
AcDbBlockReference
  2
_Dot
 10
3700.817784975499
 20
-2614.557057780256
 30
0.0
 50
90.0
  0
INSERT
  5
50B50
330
38979
100
AcDbEntity
  8
AM_5
100
AcDbBlockReference
  2
_Dot
 10
3700.817784975499
 20
-2632.557057780256
 30
0.0
 50
270.0
  0
MTEXT
  5
50B51
330
38979
100
AcDbEntity
  8
AM_5
 62
     2
100
AcDbMText
 10
3698.2177849755
 20
-2643.101057780255
 30
0.0
 40
3.2
 41
0.0
 71
     5
 72
     1
  1
ストローク18
 11
6.123233995736766E-17
 21
1.0
 31
0.0
 73
     1
 44
1.0
  0
POINT
  5
50B52
330
38979
100
AcDbEntity
  8
Defpoints
 62
     0
100
AcDbPoint
 10
3690.817784975499
 20
-2614.557057780256
 30
0.0
  0
POINT
  5
50B53
330
38979
100
AcDbEntity
  8
Defpoints
 62
     0
100
AcDbPoint
 10
3690.817784975499
 20
-2632.557057780256
 30
0.0
  0
POINT
  5
50B54
330
38979
100
AcDbEntity
  8
Defpoints
 62
     0
100
AcDbPoint
 10
3700.817784975499
 20
-2632.557057780256
 30
0.0
  0
ENDBLK
  5
38985
330
38979
100
AcDbEntity
  8
0
 48
0.5
100
AcDbBlockEnd
  0
BLOCK
  5
4151A
330
41510
100
AcDbEntity
  8
0
 48
0.5
100
AcDbBlockBegin
  2
*D388
 70
     1
 10
0.0
 20
0.0
 30
0.0
  3
*D388
  1

  0
LINE
  5
51830
330
41510
100
AcDbEntity
  8
AM_5
100
AcDbLine
 10
3672.317784975499
 20
-2593.55260221385
 30
0.0
 11
3709.817784975499
 21
-2593.55260221385
 31
0.0
  0
LINE
  5
51831
330
41510
100
AcDbEntity
  8
AM_5
100
AcDbLine
 10
3691.817784975499
 20
-2632.557057780256
 30
0.0
 11
3709.817784975499
 21
-2632.557057780256
 31
0.0
  0
LINE
  5
51832
330
41510
100
AcDbEntity
  8
AM_5
100
AcDbLine
 10
3708.817784975499
 20
-2594.55260221385
 30
0.0
 11
3708.817784975499
 21
-2631.557057780256
 31
0.0
  0
INSERT
  5
51833
330
41510
100
AcDbEntity
  8
AM_5
100
AcDbBlockReference
  2
_Dot
 10
3708.817784975499
 20
-2593.55260221385
 30
0.0
 50
90.0
  0
INSERT
  5
51834
330
41510
100
AcDbEntity
  8
AM_5
100
AcDbBlockReference
  2
_Dot
 10
3708.817784975499
 20
-2632.557057780256
 30
0.0
 50
270.0
  0
MTEXT
  5
51835
330
41510
100
AcDbEntity
  8
AM_5
 62
     2
100
AcDbMText
 10
3706.2177849755
 20
-2613.054829997052
 30
0.0
 40
3.2
 41
0.0
 71
     5
 72
     1
  1
39
 11
6.123233995736766E-17
 21
1.0
 31
0.0
 73
     1
 44
1.0
  0
POINT
  5
51836
330
41510
100
AcDbEntity
  8
Defpoints
 62
     0
100
AcDbPoint
 10
3671.317784975499
 20
-2593.55260221385
 30
0.0
  0
POINT
  5
51837
330
41510
100
AcDbEntity
  8
Defpoints
 62
     0
100
AcDbPoint
 10
3690.817784975499
 20
-2632.557057780256
 30
0.0
  0
POINT
  5
51838
330
41510
100
AcDbEntity
  8
Defpoints
 62
     0
100
AcDbPoint
 10
3708.817784975499
 20
-2632.557057780256
 30
0.0
  0
ENDBLK
  5
4151B
330
41510
100
AcDbEntity
  8
0
 48
0.5
100
AcDbBlockEnd
  0
BLOCK
  5
53316
330
53315
100
AcDbEntity
  8
000済
100
AcDbBlockBegin
  2
_ACMFILLED
 70
     0
 10
0.0
 20
0.0
 30
0.0
  3
_ACMFILLED
  1
Acad:XRef
  0
TRACE
  5
53318
330
53315
100
AcDbEntity
  8
AM_0
 62
     0
100
AcDbTrace
 10
-1.0
 20
0.1666666666666667
 30
0.0
 11
-1.0
 21
-0.1666666666666667
 31
0.0
 12
0.0
 22
0.0
 32
0.0
 13
0.0
 23
0.0
 33
0.0
  0
ENDBLK
  5
53317
330
53315
100
AcDbEntity
  8
000済
100
AcDbBlockEnd
  0
BLOCK
  5
5331D
330
5331C
100
AcDbEntity
  8
000済
100
AcDbBlockBegin
  2
_ACMOPEN30
 70
     0
 10
0.0
 20
0.0
 30
0.0
  3
_ACMOPEN30
  1
Acad:XRef
  0
LINE
  5
5331F
330
5331C
100
AcDbEntity
  8
AM_0
 62
     0
100
AcDbLine
 10
-1.0
 20
0.0
 30
0.0
 11
0.0
 21
0.0
 31
0.0
  0
LINE
  5
53320
330
5331C
100
AcDbEntity
  8
AM_0
 62
     0
100
AcDbLine
 10
-1.0
 20
-0.2679491924311227
 30
0.0
 11
0.0
 21
0.0
 31
0.0
  0
LINE
  5
53321
330
5331C
100
AcDbEntity
  8
AM_0
 62
     0
100
AcDbLine
 10
-1.0
 20
0.2679491924311227
 30
0.0
 11
0.0
 21
0.0
 31
0.0
  0
ENDBLK
  5
5331E
330
5331C
100
AcDbEntity
  8
000済
100
AcDbBlockEnd
  0
BLOCK
  5
5332C
330
5332B
100
AcDbEntity
  8
0
100
AcDbBlockBegin
  2
_ACMFILLEDHALF
 70
     0
 10
0.0
 20
0.0
 30
0.0
  3
_ACMFILLEDHALF
  1

  0
TRACE
  5
5332D
330
5332B
100
AcDbEntity
  8
0
 62
     0
100
AcDbTrace
 10
-0.8
 20
0.0
 30
0.0
 11
-1.0
 21
0.166666666
 31
0.0
 12
0.0
 22
0.0
 32
0.0
 13
0.0
 23
0.0
 33
0.0
  0
LINE
  5
5332E
330
5332B
100
AcDbEntity
  8
0
 62
     0
100
AcDbLine
 10
-1.0
 20
0.0
 30
0.0
 11
-0.8
 21
0.0
 31
0.0
  0
ENDBLK
  5
5332F
330
5332B
100
AcDbEntity
  8
0
100
AcDbBlockEnd
  0
ENDSEC
  0
SECTION
  2
ENTITIES
  0
AMDTACMWBLOCKBOMENTITY
  5
1EB3A
330
1F
100
AcDbEntity
  8
AM_6
 92
        8
310
0800000000000000
  0
AMDTACMWBLOCKBOMENTITY
  5
1EB3B
330
1F
100
AcDbEntity
  8
AM_5
 92
        8
310
0800000000000000
  0
AMDTACMWBLOCKBOMENTITY
  5
1EB3C
330
1F
100
AcDbEntity
  8
AM_5
 92
        8
310
0800000000000000
  0
AMDTACMWBLOCKBOMENTITY
  5
1EB3D
330
1F
100
AcDbEntity
  8
AM_5
 92
        8
310
0800000000000000
  0
AMDTACMWBLOCKBOMENTITY
  5
1EB3E
330
1F
100
AcDbEntity
  8
AM_5
 92
        8
310
0800000000000000
  0
AMDTACMWBLOCKBOMENTITY
  5
1EB3F
330
1F
100
AcDbEntity
  8
AM_5
 92
        8
310
0800000000000000
  0
AMDTACMWBLOCKBOMENTITY
  5
1EB40
330
1F
100
AcDbEntity
  8
AM_5
 92
        8
310
0800000000000000
  0
AMDTACMWBLOCKBOMENTITY
  5
1EB41
330
1F
100
AcDbEntity
  8
AM_5
 92
        8
310
0800000000000000
  0
ARC
  5
2121D
330
1F
100
AcDbEntity
  8
001本体
 60
     1
 48
0.5
100
AcDbCircle
 10
4762.519581199092
 20
-2259.06618040198
 30
0.0
 40
17.0
100
AcDbArc
 50
113.1764439438205
 51
176.107466317104
  0
AMDTACMWBLOCKBOMENTITY
  5
214E3
330
1F
100
AcDbEntity
  8
AM_5
 92
        8
310
0800000000000000
  0
AMDTACMWBLOCKBOMENTITY
  5
21FF0
330
1F
100
AcDbEntity
  8
AM_5
 92
        8
310
0800000000000000
  0
AMDTACMWBLOCKBOMENTITY
  5
21FF1
330
1F
100
AcDbEntity
  8
AM_5
 92
        8
310
0800000000000000
  0
AMDTACMWBLOCKBOMENTITY
  5
21FF2
330
1F
100
AcDbEntity
  8
AM_5
 92
        8
310
0800000000000000
  0
AMDTACMWBLOCKBOMENTITY
  5
21FF3
330
1F
100
AcDbEntity
  8
AM_5
 92
        8
310
0800000000000000
  0
AMDTACMWBLOCKBOMENTITY
  5
2627D
330
1F
100
AcDbEntity
  8
AM_6
 92
        8
310
0800000000000000
  0
AMDTACMWBLOCKBOMENTITY
  5
2627E
330
1F
100
AcDbEntity
  8
AM_5
 92
        8
310
0800000000000000
  0
AMDTACMWBLOCKBOMENTITY
  5
2627F
330
1F
100
AcDbEntity
  8
AM_5
 92
        8
310
0800000000000000
  0
AMDTACMWBLOCKBOMENTITY
  5
26280
330
1F
100
AcDbEntity
  8
AM_5
 92
        8
310
0800000000000000
  0
AMDTACMWBLOCKBOMENTITY
  5
26281
330
1F
100
AcDbEntity
  8
AM_5
 92
        8
310
0800000000000000
  0
AMDTACMWBLOCKBOMENTITY
  5
26282
330
1F
100
AcDbEntity
  8
AM_5
 92
        8
310
0800000000000000
  0
AMDTACMWBLOCKBOMENTITY
  5
26283
330
1F
100
AcDbEntity
  8
AM_5
 92
        8
310
0800000000000000
  0
LINE
  5
32FD3
330
1F
100
AcDbEntity
  8
size
100
AcDbLine
 10
3423.547826521642
 20
-2790.482271409578
 30
0.0
 11
3843.547826521642
 21
-2790.482271409578
 31
0.0
1001
GENIUS_GENREC_14
1002
{
1000
PYDIR
1011
3423.547826521642
1021
-2493.482271409578
1031
0.0
1002
}
1002
{
1000
PXDIR
1011
3843.547826521642
1021
-2790.482271409578
1031
0.0
1002
}
1002
{
1000
PORI
1011
3423.547826521642
1021
-2790.482271409578
1031
0.0
1002
}
1002
{
1000
PINS
1011
3633.547826521642
1021
-2641.982271409578
1031
0.0
1002
}
1002
{
1000
HVAL
1000
297
1002
}
1002
{
1000
H
1070
     2
1002
}
1002
{
1000
WVAL
1000
420
1002
}
1002
{
1000
W
1070
     2
1002
}
1002
{
1000
C
1070
     4
1002
}
1001
GENIUS_GENOBJ-N-REC_13
1002
{
1000
OWNER
1000
GEN
1002
}
1001
GENIUS_GENODEF_13
1002
{
1000
HIER
1070
     0
1002
}
1002
{
1000
MANEDIT
1070
     0
1002
}
1002
{
1000
NOSEL
1070
     0
1002
}
1002
{
1000
BEHIND
1070
     0
1002
}
1002
{
1000
OTHER
1070
     0
1002
}
1002
{
1000
REACTOR
1002
}
  0
LINE
  5
32FD4
330
1F
100
AcDbEntity
  8
size
100
AcDbLine
 10
3423.547826521642
 20
-2493.482271409578
 30
0.0
 11
3423.547826521642
 21
-2790.482271409578
 31
0.0
1001
GENIUS_GENREC_14
1002
{
1000
PYDIR
1011
3423.547826521642
1021
-2493.482271409578
1031
0.0
1002
}
1002
{
1000
PXDIR
1011
3843.547826521642
1021
-2790.482271409578
1031
0.0
1002
}
1002
{
1000
PORI
1011
3423.547826521642
1021
-2790.482271409578
1031
0.0
1002
}
1002
{
1000
PINS
1011
3633.547826521642
1021
-2641.982271409578
1031
0.0
1002
}
1002
{
1000
HVAL
1000
297
1002
}
1002
{
1000
H
1070
     2
1002
}
1002
{
1000
WVAL
1000
420
1002
}
1002
{
1000
W
1070
     2
1002
}
1002
{
1000
C
1070
     4
1002
}
1001
GENIUS_GENOBJ-N-REC_13
1002
{
1000
OWNER
1000
GEN
1002
}
1001
GENIUS_GENODEF_13
1002
{
1000
HIER
1070
     0
1002
}
1002
{
1000
MANEDIT
1070
     0
1002
}
1002
{
1000
NOSEL
1070
     0
1002
}
1002
{
1000
BEHIND
1070
     0
1002
}
1002
{
1000
OTHER
1070
     0
1002
}
1002
{
1000
REACTOR
1002
}
  0
LINE
  5
32FD9
330
1F
100
AcDbEntity
  8
size
100
AcDbLine
 10
3843.547826521642
 20
-2493.482271409578
 30
0.0
 11
3843.547826521642
 21
-2790.482271409578
 31
0.0
1001
GENIUS_GENREC_14
1002
{
1000
PYDIR
1011
3423.547826521642
1021
-2493.482271409578
1031
0.0
1002
}
1002
{
1000
PXDIR
1011
3843.547826521642
1021
-2790.482271409578
1031
0.0
1002
}
1002
{
1000
PORI
1011
3423.547826521642
1021
-2790.482271409578
1031
0.0
1002
}
1002
{
1000
PINS
1011
3633.547826521642
1021
-2641.982271409578
1031
0.0
1002
}
1002
{
1000
HVAL
1000
297
1002
}
1002
{
1000
H
1070
     2
1002
}
1002
{
1000
WVAL
1000
420
1002
}
1002
{
1000
W
1070
     2
1002
}
1002
{
1000
C
1070
     4
1002
}
1001
GENIUS_GENOBJ-N-REC_13
1002
{
1000
OWNER
1000
GEN
1002
}
1001
GENIUS_GENODEF_13
1002
{
1000
HIER
1070
     0
1002
}
1002
{
1000
MANEDIT
1070
     0
1002
}
1002
{
1000
NOSEL
1070
     0
1002
}
1002
{
1000
BEHIND
1070
     0
1002
}
1002
{
1000
OTHER
1070
     0
1002
}
1002
{
1000
REACTOR
1002
}
  0
LINE
  5
32FDA
330
1F
100
AcDbEntity
  8
size
100
AcDbLine
 10
3423.547826521642
 20
-2493.482271409578
 30
0.0
 11
3843.547826521642
 21
-2493.482271409578
 31
0.0
1001
GENIUS_GENREC_14
1002
{
1000
PYDIR
1011
3423.547826521642
1021
-2493.482271409578
1031
0.0
1002
}
1002
{
1000
PXDIR
1011
3843.547826521642
1021
-2790.482271409578
1031
0.0
1002
}
1002
{
1000
PORI
1011
3423.547826521642
1021
-2790.482271409578
1031
0.0
1002
}
1002
{
1000
PINS
1011
3633.547826521642
1021
-2641.982271409578
1031
0.0
1002
}
1002
{
1000
HVAL
1000
297
1002
}
1002
{
1000
H
1070
     2
1002
}
1002
{
1000
WVAL
1000
420
1002
}
1002
{
1000
W
1070
     2
1002
}
1002
{
1000
C
1070
     4
1002
}
1001
GENIUS_GENOBJ-N-REC_13
1002
{
1000
OWNER
1000
GEN
1002
}
1001
GENIUS_GENODEF_13
1002
{
1000
HIER
1070
     0
1002
}
1002
{
1000
MANEDIT
1070
     0
1002
}
1002
{
1000
NOSEL
1070
     0
1002
}
1002
{
1000
BEHIND
1070
     0
1002
}
1002
{
1000
OTHER
1070
     0
1002
}
1002
{
1000
REACTOR
1002
}
  0
LINE
  5
32FDB
330
1F
100
AcDbEntity
  8
AM_0
100
AcDbLine
 10
3435.047826521641
 20
-2501.982271409578
 30
0.0
 11
3525.047826521641
 21
-2501.982271409578
 31
0.0
  0
LINE
  5
32FE2
330
1F
100
AcDbEntity
  8
AM_0
100
AcDbLine
 10
3435.047826521641
 20
-2533.982271409578
 30
0.0
 11
3525.04782652164
 21
-2533.982271409578
 31
0.0
  0
LINE
  5
32FE3
330
1F
100
AcDbEntity
  8
AM_2
100
AcDbLine
 10
3435.047826521641
 20
-2525.982271409578
 30
0.0
 11
3525.04782652164
 21
-2525.982271409578
 31
0.0
  0
LINE
  5
32FE4
330
1F
100
AcDbEntity
  8
AM_2
100
AcDbLine
 10
3435.047826521641
 20
-2517.982271409578
 30
0.0
 11
3525.04782652164
 21
-2517.982271409578
 31
0.0
  0
LINE
  5
32FE5
330
1F
100
AcDbEntity
  8
AM_2
100
AcDbLine
 10
3435.047826521641
 20
-2509.982271409578
 30
0.0
 11
3525.04782652164
 21
-2509.982271409578
 31
0.0
  0
LINE
  5
32FE6
330
1F
100
AcDbEntity
  8
AM_0
100
AcDbLine
 10
3435.047826521641
 20
-2501.982271409578
 30
0.0
 11
3435.04782652164
 21
-2533.982271409579
 31
0.0
  0
LINE
  5
32FE7
330
1F
100
AcDbEntity
  8
AM_2
100
AcDbLine
 10
3455.047826521641
 20
-2501.982271409578
 30
0.0
 11
3455.04782652164
 21
-2533.982271409578
 31
0.0
  0
MTEXT
  5
32FEA
330
1F
100
AcDbEntity
  8
AM_6
100
AcDbMText
 10
3445.047826521641
 20
-2529.982271409578
 30
0.0
 40
3.2
 41
20.0
 71
     5
 72
     5
  1
仕上げ
 73
     1
 44
1.0
  0
MTEXT
  5
32FEC
330
1F
100
AcDbEntity
  8
AM_6
100
AcDbMText
 10
3445.047826521641
 20
-2521.982271409578
 30
0.0
 40
3.2
 41
20.0
 71
     5
 72
     5
  1
材　質
 73
     1
 44
1.0
  0
MTEXT
  5
32FED
330
1F
100
AcDbEntity
  8
AM_6
100
AcDbMText
 10
3445.047826521641
 20
-2505.982271409578
 30
0.0
 40
3.2
 41
20.0
 71
     5
 72
     5
  1
品　名
 73
     1
 44
1.0
  0
MTEXT
  5
32FEE
330
1F
100
AcDbEntity
  8
AM_6
100
AcDbMText
 10
3445.047826521641
 20
-2513.982271409578
 30
0.0
 40
3.2
 41
20.0
 71
     5
 72
     5
  1
品　番
 73
     1
 44
1.0
  0
LINE
  5
32FF4
330
1F
100
AcDbEntity
  8
AM_0
100
AcDbLine
 10
3525.047826521641
 20
-2501.982271409578
 30
0.0
 11
3525.04782652164
 21
-2533.982271409578
 31
0.0
  0
LINE
  5
32FF5
330
1F
100
AcDbEntity
  8
AM_0
 62
     7
100
AcDbLine
 10
3590.817784975499
 20
-2633.698406787224
 30
0.0
 11
3590.817784975499
 21
-2691.682095141717
 31
0.0
  0
LINE
  5
32FF6
330
1F
100
AcDbEntity
  8
AM_0
 62
     7
100
AcDbLine
 10
3606.817784975499
 20
-2633.698406787224
 30
0.0
 11
3606.817784975499
 21
-2691.682095141717
 31
0.0
  0
LINE
  5
32FF7
330
1F
100
AcDbEntity
  8
AM_7
 48
0.5
100
AcDbLine
 10
3598.817784975499
 20
-2589.577618213006
 30
0.0
 11
3598.817784975499
 21
-2767.577618213006
 31
0.0
  0
LINE
  5
32FF8
330
1F
100
AcDbEntity
  8
AM_0
 62
     7
100
AcDbLine
 10
3611.317784975499
 20
-2592.877636523553
 30
0.0
 11
3611.317784975499
 21
-2764.277615161248
 31
0.0
  0
LINE
  5
32FF9
330
1F
100
AcDbEntity
  8
AM_0
 62
     7
100
AcDbLine
 10
3586.317784975499
 20
-2592.877636523553
 30
0.0
 11
3586.317784975499
 21
-2764.277615161248
 31
0.0
  0
LINE
  5
32FFA
330
1F
100
AcDbEntity
  8
AM_0
 62
     7
100
AcDbLine
 10
3590.317784975499
 20
-2619.577618213006
 30
0.0
 11
3590.317784975499
 21
-2737.577633471795
 31
0.0
  0
LINE
  5
32FFB
330
1F
100
AcDbEntity
  8
AM_0
 62
     7
100
AcDbLine
 10
3607.317784975499
 20
-2619.577618213006
 30
0.0
 11
3607.317784975499
 21
-2736.577633471795
 31
0.0
  0
LINE
  5
32FFE
330
1F
100
AcDbEntity
  8
AM_7
 48
0.5
100
AcDbLine
 10
3606.067784975499
 20
-2601.077618213006
 30
0.0
 11
3591.567784975499
 21
-2601.077618213006
 31
0.0
  0
LINE
  5
32FFF
330
1F
100
AcDbEntity
  8
AM_0
 62
     7
100
AcDbLine
 10
3611.017781923741
 20
-2592.577618213006
 30
0.0
 11
3586.617788027257
 21
-2592.577618213006
 31
0.0
  0
ARC
  5
33000
330
1F
100
AcDbEntity
  8
AM_0
 62
     7
100
AcDbCircle
 10
3586.617788027257
 20
-2592.877636523553
 30
0.0
 40
0.3000000119209292
100
AcDbArc
 50
89.9999949910626
 51
179.9999974955313
  0
LINE
  5
33001
330
1F
100
AcDbEntity
  8
AM_0
 62
     7
100
AcDbLine
 10
3591.317784975499
 20
-2618.577618213006
 30
0.0
 11
3606.317784975499
 21
-2618.577618213006
 31
0.0
  0
LINE
  5
33002
330
1F
100
AcDbEntity
  8
AM_0
 62
     7
100
AcDbLine
 10
3591.317784975499
 20
-2626.579418750115
 30
0.0
 11
3606.317784975499
 21
-2626.579418750115
 31
0.0
  0
CIRCLE
  5
33003
330
1F
100
AcDbEntity
  8
AM_0
 62
     7
100
AcDbCircle
 10
3598.817784975499
 20
-2601.077618213006
 30
0.0
 40
2.25
  0
CIRCLE
  5
33004
330
1F
100
AcDbEntity
  8
AM_0
 62
     7
100
AcDbCircle
 10
3598.817784975499
 20
-2601.077618213006
 30
0.0
 40
4.25
  0
ARC
  5
33005
330
1F
100
AcDbEntity
  8
AM_0
 62
     7
100
AcDbCircle
 10
3591.317784975499
 20
-2627.579418750115
 30
0.0
 40
1.000000000000001
100
AcDbArc
 50
89.9999949910626
 51
179.9999974955313
  0
ARC
  5
33006
330
1F
100
AcDbEntity
  8
AM_0
 62
     7
100
AcDbCircle
 10
3591.317784975499
 20
-2619.577618213006
 30
0.0
 40
1.000000000000001
100
AcDbArc
 50
89.9999949910626
 51
179.9999974955313
  0
ARC
  5
33007
330
1F
100
AcDbEntity
  8
AM_0
 62
     7
100
AcDbCircle
 10
3606.317784975499
 20
-2627.579418750115
 30
0.0
 40
1.000000000000001
100
AcDbArc
 50
359.999999316731
 51
89.9999949910626
  0
ARC
  5
33008
330
1F
100
AcDbEntity
  8
AM_0
 62
     7
100
AcDbCircle
 10
3606.317784975499
 20
-2619.577618213006
 30
0.0
 40
1.000000000000001
100
AcDbArc
 50
359.999999316731
 51
89.9999949910626
  0
LINE
  5
33009
330
1F
100
AcDbEntity
  8
AM_0
 62
     7
100
AcDbLine
 10
3590.917775820226
 20
-2633.598400683709
 30
0.0
 11
3606.717778871984
 21
-2633.598400683709
 31
0.0
  0
ARC
  5
3300A
330
1F
100
AcDbEntity
  8
AM_0
 62
     7
100
AcDbCircle
 10
3590.917775820226
 20
-2633.698406787224
 30
0.0
 40
0.1000000014901162
100
AcDbArc
 50
89.9999949910626
 51
179.9999974955313
  0
LINE
  5
3300B
330
1F
100
AcDbEntity
  8
AM_0
 62
     7
100
AcDbLine
 10
3590.517781923741
 20
-2664.577633471795
 30
0.0
 11
3590.317784975499
 21
-2664.577633471795
 31
0.0
  0
ARC
  5
3300C
330
1F
100
AcDbEntity
  8
AM_0
 62
     7
100
AcDbCircle
 10
3606.717778871984
 20
-2633.698406787224
 30
0.0
 40
0.1000000014901165
100
AcDbArc
 50
359.9999993167831
 51
89.9999949910626
  0
LINE
  5
3300D
330
1F
100
AcDbEntity
  8
AM_0
 62
     7
100
AcDbLine
 10
3607.317784975499
 20
-2664.577633471795
 30
0.0
 11
3607.117788027257
 21
-2664.577633471795
 31
0.0
  0
ARC
  5
3300F
330
1F
100
AcDbEntity
  8
AM_0
 62
     7
100
AcDbCircle
 10
3611.017781923741
 20
-2592.877636523553
 30
0.0
 40
0.3000000119209301
100
AcDbArc
 50
359.999999316731
 51
89.9999949910626
  0
LINE
  5
33011
330
1F
100
AcDbEntity
  8
AM_0
 62
     7
100
AcDbLine
 10
3611.017781923741
 20
-2764.577618213006
 30
0.0
 11
3586.617788027257
 21
-2764.577618213006
 31
0.0
  0
LINE
  5
33013
330
1F
100
AcDbEntity
  8
AM_0
 62
     7
100
AcDbLine
 10
3590.317784975499
 20
-2703.967541308709
 30
0.0
 11
3607.317784975499
 21
-2703.967541308709
 31
0.0
  0
LINE
  5
33015
330
1F
100
AcDbEntity
  8
AM_0
 62
     7
100
AcDbLine
 10
3607.317784975499
 20
-2692.577633471795
 30
0.0
 11
3590.317784975499
 21
-2692.577633471795
 31
0.0
  0
LINE
  5
33016
330
1F
100
AcDbEntity
  8
AM_0
 62
     7
100
AcDbLine
 10
3594.867788027257
 20
-2691.982082934685
 30
0.0
 11
3602.767781923741
 21
-2691.982082934685
 31
0.0
  0
LINE
  5
33017
330
1F
100
AcDbEntity
  8
AM_0
 62
     7
100
AcDbLine
 10
3594.867788027257
 20
-2683.182095141717
 30
0.0
 11
3602.767781923741
 21
-2683.182095141717
 31
0.0
  0
LINE
  5
33018
330
1F
100
AcDbEntity
  8
AM_0
 62
     7
100
AcDbLine
 10
3594.617788027257
 20
-2682.682095141717
 30
0.0
 11
3603.017781923741
 21
-2682.682095141717
 31
0.0
  0
LINE
  5
33019
330
1F
100
AcDbEntity
  8
AM_0
 62
     7
100
AcDbLine
 10
3594.567784975499
 20
-2683.482082934685
 30
0.0
 11
3594.567784975499
 21
-2691.682095141717
 31
0.0
  0
LINE
  5
3301A
330
1F
100
AcDbEntity
  8
AM_0
 62
     7
100
AcDbLine
 10
3594.317784975499
 20
-2682.982082934685
 30
0.0
 11
3594.317784975499
 21
-2691.682095141717
 31
0.0
  0
ARC
  5
3301B
330
1F
100
AcDbEntity
  8
AM_0
 62
     7
100
AcDbCircle
 10
3590.817784975499
 20
-2681.777630420037
 30
0.0
 40
0.3000000119209289
100
AcDbArc
 50
179.9999974955313
 51
270.0
  0
LINE
  5
3301C
330
1F
100
AcDbEntity
  8
AM_0
 62
     7
100
AcDbLine
 10
3590.517781923741
 20
-2680.077633471795
 30
0.0
 11
3590.317784975499
 21
-2680.077633471795
 31
0.0
  0
LINE
  5
3301D
330
1F
100
AcDbEntity
  8
AM_0
 62
     7
100
AcDbLine
 10
3590.517781923741
 20
-2677.077633471795
 30
0.0
 11
3590.317784975499
 21
-2677.077633471795
 31
0.0
  0
LINE
  5
3301E
330
1F
100
AcDbEntity
  8
AM_0
 62
     7
100
AcDbLine
 10
3590.517781923741
 20
-2675.377636523553
 30
0.0
 11
3590.517781923741
 21
-2681.777630420037
 31
0.0
  0
ARC
  5
3301F
330
1F
100
AcDbEntity
  8
AM_0
 62
     7
100
AcDbCircle
 10
3590.817784975499
 20
-2675.377636523553
 30
0.0
 40
0.3000000119209292
100
AcDbArc
 50
89.9999949910626
 51
179.9999974955313
  0
ARC
  5
33020
330
1F
100
AcDbEntity
  8
AM_0
 62
     7
100
AcDbCircle
 10
3594.617788027257
 20
-2682.982082934685
 30
0.0
 40
0.3000000119209292
100
AcDbArc
 50
89.9999949910626
 51
179.9999974955313
  0
ARC
  5
33021
330
1F
100
AcDbEntity
  8
AM_0
 62
     7
100
AcDbCircle
 10
3594.867788027257
 20
-2683.482082934685
 30
0.0
 40
0.3000000119209292
100
AcDbArc
 50
89.9999949910626
 51
179.9999974955313
  0
LINE
  5
33022
330
1F
100
AcDbEntity
  8
AM_0
 62
     7
100
AcDbLine
 10
3591.117788027257
 20
-2691.982082934685
 30
0.0
 11
3594.017781923741
 21
-2691.982082934685
 31
0.0
  0
ARC
  5
33023
330
1F
100
AcDbEntity
  8
AM_0
 62
     7
100
AcDbCircle
 10
3591.117788027257
 20
-2691.682095141717
 30
0.0
 40
0.3000000119209289
100
AcDbArc
 50
179.9999974955313
 51
270.0
  0
ARC
  5
33024
330
1F
100
AcDbEntity
  8
AM_0
 62
     7
100
AcDbCircle
 10
3594.017781923741
 20
-2691.682095141717
 30
0.0
 40
0.3000000119209292
100
AcDbArc
 50
270.0
 51
0.0000025044687019
  0
ARC
  5
33025
330
1F
100
AcDbEntity
  8
AM_0
 62
     7
100
AcDbCircle
 10
3594.867788027257
 20
-2691.682095141717
 30
0.0
 40
0.3000000119209289
100
AcDbArc
 50
179.9999974955313
 51
270.0
  0
LINE
  5
33026
330
1F
100
AcDbEntity
  8
AM_0
 62
     7
100
AcDbLine
 10
3603.067784975499
 20
-2683.482082934685
 30
0.0
 11
3603.067784975499
 21
-2691.682095141717
 31
0.0
  0
LINE
  5
33027
330
1F
100
AcDbEntity
  8
AM_0
 62
     7
100
AcDbLine
 10
3603.317784975499
 20
-2682.982082934685
 30
0.0
 11
3603.317784975499
 21
-2691.682095141717
 31
0.0
  0
ARC
  5
33028
330
1F
100
AcDbEntity
  8
AM_0
 62
     7
100
AcDbCircle
 10
3602.767781923741
 20
-2683.482082934685
 30
0.0
 40
0.3000000119209301
100
AcDbArc
 50
359.999999316731
 51
89.9999949910626
  0
ARC
  5
33029
330
1F
100
AcDbEntity
  8
AM_0
 62
     7
100
AcDbCircle
 10
3603.017781923741
 20
-2682.982082934685
 30
0.0
 40
0.3000000119209301
100
AcDbArc
 50
359.999999316731
 51
89.9999949910626
  0
ARC
  5
3302A
330
1F
100
AcDbEntity
  8
AM_0
 62
     7
100
AcDbCircle
 10
3606.817784975499
 20
-2681.777630420037
 30
0.0
 40
0.3000000119209292
100
AcDbArc
 50
270.0
 51
0.0000025044687019
  0
LINE
  5
3302B
330
1F
100
AcDbEntity
  8
AM_0
 62
     7
100
AcDbLine
 10
3607.317784975499
 20
-2680.077633471795
 30
0.0
 11
3607.117788027257
 21
-2680.077633471795
 31
0.0
  0
LINE
  5
3302C
330
1F
100
AcDbEntity
  8
AM_0
 62
     7
100
AcDbLine
 10
3607.317784975499
 20
-2677.077633471795
 30
0.0
 11
3607.117788027257
 21
-2677.077633471795
 31
0.0
  0
LINE
  5
3302D
330
1F
100
AcDbEntity
  8
AM_0
 62
     7
100
AcDbLine
 10
3607.117788027257
 20
-2675.377636523553
 30
0.0
 11
3607.117788027257
 21
-2681.777630420037
 31
0.0
  0
ARC
  5
3302E
330
1F
100
AcDbEntity
  8
AM_0
 62
     7
100
AcDbCircle
 10
3606.817784975499
 20
-2675.377636523553
 30
0.0
 40
0.3000000119209301
100
AcDbArc
 50
359.999999316731
 51
89.9999949910626
  0
ARC
  5
3302F
330
1F
100
AcDbEntity
  8
AM_0
 62
     7
100
AcDbCircle
 10
3602.767781923741
 20
-2691.682095141717
 30
0.0
 40
0.3000000119209292
100
AcDbArc
 50
270.0
 51
0.0000025044687019
  0
ARC
  5
33030
330
1F
100
AcDbEntity
  8
AM_0
 62
     7
100
AcDbCircle
 10
3603.617788027257
 20
-2691.682095141717
 30
0.0
 40
0.3000000119209289
100
AcDbArc
 50
179.9999974955313
 51
270.0
  0
ARC
  5
33031
330
1F
100
AcDbEntity
  8
AM_0
 62
     7
100
AcDbCircle
 10
3606.517781923741
 20
-2691.682095141717
 30
0.0
 40
0.3000000119209292
100
AcDbArc
 50
270.0
 51
0.0000025044687019
  0
LINE
  5
33032
330
1F
100
AcDbEntity
  8
AM_0
 62
     7
100
AcDbLine
 10
3603.617788027257
 20
-2691.982082934685
 30
0.0
 11
3606.517781923741
 21
-2691.982082934685
 31
0.0
  0
LINE
  5
33033
330
1F
100
AcDbEntity
  8
AM_0
 62
     7
100
AcDbLine
 10
3591.317784975499
 20
-2738.577633471795
 30
0.0
 11
3605.317784975499
 21
-2738.577633471795
 31
0.0
  0
LINE
  5
33034
330
1F
100
AcDbEntity
  8
AM_0
 62
     7
100
AcDbLine
 10
3591.317784975499
 20
-2730.575848193474
 30
0.0
 11
3606.317784975499
 21
-2730.575848193474
 31
0.0
  0
ARC
  5
33035
330
1F
100
AcDbEntity
  8
AM_0
 62
     7
100
AcDbCircle
 10
3591.317784975499
 20
-2737.577633471795
 30
0.0
 40
1.0
100
AcDbArc
 50
179.9999974955313
 51
270.0
  0
ARC
  5
33036
330
1F
100
AcDbEntity
  8
AM_0
 62
     7
100
AcDbCircle
 10
3591.317784975499
 20
-2729.575848193474
 30
0.0
 40
1.0
100
AcDbArc
 50
179.9999974955313
 51
270.0
  0
ARC
  5
33037
330
1F
100
AcDbEntity
  8
AM_0
 62
     7
100
AcDbCircle
 10
3605.317784975499
 20
-2736.577633471795
 30
0.0
 40
2.000000000000002
100
AcDbArc
 50
270.0
 51
0.0000025044687019
  0
ARC
  5
33038
330
1F
100
AcDbEntity
  8
AM_0
 62
     7
100
AcDbCircle
 10
3606.317784975499
 20
-2729.575848193474
 30
0.0
 40
1.000000000000001
100
AcDbArc
 50
270.0
 51
0.0000025044687019
  0
ARC
  5
33039
330
1F
100
AcDbEntity
  8
AM_0
 62
     7
100
AcDbCircle
 10
3586.617788027257
 20
-2764.277615161248
 30
0.0
 40
0.3000000119209289
100
AcDbArc
 50
179.9999974955313
 51
270.0
  0
CIRCLE
  5
3303A
330
1F
100
AcDbEntity
  8
AM_0
 62
     7
100
AcDbCircle
 10
3598.817784975499
 20
-2756.077618213006
 30
0.0
 40
2.25
  0
CIRCLE
  5
3303B
330
1F
100
AcDbEntity
  8
AM_0
 62
     7
100
AcDbCircle
 10
3598.817784975499
 20
-2756.077618213006
 30
0.0
 40
4.25
  0
ARC
  5
3303D
330
1F
100
AcDbEntity
  8
AM_0
 62
     7
100
AcDbCircle
 10
3611.017781923741
 20
-2764.277615161248
 30
0.0
 40
0.3000000119209292
100
AcDbArc
 50
270.0
 51
0.0000025044687019
  0
DIMENSION
  5
3303E
330
1F
100
AcDbEntity
  8
AM_5
100
AcDbDimension
  2
*D85
 10
3611.317781935662
 20
-2584.577618213006
 30
0.0
 11
3598.817784975499
 21
-2581.977618213006
 31
0.0
 70
    32
 71
     5
 42
24.99999392032623
  3
SYS$0
100
AcDbAlignedDimension
 13
3586.317788015336
 23
-2592.877636510439
 33
0.0
 14
3611.317781935662
 24
-2592.87763652713
 34
0.0
100
AcDbRotatedDimension
1001
ACAD
1000
DSTYLE
1002
{
1070
   343
1005
6C4
1070
   342
1005
0
1070
   173
1070
     1
1070
   344
1005
6C4
1070
   147
1040
1.0
1070
   140
1040
3.2
1070
    41
1040
1.0
1070
   271
1070
     0
1002
}
  0
LINE
  5
3303F
330
1F
100
AcDbEntity
  8
AM_0
 62
     7
100
AcDbLine
 10
3695.817784975499
 20
-2680.057073039045
 30
0.0
 11
3695.817784975499
 21
-2697.057073039045
 31
0.0
  0
LINE
  5
33040
330
1F
100
AcDbEntity
  8
AM_0
 62
     7
100
AcDbLine
 10
3676.319554995031
 20
-2620.504842204085
 30
0.0
 11
3676.319554995031
 21
-2739.552617472639
 31
0.0
  0
LINE
  5
33041
330
1F
100
AcDbEntity
  8
AM_0
 62
     7
100
AcDbLine
 10
3671.317784975499
 20
-2682.052617472639
 30
0.0
 11
3671.317784975499
 21
-2765.55260221385
 31
0.0
  0
LINE
  5
33042
330
1F
100
AcDbEntity
  8
AM_0
 62
     7
100
AcDbLine
 10
3666.317784975499
 20
-2765.252599162092
 30
0.0
 11
3666.317784975499
 21
-2593.852620524397
 31
0.0
  0
LINE
  5
33043
330
1F
100
AcDbEntity
  8
AM_0
 62
     7
100
AcDbLine
 10
3676.817784975499
 20
-2660.240666789045
 30
0.0
 11
3676.817784975499
 21
-2715.873479289045
 31
0.0
  0
ARC
  5
33044
330
1F
100
AcDbEntity
  8
AM_0
 62
     7
100
AcDbCircle
 10
3678.319554995031
 20
-2714.552617472639
 30
0.0
 40
2.0
100
AcDbArc
 50
179.9999974955313
 51
270.0
  0
ARC
  5
33045
330
1F
100
AcDbEntity
  8
AM_0
 62
     7
100
AcDbCircle
 10
3678.319554995031
 20
-2728.052617472639
 30
0.0
 40
2.000000000000002
100
AcDbArc
 50
89.9999949910626
 51
179.9999974955313
  0
ARC
  5
33046
330
1F
100
AcDbEntity
  8
AM_0
 62
     7
100
AcDbCircle
 10
3678.817784975499
 20
-2740.557073039045
 30
0.0
 40
2.0
100
AcDbArc
 50
179.9999974955313
 51
270.0
  0
LINE
  5
33047
330
1F
100
AcDbEntity
  8
AM_0
 62
     7
100
AcDbLine
 10
3676.817784975499
 20
-2726.731755656233
 30
0.0
 11
3676.817784975499
 21
-2740.557073039045
 31
0.0
  0
LINE
  5
33049
330
1F
100
AcDbEntity
  8
AM_0
 62
     7
100
AcDbLine
 10
3666.617780397863
 20
-2765.55260221385
 30
0.0
 11
3671.317784975499
 21
-2765.55260221385
 31
0.0
  0
ARC
  5
3304A
330
1F
100
AcDbEntity
  8
AM_0
 62
     7
100
AcDbCircle
 10
3666.617780397863
 20
-2765.252599162092
 30
0.0
 40
0.3000000119209289
100
AcDbArc
 50
179.9999974955313
 51
270.0
  0
LINE
  5
3304B
330
1F
100
AcDbEntity
  8
AM_0
 62
     7
100
AcDbLine
 10
3671.317784975499
 20
-2737.381032389631
 30
0.0
 11
3674.855092714757
 21
-2733.843724650374
 31
0.0
  0
LINE
  5
3304C
330
1F
100
AcDbEntity
  8
AM_0
 62
     7
100
AcDbLine
 10
3675.319554995031
 20
-2740.552617472639
 30
0.0
 11
3671.317784975499
 21
-2740.552617472639
 31
0.0
  0
ARC
  5
3304D
330
1F
100
AcDbEntity
  8
AM_0
 62
     7
100
AcDbCircle
 10
3671.319554995031
 20
-2730.308202189436
 30
0.0
 40
5.000000000000004
100
AcDbArc
 50
315.0000012522247
 51
0.0000025044687019
  0
ARC
  5
3304E
330
1F
100
AcDbEntity
  8
AM_0
 62
     7
100
AcDbCircle
 10
3675.319554995031
 20
-2739.552617472639
 30
0.0
 40
1.000000000000001
100
AcDbArc
 50
270.0
 51
0.0000025044687019
  0
ARC
  5
3304F
330
1F
100
AcDbEntity
  8
AM_0
 62
     7
100
AcDbCircle
 10
3676.91778344962
 20
-2695.407079142561
 30
0.0
 40
0.3000000119209289
100
AcDbArc
 50
250.5287801669519
 51
270.0
  0
LINE
  5
33050
330
1F
100
AcDbEntity
  8
AM_0
 62
     7
100
AcDbLine
 10
3676.617780397863
 20
-2692.95706693553
 30
0.0
 11
3676.617780397863
 21
-2695.407079142561
 31
0.0
  0
ARC
  5
33051
330
1F
100
AcDbEntity
  8
AM_0
 62
     7
100
AcDbCircle
 10
3676.91778344962
 20
-2695.407079142561
 30
0.0
 40
0.3000000119209246
100
AcDbArc
 50
179.9999974955313
 51
250.5287801669519
  0
LINE
  5
33052
330
1F
100
AcDbEntity
  8
AM_0
 62
     7
100
AcDbLine
 10
3676.617780397863
 20
-2692.95706693553
 30
0.0
 11
3676.319554995031
 21
-2692.95706693553
 31
0.0
  0
LINE
  5
33053
330
1F
100
AcDbEntity
  8
AM_0
 62
     7
100
AcDbLine
 10
3681.317784975499
 20
-2726.052617472639
 30
0.0
 11
3681.317784975499
 21
-2741.557073039045
 31
0.0
  0
LINE
  5
33054
330
1F
100
AcDbEntity
  8
AM_0
 62
     7
100
AcDbLine
 10
3680.317784975499
 20
-2742.557073039045
 30
0.0
 11
3678.817784975499
 21
-2742.557073039045
 31
0.0
  0
ARC
  5
33055
330
1F
100
AcDbEntity
  8
AM_0
 62
     7
100
AcDbCircle
 10
3680.317784975499
 20
-2741.557073039045
 30
0.0
 40
1.000000000000001
100
AcDbArc
 50
270.0
 51
0.0000025044687019
  0
ARC
  5
33056
330
1F
100
AcDbEntity
  8
AM_0
 62
     7
100
AcDbCircle
 10
3688.317784975499
 20
-2698.057073039045
 30
0.0
 40
0.5000000000000006
100
AcDbArc
 50
270.0
 51
0.0000025044687019
  0
ARC
  5
33057
330
1F
100
AcDbEntity
  8
AM_0
 62
     7
100
AcDbCircle
 10
3688.317784975499
 20
-2698.057073039045
 30
0.0
 40
0.5000000000000006
100
AcDbArc
 50
270.0
 51
0.0000025044687019
  0
LINE
  5
33058
330
1F
100
AcDbEntity
  8
AM_0
 62
     7
100
AcDbLine
 10
3681.317784975499
 20
-2700.557073039045
 30
0.0
 11
3681.317784975499
 21
-2716.552617472639
 31
0.0
  0
ARC
  5
33059
330
1F
100
AcDbEntity
  8
AM_0
 62
     7
100
AcDbCircle
 10
3682.817784975499
 20
-2720.552617472639
 30
0.0
 40
3.999999999999986
100
AcDbArc
 50
359.999999316731
 51
89.9999949910626
  0
ARC
  5
3305B
330
1F
100
AcDbEntity
  8
AM_0
 62
     7
100
AcDbCircle
 10
3682.817784975499
 20
-2722.052617472639
 30
0.0
 40
4.000000000000004
100
AcDbArc
 50
270.0
 51
0.0000025044687019
  0
CIRCLE
  5
3305C
330
1F
100
AcDbEntity
  8
AM_0
 62
     7
100
AcDbCircle
 10
3682.817784975499
 20
-2720.552617472639
 30
0.0
 40
2.0
  0
LINE
  5
3305D
330
1F
100
AcDbEntity
  8
AM_0
 62
     7
100
AcDbLine
 10
3682.817784975499
 20
-2716.552617472639
 30
0.0
 11
3678.319554995031
 21
-2716.552617472639
 31
0.0
  0
LINE
  5
3305E
330
1F
100
AcDbEntity
  8
AM_0
 62
     7
100
AcDbLine
 10
3682.817784975499
 20
-2726.052617472639
 30
0.0
 11
3678.319554995031
 21
-2726.052617472639
 31
0.0
  0
LINE
  5
33060
330
1F
100
AcDbEntity
  8
AM_0
 62
     7
100
AcDbLine
 10
3686.817784975499
 20
-2720.552617472639
 30
0.0
 11
3686.817784975499
 21
-2722.052617472639
 31
0.0
  0
ARC
  5
33061
330
1F
100
AcDbEntity
  8
AM_0
 62
     7
100
AcDbCircle
 10
3683.317784975499
 20
-2700.557073039045
 30
0.0
 40
2.000000000000002
100
AcDbArc
 50
89.9999949910626
 51
179.9999974955313
  0
LINE
  5
33062
330
1F
100
AcDbEntity
  8
AM_0
 62
     7
100
AcDbLine
 10
3688.317784975499
 20
-2698.557073039045
 30
0.0
 11
3683.317784975499
 21
-2698.557073039045
 31
0.0
  0
LINE
  5
33063
330
1F
100
AcDbEntity
  8
AM_0
 62
     7
100
AcDbLine
 10
3695.317784975499
 20
-2697.557073039045
 30
0.0
 11
3688.817784975499
 21
-2697.557073039045
 31
0.0
  0
LINE
  5
33064
330
1F
100
AcDbEntity
  8
AM_0
 62
     7
100
AcDbLine
 10
3688.817784975499
 20
-2697.557073039045
 30
0.0
 11
3688.817784975499
 21
-2698.057073039045
 31
0.0
  0
ARC
  5
33065
330
1F
100
AcDbEntity
  8
AM_0
 62
     7
100
AcDbCircle
 10
3695.317784975499
 20
-2697.057073039045
 30
0.0
 40
0.5000000000000006
100
AcDbArc
 50
270.0
 51
0.0000025044687019
  0
LINE
  5
33069
330
1F
100
AcDbEntity
  8
AM_5
 62
     3
100
AcDbLine
 10
3691.817784975499
 20
-2632.557057780256
 30
0.0
 11
3704.817784975499
 21
-2632.557057780256
 31
0.0
  0
LINE
  5
3306B
330
1F
100
AcDbEntity
  8
AM_0
 62
     7
100
AcDbLine
 10
3671.317784975499
 20
-2593.55260221385
 30
0.0
 11
3671.317784975499
 21
-2677.052617472639
 31
0.0
  0
LINE
  5
3306D
330
1F
100
AcDbEntity
  8
AM_11
 48
0.5
100
AcDbLine
 10
3676.817784975499
 20
-2614.557057780256
 30
0.0
 11
3676.817784975499
 21
-2629.557057780256
 31
0.0
  0
LINE
  5
3306E
330
1F
100
AcDbEntity
  8
AM_11
 48
0.5
100
AcDbLine
 10
3690.817784975499
 20
-2614.557057780256
 30
0.0
 11
3690.817784975499
 21
-2627.557057780256
 31
0.0
  0
ARC
  5
3306F
330
1F
100
AcDbEntity
  8
AM_0
 62
     7
100
AcDbCircle
 10
3678.319554995031
 20
-2648.061543864241
 30
0.0
 40
2.0
100
AcDbArc
 50
179.9999974955313
 51
270.0
  0
LINE
  5
33070
330
1F
100
AcDbEntity
  8
AM_11
 48
0.5
100
AcDbLine
 10
3690.817784975499
 20
-2627.557057780256
 30
0.0
 11
3676.817784975499
 21
-2627.557057780256
 31
0.0
  0
LINE
  5
33071
330
1F
100
AcDbEntity
  8
AM_0
 62
     7
100
AcDbLine
 10
3690.817784975499
 20
-2632.557057780256
 30
0.0
 11
3676.817784975499
 21
-2632.557057780256
 31
0.0
  0
LINE
  5
33072
330
1F
100
AcDbEntity
  8
AM_0
 62
     7
100
AcDbLine
 10
3690.817784975499
 20
-2645.557057780256
 30
0.0
 11
3677.317784975499
 21
-2645.557057780256
 31
0.0
  0
ARC
  5
33073
330
1F
100
AcDbEntity
  8
AM_0
 62
     7
100
AcDbCircle
 10
3678.319554995031
 20
-2661.561528605452
 30
0.0
 40
2.000000000000002
100
AcDbArc
 50
89.9999949910626
 51
179.9999974955313
  0
ARC
  5
33075
330
1F
100
AcDbEntity
  8
AM_0
 62
     7
100
AcDbCircle
 10
3670.317784975499
 20
-2679.552617472639
 30
0.0
 40
2.5
100
AcDbArc
 50
89.9999949910626
 51
270.0
  0
LINE
  5
33076
330
1F
100
AcDbEntity
  8
AM_0
 62
     7
100
AcDbLine
 10
3670.317784975499
 20
-2677.052617472639
 30
0.0
 11
3671.317784975499
 21
-2677.052617472639
 31
0.0
  0
LINE
  5
33077
330
1F
100
AcDbEntity
  8
AM_0
 62
     7
100
AcDbLine
 10
3670.317784975499
 20
-2682.052617472639
 30
0.0
 11
3671.317784975499
 21
-2682.052617472639
 31
0.0
  0
CIRCLE
  5
33078
330
1F
100
AcDbEntity
  8
AM_0
 62
     7
100
AcDbCircle
 10
3670.317784975499
 20
-2679.552617472639
 30
0.0
 40
1.5
  0
LINE
  5
3307A
330
1F
100
AcDbEntity
  8
AM_0
 62
     7
100
AcDbLine
 10
3676.617780397863
 20
-2681.70706693553
 30
0.0
 11
3676.617780397863
 21
-2684.157079142561
 31
0.0
  0
ARC
  5
3307B
330
1F
100
AcDbEntity
  8
AM_0
 62
     7
100
AcDbCircle
 10
3676.91778344962
 20
-2681.70706693553
 30
0.0
 40
0.3000000119209292
100
AcDbArc
 50
109.4712250693164
 51
179.9999974955313
  0
LINE
  5
3307C
330
1F
100
AcDbEntity
  8
AM_0
 62
     7
100
AcDbLine
 10
3676.617780397863
 20
-2684.157079142561
 30
0.0
 11
3676.319554995031
 21
-2684.157079142561
 31
0.0
  0
LINE
  5
3307D
330
1F
100
AcDbEntity
  8
AM_0
 62
     7
100
AcDbLine
 10
3676.817784975499
 20
-2632.557057780256
 30
0.0
 11
3676.817784975499
 21
-2649.382405680647
 31
0.0
  0
ARC
  5
3307E
330
1F
100
AcDbEntity
  8
AM_0
 62
     7
100
AcDbCircle
 10
3677.317784975499
 20
-2646.057057780256
 30
0.0
 40
0.5000000000000006
100
AcDbArc
 50
89.9999949910626
 51
179.9999974955313
  0
LINE
  5
3307F
330
1F
100
AcDbEntity
  8
AM_0
 62
     7
100
AcDbLine
 10
3675.319554995031
 20
-2619.504842204085
 30
0.0
 11
3671.317784975499
 21
-2619.504842204085
 31
0.0
  0
LINE
  5
33080
330
1F
100
AcDbEntity
  8
AM_0
 62
     7
100
AcDbLine
 10
3671.317784975499
 20
-2621.724172038069
 30
0.0
 11
3674.855092714757
 21
-2625.261495036116
 31
0.0
  0
ARC
  5
33081
330
1F
100
AcDbEntity
  8
AM_0
 62
     7
100
AcDbCircle
 10
3675.319554995031
 20
-2620.504842204085
 30
0.0
 40
1.000000000000001
100
AcDbArc
 50
0.0000025044687019
 51
90.0000050089374
  0
ARC
  5
33082
330
1F
100
AcDbEntity
  8
AM_0
 62
     7
100
AcDbCircle
 10
3671.319554995031
 20
-2628.797017497053
 30
0.0
 40
5.0
100
AcDbArc
 50
0.0000025044687019
 51
45.00000034164995
  0
ARC
  5
33084
330
1F
100
AcDbEntity
  8
AM_0
 62
     7
100
AcDbCircle
 10
3682.817784975499
 20
-2654.061528605452
 30
0.0
 40
4.000000000000015
100
AcDbArc
 50
359.999999316731
 51
89.9999949910626
  0
ARC
  5
33085
330
1F
100
AcDbEntity
  8
AM_0
 62
     7
100
AcDbCircle
 10
3688.317784975499
 20
-2679.057073039045
 30
0.0
 40
0.5000000000000019
100
AcDbArc
 50
0.0000025044687019
 51
90.0000050089374
  0
ARC
  5
33086
330
1F
100
AcDbEntity
  8
AM_0
 62
     7
100
AcDbCircle
 10
3688.317784975499
 20
-2679.057073039045
 30
0.0
 40
0.5000000000000019
100
AcDbArc
 50
0.0000025044687019
 51
90.0000050089374
  0
LINE
  5
33087
330
1F
100
AcDbEntity
  8
AM_0
 62
     7
100
AcDbLine
 10
3681.317784975499
 20
-2659.561528605452
 30
0.0
 11
3681.317784975499
 21
-2676.557073039045
 31
0.0
  0
ARC
  5
33088
330
1F
100
AcDbEntity
  8
AM_0
 62
     7
100
AcDbCircle
 10
3683.317784975499
 20
-2676.557073039045
 30
0.0
 40
2.0
100
AcDbArc
 50
179.9999974955313
 51
270.0
  0
LINE
  5
33089
330
1F
100
AcDbEntity
  8
AM_0
 62
     7
100
AcDbLine
 10
3688.317784975499
 20
-2678.557073039045
 30
0.0
 11
3683.317784975499
 21
-2678.557073039045
 31
0.0
  0
ARC
  5
3308A
330
1F
100
AcDbEntity
  8
AM_0
 62
     7
100
AcDbCircle
 10
3682.817784975499
 20
-2655.561528605452
 30
0.0
 40
4.000000000000004
100
AcDbArc
 50
270.0
 51
0.0000025044687019
  0
CIRCLE
  5
3308C
330
1F
100
AcDbEntity
  8
AM_0
 62
     7
100
AcDbCircle
 10
3682.817784975499
 20
-2655.557073039045
 30
0.0
 40
2.0
  0
LINE
  5
3308D
330
1F
100
AcDbEntity
  8
AM_0
 62
     7
100
AcDbLine
 10
3682.817784975499
 20
-2659.561528605452
 30
0.0
 11
3678.319554995031
 21
-2659.561528605452
 31
0.0
  0
LINE
  5
3308E
330
1F
100
AcDbEntity
  8
AM_0
 62
     7
100
AcDbLine
 10
3686.817784975499
 20
-2654.061528605452
 30
0.0
 11
3686.817784975499
 21
-2655.561528605452
 31
0.0
  0
LINE
  5
3308F
330
1F
100
AcDbEntity
  8
AM_0
 62
     7
100
AcDbLine
 10
3695.317784975499
 20
-2679.557073039045
 30
0.0
 11
3688.817784975499
 21
-2679.557073039045
 31
0.0
  0
LINE
  5
33090
330
1F
100
AcDbEntity
  8
AM_0
 62
     7
100
AcDbLine
 10
3688.817784975499
 20
-2679.057073039045
 30
0.0
 11
3688.817784975499
 21
-2679.557073039045
 31
0.0
  0
ARC
  5
33091
330
1F
100
AcDbEntity
  8
AM_0
 62
     7
100
AcDbCircle
 10
3695.317784975499
 20
-2680.057073039045
 30
0.0
 40
0.5000000000000019
100
AcDbArc
 50
0.0000025044687019
 51
90.0000050089374
  0
LINE
  5
33092
330
1F
100
AcDbEntity
  8
AM_0
 62
     7
100
AcDbLine
 10
3688.817784975499
 20
-2650.557073039045
 30
0.0
 11
3684.746190737218
 21
-2650.557073039045
 31
0.0
  0
ARC
  5
33093
330
1F
100
AcDbEntity
  8
AM_0
 62
     7
100
AcDbCircle
 10
3687.817784975499
 20
-2651.681554240217
 30
0.0
 40
1.000000000000001
100
AcDbArc
 50
277.5946435787067
 51
0.0000025044687019
  0
LINE
  5
33094
330
1F
100
AcDbEntity
  8
AM_0
 62
     7
100
AcDbLine
 10
3681.317784975499
 20
-2645.557057780256
 30
0.0
 11
3681.317784975499
 21
-2650.061543864241
 31
0.0
  0
LINE
  5
33095
330
1F
100
AcDbEntity
  8
AM_0
 62
     7
100
AcDbLine
 10
3682.817784975499
 20
-2650.061543864241
 30
0.0
 11
3678.319554995031
 21
-2650.061543864241
 31
0.0
  0
LINE
  5
33096
330
1F
100
AcDbEntity
  8
AM_0
 62
     7
100
AcDbLine
 10
3686.629522036046
 20
-2652.84883634471
 30
0.0
 11
3687.949948976964
 21
-2652.672780436506
 31
0.0
  0
LINE
  5
33097
330
1F
100
AcDbEntity
  8
AM_11
 48
0.5
100
AcDbLine
 10
3681.317784975499
 20
-2627.557057780256
 30
0.0
 11
3681.317784975499
 21
-2629.557057780256
 31
0.0
  0
LINE
  5
33098
330
1F
100
AcDbEntity
  8
AM_0
 62
     7
100
AcDbLine
 10
3690.817784975499
 20
-2632.557057780256
 30
0.0
 11
3690.817784975499
 21
-2645.557057780256
 31
0.0
  0
LINE
  5
33099
330
1F
100
AcDbEntity
  8
AM_0
 62
     7
100
AcDbLine
 10
3688.817784975499
 20
-2650.557073039045
 30
0.0
 11
3688.817784975499
 21
-2651.681554240217
 31
0.0
  0
LINE
  5
3309A
330
1F
100
AcDbEntity
  8
AM_11
 48
0.5
100
AcDbLine
 10
3690.817784975499
 20
-2614.557057780256
 30
0.0
 11
3676.817784975499
 21
-2614.557057780256
 31
0.0
  0
LINE
  5
3309C
330
1F
100
AcDbEntity
  8
AM_0
 62
     7
100
AcDbLine
 10
3666.617780397863
 20
-2593.55260221385
 30
0.0
 11
3671.317784975499
 21
-2593.55260221385
 31
0.0
  0
ARC
  5
3309D
330
1F
100
AcDbEntity
  8
AM_0
 62
     7
100
AcDbCircle
 10
3666.617780397863
 20
-2593.852620524397
 30
0.0
 40
0.3000000119209292
100
AcDbArc
 50
89.9999949910626
 51
179.9999974955313
  0
LINE
  5
330A6
330
1F
100
AcDbEntity
  8
AM_0
 62
     7
100
AcDbLine
 10
3588.317784975499
 20
-2560.472232989418
 30
0.0
 11
3588.317784975499
 21
-2555.972232989418
 31
0.0
  0
LINE
  5
330A7
330
1F
100
AcDbEntity
  8
AM_0
 62
     7
100
AcDbLine
 10
3599.567784975499
 20
-2560.472232989418
 30
0.0
 11
3599.567784975499
 21
-2555.77045839225
 31
0.0
  0
LINE
  5
330A8
330
1F
100
AcDbEntity
  8
AM_0
 62
     7
100
AcDbLine
 10
3598.067784975499
 20
-2560.472232989418
 30
0.0
 11
3598.067784975499
 21
-2555.77045839225
 31
0.0
  0
LINE
  5
330A9
330
1F
100
AcDbEntity
  8
AM_0
 62
     7
100
AcDbLine
 10
3609.317784975499
 20
-2560.472232989418
 30
0.0
 11
3609.317784975499
 21
-2555.972232989418
 31
0.0
  0
LINE
  5
330AA
330
1F
100
AcDbEntity
  8
AM_7
 48
0.5
100
AcDbLine
 10
3598.817784975499
 20
-2567.753635577309
 30
0.0
 11
3598.817784975499
 21
-2533.895966905346
 31
0.0
  0
LINE
  5
330AB
330
1F
100
AcDbEntity
  8
AM_0
 62
     7
100
AcDbLine
 10
3607.067784975499
 20
-2554.972232989418
 30
0.0
 11
3590.567784975499
 21
-2554.972232989418
 31
0.0
  0
LINE
  5
330AC
330
1F
100
AcDbEntity
  8
AM_7
 48
0.5
100
AcDbLine
 10
3608.212773989171
 20
-2546.972232989418
 30
0.0
 11
3589.422795961827
 21
-2546.972232989418
 31
0.0
  0
LINE
  5
330AD
330
1F
100
AcDbEntity
  8
AM_0
 62
     7
100
AcDbLine
 10
3608.817784975499
 20
-2555.472232989418
 30
0.0
 11
3588.817784975499
 21
-2555.472232989418
 31
0.0
  0
LINE
  5
330AE
330
1F
100
AcDbEntity
  8
AM_0
 62
     7
100
AcDbLine
 10
3608.067784975499
 20
-2535.972232989418
 30
0.0
 11
3589.567784975499
 21
-2535.972232989418
 31
0.0
  0
ARC
  5
330AF
330
1F
100
AcDbEntity
  8
AM_0
 62
     7
100
AcDbCircle
 10
3598.817784975499
 20
-2546.972232989418
 30
0.0
 40
6.000000000000023
100
AcDbArc
 50
0.0000050089374039
 51
180.0000100179269
  0
LINE
  5
330B1
330
1F
100
AcDbEntity
  8
AM_0
 62
     7
100
AcDbLine
 10
3609.067784975499
 20
-2546.472232989418
 30
0.0
 11
3609.067784975499
 21
-2536.972232989418
 31
0.0
  0
LINE
  5
330B2
330
1F
100
AcDbEntity
  8
AM_0
 62
     7
100
AcDbLine
 10
3608.567784975499
 20
-2555.472232989418
 30
0.0
 11
3608.567784975499
 21
-2544.972232989418
 31
0.0
  0
LINE
  5
330B3
330
1F
100
AcDbEntity
  8
AM_0
 62
     7
100
AcDbLine
 10
3607.067784975499
 20
-2555.472232989418
 30
0.0
 11
3607.067784975499
 21
-2544.972232989418
 31
0.0
  0
LINE
  5
330B5
330
1F
100
AcDbEntity
  8
AM_0
 62
     7
100
AcDbLine
 10
3608.067784975499
 20
-2542.972232989418
 30
0.0
 11
3603.289922426671
 21
-2542.972232989418
 31
0.0
  0
ARC
  5
330B6
330
1F
100
AcDbEntity
  8
AM_0
 62
     7
100
AcDbCircle
 10
3608.067784975499
 20
-2536.972232989418
 30
0.0
 40
1.000000000000001
100
AcDbArc
 50
0.0000050089374039
 51
90.00000068326904
  0
ARC
  5
330B7
330
1F
100
AcDbEntity
  8
AM_0
 62
     7
100
AcDbCircle
 10
3608.067784975499
 20
-2543.972232989418
 30
0.0
 40
1.000000000000001
100
AcDbArc
 50
0.0000050089374039
 51
90.00000068326904
  0
LINE
  5
330B8
330
1F
100
AcDbEntity
  8
AM_0
 62
     7
100
AcDbLine
 10
3608.567784975499
 20
-2544.972232989418
 30
0.0
 11
3607.067784975499
 21
-2544.972232989418
 31
0.0
  0
ARC
  5
330B9
330
1F
100
AcDbEntity
  8
AM_0
 62
     7
100
AcDbCircle
 10
3603.817784975499
 20
-2553.972232989418
 30
0.0
 40
1.000000000000001
100
AcDbArc
 50
270.0000025044687
 51
0.0000050089374039
  0
LINE
  5
330BA
330
1F
100
AcDbEntity
  8
AM_0
 62
     7
100
AcDbLine
 10
3604.817784975499
 20
-2553.972232989418
 30
0.0
 11
3604.817784975499
 21
-2546.972232989418
 31
0.0
  0
LINE
  5
330BB
330
1F
100
AcDbEntity
  8
AM_0
 62
     7
100
AcDbLine
 10
3609.067784975499
 20
-2554.472232989418
 30
0.0
 11
3609.067784975499
 21
-2551.472232989418
 31
0.0
  0
LINE
  5
330BC
330
1F
100
AcDbEntity
  8
AM_0
 62
     7
100
AcDbLine
 10
3606.817784975499
 20
-2554.472232989418
 30
0.0
 11
3606.817784975499
 21
-2550.972232989418
 31
0.0
  0
LINE
  5
330BD
330
1F
100
AcDbEntity
  8
AM_0
 62
     7
100
AcDbLine
 10
3609.767766664953
 20
-2551.472232989418
 30
0.0
 11
3609.767766664953
 21
-2546.472232989418
 31
0.0
  0
LINE
  5
330BE
330
1F
100
AcDbEntity
  8
AM_0
 62
     7
100
AcDbLine
 10
3608.567784975499
 20
-2546.472232989418
 30
0.0
 11
3609.767766664953
 21
-2546.472232989418
 31
0.0
  0
LINE
  5
330BF
330
1F
100
AcDbEntity
  8
AM_0
 62
     7
100
AcDbLine
 10
3608.567784975499
 20
-2551.472232989418
 30
0.0
 11
3609.767766664953
 21
-2551.472232989418
 31
0.0
  0
ARC
  5
330C0
330
1F
100
AcDbEntity
  8
AM_0
 62
     7
100
AcDbCircle
 10
3606.317784975499
 20
-2550.972232989418
 30
0.0
 40
0.5000000000000019
100
AcDbArc
 50
0.0000050089374039
 51
90.00000068321694
  0
LINE
  5
330C1
330
1F
100
AcDbEntity
  8
AM_0
 62
     7
100
AcDbLine
 10
3607.067784975499
 20
-2550.522236041176
 30
0.0
 11
3606.535711000891
 21
-2550.522236041176
 31
0.0
  0
LINE
  5
330C2
330
1F
100
AcDbEntity
  8
AM_0
 62
     7
100
AcDbLine
 10
3607.067784975499
 20
-2547.422237567055
 30
0.0
 11
3604.817784975499
 21
-2547.422237567055
 31
0.0
  0
LINE
  5
330C3
330
1F
100
AcDbEntity
  8
AM_0
 62
     7
100
AcDbLine
 10
3606.317784975499
 20
-2550.472232989418
 30
0.0
 11
3604.817784975499
 21
-2550.472232989418
 31
0.0
  0
ARC
  5
330C4
330
1F
100
AcDbEntity
  8
AM_0
 62
     7
100
AcDbCircle
 10
3608.567784975499
 20
-2554.472232989418
 30
0.0
 40
0.5000000000000006
100
AcDbArc
 50
270.0000025044687
 51
0.0000050089374039
  0
ARC
  5
330C5
330
1F
100
AcDbEntity
  8
AM_0
 62
     7
100
AcDbCircle
 10
3608.817784975499
 20
-2555.972232989418
 30
0.0
 40
0.5000000000000019
100
AcDbArc
 50
0.0000050089374039
 51
90.00000068321694
  0
ARC
  5
330C6
330
1F
100
AcDbEntity
  8
AM_0
 62
     7
100
AcDbCircle
 10
3606.317784975499
 20
-2554.472232989418
 30
0.0
 40
0.5000000000000006
100
AcDbArc
 50
270.0000025044687
 51
0.0000050089374039
  0
LINE
  5
330C7
330
1F
100
AcDbEntity
  8
AM_0
 62
     7
100
AcDbLine
 10
3599.267766664953
 20
-2555.470462969887
 30
0.0
 11
3598.367772768468
 21
-2555.470462969887
 31
0.0
  0
ARC
  5
330C8
330
1F
100
AcDbEntity
  8
AM_0
 62
     7
100
AcDbCircle
 10
3599.267766664953
 20
-2555.77045839225
 30
0.0
 40
0.3000000119209301
100
AcDbArc
 50
0.0000050089374039
 51
90.00000068321694
  0
ARC
  5
330C9
330
1F
100
AcDbEntity
  8
AM_0
 62
     7
100
AcDbCircle
 10
3598.367772768468
 20
-2555.77045839225
 30
0.0
 40
0.3000000119209292
100
AcDbArc
 50
89.9999974955313
 51
180.0
  0
LINE
  5
330CA
330
1F
100
AcDbEntity
  8
AM_0
 62
     7
100
AcDbLine
 10
3588.567784975499
 20
-2547.169460467446
 30
0.0
 11
3588.567784975499
 21
-2536.972232989418
 31
0.0
  0
LINE
  5
330CB
330
1F
100
AcDbEntity
  8
AM_0
 62
     7
100
AcDbLine
 10
3589.067784975499
 20
-2555.472232989418
 30
0.0
 11
3589.067784975499
 21
-2544.972232989418
 31
0.0
  0
LINE
  5
330CC
330
1F
100
AcDbEntity
  8
AM_0
 62
     7
100
AcDbLine
 10
3590.567784975499
 20
-2555.472232989418
 30
0.0
 11
3590.567784975499
 21
-2544.972232989418
 31
0.0
  0
ARC
  5
330CD
330
1F
100
AcDbEntity
  8
AM_0
 62
     7
100
AcDbCircle
 10
3589.567784975499
 20
-2536.972232989418
 30
0.0
 40
1.000000000000001
100
AcDbArc
 50
89.9999974955313
 51
180.0
  0
LINE
  5
330CE
330
1F
100
AcDbEntity
  8
AM_0
 62
     7
100
AcDbLine
 10
3594.345647524327
 20
-2542.972232989418
 30
0.0
 11
3589.567784975499
 21
-2542.972232989418
 31
0.0
  0
LINE
  5
330CF
330
1F
100
AcDbEntity
  8
AM_0
 62
     7
100
AcDbLine
 10
3590.567784975499
 20
-2544.972232989418
 30
0.0
 11
3589.067784975499
 21
-2544.972232989418
 31
0.0
  0
ARC
  5
330D0
330
1F
100
AcDbEntity
  8
AM_0
 62
     7
100
AcDbCircle
 10
3589.567784975499
 20
-2543.972232989418
 30
0.0
 40
1.000000000000001
100
AcDbArc
 50
89.9999974955313
 51
180.0
  0
LINE
  5
330D1
330
1F
100
AcDbEntity
  8
AM_0
 62
     7
100
AcDbLine
 10
3588.567784975499
 20
-2554.472232989418
 30
0.0
 11
3588.567784975499
 21
-2550.775013140786
 31
0.0
  0
LINE
  5
330D2
330
1F
100
AcDbEntity
  8
AM_0
 62
     7
100
AcDbLine
 10
3592.817784975499
 20
-2553.972232989418
 30
0.0
 11
3592.817784975499
 21
-2546.972232989418
 31
0.0
  0
LINE
  5
330D3
330
1F
100
AcDbEntity
  8
AM_0
 62
     7
100
AcDbLine
 10
3590.817784975499
 20
-2554.472232989418
 30
0.0
 11
3590.817784975499
 21
-2550.972232989418
 31
0.0
  0
LINE
  5
330D4
330
1F
100
AcDbEntity
  8
AM_0
 62
     7
100
AcDbLine
 10
3592.817784975499
 20
-2547.422237567055
 30
0.0
 11
3590.567784975499
 21
-2547.422237567055
 31
0.0
  0
LINE
  5
330D5
330
1F
100
AcDbEntity
  8
AM_0
 62
     7
100
AcDbLine
 10
3592.817784975499
 20
-2550.472232989418
 30
0.0
 11
3591.317784975499
 21
-2550.472232989418
 31
0.0
  0
ARC
  5
330D6
330
1F
100
AcDbEntity
  8
AM_0
 62
     7
100
AcDbCircle
 10
3591.317784975499
 20
-2550.972232989418
 30
0.0
 40
0.5000000000000006
100
AcDbArc
 50
89.9999974955313
 51
180.0
  0
LINE
  5
330D7
330
1F
100
AcDbEntity
  8
AM_0
 62
     7
100
AcDbLine
 10
3591.099828432531
 20
-2550.522236041176
 30
0.0
 11
3590.567784975499
 21
-2550.522236041176
 31
0.0
  0
ARC
  5
330D8
330
1F
100
AcDbEntity
  8
AM_0
 62
     7
100
AcDbCircle
 10
3591.567784975499
 20
-2548.972232989418
 30
0.0
 40
3.499999999999976
100
AcDbArc
 50
135.5846902614564
 51
224.4153097385436
  0
ARC
  5
330D9
330
1F
100
AcDbEntity
  8
AM_0
 62
     7
100
AcDbCircle
 10
3593.817784975499
 20
-2553.972232989418
 30
0.0
 40
1.0
100
AcDbArc
 50
180.0
 51
270.0000025044687
  0
ARC
  5
330DA
330
1F
100
AcDbEntity
  8
AM_0
 62
     7
100
AcDbCircle
 10
3588.817784975499
 20
-2555.972232989418
 30
0.0
 40
0.5000000000000006
100
AcDbArc
 50
89.9999974955313
 51
180.0
  0
ARC
  5
330DB
330
1F
100
AcDbEntity
  8
AM_0
 62
     7
100
AcDbCircle
 10
3591.317784975499
 20
-2554.472232989418
 30
0.0
 40
0.5
100
AcDbArc
 50
180.0
 51
270.0000025044687
  0
ARC
  5
330DC
330
1F
100
AcDbEntity
  8
AM_0
 62
     7
100
AcDbCircle
 10
3589.067784975499
 20
-2554.472232989418
 30
0.0
 40
0.5
100
AcDbArc
 50
180.0
 51
270.0000025044687
  0
LINE
  5
330DD
330
1F
100
AcDbEntity
  8
AM_0
 62
     7
100
AcDbLine
 10
3611.317784975499
 20
-2560.472232989418
 30
0.0
 11
3586.317784975499
 21
-2560.472232989418
 31
0.0
  0
LINE
  5
330DE
330
1F
100
AcDbEntity
  8
AM_0
 62
     7
100
AcDbLine
 10
3611.017766664952
 20
-2565.472232989418
 30
0.0
 11
3586.617772768468
 21
-2565.472232989418
 31
0.0
  0
LINE
  5
330DF
330
1F
100
AcDbEntity
  8
AM_0
 62
     7
100
AcDbLine
 10
3611.317784975499
 20
-2565.172237567055
 30
0.0
 11
3611.317784975499
 21
-2560.472232989418
 31
0.0
  0
ARC
  5
330E0
330
1F
100
AcDbEntity
  8
AM_0
 62
     7
100
AcDbCircle
 10
3611.017766664952
 20
-2565.172237567055
 30
0.0
 40
0.3000000119209292
100
AcDbArc
 50
270.0000025044687
 51
0.0000050089374039
  0
LINE
  5
330E1
330
1F
100
AcDbEntity
  8
AM_0
 62
     7
100
AcDbLine
 10
3586.317784975499
 20
-2565.172237567055
 30
0.0
 11
3586.317784975499
 21
-2560.472232989418
 31
0.0
  0
ARC
  5
330E2
330
1F
100
AcDbEntity
  8
AM_0
 62
     7
100
AcDbCircle
 10
3586.620073835217
 20
-2565.174615805028
 30
0.0
 40
0.3000000119209289
100
AcDbArc
 50
180.0
 51
270.0000025044687
  0
DIMENSION
  5
330E3
330
1F
100
AcDbEntity
  8
AM_5
100
AcDbDimension
  2
*D86
 10
3619.317784975499
 20
-2565.472232989418
 30
0.0
 11
3616.7177849755
 21
-2562.972232989417
 31
0.0
 70
    32
 71
     5
 42
5.0
  3
SYS0000
100
AcDbAlignedDimension
 13
3611.317784975499
 23
-2560.472232989418
 33
0.0
 14
3611.017766664952
 24
-2565.472232989418
 34
0.0
 50
90.0
100
AcDbRotatedDimension
1001
ACAD
1000
DSTYLE
1002
{
1070
    41
1040
1.0
1070
   343
1005
6C4
1070
   342
1005
0
1070
   173
1070
     1
1070
   344
1005
6C4
1070
   147
1040
1.0
1070
   140
1040
3.2
1002
}
  0
DIMENSION
  5
330E4
330
1F
100
AcDbEntity
  8
AM_5
100
AcDbDimension
  2
*D87
 10
3635.317784975499
 20
-2565.472237578976
 30
0.0
 11
3632.7177849755
 21
-2550.722235284196
 31
0.0
 70
    32
 71
     5
 42
29.50000458955765
  3
SYS0000
100
AcDbAlignedDimension
 13
3608.067784975499
 23
-2535.972232989418
 33
0.0
 14
3611.017766678066
 24
-2565.472237578976
 34
0.0
 50
90.0
100
AcDbRotatedDimension
1001
ACAD
1000
DSTYLE
1002
{
1070
    41
1040
1.0
1070
   343
1005
6C4
1070
   342
1005
0
1070
   173
1070
     1
1070
   344
1005
6C4
1070
   147
1040
1.0
1070
   140
1040
3.2
1002
}
  0
DIMENSION
  5
330E5
330
1F
100
AcDbEntity
  8
AM_5
100
AcDbDimension
  2
*D88
 10
3609.767766664953
 20
-2527.972232989418
 30
0.0
 11
3598.917775820226
 21
-2525.372232989418
 31
0.0
 70
    32
 71
     5
 42
21.69998168945403
  3
SYS$0
100
AcDbAlignedDimension
 13
3588.067784975499
 23
-2548.972232989418
 33
0.0
 14
3609.767766664953
 24
-2548.972232989418
 34
0.0
100
AcDbRotatedDimension
1001
ACAD
1000
DSTYLE
1002
{
1070
   343
1005
6C4
1070
   342
1005
0
1070
   173
1070
     1
1070
   344
1005
6C4
1070
   147
1040
1.0
1070
   140
1040
3.2
1070
    41
1040
1.0
1070
   271
1070
     1
1002
}
  0
DIMENSION
  5
330E7
330
1F
100
AcDbEntity
  8
AM_5
100
AcDbDimension
  2
*D89
 10
3627.317784975499
 20
-2565.472232989418
 30
0.0
 11
3624.7177849755
 21
-2556.222232989418
 31
0.0
 70
    32
 71
     5
 42
18.49999999999955
  3
SYS0000
100
AcDbAlignedDimension
 13
3607.357763002843
 23
-2546.972232989418
 33
0.0
 14
3611.317784975499
 24
-2565.472232989418
 34
0.0
 50
90.0
100
AcDbRotatedDimension
1001
ACAD
1000
DSTYLE
1002
{
1070
    41
1040
1.0
1070
   343
1005
6C4
1070
   342
1005
0
1070
   173
1070
     1
1070
   344
1005
6C4
1070
   147
1040
1.0
1070
   140
1040
3.2
1002
}
  0
DIMENSION
  5
3797A
330
1F
100
AcDbEntity
  8
AM_5
 48
1.01
100
AcDbDimension
  2
*D166
 10
3596.662248226157
 20
-2550.341774828983
 30
0.0
 11
3617.101649385895
 21
-2532.250946053473
 31
0.0
 70
   163
  1
   M8タップ
 71
     5
 42
8.000000000003638
  3
SYS$3
100
AcDbDiametricDimension
 15
3600.973251724838
 25
-2543.602691149845
 35
0.0
 40
0.0
1001
ACAD
1000
DSTYLE
1002
{
1070
    41
1040
1.0
1070
   172
1070
     1
1070
   289
1070
     2
1070
   342
1005
6C4
1002
}
  0
CIRCLE
  5
379DD
330
1F
100
AcDbEntity
  8
AM_0
  6
Continuous
 62
     7
100
AcDbCircle
 10
3598.817784975499
 20
-2546.972232989418
 30
0.0
 40
2.8
  0
CIRCLE
  5
379DE
330
1F
100
AcDbEntity
  8
AM_5
100
AcDbCircle
 10
3598.817784975499
 20
-2546.972232989418
 30
0.0
 40
4.0
  0
DIMENSION
  5
379FC
330
1F
100
AcDbEntity
  8
AM_5
100
AcDbDimension
  2
*D167
 10
3596.260039494434
 20
-2604.281980432556
 30
0.0
 11
3625.355225941513
 21
-2589.035499567317
 31
0.0
 70
   163
  1
    2-%%c4.5×%%c8.5サラ
 71
     5
 42
8.19999979999966
  3
SYS$3
100
AcDbDiametricDimension
 15
3601.375530456562
 25
-2597.873255993451
 35
0.0
 40
0.0
1001
ACAD
1000
DSTYLE
1002
{
1070
    41
1040
1.0
1070
    47
1040
0.05
1070
    48
1040
0.05
1070
   172
1070
     1
1070
   173
1070
     1
1070
   179
1070
     2
1070
   342
1005
0
1070
   343
1005
6C4
1070
   344
1005
6C4
1002
}
  0
DIMENSION
  5
37A1B
330
1F
100
AcDbEntity
  8
AM_5
100
AcDbDimension
  2
*D168
 10
3658.317783975499
 20
-2740.552617472639
 30
0.0
 11
3655.7177839755
 21
-2680.028729838361
 31
0.0
 70
    32
 71
     5
 42
121.0477752685547
  3
SYS$0
100
AcDbAlignedDimension
 13
3671.317784975499
 23
-2619.504842204085
 33
0.0
 14
3671.317784975499
 24
-2740.552617472639
 34
0.0
 50
90.0
100
AcDbRotatedDimension
1001
ACAD
1000
DSTYLE
1002
{
1070
    41
1040
1.0
1070
   343
1005
6C4
1070
   342
1005
0
1070
   173
1070
     1
1070
   344
1005
6C4
1070
   147
1040
1.0
1070
   140
1040
3.2
1070
   271
1070
     1
1002
}
  0
LINE
  5
37A4D
330
1F
100
AcDbEntity
  8
AM_7
 48
0.5
100
AcDbLine
 10
3606.067784975499
 20
-2756.077618213006
 30
0.0
 11
3591.567784975499
 21
-2756.077618213006
 31
0.0
  0
DIMENSION
  5
37A4E
330
1F
100
AcDbEntity
  8
AM_5
100
AcDbDimension
  2
*D169
 10
3621.317785975499
 20
-2756.077618213006
 30
0.0
 11
3618.7177859755
 21
-2678.577618213005
 31
0.0
 70
    32
 71
     5
 42
155.0
  3
SYS$0
100
AcDbAlignedDimension
 13
3606.067784975499
 23
-2601.077618213006
 33
0.0
 14
3606.067784975499
 24
-2756.077618213006
 34
0.0
 50
90.0
100
AcDbRotatedDimension
1001
ACAD
1000
DSTYLE
1002
{
1070
    41
1040
1.0
1070
   343
1005
6C4
1070
   342
1005
0
1070
   173
1070
     1
1070
   344
1005
6C4
1070
   147
1040
1.0
1070
   140
1040
3.2
1002
}
  0
DIMENSION
  5
37A64
330
1F
100
AcDbEntity
  8
AM_5
100
AcDbDimension
  2
*D170
 10
3629.317784975499
 20
-2764.577618213006
 30
0.0
 11
3626.7177849755
 21
-2678.577627362318
 31
0.0
 70
    32
 71
     5
 42
171.9999817013741
  3
SYS$0
100
AcDbAlignedDimension
 13
3611.317784975499
 23
-2592.577636511632
 33
0.0
 14
3611.317781948776
 24
-2764.577618213006
 34
0.0
 50
90.0
100
AcDbRotatedDimension
1001
ACAD
1000
DSTYLE
1002
{
1070
    41
1040
1.0
1070
   343
1005
6C4
1070
   342
1005
0
1070
   173
1070
     1
1070
   344
1005
6C4
1070
   147
1040
1.0
1070
   140
1040
3.2
1002
}
  0
DIMENSION
  5
38978
330
1F
100
AcDbEntity
  8
AM_5
100
AcDbDimension
  2
*D207
 10
3700.817784975499
 20
-2632.557057780256
 30
0.0
 11
3698.2177849755
 21
-2643.101057780255
 31
0.0
 70
    32
  1
ストローク<>
 71
     5
 42
18.0
  3
SYS$0
100
AcDbAlignedDimension
 13
3690.817784975499
 23
-2614.557057780256
 33
0.0
 14
3690.817784975499
 24
-2632.557057780256
 34
0.0
 50
90.0
100
AcDbRotatedDimension
1001
ACAD
1000
DSTYLE
1002
{
1070
    41
1040
1.0
1070
   343
1005
6C4
1070
   342
1005
0
1070
   173
1070
     1
1070
   344
1005
6C4
1070
   147
1040
1.0
1070
   140
1040
3.2
1070
    47
1040
0.05
1070
    48
1040
0.05
1070
   179
1070
     2
1070
   271
1070
     1
1002
}
  0
LINE
  5
38A00
330
1F
100
AcDbEntity
  8
AM_7
 48
0.5
100
AcDbLine
 10
3684.817784975499
 20
-2611.557057780256
 30
0.0
 11
3684.817784975499
 21
-2648.557057780256
 31
0.0
1001
GENIUS_GENODEF_13
1002
{
1000
HIER
1070
     0
1002
}
1002
{
1000
MANEDIT
1070
     0
1002
}
1002
{
1000
NOSEL
1070
     0
1002
}
1002
{
1000
BEHIND
1070
     0
1002
}
1002
{
1000
OTHER
1070
     0
1002
}
1002
{
1000
REACTOR
1002
}
1001
GENIUS_GENOBJ-N-CEN_13
1002
{
1000
OWNER
1000
GEN
1002
}
1001
GENIUS_GENCEN_19
1002
{
1040
3.0
1002
}
  0
LINE
  5
38B32
330
1F
100
AcDbEntity
  8
AM_7
 48
0.5
100
AcDbLine
 10
3583.317784975499
 20
-2678.5776258424
 30
0.0
 11
3614.612838669746
 21
-2678.5776258424
 31
0.0
1001
GENIUS_GENOBJ-N-CEN_13
1002
{
1000
OWNER
1000
GEN
1002
}
1001
GENIUS_GENODEF_13
1002
{
1000
HIER
1070
     0
1002
}
1002
{
1000
MANEDIT
1070
     0
1002
}
1002
{
1000
NOSEL
1070
     0
1002
}
1002
{
1000
BEHIND
1070
     0
1002
}
1002
{
1000
OTHER
1070
     0
1002
}
1002
{
1000
REACTOR
1002
}
1001
GENIUS_GENCEN_19
1002
{
1040
3.0
1002
}
  0
DIMENSION
  5
4150F
330
1F
100
AcDbEntity
  8
AM_5
100
AcDbDimension
  2
*D388
 10
3708.817784975499
 20
-2632.557057780256
 30
0.0
 11
3706.2177849755
 21
-2613.054829997052
 31
0.0
 70
    32
 71
     5
 42
39.00445556640625
  3
SYS$0
100
AcDbAlignedDimension
 13
3671.317784975499
 23
-2593.55260221385
 33
0.0
 14
3690.817784975499
 24
-2632.557057780256
 34
0.0
 50
90.00000000000001
100
AcDbRotatedDimension
1001
ACAD
1000
DSTYLE
1002
{
1070
    41
1040
1.0
1070
   343
1005
6C4
1070
   342
1005
0
1070
   173
1070
     1
1070
   344
1005
6C4
1070
   147
1040
1.0
1070
   140
1040
3.2
1070
   271
1070
     1
1002
}
  0
LINE
  5
4192E
330
1F
100
AcDbEntity
  8
waku
100
AcDbLine
 10
3832.047826521641
 20
-2781.982271409578
 30
0.0
 11
3832.047826521641
 21
-2501.982271409578
 31
0.0
1001
GENIUS_GENREC_14
1002
{
1000
PYDIR
1011
3423.547826521641
1021
-2493.482271409578
1031
0.0
1002
}
1002
{
1000
PXDIR
1011
3843.547826521641
1021
-2790.482271409578
1031
0.0
1002
}
1002
{
1000
PORI
1011
3423.547826521641
1021
-2790.482271409578
1031
0.0
1002
}
1002
{
1000
PINS
1011
3633.547826521641
1021
-2641.982271409578
1031
0.0
1002
}
1002
{
1000
HVAL
1000
297
1002
}
1002
{
1000
H
1070
     2
1002
}
1002
{
1000
WVAL
1000
420
1002
}
1002
{
1000
W
1070
     2
1002
}
1002
{
1000
C
1070
     4
1002
}
1001
GENIUS_GENOBJ-N-REC_13
1002
{
1000
OWNER
1000
GEN
1002
}
1001
GENIUS_GENODEF_13
1002
{
1000
HIER
1070
     0
1002
}
1002
{
1000
MANEDIT
1070
     0
1002
}
1002
{
1000
NOSEL
1070
     0
1002
}
1002
{
1000
BEHIND
1070
     0
1002
}
1002
{
1000
OTHER
1070
     0
1002
}
1002
{
1000
REACTOR
1002
}
  0
LINE
  5
4192F
330
1F
100
AcDbEntity
  8
waku
100
AcDbLine
 10
3435.047826521641
 20
-2501.982271409578
 30
0.0
 11
3435.047826521641
 21
-2781.982271409578
 31
0.0
1001
GENIUS_GENREC_14
1002
{
1000
PYDIR
1011
3423.547826521641
1021
-2493.482271409578
1031
0.0
1002
}
1002
{
1000
PXDIR
1011
3843.547826521641
1021
-2790.482271409578
1031
0.0
1002
}
1002
{
1000
PORI
1011
3423.547826521641
1021
-2790.482271409578
1031
0.0
1002
}
1002
{
1000
PINS
1011
3633.547826521641
1021
-2641.982271409578
1031
0.0
1002
}
1002
{
1000
HVAL
1000
297
1002
}
1002
{
1000
H
1070
     2
1002
}
1002
{
1000
WVAL
1000
420
1002
}
1002
{
1000
W
1070
     2
1002
}
1002
{
1000
C
1070
     4
1002
}
1001
GENIUS_GENOBJ-N-REC_13
1002
{
1000
OWNER
1000
GEN
1002
}
1001
GENIUS_GENODEF_13
1002
{
1000
HIER
1070
     0
1002
}
1002
{
1000
MANEDIT
1070
     0
1002
}
1002
{
1000
NOSEL
1070
     0
1002
}
1002
{
1000
BEHIND
1070
     0
1002
}
1002
{
1000
OTHER
1070
     0
1002
}
1002
{
1000
REACTOR
1002
}
  0
LINE
  5
41930
330
1F
100
AcDbEntity
  8
waku
100
AcDbLine
 10
3832.047826521641
 20
-2501.982271409578
 30
0.0
 11
3435.047826521641
 21
-2501.982271409578
 31
0.0
1001
GENIUS_GENREC_14
1002
{
1000
PYDIR
1011
3423.547826521641
1021
-2493.482271409578
1031
0.0
1002
}
1002
{
1000
PXDIR
1011
3843.547826521641
1021
-2790.482271409578
1031
0.0
1002
}
1002
{
1000
PORI
1011
3423.547826521641
1021
-2790.482271409578
1031
0.0
1002
}
1002
{
1000
PINS
1011
3633.547826521641
1021
-2641.982271409578
1031
0.0
1002
}
1002
{
1000
HVAL
1000
297
1002
}
1002
{
1000
H
1070
     2
1002
}
1002
{
1000
WVAL
1000
420
1002
}
1002
{
1000
W
1070
     2
1002
}
1002
{
1000
C
1070
     4
1002
}
1001
GENIUS_GENOBJ-N-REC_13
1002
{
1000
OWNER
1000
GEN
1002
}
1001
GENIUS_GENODEF_13
1002
{
1000
HIER
1070
     0
1002
}
1002
{
1000
MANEDIT
1070
     0
1002
}
1002
{
1000
NOSEL
1070
     0
1002
}
1002
{
1000
BEHIND
1070
     0
1002
}
1002
{
1000
OTHER
1070
     0
1002
}
1002
{
1000
REACTOR
1002
}
  0
LINE
  5
41931
330
1F
100
AcDbEntity
  8
waku
100
AcDbLine
 10
3435.047826521641
 20
-2781.982271409578
 30
0.0
 11
3832.047826521641
 21
-2781.982271409578
 31
0.0
  0
MTEXT
  5
52B7D
330
1F
100
AcDbEntity
  8
AM_6
100
AcDbMText
 10
3456.159165698907
 20
-2529.982271409588
 30
0.0
 40
3.2
 41
90.0
 71
     4
 72
     5
  1
　焼付塗装（シルバー）
 73
     1
 44
1.0
  0
MTEXT
  5
52B7E
330
1F
100
AcDbEntity
  8
AM_6
100
AcDbMText
 10
3456.159165698907
 20
-2521.982271409588
 30
0.0
 40
3.2
 41
90.0
 71
     4
 72
     5
  1
　亜鉛ダイキャスト
 73
     1
 44
1.0
  0
MTEXT
  5
52B7F
330
1F
100
AcDbEntity
  8
AM_6
100
AcDbMText
 10
3456.159165698907
 20
-2513.982271409588
 30
0.0
 40
3.2
 41
90.0
 71
     4
 72
     5
  1
　DE-25V
 73
     1
 44
1.0
  0
MTEXT
  5
52B80
330
1F
100
AcDbEntity
  8
AM_6
100
AcDbMText
 10
3456.159165698907
 20
-2505.982271409588
 30
0.0
 40
3.2
 41
90.0
 71
     4
 72
     5
  1
　フランス落し
 73
     1
 44
1.0
  0
ENDSEC
  0
SECTION
  2
OBJECTS
  0
DICTIONARY
  5
C
330
0
100
AcDbDictionary
281
     1
  3
ACAD_BGPLOT_KEY
350
AB06
  3
ACAD_COLOR
350
A91D
  3
ACAD_DGNDEFINITIONS
350
5332A
  3
ACAD_DWFDEFINITIONS
350
53329
  3
ACAD_GROUP
350
D
  3
ACAD_LAYOUT
350
1A
  3
ACAD_MATERIAL
350
A91C
  3
ACAD_MLEADERSTYLE
350
53313
  3
ACAD_MLINESTYLE
350
17
  3
ACAD_PDFDEFINITIONS
350
53328
  3
ACAD_PLOTSETTINGS
350
19
  3
ACAD_PLOTSTYLENAME
350
E
  3
ACAD_SCALELIST
350
532DF
  3
ACAD_TABLESTYLE
350
AAB9
  3
ACAD_VISUALSTYLE
350
B0F1
  3
AcAsAppObject
350
3DA1
  3
ACASGREF_MASTER
350
3DE9
  3
ACDBHEADERROUNDTRIPXREC
350
53388
  3
AcDbVariableDictionary
350
34
  3
AD_APPL
350
3E01
  3
AD_GREF_MODULE
350
3DEA
  3
ACGREF_MASTER
350
41
  3
ACGREFACAD_MASTER
350
45
  3
ACME_BOM_MANAGER_NAME
350
3A
  3
AcmeSysVarManager
350
36
  3
AcmSystemVariableManager
350
4A
  3
AD_MAPI_MODULE
350
3E06
  3
ASE_INDEX_DICTIONARY
350
B331
  3
ASURF_STATIC_VARS
350
3DA2
  3
ADSYSVARMGR
350
3DF3
  3
AMG
350
2B
  3
AutoSurf_SysVars
350
3DA3
  3
DWGPROPS
350
5338B
  3
gmRefExt
350
53336
  3
AUTOCAD_ASSEMBLIES_PROJECT
350
3E11
  3
HCJX_INFO
350
53338
  3
Designer_Assemblies_SysVars
350
3E08
  3
HCJX_INFO
350
53385
  3
MAPISURF_MODULE
350
3DEB
  0
DICTIONARY
  5
5338C
330
8
100
AcDbDictionary
280
     1
281
     1
  3
ACAD_XREC_ROUNDTRIP
360
5338D
  0
DICTIONARY
  5
3F95
330
2
100
AcDbDictionary
280
     1
281
     1
  3
ACAD_LAYERFILTERS
360
3F9CB
  3
ACAD_LAYERSTATES
360
3F96
  3
ACLYDICTIONARY
360
3F9CA
  3
AMLAYER_GROUPCOLORS
360
AAB4
  0
DICTIONARY
  5
8A
330
1F
100
AcDbDictionary
280
     1
281
     1
  3
ACAD_SORTENTS
360
B1BA
  0
DICTIONARY
  5
AB06
102
{ACAD_REACTORS
330
C
102
}
330
C
100
AcDbDictionary
280
     1
281
     1
  0
DICTIONARY
  5
A91D
102
{ACAD_REACTORS
330
C
102
}
330
C
100
AcDbDictionary
281
     1
  0
DICTIONARY
  5
5332A
102
{ACAD_REACTORS
330
C
102
}
330
C
100
AcDbDictionary
281
     1
  0
DICTIONARY
  5
53329
102
{ACAD_REACTORS
330
C
102
}
330
C
100
AcDbDictionary
281
     1
  0
DICTIONARY
  5
D
102
{ACAD_REACTORS
330
C
102
}
330
C
100
AcDbDictionary
281
     1
  0
DICTIONARY
  5
1A
102
{ACAD_REACTORS
330
C
102
}
330
C
100
AcDbDictionary
281
     1
  3
Model
350
22
  3
ﾚｲｱｳﾄ1
350
1E
  3
ﾚｲｱｳﾄ2
350
26
  0
DICTIONARY
  5
A91C
102
{ACAD_REACTORS
330
C
102
}
330
C
100
AcDbDictionary
281
     1
  3
ByBlock
350
B0EF
  3
ByLayer
350
B0EE
  3
Global
350
B0F0
  0
DICTIONARY
  5
53313
102
{ACAD_REACTORS
330
C
102
}
330
C
100
AcDbDictionary
281
     1
  3
Standard
350
53337
  0
DICTIONARY
  5
17
102
{ACAD_REACTORS
330
C
102
}
330
C
100
AcDbDictionary
281
     1
  3
Standard
350
18
  0
DICTIONARY
  5
53328
102
{ACAD_REACTORS
330
C
102
}
330
C
100
AcDbDictionary
281
     1
  0
DICTIONARY
  5
19
102
{ACAD_REACTORS
330
C
102
}
330
C
100
AcDbDictionary
281
     1
  0
ACDBDICTIONARYWDFLT
  5
E
102
{ACAD_REACTORS
330
C
102
}
330
C
100
AcDbDictionary
281
     1
  3
Normal
350
F
100
AcDbDictionaryWithDefault
340
F
  0
DICTIONARY
  5
532DF
102
{ACAD_REACTORS
330
C
102
}
330
C
100
AcDbDictionary
281
     1
  3
A0
350
532E0
  3
A1
350
532E1
  3
A2
350
532E2
  3
A3
350
532E3
  3
A4
350
532E4
  3
A5
350
532E5
  3
A6
350
532E6
  3
A7
350
532E7
  3
A8
350
532E8
  3
A9
350
532E9
  3
B0
350
532EA
  3
B1
350
532EB
  3
B2
350
532EC
  3
B3
350
532ED
  3
B4
350
532EE
  3
B5
350
532EF
  3
B6
350
532F0
  0
DICTIONARY
  5
AAB9
102
{ACAD_REACTORS
330
C
102
}
330
C
100
AcDbDictionary
281
     1
  3
Standard
350
AABA
  0
DICTIONARY
  5
B0F1
102
{ACAD_REACTORS
330
C
102
}
330
C
100
AcDbDictionary
281
     1
  3
2dWireframe
350
B0F7
  3
3D Hidden
350
B0F9
  3
3dWireframe
350
B0F8
  3
Basic
350
B0F6
  3
Brighten
350
B0FD
  3
ColorChange
350
B101
  3
Conceptual
350
B0FA
  3
Dim
350
B0FC
  3
EdgeColorOff
350
532F5
  3
Facepattern
350
B100
  3
Flat
350
B0F2
  3
FlatWithEdges
350
B0F3
  3
Gouraud
350
B0F4
  3
GouraudWithEdges
350
B0F5
  3
Hidden
350
532F2
  3
JitterOff
350
532F3
  3
Linepattern
350
B0FF
  3
OverhangOff
350
532F4
  3
Realistic
350
B0FB
  3
Shaded
350
532FA
  3
Shaded with edges
350
532F9
  3
Shades of Gray
350
532F6
  3
Sketchy
350
532F7
  3
Thicken
350
B0FE
  3
Wireframe
350
532F1
  3
X-Ray
350
532F8
  0
ACAD_PROXY_OBJECT
  5
3DA1
102
{ACAD_REACTORS
330
C
102
}
330
C
100
AcDbProxyObject
 90
      499
 91
      576
 95
   917527
 70
     0
 93
       10
310
4040
  0
ACAD_PROXY_OBJECT
  5
3DE9
102
{ACAD_REACTORS
330
C
102
}
330
C
100
AcDbProxyObject
 90
      499
 91
      581
 95
   917527
 70
     0
 93
       34
310
0100004040
  0
DICTIONARY
  5
53388
102
{ACAD_REACTORS
330
C
102
}
330
C
100
AcDbDictionary
281
     1
  3
COLORDICT
350
53389
  3
MATERIALDICT
350
5338A
  0
DICTIONARY
  5
34
102
{ACAD_REACTORS
330
C
102
}
330
C
100
AcDbDictionary
281
     1
  3
CANNOSCALE
350
5333B
  3
CMLEADERSTYLE
350
5333C
  3
CTABLESTYLE
350
AAF3
  3
DIMASSOC
350
A10C
  3
FIELDEVAL
350
AB07
  3
HIDETEXT
350
5333E
  3
HPORIGIN
350
EB56
  3
INDEXCTL
350
35
  3
MSLTSCALE
350
5333D
  3
SORTENTS
350
194C
  3
XCLIPFRAME
350
5333F
  0
ACAD_PROXY_OBJECT
  5
3E01
102
{ACAD_REACTORS
330
C
102
}
330
C
100
AcDbProxyObject
 90
      499
 91
      590
 95
  6815769
 70
     0
 93
       34
310
000B000080
330
3DEF
 94
        0
  0
ACAD_PROXY_OBJECT
  5
3DEA
102
{ACAD_REACTORS
330
C
102
}
330
C
100
AcDbProxyObject
 90
      499
 91
      582
 95
   917527
 70
     0
 93
      114
310
000000438000000000000000000000
  0
ACAD_PROXY_OBJECT
  5
41
102
{ACAD_REACTORS
330
C
102
}
330
C
100
AcDbProxyObject
 90
      499
 91
      517
 95
  6815769
 70
     0
 93
       34
310
0400004280
  0
ACAD_PROXY_OBJECT
  5
45
102
{ACAD_REACTORS
330
C
102
}
330
C
100
AcDbProxyObject
 90
      499
 91
      520
 95
  6815769
 70
     0
 93
      114
310
04000041C080000000000000000000
  0
ACAD_PROXY_OBJECT
  5
3A
102
{ACAD_REACTORS
330
C
102
}
330
C
100
AcDbProxyObject
 90
      499
 91
      511
 95
  6815769
 70
     0
 93
       50
310
00010040400000
330
0
330
0
330
3B
 94
        0
  0
ACIMSYSVARMAN
  5
36
102
{ACAD_REACTORS
330
C
102
}
330
C
  0
ACIMSYSVARMAN
  5
4A
102
{ACAD_REACTORS
330
C
102
}
330
C
  0
ACAD_PROXY_OBJECT
  5
3E06
102
{ACAD_REACTORS
330
C
102
}
330
C
100
AcDbProxyObject
 90
      499
 91
      594
 95
   917527
 70
     0
 93
       34
310
05000044C0
  0
DICTIONARY
  5
B331
102
{ACAD_REACTORS
330
C
102
}
330
C
100
AcDbDictionary
281
     1
  3
ASEBlockHierarchyIndexRecord
350
B332
1001
DCO15
1040
1594111214.218
  0
ACAD_PROXY_OBJECT
  5
3DA2
102
{ACAD_REACTORS
330
C
102
}
330
C
100
AcDbProxyObject
 90
      499
 91
      577
 95
  6815769
 70
     0
 93
      424
310
585314D600000000000000000000000000000000000000000000000000000000000000000000000000000000000000000000000000
330
3DB5
330
3DB6
330
3DB7
330
3DB8
330
3DB9
330
3DBA
330
3DBB
330
3DBC
330
3DBD
330
3DBE
330
3DBF
330
3DC0
330
3DC1
330
3DC2
330
3DC3
330
3DC4
330
3DC5
330
3DC6
330
3DC7
330
3DC8
330
3DC9
330
3DCA
330
3DCB
330
3DCC
330
3DCD
330
3DCE
330
3DCF
330
3DD0
330
3DD1
330
3DD2
330
3DD3
330
3DD4
330
3DD5
330
3DD6
330
3DD7
330
3DD8
330
3DD9
330
3DDA
330
3DDB
330
3DDC
330
3DDD
330
3DDE
330
3DDF
330
3DE0
330
3DE1
330
3DE2
330
3DE3
330
3DE4
330
3DE5
 94
        0
  0
ACIMSYSVARMAN
  5
3DF3
102
{ACAD_REACTORS
330
C
102
}
330
C
  0
DICTIONARY
  5
2B
102
{ACAD_REACTORS
330
C
102
}
330
C
100
AcDbDictionary
281
     1
  3
AcMgSettings
350
2C
  3
AMGLAYCFG
350
4E
  0
ACIMSYSVARMAN
  5
3DA3
102
{ACAD_REACTORS
330
C
102
}
330
C
  0
XRECORD
  5
5338B
102
{ACAD_REACTORS
330
C
102
}
330
C
100
AcDbXrecord
280
     1
  1
DWGPROPS COOKIE
  2

  3

  4

  6

  7

  8
G1075U
  9

300
AmdtFileType=84
301
=
302
=
303
=
304
=
305
=
306
=
307
=
308
=
309
=
 40
0.0
 41
2455567.186054317
 42
2459741.566918889
  1

 90
        1
  0
XRECORD
  5
53336
102
{ACAD_REACTORS
330
C
102
}
330
C
100
AcDbXrecord
280
     1
  0
ACAMPROJECT
  5
3E11
102
{ACAD_REACTORS
330
C
102
}
330
C
  0
DICTIONARY
  5
53338
102
{ACAD_REACTORS
330
C
102
}
330
C
100
AcDbDictionary
281
     1
  3
GmRelease
350
53339
  3
GmTimeStamp
350
5333A
  0
ACIMSYSVARMAN
  5
3E08
102
{ACAD_REACTORS
330
C
102
}
330
C
  0
DICTIONARY
  5
53385
102
{ACAD_REACTORS
330
C
102
}
330
C
100
AcDbDictionary
281
     1
  3
GmRelease
350
53386
  3
GmTimeStamp
350
53387
  0
ACAD_PROXY_OBJECT
  5
3DEB
102
{ACAD_REACTORS
330
C
102
}
330
C
100
AcDbProxyObject
 90
      499
 91
      583
 95
   917527
 70
     0
 93
        8
310
04
  0
XRECORD
  5
5338D
102
{ACAD_REACTORS
330
5338C
102
}
330
5338C
100
AcDbXrecord
280
     1
102
VTR_0.000_0.000_1.000_1.000_VISUALSTYLE
340
B0F7
102
VTR_0.000_0.000_1.000_1.000_GRIDDISPLAY
 70
     3
102
VTR_0.000_0.000_1.000_1.000_GRIDMAJOR
 70
     5
102
VTR_0.000_0.000_1.000_1.000_DEFAULTLIGHTING
280
     1
102
VTR_0.000_0.000_1.000_1.000_DEFAULTLIGHTINGTYPE
 70
     1
102
VTR_0.000_0.000_1.000_1.000_BRIGHTNESS
141
0.0
102
VTR_0.000_0.000_1.000_1.000_CONTRAST
142
0.0
  0
DICTIONARY
  5
3F9CB
102
{ACAD_REACTORS
330
3F95
102
}
330
3F95
100
AcDbDictionary
281
     1
  0
DICTIONARY
  5
3F96
102
{ACAD_REACTORS
330
3F95
102
}
330
3F95
100
AcDbDictionary
281
     1
  3
20011210
350
3FB7
  0
DICTIONARY
  5
3F9CA
102
{ACAD_REACTORS
330
3F95
102
}
330
3F95
100
AcDbDictionary
281
     1
1001
ACAD
1000
<All
  0
DICTIONARY
  5
AAB4
102
{ACAD_REACTORS
330
3F95
102
}
330
3F95
100
AcDbDictionary
280
     1
281
     1
  0
SORTENTSTABLE
  5
B1BA
102
{ACAD_REACTORS
330
8A
102
}
330
8A
100
AcDbSortentsTable
330
1F
331
0
  5
49976
331
1EB3A
  5
1EB3A
331
1EB3B
  5
1EB3B
331
1EB3C
  5
1EB3C
331
1EB3D
  5
1EB3D
331
1EB3E
  5
1EB3E
331
1EB3F
  5
1EB3F
331
1EB40
  5
1EB40
331
1EB41
  5
1EB41
331
2121D
  5
21225
331
214E3
  5
2154A
331
21FF0
  5
2215D
331
21FF1
  5
2215E
331
21FF2
  5
22406
331
21FF3
  5
22408
331
2627D
  5
2627D
331
2627E
  5
2627E
331
2627F
  5
2627F
331
26280
  5
26280
331
26281
  5
26281
331
26282
  5
26282
331
26283
  5
26283
331
32FD3
  5
32FF8
331
32FD4
  5
32FF9
331
32FD9
  5
33000
331
32FDA
  5
33002
331
32FDB
  5
33003
331
32FE2
  5
33004
331
32FE3
  5
33005
331
32FE4
  5
33007
331
32FE5
  5
33008
331
32FE6
  5
33009
331
32FE7
  5
3300A
331
32FEA
  5
3300B
331
32FEC
  5
3300C
331
32FED
  5
3300D
331
32FEE
  5
3300E
331
32FF4
  5
33015
331
32FF5
  5
33016
331
32FF6
  5
33017
331
32FF7
  5
33018
331
32FF8
  5
33019
331
32FF9
  5
3301A
331
32FFA
  5
3301C
331
32FFB
  5
3301D
331
32FFE
  5
3301E
331
32FFF
  5
3301F
331
33000
  5
33020
331
33001
  5
33021
331
33002
  5
33022
331
33003
  5
33023
331
33004
  5
33025
331
33005
  5
33026
331
33006
  5
33028
331
33007
  5
3302A
331
33008
  5
3302C
331
33009
  5
3302D
331
3300A
  5
3302E
331
3300B
  5
3302F
331
3300C
  5
33030
331
3300D
  5
33031
331
3300F
  5
33032
331
33011
  5
33033
331
33013
  5
33034
331
33015
  5
33035
331
33016
  5
33036
331
33017
  5
33037
331
33018
  5
33038
331
33019
  5
33039
331
3301A
  5
3303A
331
3301B
  5
3303B
331
3301C
  5
3303C
331
3301D
  5
3303D
331
3301E
  5
3303E
331
3301F
  5
3303F
331
33020
  5
33040
331
33021
  5
33041
331
33022
  5
33042
331
33023
  5
33043
331
33024
  5
33044
331
33025
  5
33045
331
33026
  5
33046
331
33027
  5
33047
331
33028
  5
33048
331
33029
  5
33049
331
3302A
  5
3304A
331
3302B
  5
3304B
331
3302C
  5
3304C
331
3302D
  5
3304D
331
3302E
  5
3304E
331
3302F
  5
3304F
331
33030
  5
33050
331
33031
  5
33051
331
33032
  5
33053
331
33033
  5
33054
331
33034
  5
33055
331
33035
  5
33056
331
33036
  5
33057
331
33037
  5
33058
331
33038
  5
33059
331
33039
  5
3305A
331
3303A
  5
3305B
331
3303B
  5
3305C
331
3303D
  5
3305D
331
3303E
  5
3305E
331
3303F
  5
3305F
331
33040
  5
33060
331
33041
  5
33061
331
33042
  5
33062
331
33043
  5
33063
331
33044
  5
33064
331
33045
  5
33065
331
33046
  5
33066
331
33047
  5
33067
331
33049
  5
33069
331
3304A
  5
3306A
331
3304B
  5
3306B
331
3304C
  5
3306C
331
3304D
  5
3306D
331
3304E
  5
3306E
331
3304F
  5
3306F
331
33050
  5
33070
331
33051
  5
33072
331
33052
  5
33073
331
33053
  5
33074
331
33054
  5
33075
331
33055
  5
33077
331
33056
  5
33078
331
33057
  5
33079
331
33058
  5
3307A
331
33059
  5
3307B
331
3305B
  5
3307C
331
3305C
  5
3307D
331
3305D
  5
33080
331
3305E
  5
33082
331
33060
  5
33084
331
33061
  5
33085
331
33062
  5
33086
331
33063
  5
33087
331
33064
  5
33088
331
33065
  5
33089
331
33069
  5
3308C
331
3306B
  5
3308D
331
3306D
  5
3308E
331
3306E
  5
3308F
331
3306F
  5
33091
331
33070
  5
33092
331
33071
  5
33093
331
33072
  5
33094
331
33073
  5
33095
331
33075
  5
33096
331
33076
  5
33097
331
33077
  5
33098
331
33078
  5
33099
331
3307A
  5
3309B
331
3307B
  5
3309C
331
3307C
  5
3309D
331
3307D
  5
3309E
331
3307E
  5
3309F
331
3307F
  5
330A0
331
33080
  5
330A1
331
33081
  5
330A3
331
33082
  5
330A4
331
33084
  5
330A5
331
33085
  5
330A6
331
33086
  5
330A7
331
33087
  5
330A8
331
33088
  5
330A9
331
33089
  5
330AA
331
3308A
  5
330AB
331
3308C
  5
330AC
331
3308D
  5
330AD
331
3308E
  5
330AE
331
3308F
  5
330AF
331
33090
  5
330B0
331
33091
  5
330B1
331
33092
  5
330B2
331
33093
  5
330B3
331
33094
  5
330B4
331
33095
  5
330BA
331
33096
  5
330BC
331
33097
  5
330BD
331
33098
  5
330BE
331
33099
  5
330BF
331
3309A
  5
330C0
331
3309C
  5
330C2
331
3309D
  5
330C3
331
330A6
  5
330C7
331
330A7
  5
330C8
331
330A8
  5
330C9
331
330A9
  5
330CB
331
330AA
  5
330CC
331
330AB
  5
330CD
331
330AC
  5
330CE
331
330AD
  5
330CF
331
330AE
  5
330D0
331
330AF
  5
330D1
331
330B1
  5
330D2
331
330B2
  5
330D3
331
330B3
  5
330D4
331
330B5
  5
330D5
331
330B6
  5
330D6
331
330B7
  5
330D7
331
330B8
  5
330D8
331
330B9
  5
330D9
331
330BA
  5
330DA
331
330BB
  5
330DB
331
330BC
  5
330DC
331
330BD
  5
330DD
331
330BE
  5
330DE
331
330BF
  5
330DF
331
330C0
  5
330E0
331
330C1
  5
330E1
331
330C2
  5
330E2
331
330C3
  5
330E3
331
330C4
  5
330E4
331
330C5
  5
330E5
331
330C6
  5
330E6
331
330C7
  5
330E7
331
330C8
  5
330E8
331
330C9
  5
330E9
331
330CA
  5
330EA
331
330CB
  5
33367
331
330CC
  5
33368
331
330CD
  5
33369
331
330CE
  5
3336A
331
330CF
  5
3336B
331
330D0
  5
3336C
331
330D1
  5
3336D
331
330D2
  5
3336E
331
330D3
  5
3336F
331
330D4
  5
33370
331
330D5
  5
33371
331
330D6
  5
33372
331
330D7
  5
33373
331
330D8
  5
33374
331
330D9
  5
33375
331
330DA
  5
33376
331
330DB
  5
33377
331
330DC
  5
33379
331
330DD
  5
3337A
331
330DE
  5
3337C
331
330DF
  5
3337D
331
330E0
  5
3337E
331
330E1
  5
3338E
331
330E2
  5
3338F
331
330E3
  5
33390
331
330E4
  5
33391
331
330E5
  5
33392
331
330E7
  5
33393
331
3797A
  5
37B21
331
379DD
  5
37B22
331
379DE
  5
37B23
331
379FC
  5
37B55
331
37A1B
  5
37BEB
331
37A4D
  5
37C01
331
37A4E
  5
37C17
331
37A64
  5
37C36
331
38978
  5
38BD7
331
38A00
  5
38D62
331
38B32
  5
38E17
331
4150F
  5
4152F
331
4192E
  5
41930
331
4192F
  5
41931
331
41930
  5
41932
331
41931
  5
41933
  0
LAYOUT
  5
22
102
{ACAD_REACTORS
330
1A
102
}
102
{ACAD_XDICTIONARY
360
5338E
102
}
330
1A
100
AcDbPlotSettings
  1

  2
Adobe PDF
  4
A3
  6

 40
0.0
 41
0.1
 42
0.0
 43
0.0
 44
297.0
 45
420.2
 46
0.0
 47
0.0499999999999829
 48
3423.547826521642
 49
-2790.482271409578
140
3843.547826521642
141
-2493.482271409578
142
1.0
143
1.0
 70
  3764
 72
     1
 73
     1
 74
     4
  7
monochrome.ctb
 75
     0
147
1.0
148
-3423.547826521642
149
2790.482271409578
100
AcDbLayout
  1
Model
 70
     1
 71
     0
 10
0.0
 20
0.0
 11
12.0
 21
9.0
 12
0.0
 22
0.0
 32
0.0
 14
3423.547826521642
 24
-2790.482271409578
 34
0.0
 15
3843.547826521642
 25
-2493.482271409578
 35
0.0
146
0.0
 13
0.0
 23
0.0
 33
0.0
 16
1.0
 26
0.0
 36
0.0
 17
0.0
 27
1.0
 37
0.0
 76
     0
330
1F
331
B0EC
1001
ACAD_PSEXT
1000
Adobe PDF
1000
Adobe PDF Converter
1000
Documents\*.pdf
1000

1070
     0
1001
PLOTTRANSPARENCY
1071
        0
  0
LAYOUT
  5
1E
102
{ACAD_REACTORS
330
1A
102
}
330
1A
100
AcDbPlotSettings
  1

  2
\\ML370\XEROX
  4
A4
  6

 40
3.174999952316284
 41
3.174999952316284
 42
3.175003051757812
 43
3.17498779296875
 44
209.8674926757812
 45
296.6719970703125
 46
0.0
 47
0.0
 48
0.0
 49
0.0
140
0.0
141
0.0
142
1.0
143
1.0
 70
   688
 72
     1
 73
     1
 74
     5
  7
monochrome.ctb
 75
    16
147
1.0
148
0.0
149
0.0
100
AcDbLayout
  1
ﾚｲｱｳﾄ1
 70
     1
 71
     1
 10
-3.17498779296875
 20
-3.174999952316284
 11
293.4970092773438
 21
206.692492723465
 12
0.0
 22
0.0
 32
0.0
 14
1.000000000000000E+20
 24
1.000000000000000E+20
 34
1.000000000000000E+20
 15
-1.000000000000000E+20
 25
-1.000000000000000E+20
 35
-1.000000000000000E+20
146
0.0
 13
0.0
 23
0.0
 33
0.0
 16
1.0
 26
0.0
 36
0.0
 17
0.0
 27
1.0
 37
0.0
 76
     0
330
1B
  0
LAYOUT
  5
26
102
{ACAD_REACTORS
330
1A
102
}
330
1A
100
AcDbPlotSettings
  1

  2
\\ML370\XEROX
  4

  6

 40
0.0
 41
0.0
 42
0.0
 43
0.0
 44
0.0
 45
0.0
 46
0.0
 47
0.0
 48
0.0
 49
0.0
140
0.0
141
0.0
142
1.0
143
1.0
 70
   688
 72
     0
 73
     0
 74
     5
  7
monochrome.ctb
 75
    16
147
1.0
148
0.0
149
0.0
100
AcDbLayout
  1
ﾚｲｱｳﾄ2
 70
     1
 71
     2
 10
0.0
 20
0.0
 11
12.0
 21
9.0
 12
0.0
 22
0.0
 32
0.0
 14
0.0
 24
0.0
 34
0.0
 15
0.0
 25
0.0
 35
0.0
146
0.0
 13
0.0
 23
0.0
 33
0.0
 16
1.0
 26
0.0
 36
0.0
 17
0.0
 27
1.0
 37
0.0
 76
     0
330
23
  0
MATERIAL
  5
B0EF
102
{ACAD_REACTORS
330
A91C
102
}
102
{ACAD_XDICTIONARY
360
53390
102
}
330
A91C
100
AcDbMaterial
  1
ByBlock
  0
MATERIAL
  5
B0EE
102
{ACAD_REACTORS
330
A91C
102
}
102
{ACAD_XDICTIONARY
360
53392
102
}
330
A91C
100
AcDbMaterial
  1
ByLayer
  0
MATERIAL
  5
B0F0
102
{ACAD_REACTORS
330
A91C
102
}
102
{ACAD_XDICTIONARY
360
53394
102
}
330
A91C
100
AcDbMaterial
  1
Global
  0
MLEADERSTYLE
  5
53337
102
{ACAD_REACTORS
330
53313
102
}
102
{ACAD_XDICTIONARY
360
533CA
102
}
330
53313
100
AcDbMLeaderStyle
170
     2
171
     1
172
     0
 90
        2
 40
0.0
 41
0.0
173
     1
 91
-1056964608
340
15
 92
       -2
290
     1
 42
2.0
291
     1
 43
8.0
  3
Standard
341
0
 44
4.0
300

342
11
174
     1
178
     6
175
     1
176
     0
 93
-1056964608
 45
4.0
292
     0
297
     0
 46
4.0
343
0
 94
-1056964608
 47
1.0
 49
1.0
140
1.0
293
     1
141
0.0
294
     1
177
     0
142
1.0
295
     0
296
     0
143
3.75
1001
ACAD_MLEADERVER
1070
     2
  0
MLINESTYLE
  5
18
102
{ACAD_REACTORS
330
17
102
}
330
17
100
AcDbMlineStyle
  2
STANDARD
 70
     0
  3

 62
   256
 51
90.0
 52
90.0
 71
     2
 49
0.5
 62
   256
  6
BYLAYER
 49
-0.5
 62
   256
  6
BYLAYER
  0
ACDBPLACEHOLDER
  5
F
102
{ACAD_REACTORS
330
E
102
}
330
E
  0
SCALE
  5
532E0
102
{ACAD_REACTORS
330
532DF
102
}
330
532DF
100
AcDbScale
 70
     0
300
1:1
140
1.0
141
1.0
290
     1
  0
SCALE
  5
532E1
102
{ACAD_REACTORS
330
532DF
102
}
330
532DF
100
AcDbScale
 70
     0
300
1:2
140
1.0
141
2.0
290
     0
  0
SCALE
  5
532E2
102
{ACAD_REACTORS
330
532DF
102
}
330
532DF
100
AcDbScale
 70
     0
300
1:4
140
1.0
141
4.0
290
     0
  0
SCALE
  5
532E3
102
{ACAD_REACTORS
330
532DF
102
}
330
532DF
100
AcDbScale
 70
     0
300
1:5
140
1.0
141
5.0
290
     0
  0
SCALE
  5
532E4
102
{ACAD_REACTORS
330
532DF
102
}
330
532DF
100
AcDbScale
 70
     0
300
1:8
140
1.0
141
8.0
290
     0
  0
SCALE
  5
532E5
102
{ACAD_REACTORS
330
532DF
102
}
330
532DF
100
AcDbScale
 70
     0
300
1:10
140
1.0
141
10.0
290
     0
  0
SCALE
  5
532E6
102
{ACAD_REACTORS
330
532DF
102
}
330
532DF
100
AcDbScale
 70
     0
300
1:16
140
1.0
141
16.0
290
     0
  0
SCALE
  5
532E7
102
{ACAD_REACTORS
330
532DF
102
}
330
532DF
100
AcDbScale
 70
     0
300
1:20
140
1.0
141
20.0
290
     0
  0
SCALE
  5
532E8
102
{ACAD_REACTORS
330
532DF
102
}
330
532DF
100
AcDbScale
 70
     0
300
1:30
140
1.0
141
30.0
290
     0
  0
SCALE
  5
532E9
102
{ACAD_REACTORS
330
532DF
102
}
330
532DF
100
AcDbScale
 70
     0
300
1:40
140
1.0
141
40.0
290
     0
  0
SCALE
  5
532EA
102
{ACAD_REACTORS
330
532DF
102
}
330
532DF
100
AcDbScale
 70
     0
300
1:50
140
1.0
141
50.0
290
     0
  0
SCALE
  5
532EB
102
{ACAD_REACTORS
330
532DF
102
}
330
532DF
100
AcDbScale
 70
     0
300
1:100
140
1.0
141
100.0
290
     0
  0
SCALE
  5
532EC
102
{ACAD_REACTORS
330
532DF
102
}
330
532DF
100
AcDbScale
 70
     0
300
2:1
140
2.0
141
1.0
290
     0
  0
SCALE
  5
532ED
102
{ACAD_REACTORS
330
532DF
102
}
330
532DF
100
AcDbScale
 70
     0
300
4:1
140
4.0
141
1.0
290
     0
  0
SCALE
  5
532EE
102
{ACAD_REACTORS
330
532DF
102
}
330
532DF
100
AcDbScale
 70
     0
300
8:1
140
8.0
141
1.0
290
     0
  0
SCALE
  5
532EF
102
{ACAD_REACTORS
330
532DF
102
}
330
532DF
100
AcDbScale
 70
     0
300
10:1
140
10.0
141
1.0
290
     0
  0
SCALE
  5
532F0
102
{ACAD_REACTORS
330
532DF
102
}
330
532DF
100
AcDbScale
 70
     0
300
100:1
140
100.0
141
1.0
290
     0
  0
TABLESTYLE
  5
AABA
102
{ACAD_REACTORS
330
AAB9
102
}
330
AAB9
100
AcDbTableStyle
  3
Standard
 70
     0
 71
     0
 40
1.5
 41
1.5
280
     0
281
     0
  7
STANDARD
140
4.5
170
     2
 62
     0
 63
   257
283
     0
274
    -2
284
     1
 64
     0
275
    -2
285
     1
 65
     0
276
    -2
286
     1
 66
     0
277
    -2
287
     1
 67
     0
278
    -2
288
     1
 68
     0
279
    -2
289
     1
 69
     0
  7
STANDARD
140
6.0
170
     5
 62
     0
 63
   257
283
     0
274
    -2
284
     1
 64
     0
275
    -2
285
     1
 65
     0
276
    -2
286
     1
 66
     0
277
    -2
287
     1
 67
     0
278
    -2
288
     1
 68
     0
279
    -2
289
     1
 69
     0
  7
STANDARD
140
4.5
170
     5
 62
     0
 63
   257
283
     0
274
    -2
284
     1
 64
     0
275
    -2
285
     1
 65
     0
276
    -2
286
     1
 66
     0
277
    -2
287
     1
 67
     0
278
    -2
288
     1
 68
     0
279
    -2
289
     1
 69
     0
  0
VISUALSTYLE
  5
B0F7
102
{ACAD_REACTORS
330
B0F1
102
}
102
{ACAD_XDICTIONARY
360
53396
102
}
330
B0F1
100
AcDbVisualStyle
  2
2dWireframe
 70
     4
 71
     0
 72
     2
 73
     0
 90
        0
 40
-0.6
 41
-30.0
 62
     5
 63
     7
 74
     1
 91
        4
 64
     7
 65
   257
 75
     1
175
     1
 42
1.0
 92
        0
 66
   257
 43
1.0
 76
     1
 77
     6
 78
     2
 67
     7
 79
     5
170
     0
171
     0
290
     0
174
     0
 93
        1
 44
0.0
173
     0
291
     0
 45
0.0
1001
ACAD
1000
AcDbSavedByObjectVersion
1070
     0
  0
VISUALSTYLE
  5
B0F9
102
{ACAD_REACTORS
330
B0F1
102
}
102
{ACAD_XDICTIONARY
360
53398
102
}
330
B0F1
100
AcDbVisualStyle
  2
3D Hidden
 70
     6
 71
     1
 72
     2
 73
     2
 90
        0
 40
-0.6
 41
-30.0
 62
     5
 63
     7
 74
     2
 91
        2
 64
     7
 65
   257
 75
     2
175
     1
 42
40.0
 92
        0
 66
   257
 43
1.0
 76
     1
 77
     6
 78
     2
 67
     7
 79
     3
170
     0
171
     0
290
     0
174
     0
 93
        1
 44
0.0
173
     0
291
     0
 45
0.0
1001
ACAD
1000
AcDbSavedByObjectVersion
1070
     0
  0
VISUALSTYLE
  5
B0F8
102
{ACAD_REACTORS
330
B0F1
102
}
102
{ACAD_XDICTIONARY
360
5339A
102
}
330
B0F1
100
AcDbVisualStyle
  2
3dWireframe
 70
     5
 71
     0
 72
     2
 73
     0
 90
        0
 40
-0.6
 41
-30.0
 62
     5
 63
     7
 74
     1
 91
        4
 64
     7
 65
   257
 75
     1
175
     1
 42
1.0
 92
        0
 66
   257
 43
1.0
 76
     1
 77
     6
 78
     2
 67
     7
 79
     5
170
     0
171
     0
290
     0
174
     0
 93
        1
 44
0.0
173
     0
291
     0
 45
0.0
1001
ACAD
1000
AcDbSavedByObjectVersion
1070
     0
  0
VISUALSTYLE
  5
B0F6
102
{ACAD_REACTORS
330
B0F1
102
}
102
{ACAD_XDICTIONARY
360
5339C
102
}
330
B0F1
100
AcDbVisualStyle
  2
Basic
 70
     7
 71
     1
 72
     0
 73
     1
 90
        0
 40
-0.6
 41
-30.0
 62
     5
 63
     7
 74
     0
 91
        4
 64
     7
 65
   257
 75
     1
175
     1
 42
1.0
 92
        8
 66
     7
 43
1.0
 76
     1
 77
     6
 78
     2
 67
     7
 79
     5
170
     0
171
     0
290
     0
174
     0
 93
        1
 44
0.0
173
     0
291
     1
 45
0.0
1001
ACAD
1000
AcDbSavedByObjectVersion
1070
     0
  0
VISUALSTYLE
  5
B0FD
102
{ACAD_REACTORS
330
B0F1
102
}
102
{ACAD_XDICTIONARY
360
5339E
102
}
330
B0F1
100
AcDbVisualStyle
  2
Brighten
 70
    12
 71
     2
 72
     2
 73
     0
 90
        0
 40
-0.6
 41
-30.0
 62
     5
 63
     7
 74
     1
 91
        4
 64
     7
 65
   257
 75
     1
175
     1
 42
1.0
 92
        8
 66
     7
 43
1.0
 76
     1
 77
     6
 78
     2
 67
     7
 79
     5
170
     0
171
     0
290
     0
174
     0
 93
        1
 44
50.0
173
     0
291
     1
 45
0.0
1001
ACAD
1000
AcDbSavedByObjectVersion
1070
     0
  0
VISUALSTYLE
  5
B101
102
{ACAD_REACTORS
330
B0F1
102
}
102
{ACAD_XDICTIONARY
360
533A0
102
}
330
B0F1
100
AcDbVisualStyle
  2
ColorChange
 70
    16
 71
     2
 72
     2
 73
     3
 90
        0
 40
-0.6
 41
-30.0
 62
     5
 63
     8
 74
     1
 91
        4
 64
     7
 65
   257
 75
     1
175
     1
 42
1.0
 92
        8
 66
     8
 43
1.0
 76
     1
 77
     6
 78
     2
 67
     7
 79
     5
170
     0
171
     0
290
     0
174
     0
 93
        1
 44
0.0
173
     0
291
     1
 45
0.0
1001
ACAD
1000
AcDbSavedByObjectVersion
1070
     0
  0
VISUALSTYLE
  5
B0FA
102
{ACAD_REACTORS
330
B0F1
102
}
102
{ACAD_XDICTIONARY
360
533A2
102
}
330
B0F1
100
AcDbVisualStyle
  2
Conceptual
 70
     9
 71
     3
 72
     2
 73
     0
 90
        0
 40
-0.6
 41
-30.0
 62
     5
 63
     7
 74
     2
 91
        2
 64
     7
 65
   257
 75
     1
175
     1
 42
40.0
 92
        8
 66
     7
 43
1.0
 76
     1
 77
     6
 78
     2
 67
     7
 79
     3
170
     0
171
     0
290
     0
174
     0
 93
        1
 44
0.0
173
     0
291
     0
 45
0.0
1001
ACAD
1000
AcDbSavedByObjectVersion
1070
     0
  0
VISUALSTYLE
  5
B0FC
102
{ACAD_REACTORS
330
B0F1
102
}
102
{ACAD_XDICTIONARY
360
533A4
102
}
330
B0F1
100
AcDbVisualStyle
  2
Dim
 70
    11
 71
     2
 72
     2
 73
     0
 90
        0
 40
-0.6
 41
-30.0
 62
     5
 63
     7
 74
     1
 91
        4
 64
     7
 65
   257
 75
     1
175
     1
 42
1.0
 92
        8
 66
     7
 43
1.0
 76
     1
 77
     6
 78
     2
 67
     7
 79
     5
170
     0
171
     0
290
     0
174
     0
 93
        1
 44
-50.0
173
     0
291
     1
 45
0.0
1001
ACAD
1000
AcDbSavedByObjectVersion
1070
     0
  0
VISUALSTYLE
  5
532F5
102
{ACAD_REACTORS
330
B0F1
102
}
102
{ACAD_XDICTIONARY
360
533BE
102
}
330
B0F1
100
AcDbVisualStyle
  2
EdgeColorOff
 70
    22
 71
     2
 72
     2
 73
     0
 90
        0
 40
0.6
 41
30.0
 62
     5
 63
     7
 74
     1
 91
        4
 64
     7
 65
   257
 75
     1
175
     1
 42
1.0
 92
        8
 66
     7
 43
1.0
 76
     1
 77
     6
 78
     2
 67
     7
 79
     5
170
     0
171
     0
290
     0
174
     0
 93
        1
 44
0.0
173
     0
291
     1
 45
0.0
1001
ACAD
1000
AcDbSavedByObjectVersion
1070
     0
  0
VISUALSTYLE
  5
B100
102
{ACAD_REACTORS
330
B0F1
102
}
102
{ACAD_XDICTIONARY
360
533A6
102
}
330
B0F1
100
AcDbVisualStyle
  2
Facepattern
 70
    15
 71
     2
 72
     2
 73
     0
 90
        0
 40
-0.6
 41
-30.0
 62
     5
 63
     7
 74
     1
 91
        4
 64
     7
 65
   257
 75
     1
175
     1
 42
1.0
 92
        8
 66
     7
 43
1.0
 76
     1
 77
     6
 78
     2
 67
     7
 79
     5
170
     0
171
     0
290
     0
174
     0
 93
        1
 44
0.0
173
     0
291
     1
 45
0.0
1001
ACAD
1000
AcDbSavedByObjectVersion
1070
     0
  0
VISUALSTYLE
  5
B0F2
102
{ACAD_REACTORS
330
B0F1
102
}
102
{ACAD_XDICTIONARY
360
533A8
102
}
330
B0F1
100
AcDbVisualStyle
  2
Flat
 70
     0
 71
     2
 72
     1
 73
     1
 90
        2
 40
-0.6
 41
30.0
 62
     5
 63
     7
 74
     0
 91
        4
 64
     7
 65
   257
 75
     1
175
     1
 42
1.0
 92
        8
 66
     7
 43
1.0
 76
     1
 77
     6
 78
     2
 67
     7
 79
     5
170
     0
171
     0
290
     0
174
     0
 93
       13
 44
0.0
173
     0
291
     1
 45
0.0
1001
ACAD
1000
AcDbSavedByObjectVersion
1070
     0
  0
VISUALSTYLE
  5
B0F3
102
{ACAD_REACTORS
330
B0F1
102
}
102
{ACAD_XDICTIONARY
360
533AA
102
}
330
B0F1
100
AcDbVisualStyle
  2
FlatWithEdges
 70
     1
 71
     2
 72
     1
 73
     1
 90
        2
 40
-0.6
 41
30.0
 62
     5
 63
     7
 74
     1
 91
        4
 64
     7
 65
   257
 75
     1
175
     1
 42
1.0
 92
        0
 66
   257
 43
1.0
 76
     1
 77
     6
 78
     2
 67
     7
 79
     5
170
     0
171
     0
290
     0
174
     0
 93
       13
 44
0.0
173
     0
291
     1
 45
0.0
1001
ACAD
1000
AcDbSavedByObjectVersion
1070
     0
  0
VISUALSTYLE
  5
B0F4
102
{ACAD_REACTORS
330
B0F1
102
}
102
{ACAD_XDICTIONARY
360
533AC
102
}
330
B0F1
100
AcDbVisualStyle
  2
Gouraud
 70
     2
 71
     2
 72
     2
 73
     1
 90
        2
 40
-0.6
 41
30.0
 62
     5
 63
     7
 74
     0
 91
        4
 64
     7
 65
   257
 75
     1
175
     1
 42
1.0
 92
        0
 66
     7
 43
1.0
 76
     1
 77
     6
 78
     2
 67
     7
 79
     5
170
     0
171
     0
290
     0
174
     0
 93
       13
 44
0.0
173
     0
291
     1
 45
0.0
1001
ACAD
1000
AcDbSavedByObjectVersion
1070
     0
  0
VISUALSTYLE
  5
B0F5
102
{ACAD_REACTORS
330
B0F1
102
}
102
{ACAD_XDICTIONARY
360
533AE
102
}
330
B0F1
100
AcDbVisualStyle
  2
GouraudWithEdges
 70
     3
 71
     2
 72
     2
 73
     1
 90
        2
 40
-0.6
 41
30.0
 62
     5
 63
     7
 74
     1
 91
        4
 64
     7
 65
   257
 75
     1
175
     1
 42
1.0
 92
        0
 66
   257
 43
1.0
 76
     1
 77
     6
 78
     2
 67
     7
 79
     5
170
     0
171
     0
290
     0
174
     0
 93
       13
 44
0.0
173
     0
291
     1
 45
0.0
1001
ACAD
1000
AcDbSavedByObjectVersion
1070
     0
  0
VISUALSTYLE
  5
532F2
102
{ACAD_REACTORS
330
B0F1
102
}
102
{ACAD_XDICTIONARY
360
533B8
102
}
330
B0F1
100
AcDbVisualStyle
  2
Hidden
 70
     6
 71
     1
 72
     2
 73
     2
 90
        0
 40
0.6
 41
30.0
 62
     5
 63
     7
 74
     2
 91
        2
 64
     7
 65
   257
 75
     2
175
     1
 42
40.0
 92
        0
 66
   257
 43
1.0
 76
     1
 77
     6
 78
     2
 67
     7
 79
     3
170
     0
171
     0
290
     0
174
     0
 93
        1
 44
0.0
173
     0
291
     0
 45
0.0
1001
ACAD
1000
AcDbSavedByObjectVersion
1070
     0
  0
VISUALSTYLE
  5
532F3
102
{ACAD_REACTORS
330
B0F1
102
}
102
{ACAD_XDICTIONARY
360
533BA
102
}
330
B0F1
100
AcDbVisualStyle
  2
JitterOff
 70
    20
 71
     2
 72
     2
 73
     0
 90
        0
 40
0.6
 41
30.0
 62
     5
 63
     7
 74
     1
 91
        4
 64
     7
 65
   257
 75
     1
175
     1
 42
1.0
 92
       10
 66
     7
 43
1.0
 76
     1
 77
     6
 78
     2
 67
     7
 79
     5
170
     0
171
     0
290
     0
174
     0
 93
        1
 44
0.0
173
     0
291
     1
 45
0.0
1001
ACAD
1000
AcDbSavedByObjectVersion
1070
     0
  0
VISUALSTYLE
  5
B0FF
102
{ACAD_REACTORS
330
B0F1
102
}
102
{ACAD_XDICTIONARY
360
533B0
102
}
330
B0F1
100
AcDbVisualStyle
  2
Linepattern
 70
    14
 71
     2
 72
     2
 73
     0
 90
        0
 40
-0.6
 41
-30.0
 62
     5
 63
     7
 74
     1
 91
        4
 64
     7
 65
   257
 75
     7
175
     7
 42
1.0
 92
        8
 66
     7
 43
1.0
 76
     1
 77
     6
 78
     2
 67
     7
 79
     5
170
     0
171
     0
290
     0
174
     0
 93
        1
 44
0.0
173
     0
291
     1
 45
0.0
1001
ACAD
1000
AcDbSavedByObjectVersion
1070
     0
  0
VISUALSTYLE
  5
532F4
102
{ACAD_REACTORS
330
B0F1
102
}
102
{ACAD_XDICTIONARY
360
533BC
102
}
330
B0F1
100
AcDbVisualStyle
  2
OverhangOff
 70
    21
 71
     2
 72
     2
 73
     0
 90
        0
 40
0.6
 41
30.0
 62
     5
 63
     7
 74
     1
 91
        4
 64
     7
 65
   257
 75
     1
175
     1
 42
1.0
 92
        9
 66
     7
 43
1.0
 76
     1
 77
     6
 78
     2
 67
     7
 79
     5
170
     0
171
     0
290
     0
174
     0
 93
        1
 44
0.0
173
     0
291
     1
 45
0.0
1001
ACAD
1000
AcDbSavedByObjectVersion
1070
     0
  0
VISUALSTYLE
  5
B0FB
102
{ACAD_REACTORS
330
B0F1
102
}
102
{ACAD_XDICTIONARY
360
533B2
102
}
330
B0F1
100
AcDbVisualStyle
  2
Realistic
 70
     8
 71
     2
 72
     2
 73
     0
 90
        0
 40
-0.6
 41
-30.0
 62
     5
 63
     7
 74
     1
 91
        0
 64
     7
 65
   257
 75
     1
175
     1
 42
1.0
 92
        8
 66
     8
 43
1.0
 76
     1
 77
     6
 78
     2
 67
     7
 79
     5
170
     0
171
     0
290
     0
174
     0
 93
       13
 44
0.0
173
     0
291
     0
 45
0.0
1001
ACAD
1000
AcDbSavedByObjectVersion
1070
     0
  0
VISUALSTYLE
  5
532FA
102
{ACAD_REACTORS
330
B0F1
102
}
102
{ACAD_XDICTIONARY
360
533C8
102
}
330
B0F1
100
AcDbVisualStyle
  2
Shaded
 70
    27
 71
     2
 72
     2
 73
     1
 90
        2
 40
0.6
 41
30.0
 62
     5
 63
     7
 74
     0
 91
        4
 64
     7
 65
   257
 75
     1
175
     1
 42
1.0
 92
        8
 66
   257
 43
1.0
 76
     1
 77
     6
 78
     2
 67
   251
 79
     3
170
     0
171
     0
290
     0
174
     0
 93
        5
 44
0.0
173
     0
291
     0
 45
0.0
1001
ACAD
1000
AcDbSavedByObjectVersion
1070
     0
  0
VISUALSTYLE
  5
532F9
102
{ACAD_REACTORS
330
B0F1
102
}
102
{ACAD_XDICTIONARY
360
533C6
102
}
330
B0F1
100
AcDbVisualStyle
  2
Shaded with edges
 70
    26
 71
     2
 72
     2
 73
     1
 90
        2
 40
0.6
 41
30.0
 62
     5
 63
     7
 74
     1
 91
       10
 64
     7
 65
   257
 75
     2
175
     1
 42
1.0
 92
        8
 66
   257
 43
1.0
 76
     1
 77
     6
 78
     2
 67
     7
 79
     3
170
     0
171
     0
290
     0
174
     0
 93
        5
 44
0.0
173
     0
291
     0
 45
0.0
1001
ACAD
1000
AcDbSavedByObjectVersion
1070
     0
  0
VISUALSTYLE
  5
532F6
102
{ACAD_REACTORS
330
B0F1
102
}
102
{ACAD_XDICTIONARY
360
533C0
102
}
330
B0F1
100
AcDbVisualStyle
  2
Shades of Gray
 70
    23
 71
     2
 72
     2
 73
     3
 90
        0
 40
0.6
 41
30.0
 62
     5
 63
     7
 74
     2
 91
        2
 64
     7
 65
     7
 75
     1
175
     1
 42
40.0
 92
        8
 66
     7
 43
1.0
 76
     1
 77
     6
 78
     2
 67
     7
 79
     3
170
     0
171
     0
290
     0
174
     0
 93
        1
 44
0.0
173
     0
291
     0
 45
0.0
1001
ACAD
1000
AcDbSavedByObjectVersion
1070
     0
  0
VISUALSTYLE
  5
532F7
102
{ACAD_REACTORS
330
B0F1
102
}
102
{ACAD_XDICTIONARY
360
533C2
102
}
330
B0F1
100
AcDbVisualStyle
  2
Sketchy
 70
    24
 71
     1
 72
     2
 73
     2
 90
        0
 40
0.6
 41
30.0
 62
     5
 63
     7
 74
     2
 91
        2
 64
     7
 65
     7
 75
     1
175
     1
 42
40.0
 92
       11
 66
     7
 43
1.0
 76
     1
 77
     6
 78
     2
 67
     7
 79
     6
170
     0
171
     0
290
     0
174
     0
 93
        1
 44
0.0
173
     0
291
     0
 45
0.0
1001
ACAD
1000
AcDbSavedByObjectVersion
1070
     0
  0
VISUALSTYLE
  5
B0FE
102
{ACAD_REACTORS
330
B0F1
102
}
102
{ACAD_XDICTIONARY
360
533B4
102
}
330
B0F1
100
AcDbVisualStyle
  2
Thicken
 70
    13
 71
     2
 72
     2
 73
     0
 90
        0
 40
-0.6
 41
-30.0
 62
     5
 63
     7
 74
     1
 91
        4
 64
     7
 65
   257
 75
     1
175
     1
 42
1.0
 92
       12
 66
     7
 43
1.0
 76
     1
 77
     6
 78
     2
 67
     7
 79
     5
170
     0
171
     0
290
     0
174
     0
 93
        1
 44
0.0
173
     0
291
     1
 45
0.0
1001
ACAD
1000
AcDbSavedByObjectVersion
1070
     0
  0
VISUALSTYLE
  5
532F1
102
{ACAD_REACTORS
330
B0F1
102
}
102
{ACAD_XDICTIONARY
360
533B6
102
}
330
B0F1
100
AcDbVisualStyle
  2
Wireframe
 70
     5
 71
     0
 72
     2
 73
     0
 90
        0
 40
0.6
 41
30.0
 62
     5
 63
     7
 74
     1
 91
        4
 64
     7
 65
   257
 75
     1
175
     1
 42
1.0
 92
        0
 66
   257
 43
1.0
 76
     1
 77
     6
 78
     2
 67
     7
 79
     5
170
     0
171
     0
290
     0
174
     0
 93
        1
 44
0.0
173
     0
291
     0
 45
0.0
1001
ACAD
1000
AcDbSavedByObjectVersion
1070
     0
  0
VISUALSTYLE
  5
532F8
102
{ACAD_REACTORS
330
B0F1
102
}
102
{ACAD_XDICTIONARY
360
533C4
102
}
330
B0F1
100
AcDbVisualStyle
  2
X-Ray
 70
    25
 71
     2
 72
     2
 73
     1
 90
        1
 40
0.5
 41
30.0
 62
     5
 63
     7
 74
     1
 91
        0
 64
     7
 65
   257
 75
     1
175
     1
 42
1.0
 92
        8
 66
     7
 43
1.0
 76
     1
 77
     6
 78
     2
 67
     7
 79
     3
170
     0
171
     0
290
     0
174
     0
 93
       13
 44
0.0
173
     0
291
     0
 45
0.0
1001
ACAD
1000
AcDbSavedByObjectVersion
1070
     0
  0
XRECORD
  5
53389
102
{ACAD_REACTORS
330
53388
102
}
330
53388
100
AcDbXrecord
280
     1
340
A91D
  0
XRECORD
  5
5338A
102
{ACAD_REACTORS
330
53388
102
}
330
53388
100
AcDbXrecord
280
     1
340
A91C
  0
DICTIONARYVAR
  5
5333B
102
{ACAD_REACTORS
330
34
102
}
330
34
100
DictionaryVariables
280
     0
  1
1:1
  0
DICTIONARYVAR
  5
5333C
102
{ACAD_REACTORS
330
34
102
}
330
34
100
DictionaryVariables
280
     0
  1
Standard
  0
DICTIONARYVAR
  5
AAF3
102
{ACAD_REACTORS
330
34
102
}
330
34
100
DictionaryVariables
280
     0
  1
Standard
  0
DICTIONARYVAR
  5
A10C
102
{ACAD_REACTORS
330
34
102
}
330
34
100
DictionaryVariables
280
     0
  1
1
  0
DICTIONARYVAR
  5
AB07
102
{ACAD_REACTORS
330
34
102
}
330
34
100
DictionaryVariables
280
     0
  1
4
  0
DICTIONARYVAR
  5
5333E
102
{ACAD_REACTORS
330
34
102
}
330
34
100
DictionaryVariables
280
     0
  1
0
  0
DICTIONARYVAR
  5
EB56
102
{ACAD_REACTORS
330
34
102
}
330
34
100
DictionaryVariables
280
     0
  1
0.000000;0.000000
  0
DICTIONARYVAR
  5
35
102
{ACAD_REACTORS
330
34
102
}
330
34
100
DictionaryVariables
280
     0
  1
0
  0
DICTIONARYVAR
  5
5333D
102
{ACAD_REACTORS
330
34
102
}
330
34
100
DictionaryVariables
280
     0
  1
0
  0
DICTIONARYVAR
  5
194C
102
{ACAD_REACTORS
330
34
102
}
330
34
100
DictionaryVariables
280
     0
  1
127
  0
DICTIONARYVAR
  5
5333F
102
{ACAD_REACTORS
330
34
102
}
330
34
100
DictionaryVariables
280
     0
  1
0
  0
XRECORD
  5
B332
102
{ACAD_REACTORS
330
B331
102
}
330
B331
100
AcDbXrecord
280
     1
  0
DICTIONARY
  5
2C
102
{ACAD_REACTORS
330
2B
102
}
330
2B
100
AcDbDictionary
281
     1
  3
DWGSETTINGS
350
2D
  3
FEM
350
88
  3
Shaft
350
87
  3
TRANSSETTINGS
350
2E
  0
AMGOBJPROPCFG
  5
4E
102
{ACAD_REACTORS
330
2B
102
}
330
2B
  0
AMDTSYSATTR
  5
53339
102
{ACAD_REACTORS
330
53338
102
}
330
53338
  0
AMDTSYSATTR
  5
5333A
102
{ACAD_REACTORS
330
53338
102
}
330
53338
  0
AMDTSYSATTR
  5
53386
102
{ACAD_REACTORS
330
53385
102
}
330
53385
  0
AMDTSYSATTR
  5
53387
102
{ACAD_REACTORS
330
53385
102
}
330
53385
  0
XRECORD
  5
3FB7
102
{ACAD_REACTORS
330
3F96
102
}
330
3F96
100
AcDbXrecord
280
     1
 91
        3
330
0
 90
        8
 62
     7
370
    40
331
16
  1
Color_7
330
0
 90
        0
 62
    14
370
    -3
331
16
  1
Color_14
330
0
 90
        8
 62
     7
370
    20
331
16
  1
Color_7
330
6D1
 90
        0
 62
     7
370
    -3
331
16
  1
Color_7
330
0
 90
        8
 62
     7
370
    50
331
16
  1
Color_7
330
0
 90
        8
 62
     2
370
    35
331
16
  1
Color_2
330
0
 90
        8
 62
     7
370
    -3
331
16
  1
Color_7
330
10
 90
        8
 62
     7
370
    -3
331
16
  1
Color_7
  0
DICTIONARY
  5
5338E
330
22
100
AcDbDictionary
280
     1
281
     1
  3
ACAD_XREC_ROUNDTRIP
360
5338F
  0
DICTIONARY
  5
53390
330
B0EF
100
AcDbDictionary
280
     1
281
     1
  3
ACAD_XREC_ROUNDTRIP
360
53391
  0
DICTIONARY
  5
53392
330
B0EE
100
AcDbDictionary
280
     1
281
     1
  3
ACAD_XREC_ROUNDTRIP
360
53393
  0
DICTIONARY
  5
53394
330
B0F0
100
AcDbDictionary
280
     1
281
     1
  3
ACAD_XREC_ROUNDTRIP
360
53395
  0
DICTIONARY
  5
533CA
330
53337
100
AcDbDictionary
280
     1
281
     1
  3
ACAD_XREC_ROUNDTRIP
360
533CB
  0
DICTIONARY
  5
53396
330
B0F7
100
AcDbDictionary
280
     1
281
     1
  3
ACAD_XREC_ROUNDTRIP
360
53397
  0
DICTIONARY
  5
53398
330
B0F9
100
AcDbDictionary
280
     1
281
     1
  3
ACAD_XREC_ROUNDTRIP
360
53399
  0
DICTIONARY
  5
5339A
330
B0F8
100
AcDbDictionary
280
     1
281
     1
  3
ACAD_XREC_ROUNDTRIP
360
5339B
  0
DICTIONARY
  5
5339C
330
B0F6
100
AcDbDictionary
280
     1
281
     1
  3
ACAD_XREC_ROUNDTRIP
360
5339D
  0
DICTIONARY
  5
5339E
330
B0FD
100
AcDbDictionary
280
     1
281
     1
  3
ACAD_XREC_ROUNDTRIP
360
5339F
  0
DICTIONARY
  5
533A0
330
B101
100
AcDbDictionary
280
     1
281
     1
  3
ACAD_XREC_ROUNDTRIP
360
533A1
  0
DICTIONARY
  5
533A2
330
B0FA
100
AcDbDictionary
280
     1
281
     1
  3
ACAD_XREC_ROUNDTRIP
360
533A3
  0
DICTIONARY
  5
533A4
330
B0FC
100
AcDbDictionary
280
     1
281
     1
  3
ACAD_XREC_ROUNDTRIP
360
533A5
  0
DICTIONARY
  5
533BE
330
532F5
100
AcDbDictionary
280
     1
281
     1
  3
ACAD_XREC_ROUNDTRIP
360
533BF
  0
DICTIONARY
  5
533A6
330
B100
100
AcDbDictionary
280
     1
281
     1
  3
ACAD_XREC_ROUNDTRIP
360
533A7
  0
DICTIONARY
  5
533A8
330
B0F2
100
AcDbDictionary
280
     1
281
     1
  3
ACAD_XREC_ROUNDTRIP
360
533A9
  0
DICTIONARY
  5
533AA
330
B0F3
100
AcDbDictionary
280
     1
281
     1
  3
ACAD_XREC_ROUNDTRIP
360
533AB
  0
DICTIONARY
  5
533AC
330
B0F4
100
AcDbDictionary
280
     1
281
     1
  3
ACAD_XREC_ROUNDTRIP
360
533AD
  0
DICTIONARY
  5
533AE
330
B0F5
100
AcDbDictionary
280
     1
281
     1
  3
ACAD_XREC_ROUNDTRIP
360
533AF
  0
DICTIONARY
  5
533B8
330
532F2
100
AcDbDictionary
280
     1
281
     1
  3
ACAD_XREC_ROUNDTRIP
360
533B9
  0
DICTIONARY
  5
533BA
330
532F3
100
AcDbDictionary
280
     1
281
     1
  3
ACAD_XREC_ROUNDTRIP
360
533BB
  0
DICTIONARY
  5
533B0
330
B0FF
100
AcDbDictionary
280
     1
281
     1
  3
ACAD_XREC_ROUNDTRIP
360
533B1
  0
DICTIONARY
  5
533BC
330
532F4
100
AcDbDictionary
280
     1
281
     1
  3
ACAD_XREC_ROUNDTRIP
360
533BD
  0
DICTIONARY
  5
533B2
330
B0FB
100
AcDbDictionary
280
     1
281
     1
  3
ACAD_XREC_ROUNDTRIP
360
533B3
  0
DICTIONARY
  5
533C8
330
532FA
100
AcDbDictionary
280
     1
281
     1
  3
ACAD_XREC_ROUNDTRIP
360
533C9
  0
DICTIONARY
  5
533C6
330
532F9
100
AcDbDictionary
280
     1
281
     1
  3
ACAD_XREC_ROUNDTRIP
360
533C7
  0
DICTIONARY
  5
533C0
330
532F6
100
AcDbDictionary
280
     1
281
     1
  3
ACAD_XREC_ROUNDTRIP
360
533C1
  0
DICTIONARY
  5
533C2
330
532F7
100
AcDbDictionary
280
     1
281
     1
  3
ACAD_XREC_ROUNDTRIP
360
533C3
  0
DICTIONARY
  5
533B4
330
B0FE
100
AcDbDictionary
280
     1
281
     1
  3
ACAD_XREC_ROUNDTRIP
360
533B5
  0
DICTIONARY
  5
533B6
330
532F1
100
AcDbDictionary
280
     1
281
     1
  3
ACAD_XREC_ROUNDTRIP
360
533B7
  0
DICTIONARY
  5
533C4
330
532F8
100
AcDbDictionary
280
     1
281
     1
  3
ACAD_XREC_ROUNDTRIP
360
533C5
  0
AMGSETTINGSOBJ
  5
2D
102
{ACAD_REACTORS
330
2C
102
}
330
2C
  0
AMGSETTINGSOBJ
  5
88
102
{ACAD_REACTORS
330
2C
102
}
330
2C
  0
AMGSETTINGSOBJ
  5
87
102
{ACAD_REACTORS
330
2C
102
}
330
2C
  0
AMGSETTINGSOBJ
  5
2E
102
{ACAD_REACTORS
330
2C
102
}
330
2C
  0
XRECORD
  5
5338F
102
{ACAD_REACTORS
330
5338E
102
}
330
5338E
100
AcDbXrecord
280
     1
102
SHADEPLOT
 70
     1
102
SHADEPLOTRESLEVEL
 70
     2
102
SHADEPLOTCUSTOMDPI
 70
   300
  0
XRECORD
  5
53391
102
{ACAD_REACTORS
330
53390
102
}
330
53390
100
AcDbXrecord
280
     1
102
MATERIAL
148
0.0
149
0.0
149
0.0
 93
        0
 94
       63
282
     0
 72
     1
 77
     1
171
     1
175
     1
179
     1
273
     0
  0
XRECORD
  5
53393
102
{ACAD_REACTORS
330
53392
102
}
330
53392
100
AcDbXrecord
280
     1
102
MATERIAL
148
0.0
149
0.0
149
0.0
 93
        0
 94
       63
282
     0
 72
     1
 77
     1
171
     1
175
     1
179
     1
273
     0
  0
XRECORD
  5
53395
102
{ACAD_REACTORS
330
53394
102
}
330
53394
100
AcDbXrecord
280
     1
102
MATERIAL
148
0.0
149
0.0
149
0.0
 93
        0
 94
       63
282
     0
 72
     1
 77
     1
171
     1
175
     1
179
     1
273
     0
  0
XRECORD
  5
533CB
102
{ACAD_REACTORS
330
533CA
102
}
330
533CA
100
AcDbXrecord
280
     1
102
ACAD_ROUNDTRIP_2010_MLEADER_STYLE
  0
XRECORD
  5
53397
102
{ACAD_REACTORS
330
53396
102
}
330
53396
100
AcDbXrecord
280
     1
102
RTVSPropertyOp0
 70
     1
102
RTVSPropertyOp1
 70
     1
102
RTVSPropertyOp2
 70
     1
102
RTVSPropertyOp3
 70
     1
102
RTVSPropertyOp4
 70
     1
102
RTVSPropertyOp5
 70
     1
102
RTVSPropertyOp6
 70
     1
102
RTVSPropertyOp7
 70
     1
102
RTVSPropertyOp8
 70
     1
102
RTVSPropertyOp9
 70
     1
102
RTVSPropertyOp10
 70
     1
102
RTVSPropertyOp11
 70
     1
102
RTVSPropertyOp12
 70
     1
102
RTVSPropertyOp13
 70
     1
102
RTVSPropertyOp14
 70
     1
102
RTVSPropertyOp15
 70
     1
102
RTVSPropertyOp16
 70
     1
102
RTVSPropertyOp17
 70
     1
102
RTVSPropertyOp18
 70
     1
102
RTVSPropertyOp19
 70
     1
102
RTVSPropertyOp20
 70
     1
102
RTVSPropertyOp21
 70
     1
102
RTVSPropertyOp22
 70
     1
102
RTVSPropertyOp23
 70
     1
102
RTVSPropertyOp24
 70
     1
102
RTVSPropertyOp25
 70
     1
102
RTVSPropertyOp26
 70
     1
102
RTVSPropertyOp27
 70
     1
102
RTVSPropertyOp28
 70
     1
102
RTVSPropertyOp29
 70
     1
102
RTVSPropertyOp30
 70
     1
102
RTVSPropertyOp31
 70
     1
102
RTVSPropertyOp32
 70
     1
102
RTVSPropertyOp33
 70
     1
102
RTVSPropertyOp34
 70
     1
102
RTVSPropertyOp35
 70
     1
102
RTVSPropertyOp36
 70
     1
102
RTVSPropertyOp37
 70
     1
102
RTVSPropertyOp38
 70
     1
102
RTVSPropertyOp39
 70
     1
102
RTVSPropertyOp40
 70
     1
102
RTVSPropertyOp41
 70
     1
102
RTVSPropertyOp42
 70
     1
102
RTVSPropertyOp43
 70
     1
102
RTVSPropertyOp44
 70
     1
102
RTVSPropertyOp45
 70
     1
102
RTVSPropertyOp46
 70
     1
102
RTVSPropertyOp47
 70
     1
102
RTVSPropertyOp48
 70
     1
102
RTVSPropertyOp49
 70
     1
102
RTVSPropertyOp50
 70
     1
102
RTVSPropertyOp51
 70
     0
102
RTVSPropertyOp52
 70
     0
102
RTVSPropertyOp53
 70
     1
102
RTVSPropertyOp54
 70
     1
102
RTVSPropertyOp55
 70
     1
102
RTVSPropertyOp56
 70
     1
102
RTVSPropertyOp57
 70
     1
102
RTVSPost2010Prop28
280
     1
102
RTVSPost2010PropOp28
 70
     1
102
RTVSPost2010Prop29
280
     1
102
RTVSPost2010PropOp29
 70
     1
102
RTVSPost2010Prop30
280
     0
102
RTVSPost2010PropOp30
 70
     1
102
RTVSPost2010Prop31
280
     0
102
RTVSPost2010PropOp31
 70
     1
102
RTVSPost2010Prop32
280
     0
102
RTVSPost2010PropOp32
 70
     1
102
RTVSPost2010Prop33
280
     0
102
RTVSPost2010PropOp33
 70
     1
102
RTVSPost2010Prop34
280
     0
102
RTVSPost2010PropOp34
 70
     1
102
RTVSPost2010Prop35
280
     0
102
RTVSPost2010PropOp35
 70
     1
102
RTVSPost2010Prop36
280
     0
102
RTVSPost2010PropOp36
 70
     1
102
RTVSPost2010Prop37
 90
       50
102
RTVSPost2010PropOp37
 70
     1
102
RTVSPost2010Prop38
140
0.0
102
RTVSPost2010PropOp38
 70
     1
102
RTVSPost2010Prop39
140
1.0
102
RTVSPost2010PropOp39
 70
     1
102
RTVSPost2010Prop40
 90
        0
102
RTVSPost2010PropOp40
 70
     1
102
RTVSPost2010Prop41ColorIndex
 90
       18
102
RTVSPost2010Prop41ColorRGB
 90
        0
102
RTVSPost2010PropOp41
 70
     1
102
RTVSPost2010Prop42
 90
       50
102
RTVSPost2010PropOp42
 70
     1
102
RTVSPost2010Prop43
 90
        3
102
RTVSPost2010PropOp43
 70
     1
102
RTVSPost2010Prop44ColorIndex
 90
        5
102
RTVSPost2010Prop44ColorRGB
 90
      255
102
RTVSPost2010PropOp44
 70
     1
102
RTVSPost2010Prop45
280
     0
102
RTVSPost2010PropOp45
 70
     1
102
RTVSPost2010Prop46
 90
       50
102
RTVSPost2010PropOp46
 70
     1
102
RTVSPost2010Prop47
 90
       50
102
RTVSPost2010PropOp47
 70
     1
102
RTVSPost2010Prop48
 90
       50
102
RTVSPost2010PropOp48
 70
     1
102
RTVSPost2010Prop49
280
     0
102
RTVSPost2010PropOp49
 70
     1
102
RTVSPost2010Prop50
 90
       50
102
RTVSPost2010PropOp50
 70
     1
102
RTVSPost2010Prop51ColorIndex
 90
      256
102
RTVSPost2010Prop51ColorRGB
 90
-16777216
102
RTVSPost2010PropOp51
 70
     0
102
RTVSPost2010Prop52
140
1.0
102
RTVSPost2010PropOp52
 70
     0
102
RTVSPost2010Prop53
 90
        2
102
RTVSPost2010PropOp53
 70
     1
102
RTVSPost2010Prop54
  1
strokes_ogs.tif
102
RTVSPost2010PropOp54
 70
     1
102
RTVSPost2010Prop55
280
     0
102
RTVSPost2010PropOp55
 70
     1
102
RTVSPost2010Prop56
140
1.0
102
RTVSPost2010PropOp56
 70
     1
102
RTVSPost2010Prop57
140
1.0
102
RTVSPost2010PropOp57
 70
     1
  0
XRECORD
  5
53399
102
{ACAD_REACTORS
330
53398
102
}
330
53398
100
AcDbXrecord
280
     1
102
RTVSPropertyOp0
 70
     1
102
RTVSPropertyOp1
 70
     1
102
RTVSPropertyOp2
 70
     1
102
RTVSPropertyOp3
 70
     1
102
RTVSPropertyOp4
 70
     1
102
RTVSPropertyOp5
 70
     1
102
RTVSPropertyOp6
 70
     1
102
RTVSPropertyOp7
 70
     1
102
RTVSPropertyOp8
 70
     1
102
RTVSPropertyOp9
 70
     1
102
RTVSPropertyOp10
 70
     1
102
RTVSPropertyOp11
 70
     1
102
RTVSPropertyOp12
 70
     1
102
RTVSPropertyOp13
 70
     1
102
RTVSPropertyOp14
 70
     1
102
RTVSPropertyOp15
 70
     1
102
RTVSPropertyOp16
 70
     1
102
RTVSPropertyOp17
 70
     1
102
RTVSPropertyOp18
 70
     1
102
RTVSPropertyOp19
 70
     1
102
RTVSPropertyOp20
 70
     1
102
RTVSPropertyOp21
 70
     1
102
RTVSPropertyOp22
 70
     1
102
RTVSPropertyOp23
 70
     1
102
RTVSPropertyOp24
 70
     1
102
RTVSPropertyOp25
 70
     1
102
RTVSPropertyOp26
 70
     1
102
RTVSPropertyOp27
 70
     1
102
RTVSPropertyOp28
 70
     1
102
RTVSPropertyOp29
 70
     1
102
RTVSPropertyOp30
 70
     1
102
RTVSPropertyOp31
 70
     1
102
RTVSPropertyOp32
 70
     1
102
RTVSPropertyOp33
 70
     1
102
RTVSPropertyOp34
 70
     1
102
RTVSPropertyOp35
 70
     1
102
RTVSPropertyOp36
 70
     1
102
RTVSPropertyOp37
 70
     1
102
RTVSPropertyOp38
 70
     1
102
RTVSPropertyOp39
 70
     1
102
RTVSPropertyOp40
 70
     1
102
RTVSPropertyOp41
 70
     1
102
RTVSPropertyOp42
 70
     1
102
RTVSPropertyOp43
 70
     1
102
RTVSPropertyOp44
 70
     1
102
RTVSPropertyOp45
 70
     1
102
RTVSPropertyOp46
 70
     1
102
RTVSPropertyOp47
 70
     1
102
RTVSPropertyOp48
 70
     1
102
RTVSPropertyOp49
 70
     1
102
RTVSPropertyOp50
 70
     1
102
RTVSPropertyOp51
 70
     0
102
RTVSPropertyOp52
 70
     0
102
RTVSPropertyOp53
 70
     1
102
RTVSPropertyOp54
 70
     1
102
RTVSPropertyOp55
 70
     1
102
RTVSPropertyOp56
 70
     1
102
RTVSPropertyOp57
 70
     1
102
RTVSPost2010Prop28
280
     0
102
RTVSPost2010PropOp28
 70
     1
102
RTVSPost2010Prop29
280
     1
102
RTVSPost2010PropOp29
 70
     1
102
RTVSPost2010Prop30
280
     1
102
RTVSPost2010PropOp30
 70
     1
102
RTVSPost2010Prop31
280
     0
102
RTVSPost2010PropOp31
 70
     1
102
RTVSPost2010Prop32
280
     0
102
RTVSPost2010PropOp32
 70
     1
102
RTVSPost2010Prop33
280
     0
102
RTVSPost2010PropOp33
 70
     1
102
RTVSPost2010Prop34
280
     0
102
RTVSPost2010PropOp34
 70
     1
102
RTVSPost2010Prop35
280
     0
102
RTVSPost2010PropOp35
 70
     1
102
RTVSPost2010Prop36
280
     0
102
RTVSPost2010PropOp36
 70
     1
102
RTVSPost2010Prop37
 90
       50
102
RTVSPost2010PropOp37
 70
     1
102
RTVSPost2010Prop38
140
0.0
102
RTVSPost2010PropOp38
 70
     1
102
RTVSPost2010Prop39
140
1.0
102
RTVSPost2010PropOp39
 70
     1
102
RTVSPost2010Prop40
 90
        0
102
RTVSPost2010PropOp40
 70
     1
102
RTVSPost2010Prop41ColorIndex
 90
       18
102
RTVSPost2010Prop41ColorRGB
 90
        0
102
RTVSPost2010PropOp41
 70
     1
102
RTVSPost2010Prop42
 90
       50
102
RTVSPost2010PropOp42
 70
     1
102
RTVSPost2010Prop43
 90
        3
102
RTVSPost2010PropOp43
 70
     1
102
RTVSPost2010Prop44ColorIndex
 90
        5
102
RTVSPost2010Prop44ColorRGB
 90
      255
102
RTVSPost2010PropOp44
 70
     1
102
RTVSPost2010Prop45
280
     0
102
RTVSPost2010PropOp45
 70
     1
102
RTVSPost2010Prop46
 90
       50
102
RTVSPost2010PropOp46
 70
     1
102
RTVSPost2010Prop47
 90
       50
102
RTVSPost2010PropOp47
 70
     1
102
RTVSPost2010Prop48
 90
       50
102
RTVSPost2010PropOp48
 70
     1
102
RTVSPost2010Prop49
280
     0
102
RTVSPost2010PropOp49
 70
     1
102
RTVSPost2010Prop50
 90
       50
102
RTVSPost2010PropOp50
 70
     1
102
RTVSPost2010Prop51ColorIndex
 90
      256
102
RTVSPost2010Prop51ColorRGB
 90
-16777216
102
RTVSPost2010PropOp51
 70
     0
102
RTVSPost2010Prop52
140
1.0
102
RTVSPost2010PropOp52
 70
     0
102
RTVSPost2010Prop53
 90
        2
102
RTVSPost2010PropOp53
 70
     1
102
RTVSPost2010Prop54
  1
strokes_ogs.tif
102
RTVSPost2010PropOp54
 70
     1
102
RTVSPost2010Prop55
280
     0
102
RTVSPost2010PropOp55
 70
     1
102
RTVSPost2010Prop56
140
1.0
102
RTVSPost2010PropOp56
 70
     1
102
RTVSPost2010Prop57
140
1.0
102
RTVSPost2010PropOp57
 70
     1
  0
XRECORD
  5
5339B
102
{ACAD_REACTORS
330
5339A
102
}
330
5339A
100
AcDbXrecord
280
     1
102
RTVSPropertyOp0
 70
     1
102
RTVSPropertyOp1
 70
     1
102
RTVSPropertyOp2
 70
     1
102
RTVSPropertyOp3
 70
     1
102
RTVSPropertyOp4
 70
     1
102
RTVSPropertyOp5
 70
     1
102
RTVSPropertyOp6
 70
     1
102
RTVSPropertyOp7
 70
     1
102
RTVSPropertyOp8
 70
     1
102
RTVSPropertyOp9
 70
     1
102
RTVSPropertyOp10
 70
     1
102
RTVSPropertyOp11
 70
     1
102
RTVSPropertyOp12
 70
     1
102
RTVSPropertyOp13
 70
     1
102
RTVSPropertyOp14
 70
     1
102
RTVSPropertyOp15
 70
     1
102
RTVSPropertyOp16
 70
     1
102
RTVSPropertyOp17
 70
     1
102
RTVSPropertyOp18
 70
     1
102
RTVSPropertyOp19
 70
     1
102
RTVSPropertyOp20
 70
     1
102
RTVSPropertyOp21
 70
     1
102
RTVSPropertyOp22
 70
     1
102
RTVSPropertyOp23
 70
     1
102
RTVSPropertyOp24
 70
     1
102
RTVSPropertyOp25
 70
     1
102
RTVSPropertyOp26
 70
     1
102
RTVSPropertyOp27
 70
     1
102
RTVSPropertyOp28
 70
     1
102
RTVSPropertyOp29
 70
     1
102
RTVSPropertyOp30
 70
     1
102
RTVSPropertyOp31
 70
     1
102
RTVSPropertyOp32
 70
     1
102
RTVSPropertyOp33
 70
     1
102
RTVSPropertyOp34
 70
     1
102
RTVSPropertyOp35
 70
     1
102
RTVSPropertyOp36
 70
     1
102
RTVSPropertyOp37
 70
     1
102
RTVSPropertyOp38
 70
     1
102
RTVSPropertyOp39
 70
     1
102
RTVSPropertyOp40
 70
     1
102
RTVSPropertyOp41
 70
     1
102
RTVSPropertyOp42
 70
     1
102
RTVSPropertyOp43
 70
     1
102
RTVSPropertyOp44
 70
     1
102
RTVSPropertyOp45
 70
     1
102
RTVSPropertyOp46
 70
     1
102
RTVSPropertyOp47
 70
     1
102
RTVSPropertyOp48
 70
     1
102
RTVSPropertyOp49
 70
     1
102
RTVSPropertyOp50
 70
     1
102
RTVSPropertyOp51
 70
     0
102
RTVSPropertyOp52
 70
     0
102
RTVSPropertyOp53
 70
     1
102
RTVSPropertyOp54
 70
     1
102
RTVSPropertyOp55
 70
     1
102
RTVSPropertyOp56
 70
     1
102
RTVSPropertyOp57
 70
     1
102
RTVSPost2010Prop28
280
     0
102
RTVSPost2010PropOp28
 70
     1
102
RTVSPost2010Prop29
280
     1
102
RTVSPost2010PropOp29
 70
     1
102
RTVSPost2010Prop30
280
     1
102
RTVSPost2010PropOp30
 70
     1
102
RTVSPost2010Prop31
280
     0
102
RTVSPost2010PropOp31
 70
     1
102
RTVSPost2010Prop32
280
     0
102
RTVSPost2010PropOp32
 70
     1
102
RTVSPost2010Prop33
280
     0
102
RTVSPost2010PropOp33
 70
     1
102
RTVSPost2010Prop34
280
     0
102
RTVSPost2010PropOp34
 70
     1
102
RTVSPost2010Prop35
280
     0
102
RTVSPost2010PropOp35
 70
     1
102
RTVSPost2010Prop36
280
     0
102
RTVSPost2010PropOp36
 70
     1
102
RTVSPost2010Prop37
 90
       50
102
RTVSPost2010PropOp37
 70
     1
102
RTVSPost2010Prop38
140
0.0
102
RTVSPost2010PropOp38
 70
     1
102
RTVSPost2010Prop39
140
1.0
102
RTVSPost2010PropOp39
 70
     1
102
RTVSPost2010Prop40
 90
        0
102
RTVSPost2010PropOp40
 70
     1
102
RTVSPost2010Prop41ColorIndex
 90
       18
102
RTVSPost2010Prop41ColorRGB
 90
        0
102
RTVSPost2010PropOp41
 70
     1
102
RTVSPost2010Prop42
 90
       50
102
RTVSPost2010PropOp42
 70
     1
102
RTVSPost2010Prop43
 90
        3
102
RTVSPost2010PropOp43
 70
     1
102
RTVSPost2010Prop44ColorIndex
 90
        5
102
RTVSPost2010Prop44ColorRGB
 90
      255
102
RTVSPost2010PropOp44
 70
     1
102
RTVSPost2010Prop45
280
     0
102
RTVSPost2010PropOp45
 70
     1
102
RTVSPost2010Prop46
 90
       50
102
RTVSPost2010PropOp46
 70
     1
102
RTVSPost2010Prop47
 90
       50
102
RTVSPost2010PropOp47
 70
     1
102
RTVSPost2010Prop48
 90
       50
102
RTVSPost2010PropOp48
 70
     1
102
RTVSPost2010Prop49
280
     0
102
RTVSPost2010PropOp49
 70
     1
102
RTVSPost2010Prop50
 90
       50
102
RTVSPost2010PropOp50
 70
     1
102
RTVSPost2010Prop51ColorIndex
 90
      256
102
RTVSPost2010Prop51ColorRGB
 90
-16777216
102
RTVSPost2010PropOp51
 70
     0
102
RTVSPost2010Prop52
140
1.0
102
RTVSPost2010PropOp52
 70
     0
102
RTVSPost2010Prop53
 90
        2
102
RTVSPost2010PropOp53
 70
     1
102
RTVSPost2010Prop54
  1
strokes_ogs.tif
102
RTVSPost2010PropOp54
 70
     1
102
RTVSPost2010Prop55
280
     0
102
RTVSPost2010PropOp55
 70
     1
102
RTVSPost2010Prop56
140
1.0
102
RTVSPost2010PropOp56
 70
     1
102
RTVSPost2010Prop57
140
1.0
102
RTVSPost2010PropOp57
 70
     1
  0
XRECORD
  5
5339D
102
{ACAD_REACTORS
330
5339C
102
}
330
5339C
100
AcDbXrecord
280
     1
102
RTVSPropertyOp0
 70
     1
102
RTVSPropertyOp1
 70
     1
102
RTVSPropertyOp2
 70
     1
102
RTVSPropertyOp3
 70
     1
102
RTVSPropertyOp4
 70
     1
102
RTVSPropertyOp5
 70
     1
102
RTVSPropertyOp6
 70
     1
102
RTVSPropertyOp7
 70
     1
102
RTVSPropertyOp8
 70
     1
102
RTVSPropertyOp9
 70
     1
102
RTVSPropertyOp10
 70
     1
102
RTVSPropertyOp11
 70
     1
102
RTVSPropertyOp12
 70
     1
102
RTVSPropertyOp13
 70
     1
102
RTVSPropertyOp14
 70
     1
102
RTVSPropertyOp15
 70
     1
102
RTVSPropertyOp16
 70
     1
102
RTVSPropertyOp17
 70
     1
102
RTVSPropertyOp18
 70
     1
102
RTVSPropertyOp19
 70
     1
102
RTVSPropertyOp20
 70
     1
102
RTVSPropertyOp21
 70
     1
102
RTVSPropertyOp22
 70
     1
102
RTVSPropertyOp23
 70
     1
102
RTVSPropertyOp24
 70
     1
102
RTVSPropertyOp25
 70
     1
102
RTVSPropertyOp26
 70
     1
102
RTVSPropertyOp27
 70
     1
102
RTVSPropertyOp28
 70
     1
102
RTVSPropertyOp29
 70
     1
102
RTVSPropertyOp30
 70
     1
102
RTVSPropertyOp31
 70
     1
102
RTVSPropertyOp32
 70
     1
102
RTVSPropertyOp33
 70
     1
102
RTVSPropertyOp34
 70
     1
102
RTVSPropertyOp35
 70
     1
102
RTVSPropertyOp36
 70
     1
102
RTVSPropertyOp37
 70
     1
102
RTVSPropertyOp38
 70
     1
102
RTVSPropertyOp39
 70
     1
102
RTVSPropertyOp40
 70
     1
102
RTVSPropertyOp41
 70
     1
102
RTVSPropertyOp42
 70
     1
102
RTVSPropertyOp43
 70
     1
102
RTVSPropertyOp44
 70
     1
102
RTVSPropertyOp45
 70
     1
102
RTVSPropertyOp46
 70
     1
102
RTVSPropertyOp47
 70
     1
102
RTVSPropertyOp48
 70
     1
102
RTVSPropertyOp49
 70
     1
102
RTVSPropertyOp50
 70
     1
102
RTVSPropertyOp51
 70
     0
102
RTVSPropertyOp52
 70
     0
102
RTVSPropertyOp53
 70
     1
102
RTVSPropertyOp54
 70
     1
102
RTVSPropertyOp55
 70
     1
102
RTVSPropertyOp56
 70
     1
102
RTVSPropertyOp57
 70
     1
102
RTVSPost2010Prop28
280
     0
102
RTVSPost2010PropOp28
 70
     1
102
RTVSPost2010Prop29
280
     1
102
RTVSPost2010PropOp29
 70
     1
102
RTVSPost2010Prop30
280
     1
102
RTVSPost2010PropOp30
 70
     1
102
RTVSPost2010Prop31
280
     0
102
RTVSPost2010PropOp31
 70
     1
102
RTVSPost2010Prop32
280
     0
102
RTVSPost2010PropOp32
 70
     1
102
RTVSPost2010Prop33
280
     0
102
RTVSPost2010PropOp33
 70
     1
102
RTVSPost2010Prop34
280
     0
102
RTVSPost2010PropOp34
 70
     1
102
RTVSPost2010Prop35
280
     0
102
RTVSPost2010PropOp35
 70
     1
102
RTVSPost2010Prop36
280
     0
102
RTVSPost2010PropOp36
 70
     1
102
RTVSPost2010Prop37
 90
       50
102
RTVSPost2010PropOp37
 70
     1
102
RTVSPost2010Prop38
140
0.0
102
RTVSPost2010PropOp38
 70
     1
102
RTVSPost2010Prop39
140
1.0
102
RTVSPost2010PropOp39
 70
     1
102
RTVSPost2010Prop40
 90
        0
102
RTVSPost2010PropOp40
 70
     1
102
RTVSPost2010Prop41ColorIndex
 90
       18
102
RTVSPost2010Prop41ColorRGB
 90
        0
102
RTVSPost2010PropOp41
 70
     1
102
RTVSPost2010Prop42
 90
       50
102
RTVSPost2010PropOp42
 70
     1
102
RTVSPost2010Prop43
 90
        3
102
RTVSPost2010PropOp43
 70
     1
102
RTVSPost2010Prop44ColorIndex
 90
        5
102
RTVSPost2010Prop44ColorRGB
 90
      255
102
RTVSPost2010PropOp44
 70
     1
102
RTVSPost2010Prop45
280
     0
102
RTVSPost2010PropOp45
 70
     1
102
RTVSPost2010Prop46
 90
       50
102
RTVSPost2010PropOp46
 70
     1
102
RTVSPost2010Prop47
 90
       50
102
RTVSPost2010PropOp47
 70
     1
102
RTVSPost2010Prop48
 90
       50
102
RTVSPost2010PropOp48
 70
     1
102
RTVSPost2010Prop49
280
     0
102
RTVSPost2010PropOp49
 70
     1
102
RTVSPost2010Prop50
 90
       50
102
RTVSPost2010PropOp50
 70
     1
102
RTVSPost2010Prop51ColorIndex
 90
      256
102
RTVSPost2010Prop51ColorRGB
 90
-16777216
102
RTVSPost2010PropOp51
 70
     0
102
RTVSPost2010Prop52
140
1.0
102
RTVSPost2010PropOp52
 70
     0
102
RTVSPost2010Prop53
 90
        2
102
RTVSPost2010PropOp53
 70
     1
102
RTVSPost2010Prop54
  1
strokes_ogs.tif
102
RTVSPost2010PropOp54
 70
     1
102
RTVSPost2010Prop55
280
     0
102
RTVSPost2010PropOp55
 70
     1
102
RTVSPost2010Prop56
140
1.0
102
RTVSPost2010PropOp56
 70
     1
102
RTVSPost2010Prop57
140
1.0
102
RTVSPost2010PropOp57
 70
     1
  0
XRECORD
  5
5339F
102
{ACAD_REACTORS
330
5339E
102
}
330
5339E
100
AcDbXrecord
280
     1
102
RTVSPropertyOp0
 70
     1
102
RTVSPropertyOp1
 70
     1
102
RTVSPropertyOp2
 70
     1
102
RTVSPropertyOp3
 70
     1
102
RTVSPropertyOp4
 70
     1
102
RTVSPropertyOp5
 70
     1
102
RTVSPropertyOp6
 70
     1
102
RTVSPropertyOp7
 70
     1
102
RTVSPropertyOp8
 70
     1
102
RTVSPropertyOp9
 70
     1
102
RTVSPropertyOp10
 70
     1
102
RTVSPropertyOp11
 70
     1
102
RTVSPropertyOp12
 70
     1
102
RTVSPropertyOp13
 70
     1
102
RTVSPropertyOp14
 70
     1
102
RTVSPropertyOp15
 70
     1
102
RTVSPropertyOp16
 70
     1
102
RTVSPropertyOp17
 70
     1
102
RTVSPropertyOp18
 70
     1
102
RTVSPropertyOp19
 70
     1
102
RTVSPropertyOp20
 70
     1
102
RTVSPropertyOp21
 70
     1
102
RTVSPropertyOp22
 70
     1
102
RTVSPropertyOp23
 70
     1
102
RTVSPropertyOp24
 70
     1
102
RTVSPropertyOp25
 70
     1
102
RTVSPropertyOp26
 70
     1
102
RTVSPropertyOp27
 70
     1
102
RTVSPropertyOp28
 70
     1
102
RTVSPropertyOp29
 70
     1
102
RTVSPropertyOp30
 70
     1
102
RTVSPropertyOp31
 70
     1
102
RTVSPropertyOp32
 70
     1
102
RTVSPropertyOp33
 70
     1
102
RTVSPropertyOp34
 70
     1
102
RTVSPropertyOp35
 70
     1
102
RTVSPropertyOp36
 70
     1
102
RTVSPropertyOp37
 70
     1
102
RTVSPropertyOp38
 70
     1
102
RTVSPropertyOp39
 70
     1
102
RTVSPropertyOp40
 70
     1
102
RTVSPropertyOp41
 70
     1
102
RTVSPropertyOp42
 70
     1
102
RTVSPropertyOp43
 70
     1
102
RTVSPropertyOp44
 70
     1
102
RTVSPropertyOp45
 70
     1
102
RTVSPropertyOp46
 70
     1
102
RTVSPropertyOp47
 70
     1
102
RTVSPropertyOp48
 70
     1
102
RTVSPropertyOp49
 70
     1
102
RTVSPropertyOp50
 70
     1
102
RTVSPropertyOp51
 70
     0
102
RTVSPropertyOp52
 70
     0
102
RTVSPropertyOp53
 70
     1
102
RTVSPropertyOp54
 70
     1
102
RTVSPropertyOp55
 70
     1
102
RTVSPropertyOp56
 70
     1
102
RTVSPropertyOp57
 70
     1
102
RTVSPost2010Prop28
280
     0
102
RTVSPost2010PropOp28
 70
     1
102
RTVSPost2010Prop29
280
     1
102
RTVSPost2010PropOp29
 70
     1
102
RTVSPost2010Prop30
280
     1
102
RTVSPost2010PropOp30
 70
     1
102
RTVSPost2010Prop31
280
     0
102
RTVSPost2010PropOp31
 70
     1
102
RTVSPost2010Prop32
280
     0
102
RTVSPost2010PropOp32
 70
     1
102
RTVSPost2010Prop33
280
     0
102
RTVSPost2010PropOp33
 70
     1
102
RTVSPost2010Prop34
280
     0
102
RTVSPost2010PropOp34
 70
     1
102
RTVSPost2010Prop35
280
     0
102
RTVSPost2010PropOp35
 70
     1
102
RTVSPost2010Prop36
280
     0
102
RTVSPost2010PropOp36
 70
     1
102
RTVSPost2010Prop37
 90
       50
102
RTVSPost2010PropOp37
 70
     1
102
RTVSPost2010Prop38
140
0.0
102
RTVSPost2010PropOp38
 70
     1
102
RTVSPost2010Prop39
140
1.0
102
RTVSPost2010PropOp39
 70
     1
102
RTVSPost2010Prop40
 90
        0
102
RTVSPost2010PropOp40
 70
     1
102
RTVSPost2010Prop41ColorIndex
 90
       18
102
RTVSPost2010Prop41ColorRGB
 90
        0
102
RTVSPost2010PropOp41
 70
     1
102
RTVSPost2010Prop42
 90
       50
102
RTVSPost2010PropOp42
 70
     1
102
RTVSPost2010Prop43
 90
        3
102
RTVSPost2010PropOp43
 70
     1
102
RTVSPost2010Prop44ColorIndex
 90
        5
102
RTVSPost2010Prop44ColorRGB
 90
      255
102
RTVSPost2010PropOp44
 70
     1
102
RTVSPost2010Prop45
280
     0
102
RTVSPost2010PropOp45
 70
     1
102
RTVSPost2010Prop46
 90
       50
102
RTVSPost2010PropOp46
 70
     1
102
RTVSPost2010Prop47
 90
       50
102
RTVSPost2010PropOp47
 70
     1
102
RTVSPost2010Prop48
 90
       50
102
RTVSPost2010PropOp48
 70
     1
102
RTVSPost2010Prop49
280
     0
102
RTVSPost2010PropOp49
 70
     1
102
RTVSPost2010Prop50
 90
       50
102
RTVSPost2010PropOp50
 70
     1
102
RTVSPost2010Prop51ColorIndex
 90
      256
102
RTVSPost2010Prop51ColorRGB
 90
-16777216
102
RTVSPost2010PropOp51
 70
     0
102
RTVSPost2010Prop52
140
1.0
102
RTVSPost2010PropOp52
 70
     0
102
RTVSPost2010Prop53
 90
        2
102
RTVSPost2010PropOp53
 70
     1
102
RTVSPost2010Prop54
  1
strokes_ogs.tif
102
RTVSPost2010PropOp54
 70
     1
102
RTVSPost2010Prop55
280
     0
102
RTVSPost2010PropOp55
 70
     1
102
RTVSPost2010Prop56
140
1.0
102
RTVSPost2010PropOp56
 70
     1
102
RTVSPost2010Prop57
140
1.0
102
RTVSPost2010PropOp57
 70
     1
  0
XRECORD
  5
533A1
102
{ACAD_REACTORS
330
533A0
102
}
330
533A0
100
AcDbXrecord
280
     1
102
RTVSPropertyOp0
 70
     1
102
RTVSPropertyOp1
 70
     1
102
RTVSPropertyOp2
 70
     1
102
RTVSPropertyOp3
 70
     1
102
RTVSPropertyOp4
 70
     1
102
RTVSPropertyOp5
 70
     1
102
RTVSPropertyOp6
 70
     1
102
RTVSPropertyOp7
 70
     1
102
RTVSPropertyOp8
 70
     1
102
RTVSPropertyOp9
 70
     1
102
RTVSPropertyOp10
 70
     1
102
RTVSPropertyOp11
 70
     1
102
RTVSPropertyOp12
 70
     1
102
RTVSPropertyOp13
 70
     1
102
RTVSPropertyOp14
 70
     1
102
RTVSPropertyOp15
 70
     1
102
RTVSPropertyOp16
 70
     1
102
RTVSPropertyOp17
 70
     1
102
RTVSPropertyOp18
 70
     1
102
RTVSPropertyOp19
 70
     1
102
RTVSPropertyOp20
 70
     1
102
RTVSPropertyOp21
 70
     1
102
RTVSPropertyOp22
 70
     1
102
RTVSPropertyOp23
 70
     1
102
RTVSPropertyOp24
 70
     1
102
RTVSPropertyOp25
 70
     1
102
RTVSPropertyOp26
 70
     1
102
RTVSPropertyOp27
 70
     1
102
RTVSPropertyOp28
 70
     1
102
RTVSPropertyOp29
 70
     1
102
RTVSPropertyOp30
 70
     1
102
RTVSPropertyOp31
 70
     1
102
RTVSPropertyOp32
 70
     1
102
RTVSPropertyOp33
 70
     1
102
RTVSPropertyOp34
 70
     1
102
RTVSPropertyOp35
 70
     1
102
RTVSPropertyOp36
 70
     1
102
RTVSPropertyOp37
 70
     1
102
RTVSPropertyOp38
 70
     1
102
RTVSPropertyOp39
 70
     1
102
RTVSPropertyOp40
 70
     1
102
RTVSPropertyOp41
 70
     1
102
RTVSPropertyOp42
 70
     1
102
RTVSPropertyOp43
 70
     1
102
RTVSPropertyOp44
 70
     1
102
RTVSPropertyOp45
 70
     1
102
RTVSPropertyOp46
 70
     1
102
RTVSPropertyOp47
 70
     1
102
RTVSPropertyOp48
 70
     1
102
RTVSPropertyOp49
 70
     1
102
RTVSPropertyOp50
 70
     1
102
RTVSPropertyOp51
 70
     0
102
RTVSPropertyOp52
 70
     0
102
RTVSPropertyOp53
 70
     1
102
RTVSPropertyOp54
 70
     1
102
RTVSPropertyOp55
 70
     1
102
RTVSPropertyOp56
 70
     1
102
RTVSPropertyOp57
 70
     1
102
RTVSPost2010Prop28
280
     0
102
RTVSPost2010PropOp28
 70
     1
102
RTVSPost2010Prop29
280
     1
102
RTVSPost2010PropOp29
 70
     1
102
RTVSPost2010Prop30
280
     1
102
RTVSPost2010PropOp30
 70
     1
102
RTVSPost2010Prop31
280
     0
102
RTVSPost2010PropOp31
 70
     1
102
RTVSPost2010Prop32
280
     0
102
RTVSPost2010PropOp32
 70
     1
102
RTVSPost2010Prop33
280
     0
102
RTVSPost2010PropOp33
 70
     1
102
RTVSPost2010Prop34
280
     0
102
RTVSPost2010PropOp34
 70
     1
102
RTVSPost2010Prop35
280
     0
102
RTVSPost2010PropOp35
 70
     1
102
RTVSPost2010Prop36
280
     0
102
RTVSPost2010PropOp36
 70
     1
102
RTVSPost2010Prop37
 90
       50
102
RTVSPost2010PropOp37
 70
     1
102
RTVSPost2010Prop38
140
0.0
102
RTVSPost2010PropOp38
 70
     1
102
RTVSPost2010Prop39
140
1.0
102
RTVSPost2010PropOp39
 70
     1
102
RTVSPost2010Prop40
 90
        0
102
RTVSPost2010PropOp40
 70
     1
102
RTVSPost2010Prop41ColorIndex
 90
       18
102
RTVSPost2010Prop41ColorRGB
 90
        0
102
RTVSPost2010PropOp41
 70
     1
102
RTVSPost2010Prop42
 90
       50
102
RTVSPost2010PropOp42
 70
     1
102
RTVSPost2010Prop43
 90
        3
102
RTVSPost2010PropOp43
 70
     1
102
RTVSPost2010Prop44ColorIndex
 90
        5
102
RTVSPost2010Prop44ColorRGB
 90
      255
102
RTVSPost2010PropOp44
 70
     1
102
RTVSPost2010Prop45
280
     0
102
RTVSPost2010PropOp45
 70
     1
102
RTVSPost2010Prop46
 90
       50
102
RTVSPost2010PropOp46
 70
     1
102
RTVSPost2010Prop47
 90
       50
102
RTVSPost2010PropOp47
 70
     1
102
RTVSPost2010Prop48
 90
       50
102
RTVSPost2010PropOp48
 70
     1
102
RTVSPost2010Prop49
280
     0
102
RTVSPost2010PropOp49
 70
     1
102
RTVSPost2010Prop50
 90
       50
102
RTVSPost2010PropOp50
 70
     1
102
RTVSPost2010Prop51ColorIndex
 90
      256
102
RTVSPost2010Prop51ColorRGB
 90
-16777216
102
RTVSPost2010PropOp51
 70
     0
102
RTVSPost2010Prop52
140
1.0
102
RTVSPost2010PropOp52
 70
     0
102
RTVSPost2010Prop53
 90
        2
102
RTVSPost2010PropOp53
 70
     1
102
RTVSPost2010Prop54
  1
strokes_ogs.tif
102
RTVSPost2010PropOp54
 70
     1
102
RTVSPost2010Prop55
280
     0
102
RTVSPost2010PropOp55
 70
     1
102
RTVSPost2010Prop56
140
1.0
102
RTVSPost2010PropOp56
 70
     1
102
RTVSPost2010Prop57
140
1.0
102
RTVSPost2010PropOp57
 70
     1
  0
XRECORD
  5
533A3
102
{ACAD_REACTORS
330
533A2
102
}
330
533A2
100
AcDbXrecord
280
     1
102
RTVSPropertyOp0
 70
     1
102
RTVSPropertyOp1
 70
     1
102
RTVSPropertyOp2
 70
     1
102
RTVSPropertyOp3
 70
     1
102
RTVSPropertyOp4
 70
     1
102
RTVSPropertyOp5
 70
     1
102
RTVSPropertyOp6
 70
     1
102
RTVSPropertyOp7
 70
     1
102
RTVSPropertyOp8
 70
     1
102
RTVSPropertyOp9
 70
     1
102
RTVSPropertyOp10
 70
     1
102
RTVSPropertyOp11
 70
     1
102
RTVSPropertyOp12
 70
     1
102
RTVSPropertyOp13
 70
     1
102
RTVSPropertyOp14
 70
     1
102
RTVSPropertyOp15
 70
     1
102
RTVSPropertyOp16
 70
     1
102
RTVSPropertyOp17
 70
     1
102
RTVSPropertyOp18
 70
     1
102
RTVSPropertyOp19
 70
     1
102
RTVSPropertyOp20
 70
     1
102
RTVSPropertyOp21
 70
     1
102
RTVSPropertyOp22
 70
     1
102
RTVSPropertyOp23
 70
     1
102
RTVSPropertyOp24
 70
     1
102
RTVSPropertyOp25
 70
     1
102
RTVSPropertyOp26
 70
     1
102
RTVSPropertyOp27
 70
     1
102
RTVSPropertyOp28
 70
     1
102
RTVSPropertyOp29
 70
     1
102
RTVSPropertyOp30
 70
     1
102
RTVSPropertyOp31
 70
     1
102
RTVSPropertyOp32
 70
     1
102
RTVSPropertyOp33
 70
     1
102
RTVSPropertyOp34
 70
     1
102
RTVSPropertyOp35
 70
     1
102
RTVSPropertyOp36
 70
     1
102
RTVSPropertyOp37
 70
     1
102
RTVSPropertyOp38
 70
     1
102
RTVSPropertyOp39
 70
     1
102
RTVSPropertyOp40
 70
     1
102
RTVSPropertyOp41
 70
     1
102
RTVSPropertyOp42
 70
     1
102
RTVSPropertyOp43
 70
     1
102
RTVSPropertyOp44
 70
     1
102
RTVSPropertyOp45
 70
     1
102
RTVSPropertyOp46
 70
     1
102
RTVSPropertyOp47
 70
     1
102
RTVSPropertyOp48
 70
     1
102
RTVSPropertyOp49
 70
     1
102
RTVSPropertyOp50
 70
     1
102
RTVSPropertyOp51
 70
     0
102
RTVSPropertyOp52
 70
     0
102
RTVSPropertyOp53
 70
     1
102
RTVSPropertyOp54
 70
     1
102
RTVSPropertyOp55
 70
     1
102
RTVSPropertyOp56
 70
     1
102
RTVSPropertyOp57
 70
     1
102
RTVSPost2010Prop28
280
     0
102
RTVSPost2010PropOp28
 70
     1
102
RTVSPost2010Prop29
280
     1
102
RTVSPost2010PropOp29
 70
     1
102
RTVSPost2010Prop30
280
     1
102
RTVSPost2010PropOp30
 70
     1
102
RTVSPost2010Prop31
280
     0
102
RTVSPost2010PropOp31
 70
     1
102
RTVSPost2010Prop32
280
     0
102
RTVSPost2010PropOp32
 70
     1
102
RTVSPost2010Prop33
280
     0
102
RTVSPost2010PropOp33
 70
     1
102
RTVSPost2010Prop34
280
     0
102
RTVSPost2010PropOp34
 70
     1
102
RTVSPost2010Prop35
280
     0
102
RTVSPost2010PropOp35
 70
     1
102
RTVSPost2010Prop36
280
     0
102
RTVSPost2010PropOp36
 70
     1
102
RTVSPost2010Prop37
 90
       50
102
RTVSPost2010PropOp37
 70
     1
102
RTVSPost2010Prop38
140
0.0
102
RTVSPost2010PropOp38
 70
     1
102
RTVSPost2010Prop39
140
1.0
102
RTVSPost2010PropOp39
 70
     1
102
RTVSPost2010Prop40
 90
        0
102
RTVSPost2010PropOp40
 70
     1
102
RTVSPost2010Prop41ColorIndex
 90
       18
102
RTVSPost2010Prop41ColorRGB
 90
        0
102
RTVSPost2010PropOp41
 70
     1
102
RTVSPost2010Prop42
 90
       50
102
RTVSPost2010PropOp42
 70
     1
102
RTVSPost2010Prop43
 90
        3
102
RTVSPost2010PropOp43
 70
     1
102
RTVSPost2010Prop44ColorIndex
 90
        5
102
RTVSPost2010Prop44ColorRGB
 90
      255
102
RTVSPost2010PropOp44
 70
     1
102
RTVSPost2010Prop45
280
     0
102
RTVSPost2010PropOp45
 70
     1
102
RTVSPost2010Prop46
 90
       50
102
RTVSPost2010PropOp46
 70
     1
102
RTVSPost2010Prop47
 90
       50
102
RTVSPost2010PropOp47
 70
     1
102
RTVSPost2010Prop48
 90
       50
102
RTVSPost2010PropOp48
 70
     1
102
RTVSPost2010Prop49
280
     0
102
RTVSPost2010PropOp49
 70
     1
102
RTVSPost2010Prop50
 90
       50
102
RTVSPost2010PropOp50
 70
     1
102
RTVSPost2010Prop51ColorIndex
 90
      256
102
RTVSPost2010Prop51ColorRGB
 90
-16777216
102
RTVSPost2010PropOp51
 70
     0
102
RTVSPost2010Prop52
140
1.0
102
RTVSPost2010PropOp52
 70
     0
102
RTVSPost2010Prop53
 90
        2
102
RTVSPost2010PropOp53
 70
     1
102
RTVSPost2010Prop54
  1
strokes_ogs.tif
102
RTVSPost2010PropOp54
 70
     1
102
RTVSPost2010Prop55
280
     0
102
RTVSPost2010PropOp55
 70
     1
102
RTVSPost2010Prop56
140
1.0
102
RTVSPost2010PropOp56
 70
     1
102
RTVSPost2010Prop57
140
1.0
102
RTVSPost2010PropOp57
 70
     1
  0
XRECORD
  5
533A5
102
{ACAD_REACTORS
330
533A4
102
}
330
533A4
100
AcDbXrecord
280
     1
102
RTVSPropertyOp0
 70
     1
102
RTVSPropertyOp1
 70
     1
102
RTVSPropertyOp2
 70
     1
102
RTVSPropertyOp3
 70
     1
102
RTVSPropertyOp4
 70
     1
102
RTVSPropertyOp5
 70
     1
102
RTVSPropertyOp6
 70
     1
102
RTVSPropertyOp7
 70
     1
102
RTVSPropertyOp8
 70
     1
102
RTVSPropertyOp9
 70
     1
102
RTVSPropertyOp10
 70
     1
102
RTVSPropertyOp11
 70
     1
102
RTVSPropertyOp12
 70
     1
102
RTVSPropertyOp13
 70
     1
102
RTVSPropertyOp14
 70
     1
102
RTVSPropertyOp15
 70
     1
102
RTVSPropertyOp16
 70
     1
102
RTVSPropertyOp17
 70
     1
102
RTVSPropertyOp18
 70
     1
102
RTVSPropertyOp19
 70
     1
102
RTVSPropertyOp20
 70
     1
102
RTVSPropertyOp21
 70
     1
102
RTVSPropertyOp22
 70
     1
102
RTVSPropertyOp23
 70
     1
102
RTVSPropertyOp24
 70
     1
102
RTVSPropertyOp25
 70
     1
102
RTVSPropertyOp26
 70
     1
102
RTVSPropertyOp27
 70
     1
102
RTVSPropertyOp28
 70
     1
102
RTVSPropertyOp29
 70
     1
102
RTVSPropertyOp30
 70
     1
102
RTVSPropertyOp31
 70
     1
102
RTVSPropertyOp32
 70
     1
102
RTVSPropertyOp33
 70
     1
102
RTVSPropertyOp34
 70
     1
102
RTVSPropertyOp35
 70
     1
102
RTVSPropertyOp36
 70
     1
102
RTVSPropertyOp37
 70
     1
102
RTVSPropertyOp38
 70
     1
102
RTVSPropertyOp39
 70
     1
102
RTVSPropertyOp40
 70
     1
102
RTVSPropertyOp41
 70
     1
102
RTVSPropertyOp42
 70
     1
102
RTVSPropertyOp43
 70
     1
102
RTVSPropertyOp44
 70
     1
102
RTVSPropertyOp45
 70
     1
102
RTVSPropertyOp46
 70
     1
102
RTVSPropertyOp47
 70
     1
102
RTVSPropertyOp48
 70
     1
102
RTVSPropertyOp49
 70
     1
102
RTVSPropertyOp50
 70
     1
102
RTVSPropertyOp51
 70
     0
102
RTVSPropertyOp52
 70
     0
102
RTVSPropertyOp53
 70
     1
102
RTVSPropertyOp54
 70
     1
102
RTVSPropertyOp55
 70
     1
102
RTVSPropertyOp56
 70
     1
102
RTVSPropertyOp57
 70
     1
102
RTVSPost2010Prop28
280
     0
102
RTVSPost2010PropOp28
 70
     1
102
RTVSPost2010Prop29
280
     1
102
RTVSPost2010PropOp29
 70
     1
102
RTVSPost2010Prop30
280
     1
102
RTVSPost2010PropOp30
 70
     1
102
RTVSPost2010Prop31
280
     0
102
RTVSPost2010PropOp31
 70
     1
102
RTVSPost2010Prop32
280
     0
102
RTVSPost2010PropOp32
 70
     1
102
RTVSPost2010Prop33
280
     0
102
RTVSPost2010PropOp33
 70
     1
102
RTVSPost2010Prop34
280
     0
102
RTVSPost2010PropOp34
 70
     1
102
RTVSPost2010Prop35
280
     0
102
RTVSPost2010PropOp35
 70
     1
102
RTVSPost2010Prop36
280
     0
102
RTVSPost2010PropOp36
 70
     1
102
RTVSPost2010Prop37
 90
       50
102
RTVSPost2010PropOp37
 70
     1
102
RTVSPost2010Prop38
140
0.0
102
RTVSPost2010PropOp38
 70
     1
102
RTVSPost2010Prop39
140
1.0
102
RTVSPost2010PropOp39
 70
     1
102
RTVSPost2010Prop40
 90
        0
102
RTVSPost2010PropOp40
 70
     1
102
RTVSPost2010Prop41ColorIndex
 90
       18
102
RTVSPost2010Prop41ColorRGB
 90
        0
102
RTVSPost2010PropOp41
 70
     1
102
RTVSPost2010Prop42
 90
       50
102
RTVSPost2010PropOp42
 70
     1
102
RTVSPost2010Prop43
 90
        3
102
RTVSPost2010PropOp43
 70
     1
102
RTVSPost2010Prop44ColorIndex
 90
        5
102
RTVSPost2010Prop44ColorRGB
 90
      255
102
RTVSPost2010PropOp44
 70
     1
102
RTVSPost2010Prop45
280
     0
102
RTVSPost2010PropOp45
 70
     1
102
RTVSPost2010Prop46
 90
       50
102
RTVSPost2010PropOp46
 70
     1
102
RTVSPost2010Prop47
 90
       50
102
RTVSPost2010PropOp47
 70
     1
102
RTVSPost2010Prop48
 90
       50
102
RTVSPost2010PropOp48
 70
     1
102
RTVSPost2010Prop49
280
     0
102
RTVSPost2010PropOp49
 70
     1
102
RTVSPost2010Prop50
 90
       50
102
RTVSPost2010PropOp50
 70
     1
102
RTVSPost2010Prop51ColorIndex
 90
      256
102
RTVSPost2010Prop51ColorRGB
 90
-16777216
102
RTVSPost2010PropOp51
 70
     0
102
RTVSPost2010Prop52
140
1.0
102
RTVSPost2010PropOp52
 70
     0
102
RTVSPost2010Prop53
 90
        2
102
RTVSPost2010PropOp53
 70
     1
102
RTVSPost2010Prop54
  1
strokes_ogs.tif
102
RTVSPost2010PropOp54
 70
     1
102
RTVSPost2010Prop55
280
     0
102
RTVSPost2010PropOp55
 70
     1
102
RTVSPost2010Prop56
140
1.0
102
RTVSPost2010PropOp56
 70
     1
102
RTVSPost2010Prop57
140
1.0
102
RTVSPost2010PropOp57
 70
     1
  0
XRECORD
  5
533BF
102
{ACAD_REACTORS
330
533BE
102
}
330
533BE
100
AcDbXrecord
280
     1
102
RTVSPropertyOp0
 70
     0
102
RTVSPropertyOp1
 70
     0
102
RTVSPropertyOp2
 70
     0
102
RTVSPropertyOp3
 70
     0
102
RTVSPropertyOp4
 70
     0
102
RTVSPropertyOp5
 70
     0
102
RTVSPropertyOp6
 70
     0
102
RTVSPropertyOp7
 70
     0
102
RTVSPropertyOp8
 70
     0
102
RTVSPropertyOp9
 70
     0
102
RTVSPropertyOp10
 70
     0
102
RTVSPropertyOp11
 70
     0
102
RTVSPropertyOp12
 70
     0
102
RTVSPropertyOp13
 70
     0
102
RTVSPropertyOp14
 70
     0
102
RTVSPropertyOp15
 70
     0
102
RTVSPropertyOp16
 70
     0
102
RTVSPropertyOp17
 70
     0
102
RTVSPropertyOp18
 70
     0
102
RTVSPropertyOp19
 70
     0
102
RTVSPropertyOp20
 70
     0
102
RTVSPropertyOp21
 70
     0
102
RTVSPropertyOp22
 70
     0
102
RTVSPropertyOp23
 70
     0
102
RTVSPropertyOp24
 70
     0
102
RTVSPropertyOp25
 70
     0
102
RTVSPropertyOp26
 70
     0
102
RTVSPropertyOp27
 70
     0
102
RTVSPropertyOp28
 70
     1
102
RTVSPropertyOp29
 70
     1
102
RTVSPropertyOp30
 70
     1
102
RTVSPropertyOp31
 70
     1
102
RTVSPropertyOp32
 70
     1
102
RTVSPropertyOp33
 70
     1
102
RTVSPropertyOp34
 70
     1
102
RTVSPropertyOp35
 70
     1
102
RTVSPropertyOp36
 70
     1
102
RTVSPropertyOp37
 70
     1
102
RTVSPropertyOp38
 70
     1
102
RTVSPropertyOp39
 70
     1
102
RTVSPropertyOp40
 70
     1
102
RTVSPropertyOp41
 70
     1
102
RTVSPropertyOp42
 70
     1
102
RTVSPropertyOp43
 70
     1
102
RTVSPropertyOp44
 70
     1
102
RTVSPropertyOp45
 70
     1
102
RTVSPropertyOp46
 70
     1
102
RTVSPropertyOp47
 70
     1
102
RTVSPropertyOp48
 70
     1
102
RTVSPropertyOp49
 70
     1
102
RTVSPropertyOp50
 70
     1
102
RTVSPropertyOp51
 70
     0
102
RTVSPropertyOp52
 70
     0
102
RTVSPropertyOp53
 70
     1
102
RTVSPropertyOp54
 70
     1
102
RTVSPropertyOp55
 70
     1
102
RTVSPropertyOp56
 70
     1
102
RTVSPropertyOp57
 70
     1
102
RTVSPost2010Prop28
280
     0
102
RTVSPost2010PropOp28
 70
     1
102
RTVSPost2010Prop29
280
     1
102
RTVSPost2010PropOp29
 70
     1
102
RTVSPost2010Prop30
280
     1
102
RTVSPost2010PropOp30
 70
     1
102
RTVSPost2010Prop31
280
     0
102
RTVSPost2010PropOp31
 70
     1
102
RTVSPost2010Prop32
280
     0
102
RTVSPost2010PropOp32
 70
     1
102
RTVSPost2010Prop33
280
     0
102
RTVSPost2010PropOp33
 70
     1
102
RTVSPost2010Prop34
280
     0
102
RTVSPost2010PropOp34
 70
     1
102
RTVSPost2010Prop35
280
     0
102
RTVSPost2010PropOp35
 70
     1
102
RTVSPost2010Prop36
280
     0
102
RTVSPost2010PropOp36
 70
     1
102
RTVSPost2010Prop37
 90
       50
102
RTVSPost2010PropOp37
 70
     1
102
RTVSPost2010Prop38
140
0.0
102
RTVSPost2010PropOp38
 70
     1
102
RTVSPost2010Prop39
140
1.0
102
RTVSPost2010PropOp39
 70
     1
102
RTVSPost2010Prop40
 90
        0
102
RTVSPost2010PropOp40
 70
     1
102
RTVSPost2010Prop41ColorIndex
 90
       18
102
RTVSPost2010Prop41ColorRGB
 90
        0
102
RTVSPost2010PropOp41
 70
     1
102
RTVSPost2010Prop42
 90
       50
102
RTVSPost2010PropOp42
 70
     1
102
RTVSPost2010Prop43
 90
        3
102
RTVSPost2010PropOp43
 70
     1
102
RTVSPost2010Prop44ColorIndex
 90
        5
102
RTVSPost2010Prop44ColorRGB
 90
      255
102
RTVSPost2010PropOp44
 70
     1
102
RTVSPost2010Prop45
280
     0
102
RTVSPost2010PropOp45
 70
     1
102
RTVSPost2010Prop46
 90
       50
102
RTVSPost2010PropOp46
 70
     1
102
RTVSPost2010Prop47
 90
       50
102
RTVSPost2010PropOp47
 70
     1
102
RTVSPost2010Prop48
 90
       50
102
RTVSPost2010PropOp48
 70
     1
102
RTVSPost2010Prop49
280
     0
102
RTVSPost2010PropOp49
 70
     1
102
RTVSPost2010Prop50
 90
       50
102
RTVSPost2010PropOp50
 70
     1
102
RTVSPost2010Prop51ColorIndex
 90
      256
102
RTVSPost2010Prop51ColorRGB
 90
-16777216
102
RTVSPost2010PropOp51
 70
     0
102
RTVSPost2010Prop52
140
1.0
102
RTVSPost2010PropOp52
 70
     0
102
RTVSPost2010Prop53
 90
        2
102
RTVSPost2010PropOp53
 70
     1
102
RTVSPost2010Prop54
  1
strokes_ogs.tif
102
RTVSPost2010PropOp54
 70
     1
102
RTVSPost2010Prop55
280
     0
102
RTVSPost2010PropOp55
 70
     1
102
RTVSPost2010Prop56
140
1.0
102
RTVSPost2010PropOp56
 70
     1
102
RTVSPost2010Prop57
140
1.0
102
RTVSPost2010PropOp57
 70
     1
  0
XRECORD
  5
533A7
102
{ACAD_REACTORS
330
533A6
102
}
330
533A6
100
AcDbXrecord
280
     1
102
RTVSPropertyOp0
 70
     1
102
RTVSPropertyOp1
 70
     1
102
RTVSPropertyOp2
 70
     1
102
RTVSPropertyOp3
 70
     1
102
RTVSPropertyOp4
 70
     1
102
RTVSPropertyOp5
 70
     1
102
RTVSPropertyOp6
 70
     1
102
RTVSPropertyOp7
 70
     1
102
RTVSPropertyOp8
 70
     1
102
RTVSPropertyOp9
 70
     1
102
RTVSPropertyOp10
 70
     1
102
RTVSPropertyOp11
 70
     1
102
RTVSPropertyOp12
 70
     1
102
RTVSPropertyOp13
 70
     1
102
RTVSPropertyOp14
 70
     1
102
RTVSPropertyOp15
 70
     1
102
RTVSPropertyOp16
 70
     1
102
RTVSPropertyOp17
 70
     1
102
RTVSPropertyOp18
 70
     1
102
RTVSPropertyOp19
 70
     1
102
RTVSPropertyOp20
 70
     1
102
RTVSPropertyOp21
 70
     1
102
RTVSPropertyOp22
 70
     1
102
RTVSPropertyOp23
 70
     1
102
RTVSPropertyOp24
 70
     1
102
RTVSPropertyOp25
 70
     1
102
RTVSPropertyOp26
 70
     1
102
RTVSPropertyOp27
 70
     1
102
RTVSPropertyOp28
 70
     1
102
RTVSPropertyOp29
 70
     1
102
RTVSPropertyOp30
 70
     1
102
RTVSPropertyOp31
 70
     1
102
RTVSPropertyOp32
 70
     1
102
RTVSPropertyOp33
 70
     1
102
RTVSPropertyOp34
 70
     1
102
RTVSPropertyOp35
 70
     1
102
RTVSPropertyOp36
 70
     1
102
RTVSPropertyOp37
 70
     1
102
RTVSPropertyOp38
 70
     1
102
RTVSPropertyOp39
 70
     1
102
RTVSPropertyOp40
 70
     1
102
RTVSPropertyOp41
 70
     1
102
RTVSPropertyOp42
 70
     1
102
RTVSPropertyOp43
 70
     1
102
RTVSPropertyOp44
 70
     1
102
RTVSPropertyOp45
 70
     1
102
RTVSPropertyOp46
 70
     1
102
RTVSPropertyOp47
 70
     1
102
RTVSPropertyOp48
 70
     1
102
RTVSPropertyOp49
 70
     1
102
RTVSPropertyOp50
 70
     1
102
RTVSPropertyOp51
 70
     0
102
RTVSPropertyOp52
 70
     0
102
RTVSPropertyOp53
 70
     1
102
RTVSPropertyOp54
 70
     1
102
RTVSPropertyOp55
 70
     1
102
RTVSPropertyOp56
 70
     1
102
RTVSPropertyOp57
 70
     1
102
RTVSPost2010Prop28
280
     0
102
RTVSPost2010PropOp28
 70
     1
102
RTVSPost2010Prop29
280
     1
102
RTVSPost2010PropOp29
 70
     1
102
RTVSPost2010Prop30
280
     1
102
RTVSPost2010PropOp30
 70
     1
102
RTVSPost2010Prop31
280
     0
102
RTVSPost2010PropOp31
 70
     1
102
RTVSPost2010Prop32
280
     0
102
RTVSPost2010PropOp32
 70
     1
102
RTVSPost2010Prop33
280
     0
102
RTVSPost2010PropOp33
 70
     1
102
RTVSPost2010Prop34
280
     0
102
RTVSPost2010PropOp34
 70
     1
102
RTVSPost2010Prop35
280
     0
102
RTVSPost2010PropOp35
 70
     1
102
RTVSPost2010Prop36
280
     0
102
RTVSPost2010PropOp36
 70
     1
102
RTVSPost2010Prop37
 90
       50
102
RTVSPost2010PropOp37
 70
     1
102
RTVSPost2010Prop38
140
0.0
102
RTVSPost2010PropOp38
 70
     1
102
RTVSPost2010Prop39
140
1.0
102
RTVSPost2010PropOp39
 70
     1
102
RTVSPost2010Prop40
 90
        0
102
RTVSPost2010PropOp40
 70
     1
102
RTVSPost2010Prop41ColorIndex
 90
       18
102
RTVSPost2010Prop41ColorRGB
 90
        0
102
RTVSPost2010PropOp41
 70
     1
102
RTVSPost2010Prop42
 90
       50
102
RTVSPost2010PropOp42
 70
     1
102
RTVSPost2010Prop43
 90
        3
102
RTVSPost2010PropOp43
 70
     1
102
RTVSPost2010Prop44ColorIndex
 90
        5
102
RTVSPost2010Prop44ColorRGB
 90
      255
102
RTVSPost2010PropOp44
 70
     1
102
RTVSPost2010Prop45
280
     0
102
RTVSPost2010PropOp45
 70
     1
102
RTVSPost2010Prop46
 90
       50
102
RTVSPost2010PropOp46
 70
     1
102
RTVSPost2010Prop47
 90
       50
102
RTVSPost2010PropOp47
 70
     1
102
RTVSPost2010Prop48
 90
       50
102
RTVSPost2010PropOp48
 70
     1
102
RTVSPost2010Prop49
280
     0
102
RTVSPost2010PropOp49
 70
     1
102
RTVSPost2010Prop50
 90
       50
102
RTVSPost2010PropOp50
 70
     1
102
RTVSPost2010Prop51ColorIndex
 90
      256
102
RTVSPost2010Prop51ColorRGB
 90
-16777216
102
RTVSPost2010PropOp51
 70
     0
102
RTVSPost2010Prop52
140
1.0
102
RTVSPost2010PropOp52
 70
     0
102
RTVSPost2010Prop53
 90
        2
102
RTVSPost2010PropOp53
 70
     1
102
RTVSPost2010Prop54
  1
strokes_ogs.tif
102
RTVSPost2010PropOp54
 70
     1
102
RTVSPost2010Prop55
280
     0
102
RTVSPost2010PropOp55
 70
     1
102
RTVSPost2010Prop56
140
1.0
102
RTVSPost2010PropOp56
 70
     1
102
RTVSPost2010Prop57
140
1.0
102
RTVSPost2010PropOp57
 70
     1
  0
XRECORD
  5
533A9
102
{ACAD_REACTORS
330
533A8
102
}
330
533A8
100
AcDbXrecord
280
     1
102
RTVSPropertyOp0
 70
     1
102
RTVSPropertyOp1
 70
     1
102
RTVSPropertyOp2
 70
     1
102
RTVSPropertyOp3
 70
     1
102
RTVSPropertyOp4
 70
     1
102
RTVSPropertyOp5
 70
     1
102
RTVSPropertyOp6
 70
     1
102
RTVSPropertyOp7
 70
     1
102
RTVSPropertyOp8
 70
     1
102
RTVSPropertyOp9
 70
     1
102
RTVSPropertyOp10
 70
     1
102
RTVSPropertyOp11
 70
     1
102
RTVSPropertyOp12
 70
     1
102
RTVSPropertyOp13
 70
     1
102
RTVSPropertyOp14
 70
     1
102
RTVSPropertyOp15
 70
     1
102
RTVSPropertyOp16
 70
     1
102
RTVSPropertyOp17
 70
     1
102
RTVSPropertyOp18
 70
     1
102
RTVSPropertyOp19
 70
     1
102
RTVSPropertyOp20
 70
     1
102
RTVSPropertyOp21
 70
     1
102
RTVSPropertyOp22
 70
     1
102
RTVSPropertyOp23
 70
     1
102
RTVSPropertyOp24
 70
     1
102
RTVSPropertyOp25
 70
     1
102
RTVSPropertyOp26
 70
     1
102
RTVSPropertyOp27
 70
     1
102
RTVSPropertyOp28
 70
     1
102
RTVSPropertyOp29
 70
     1
102
RTVSPropertyOp30
 70
     1
102
RTVSPropertyOp31
 70
     1
102
RTVSPropertyOp32
 70
     1
102
RTVSPropertyOp33
 70
     1
102
RTVSPropertyOp34
 70
     1
102
RTVSPropertyOp35
 70
     1
102
RTVSPropertyOp36
 70
     1
102
RTVSPropertyOp37
 70
     1
102
RTVSPropertyOp38
 70
     1
102
RTVSPropertyOp39
 70
     1
102
RTVSPropertyOp40
 70
     1
102
RTVSPropertyOp41
 70
     1
102
RTVSPropertyOp42
 70
     1
102
RTVSPropertyOp43
 70
     1
102
RTVSPropertyOp44
 70
     1
102
RTVSPropertyOp45
 70
     1
102
RTVSPropertyOp46
 70
     1
102
RTVSPropertyOp47
 70
     1
102
RTVSPropertyOp48
 70
     1
102
RTVSPropertyOp49
 70
     1
102
RTVSPropertyOp50
 70
     1
102
RTVSPropertyOp51
 70
     0
102
RTVSPropertyOp52
 70
     0
102
RTVSPropertyOp53
 70
     1
102
RTVSPropertyOp54
 70
     1
102
RTVSPropertyOp55
 70
     1
102
RTVSPropertyOp56
 70
     1
102
RTVSPropertyOp57
 70
     1
102
RTVSPost2010Prop28
280
     0
102
RTVSPost2010PropOp28
 70
     1
102
RTVSPost2010Prop29
280
     1
102
RTVSPost2010PropOp29
 70
     1
102
RTVSPost2010Prop30
280
     1
102
RTVSPost2010PropOp30
 70
     1
102
RTVSPost2010Prop31
280
     0
102
RTVSPost2010PropOp31
 70
     1
102
RTVSPost2010Prop32
280
     0
102
RTVSPost2010PropOp32
 70
     1
102
RTVSPost2010Prop33
280
     0
102
RTVSPost2010PropOp33
 70
     1
102
RTVSPost2010Prop34
280
     0
102
RTVSPost2010PropOp34
 70
     1
102
RTVSPost2010Prop35
280
     0
102
RTVSPost2010PropOp35
 70
     1
102
RTVSPost2010Prop36
280
     0
102
RTVSPost2010PropOp36
 70
     1
102
RTVSPost2010Prop37
 90
       50
102
RTVSPost2010PropOp37
 70
     1
102
RTVSPost2010Prop38
140
0.0
102
RTVSPost2010PropOp38
 70
     1
102
RTVSPost2010Prop39
140
1.0
102
RTVSPost2010PropOp39
 70
     1
102
RTVSPost2010Prop40
 90
        0
102
RTVSPost2010PropOp40
 70
     1
102
RTVSPost2010Prop41ColorIndex
 90
       18
102
RTVSPost2010Prop41ColorRGB
 90
        0
102
RTVSPost2010PropOp41
 70
     1
102
RTVSPost2010Prop42
 90
       50
102
RTVSPost2010PropOp42
 70
     1
102
RTVSPost2010Prop43
 90
        3
102
RTVSPost2010PropOp43
 70
     1
102
RTVSPost2010Prop44ColorIndex
 90
        5
102
RTVSPost2010Prop44ColorRGB
 90
      255
102
RTVSPost2010PropOp44
 70
     1
102
RTVSPost2010Prop45
280
     0
102
RTVSPost2010PropOp45
 70
     1
102
RTVSPost2010Prop46
 90
       50
102
RTVSPost2010PropOp46
 70
     1
102
RTVSPost2010Prop47
 90
       50
102
RTVSPost2010PropOp47
 70
     1
102
RTVSPost2010Prop48
 90
       50
102
RTVSPost2010PropOp48
 70
     1
102
RTVSPost2010Prop49
280
     0
102
RTVSPost2010PropOp49
 70
     1
102
RTVSPost2010Prop50
 90
       50
102
RTVSPost2010PropOp50
 70
     1
102
RTVSPost2010Prop51ColorIndex
 90
      256
102
RTVSPost2010Prop51ColorRGB
 90
-16777216
102
RTVSPost2010PropOp51
 70
     0
102
RTVSPost2010Prop52
140
1.0
102
RTVSPost2010PropOp52
 70
     0
102
RTVSPost2010Prop53
 90
        2
102
RTVSPost2010PropOp53
 70
     1
102
RTVSPost2010Prop54
  1
strokes_ogs.tif
102
RTVSPost2010PropOp54
 70
     1
102
RTVSPost2010Prop55
280
     0
102
RTVSPost2010PropOp55
 70
     1
102
RTVSPost2010Prop56
140
1.0
102
RTVSPost2010PropOp56
 70
     1
102
RTVSPost2010Prop57
140
1.0
102
RTVSPost2010PropOp57
 70
     1
  0
XRECORD
  5
533AB
102
{ACAD_REACTORS
330
533AA
102
}
330
533AA
100
AcDbXrecord
280
     1
102
RTVSPropertyOp0
 70
     1
102
RTVSPropertyOp1
 70
     1
102
RTVSPropertyOp2
 70
     1
102
RTVSPropertyOp3
 70
     1
102
RTVSPropertyOp4
 70
     1
102
RTVSPropertyOp5
 70
     1
102
RTVSPropertyOp6
 70
     1
102
RTVSPropertyOp7
 70
     1
102
RTVSPropertyOp8
 70
     1
102
RTVSPropertyOp9
 70
     1
102
RTVSPropertyOp10
 70
     1
102
RTVSPropertyOp11
 70
     1
102
RTVSPropertyOp12
 70
     1
102
RTVSPropertyOp13
 70
     1
102
RTVSPropertyOp14
 70
     1
102
RTVSPropertyOp15
 70
     1
102
RTVSPropertyOp16
 70
     1
102
RTVSPropertyOp17
 70
     1
102
RTVSPropertyOp18
 70
     1
102
RTVSPropertyOp19
 70
     1
102
RTVSPropertyOp20
 70
     1
102
RTVSPropertyOp21
 70
     1
102
RTVSPropertyOp22
 70
     1
102
RTVSPropertyOp23
 70
     1
102
RTVSPropertyOp24
 70
     1
102
RTVSPropertyOp25
 70
     1
102
RTVSPropertyOp26
 70
     1
102
RTVSPropertyOp27
 70
     1
102
RTVSPropertyOp28
 70
     1
102
RTVSPropertyOp29
 70
     1
102
RTVSPropertyOp30
 70
     1
102
RTVSPropertyOp31
 70
     1
102
RTVSPropertyOp32
 70
     1
102
RTVSPropertyOp33
 70
     1
102
RTVSPropertyOp34
 70
     1
102
RTVSPropertyOp35
 70
     1
102
RTVSPropertyOp36
 70
     1
102
RTVSPropertyOp37
 70
     1
102
RTVSPropertyOp38
 70
     1
102
RTVSPropertyOp39
 70
     1
102
RTVSPropertyOp40
 70
     1
102
RTVSPropertyOp41
 70
     1
102
RTVSPropertyOp42
 70
     1
102
RTVSPropertyOp43
 70
     1
102
RTVSPropertyOp44
 70
     1
102
RTVSPropertyOp45
 70
     1
102
RTVSPropertyOp46
 70
     1
102
RTVSPropertyOp47
 70
     1
102
RTVSPropertyOp48
 70
     1
102
RTVSPropertyOp49
 70
     1
102
RTVSPropertyOp50
 70
     1
102
RTVSPropertyOp51
 70
     0
102
RTVSPropertyOp52
 70
     0
102
RTVSPropertyOp53
 70
     1
102
RTVSPropertyOp54
 70
     1
102
RTVSPropertyOp55
 70
     1
102
RTVSPropertyOp56
 70
     1
102
RTVSPropertyOp57
 70
     1
102
RTVSPost2010Prop28
280
     0
102
RTVSPost2010PropOp28
 70
     1
102
RTVSPost2010Prop29
280
     1
102
RTVSPost2010PropOp29
 70
     1
102
RTVSPost2010Prop30
280
     1
102
RTVSPost2010PropOp30
 70
     1
102
RTVSPost2010Prop31
280
     0
102
RTVSPost2010PropOp31
 70
     1
102
RTVSPost2010Prop32
280
     0
102
RTVSPost2010PropOp32
 70
     1
102
RTVSPost2010Prop33
280
     0
102
RTVSPost2010PropOp33
 70
     1
102
RTVSPost2010Prop34
280
     0
102
RTVSPost2010PropOp34
 70
     1
102
RTVSPost2010Prop35
280
     0
102
RTVSPost2010PropOp35
 70
     1
102
RTVSPost2010Prop36
280
     0
102
RTVSPost2010PropOp36
 70
     1
102
RTVSPost2010Prop37
 90
       50
102
RTVSPost2010PropOp37
 70
     1
102
RTVSPost2010Prop38
140
0.0
102
RTVSPost2010PropOp38
 70
     1
102
RTVSPost2010Prop39
140
1.0
102
RTVSPost2010PropOp39
 70
     1
102
RTVSPost2010Prop40
 90
        0
102
RTVSPost2010PropOp40
 70
     1
102
RTVSPost2010Prop41ColorIndex
 90
       18
102
RTVSPost2010Prop41ColorRGB
 90
        0
102
RTVSPost2010PropOp41
 70
     1
102
RTVSPost2010Prop42
 90
       50
102
RTVSPost2010PropOp42
 70
     1
102
RTVSPost2010Prop43
 90
        3
102
RTVSPost2010PropOp43
 70
     1
102
RTVSPost2010Prop44ColorIndex
 90
        5
102
RTVSPost2010Prop44ColorRGB
 90
      255
102
RTVSPost2010PropOp44
 70
     1
102
RTVSPost2010Prop45
280
     0
102
RTVSPost2010PropOp45
 70
     1
102
RTVSPost2010Prop46
 90
       50
102
RTVSPost2010PropOp46
 70
     1
102
RTVSPost2010Prop47
 90
       50
102
RTVSPost2010PropOp47
 70
     1
102
RTVSPost2010Prop48
 90
       50
102
RTVSPost2010PropOp48
 70
     1
102
RTVSPost2010Prop49
280
     0
102
RTVSPost2010PropOp49
 70
     1
102
RTVSPost2010Prop50
 90
       50
102
RTVSPost2010PropOp50
 70
     1
102
RTVSPost2010Prop51ColorIndex
 90
      256
102
RTVSPost2010Prop51ColorRGB
 90
-16777216
102
RTVSPost2010PropOp51
 70
     0
102
RTVSPost2010Prop52
140
1.0
102
RTVSPost2010PropOp52
 70
     0
102
RTVSPost2010Prop53
 90
        2
102
RTVSPost2010PropOp53
 70
     1
102
RTVSPost2010Prop54
  1
strokes_ogs.tif
102
RTVSPost2010PropOp54
 70
     1
102
RTVSPost2010Prop55
280
     0
102
RTVSPost2010PropOp55
 70
     1
102
RTVSPost2010Prop56
140
1.0
102
RTVSPost2010PropOp56
 70
     1
102
RTVSPost2010Prop57
140
1.0
102
RTVSPost2010PropOp57
 70
     1
  0
XRECORD
  5
533AD
102
{ACAD_REACTORS
330
533AC
102
}
330
533AC
100
AcDbXrecord
280
     1
102
RTVSPropertyOp0
 70
     1
102
RTVSPropertyOp1
 70
     1
102
RTVSPropertyOp2
 70
     1
102
RTVSPropertyOp3
 70
     1
102
RTVSPropertyOp4
 70
     1
102
RTVSPropertyOp5
 70
     1
102
RTVSPropertyOp6
 70
     1
102
RTVSPropertyOp7
 70
     1
102
RTVSPropertyOp8
 70
     1
102
RTVSPropertyOp9
 70
     1
102
RTVSPropertyOp10
 70
     1
102
RTVSPropertyOp11
 70
     1
102
RTVSPropertyOp12
 70
     1
102
RTVSPropertyOp13
 70
     1
102
RTVSPropertyOp14
 70
     1
102
RTVSPropertyOp15
 70
     1
102
RTVSPropertyOp16
 70
     1
102
RTVSPropertyOp17
 70
     1
102
RTVSPropertyOp18
 70
     1
102
RTVSPropertyOp19
 70
     1
102
RTVSPropertyOp20
 70
     1
102
RTVSPropertyOp21
 70
     1
102
RTVSPropertyOp22
 70
     1
102
RTVSPropertyOp23
 70
     1
102
RTVSPropertyOp24
 70
     1
102
RTVSPropertyOp25
 70
     1
102
RTVSPropertyOp26
 70
     1
102
RTVSPropertyOp27
 70
     1
102
RTVSPropertyOp28
 70
     1
102
RTVSPropertyOp29
 70
     1
102
RTVSPropertyOp30
 70
     1
102
RTVSPropertyOp31
 70
     1
102
RTVSPropertyOp32
 70
     1
102
RTVSPropertyOp33
 70
     1
102
RTVSPropertyOp34
 70
     1
102
RTVSPropertyOp35
 70
     1
102
RTVSPropertyOp36
 70
     1
102
RTVSPropertyOp37
 70
     1
102
RTVSPropertyOp38
 70
     1
102
RTVSPropertyOp39
 70
     1
102
RTVSPropertyOp40
 70
     1
102
RTVSPropertyOp41
 70
     1
102
RTVSPropertyOp42
 70
     1
102
RTVSPropertyOp43
 70
     1
102
RTVSPropertyOp44
 70
     1
102
RTVSPropertyOp45
 70
     1
102
RTVSPropertyOp46
 70
     1
102
RTVSPropertyOp47
 70
     1
102
RTVSPropertyOp48
 70
     1
102
RTVSPropertyOp49
 70
     1
102
RTVSPropertyOp50
 70
     1
102
RTVSPropertyOp51
 70
     0
102
RTVSPropertyOp52
 70
     0
102
RTVSPropertyOp53
 70
     1
102
RTVSPropertyOp54
 70
     1
102
RTVSPropertyOp55
 70
     1
102
RTVSPropertyOp56
 70
     1
102
RTVSPropertyOp57
 70
     1
102
RTVSPost2010Prop28
280
     0
102
RTVSPost2010PropOp28
 70
     1
102
RTVSPost2010Prop29
280
     1
102
RTVSPost2010PropOp29
 70
     1
102
RTVSPost2010Prop30
280
     1
102
RTVSPost2010PropOp30
 70
     1
102
RTVSPost2010Prop31
280
     0
102
RTVSPost2010PropOp31
 70
     1
102
RTVSPost2010Prop32
280
     0
102
RTVSPost2010PropOp32
 70
     1
102
RTVSPost2010Prop33
280
     0
102
RTVSPost2010PropOp33
 70
     1
102
RTVSPost2010Prop34
280
     0
102
RTVSPost2010PropOp34
 70
     1
102
RTVSPost2010Prop35
280
     0
102
RTVSPost2010PropOp35
 70
     1
102
RTVSPost2010Prop36
280
     0
102
RTVSPost2010PropOp36
 70
     1
102
RTVSPost2010Prop37
 90
       50
102
RTVSPost2010PropOp37
 70
     1
102
RTVSPost2010Prop38
140
0.0
102
RTVSPost2010PropOp38
 70
     1
102
RTVSPost2010Prop39
140
1.0
102
RTVSPost2010PropOp39
 70
     1
102
RTVSPost2010Prop40
 90
        0
102
RTVSPost2010PropOp40
 70
     1
102
RTVSPost2010Prop41ColorIndex
 90
       18
102
RTVSPost2010Prop41ColorRGB
 90
        0
102
RTVSPost2010PropOp41
 70
     1
102
RTVSPost2010Prop42
 90
       50
102
RTVSPost2010PropOp42
 70
     1
102
RTVSPost2010Prop43
 90
        3
102
RTVSPost2010PropOp43
 70
     1
102
RTVSPost2010Prop44ColorIndex
 90
        5
102
RTVSPost2010Prop44ColorRGB
 90
      255
102
RTVSPost2010PropOp44
 70
     1
102
RTVSPost2010Prop45
280
     0
102
RTVSPost2010PropOp45
 70
     1
102
RTVSPost2010Prop46
 90
       50
102
RTVSPost2010PropOp46
 70
     1
102
RTVSPost2010Prop47
 90
       50
102
RTVSPost2010PropOp47
 70
     1
102
RTVSPost2010Prop48
 90
       50
102
RTVSPost2010PropOp48
 70
     1
102
RTVSPost2010Prop49
280
     0
102
RTVSPost2010PropOp49
 70
     1
102
RTVSPost2010Prop50
 90
       50
102
RTVSPost2010PropOp50
 70
     1
102
RTVSPost2010Prop51ColorIndex
 90
      256
102
RTVSPost2010Prop51ColorRGB
 90
-16777216
102
RTVSPost2010PropOp51
 70
     0
102
RTVSPost2010Prop52
140
1.0
102
RTVSPost2010PropOp52
 70
     0
102
RTVSPost2010Prop53
 90
        2
102
RTVSPost2010PropOp53
 70
     1
102
RTVSPost2010Prop54
  1
strokes_ogs.tif
102
RTVSPost2010PropOp54
 70
     1
102
RTVSPost2010Prop55
280
     0
102
RTVSPost2010PropOp55
 70
     1
102
RTVSPost2010Prop56
140
1.0
102
RTVSPost2010PropOp56
 70
     1
102
RTVSPost2010Prop57
140
1.0
102
RTVSPost2010PropOp57
 70
     1
  0
XRECORD
  5
533AF
102
{ACAD_REACTORS
330
533AE
102
}
330
533AE
100
AcDbXrecord
280
     1
102
RTVSPropertyOp0
 70
     1
102
RTVSPropertyOp1
 70
     1
102
RTVSPropertyOp2
 70
     1
102
RTVSPropertyOp3
 70
     1
102
RTVSPropertyOp4
 70
     1
102
RTVSPropertyOp5
 70
     1
102
RTVSPropertyOp6
 70
     1
102
RTVSPropertyOp7
 70
     1
102
RTVSPropertyOp8
 70
     1
102
RTVSPropertyOp9
 70
     1
102
RTVSPropertyOp10
 70
     1
102
RTVSPropertyOp11
 70
     1
102
RTVSPropertyOp12
 70
     1
102
RTVSPropertyOp13
 70
     1
102
RTVSPropertyOp14
 70
     1
102
RTVSPropertyOp15
 70
     1
102
RTVSPropertyOp16
 70
     1
102
RTVSPropertyOp17
 70
     1
102
RTVSPropertyOp18
 70
     1
102
RTVSPropertyOp19
 70
     1
102
RTVSPropertyOp20
 70
     1
102
RTVSPropertyOp21
 70
     1
102
RTVSPropertyOp22
 70
     1
102
RTVSPropertyOp23
 70
     1
102
RTVSPropertyOp24
 70
     1
102
RTVSPropertyOp25
 70
     1
102
RTVSPropertyOp26
 70
     1
102
RTVSPropertyOp27
 70
     1
102
RTVSPropertyOp28
 70
     1
102
RTVSPropertyOp29
 70
     1
102
RTVSPropertyOp30
 70
     1
102
RTVSPropertyOp31
 70
     1
102
RTVSPropertyOp32
 70
     1
102
RTVSPropertyOp33
 70
     1
102
RTVSPropertyOp34
 70
     1
102
RTVSPropertyOp35
 70
     1
102
RTVSPropertyOp36
 70
     1
102
RTVSPropertyOp37
 70
     1
102
RTVSPropertyOp38
 70
     1
102
RTVSPropertyOp39
 70
     1
102
RTVSPropertyOp40
 70
     1
102
RTVSPropertyOp41
 70
     1
102
RTVSPropertyOp42
 70
     1
102
RTVSPropertyOp43
 70
     1
102
RTVSPropertyOp44
 70
     1
102
RTVSPropertyOp45
 70
     1
102
RTVSPropertyOp46
 70
     1
102
RTVSPropertyOp47
 70
     1
102
RTVSPropertyOp48
 70
     1
102
RTVSPropertyOp49
 70
     1
102
RTVSPropertyOp50
 70
     1
102
RTVSPropertyOp51
 70
     0
102
RTVSPropertyOp52
 70
     0
102
RTVSPropertyOp53
 70
     1
102
RTVSPropertyOp54
 70
     1
102
RTVSPropertyOp55
 70
     1
102
RTVSPropertyOp56
 70
     1
102
RTVSPropertyOp57
 70
     1
102
RTVSPost2010Prop28
280
     0
102
RTVSPost2010PropOp28
 70
     1
102
RTVSPost2010Prop29
280
     1
102
RTVSPost2010PropOp29
 70
     1
102
RTVSPost2010Prop30
280
     1
102
RTVSPost2010PropOp30
 70
     1
102
RTVSPost2010Prop31
280
     0
102
RTVSPost2010PropOp31
 70
     1
102
RTVSPost2010Prop32
280
     0
102
RTVSPost2010PropOp32
 70
     1
102
RTVSPost2010Prop33
280
     0
102
RTVSPost2010PropOp33
 70
     1
102
RTVSPost2010Prop34
280
     0
102
RTVSPost2010PropOp34
 70
     1
102
RTVSPost2010Prop35
280
     0
102
RTVSPost2010PropOp35
 70
     1
102
RTVSPost2010Prop36
280
     0
102
RTVSPost2010PropOp36
 70
     1
102
RTVSPost2010Prop37
 90
       50
102
RTVSPost2010PropOp37
 70
     1
102
RTVSPost2010Prop38
140
0.0
102
RTVSPost2010PropOp38
 70
     1
102
RTVSPost2010Prop39
140
1.0
102
RTVSPost2010PropOp39
 70
     1
102
RTVSPost2010Prop40
 90
        0
102
RTVSPost2010PropOp40
 70
     1
102
RTVSPost2010Prop41ColorIndex
 90
       18
102
RTVSPost2010Prop41ColorRGB
 90
        0
102
RTVSPost2010PropOp41
 70
     1
102
RTVSPost2010Prop42
 90
       50
102
RTVSPost2010PropOp42
 70
     1
102
RTVSPost2010Prop43
 90
        3
102
RTVSPost2010PropOp43
 70
     1
102
RTVSPost2010Prop44ColorIndex
 90
        5
102
RTVSPost2010Prop44ColorRGB
 90
      255
102
RTVSPost2010PropOp44
 70
     1
102
RTVSPost2010Prop45
280
     0
102
RTVSPost2010PropOp45
 70
     1
102
RTVSPost2010Prop46
 90
       50
102
RTVSPost2010PropOp46
 70
     1
102
RTVSPost2010Prop47
 90
       50
102
RTVSPost2010PropOp47
 70
     1
102
RTVSPost2010Prop48
 90
       50
102
RTVSPost2010PropOp48
 70
     1
102
RTVSPost2010Prop49
280
     0
102
RTVSPost2010PropOp49
 70
     1
102
RTVSPost2010Prop50
 90
       50
102
RTVSPost2010PropOp50
 70
     1
102
RTVSPost2010Prop51ColorIndex
 90
      256
102
RTVSPost2010Prop51ColorRGB
 90
-16777216
102
RTVSPost2010PropOp51
 70
     0
102
RTVSPost2010Prop52
140
1.0
102
RTVSPost2010PropOp52
 70
     0
102
RTVSPost2010Prop53
 90
        2
102
RTVSPost2010PropOp53
 70
     1
102
RTVSPost2010Prop54
  1
strokes_ogs.tif
102
RTVSPost2010PropOp54
 70
     1
102
RTVSPost2010Prop55
280
     0
102
RTVSPost2010PropOp55
 70
     1
102
RTVSPost2010Prop56
140
1.0
102
RTVSPost2010PropOp56
 70
     1
102
RTVSPost2010Prop57
140
1.0
102
RTVSPost2010PropOp57
 70
     1
  0
XRECORD
  5
533B9
102
{ACAD_REACTORS
330
533B8
102
}
330
533B8
100
AcDbXrecord
280
     1
102
RTVSPropertyOp0
 70
     1
102
RTVSPropertyOp1
 70
     1
102
RTVSPropertyOp2
 70
     1
102
RTVSPropertyOp3
 70
     1
102
RTVSPropertyOp4
 70
     1
102
RTVSPropertyOp5
 70
     1
102
RTVSPropertyOp6
 70
     1
102
RTVSPropertyOp7
 70
     1
102
RTVSPropertyOp8
 70
     1
102
RTVSPropertyOp9
 70
     1
102
RTVSPropertyOp10
 70
     1
102
RTVSPropertyOp11
 70
     1
102
RTVSPropertyOp12
 70
     1
102
RTVSPropertyOp13
 70
     1
102
RTVSPropertyOp14
 70
     1
102
RTVSPropertyOp15
 70
     1
102
RTVSPropertyOp16
 70
     1
102
RTVSPropertyOp17
 70
     1
102
RTVSPropertyOp18
 70
     1
102
RTVSPropertyOp19
 70
     1
102
RTVSPropertyOp20
 70
     1
102
RTVSPropertyOp21
 70
     1
102
RTVSPropertyOp22
 70
     1
102
RTVSPropertyOp23
 70
     1
102
RTVSPropertyOp24
 70
     1
102
RTVSPropertyOp25
 70
     1
102
RTVSPropertyOp26
 70
     1
102
RTVSPropertyOp27
 70
     1
102
RTVSPropertyOp28
 70
     1
102
RTVSPropertyOp29
 70
     1
102
RTVSPropertyOp30
 70
     1
102
RTVSPropertyOp31
 70
     1
102
RTVSPropertyOp32
 70
     1
102
RTVSPropertyOp33
 70
     1
102
RTVSPropertyOp34
 70
     1
102
RTVSPropertyOp35
 70
     1
102
RTVSPropertyOp36
 70
     1
102
RTVSPropertyOp37
 70
     1
102
RTVSPropertyOp38
 70
     1
102
RTVSPropertyOp39
 70
     1
102
RTVSPropertyOp40
 70
     1
102
RTVSPropertyOp41
 70
     1
102
RTVSPropertyOp42
 70
     1
102
RTVSPropertyOp43
 70
     1
102
RTVSPropertyOp44
 70
     1
102
RTVSPropertyOp45
 70
     1
102
RTVSPropertyOp46
 70
     1
102
RTVSPropertyOp47
 70
     1
102
RTVSPropertyOp48
 70
     1
102
RTVSPropertyOp49
 70
     1
102
RTVSPropertyOp50
 70
     1
102
RTVSPropertyOp51
 70
     0
102
RTVSPropertyOp52
 70
     0
102
RTVSPropertyOp53
 70
     1
102
RTVSPropertyOp54
 70
     1
102
RTVSPropertyOp55
 70
     1
102
RTVSPropertyOp56
 70
     1
102
RTVSPropertyOp57
 70
     1
102
RTVSPost2010Prop28
280
     0
102
RTVSPost2010PropOp28
 70
     1
102
RTVSPost2010Prop29
280
     1
102
RTVSPost2010PropOp29
 70
     1
102
RTVSPost2010Prop30
280
     1
102
RTVSPost2010PropOp30
 70
     1
102
RTVSPost2010Prop31
280
     0
102
RTVSPost2010PropOp31
 70
     1
102
RTVSPost2010Prop32
280
     0
102
RTVSPost2010PropOp32
 70
     1
102
RTVSPost2010Prop33
280
     0
102
RTVSPost2010PropOp33
 70
     1
102
RTVSPost2010Prop34
280
     0
102
RTVSPost2010PropOp34
 70
     1
102
RTVSPost2010Prop35
280
     0
102
RTVSPost2010PropOp35
 70
     1
102
RTVSPost2010Prop36
280
     0
102
RTVSPost2010PropOp36
 70
     1
102
RTVSPost2010Prop37
 90
       50
102
RTVSPost2010PropOp37
 70
     1
102
RTVSPost2010Prop38
140
0.0
102
RTVSPost2010PropOp38
 70
     1
102
RTVSPost2010Prop39
140
1.0
102
RTVSPost2010PropOp39
 70
     1
102
RTVSPost2010Prop40
 90
        0
102
RTVSPost2010PropOp40
 70
     1
102
RTVSPost2010Prop41ColorIndex
 90
       18
102
RTVSPost2010Prop41ColorRGB
 90
        0
102
RTVSPost2010PropOp41
 70
     1
102
RTVSPost2010Prop42
 90
       50
102
RTVSPost2010PropOp42
 70
     1
102
RTVSPost2010Prop43
 90
        3
102
RTVSPost2010PropOp43
 70
     1
102
RTVSPost2010Prop44ColorIndex
 90
        5
102
RTVSPost2010Prop44ColorRGB
 90
      255
102
RTVSPost2010PropOp44
 70
     1
102
RTVSPost2010Prop45
280
     0
102
RTVSPost2010PropOp45
 70
     1
102
RTVSPost2010Prop46
 90
       50
102
RTVSPost2010PropOp46
 70
     1
102
RTVSPost2010Prop47
 90
       50
102
RTVSPost2010PropOp47
 70
     1
102
RTVSPost2010Prop48
 90
       50
102
RTVSPost2010PropOp48
 70
     1
102
RTVSPost2010Prop49
280
     0
102
RTVSPost2010PropOp49
 70
     1
102
RTVSPost2010Prop50
 90
       50
102
RTVSPost2010PropOp50
 70
     1
102
RTVSPost2010Prop51ColorIndex
 90
      256
102
RTVSPost2010Prop51ColorRGB
 90
-16777216
102
RTVSPost2010PropOp51
 70
     0
102
RTVSPost2010Prop52
140
1.0
102
RTVSPost2010PropOp52
 70
     0
102
RTVSPost2010Prop53
 90
        2
102
RTVSPost2010PropOp53
 70
     1
102
RTVSPost2010Prop54
  1
strokes_ogs.tif
102
RTVSPost2010PropOp54
 70
     1
102
RTVSPost2010Prop55
280
     0
102
RTVSPost2010PropOp55
 70
     1
102
RTVSPost2010Prop56
140
1.0
102
RTVSPost2010PropOp56
 70
     1
102
RTVSPost2010Prop57
140
1.0
102
RTVSPost2010PropOp57
 70
     1
  0
XRECORD
  5
533BB
102
{ACAD_REACTORS
330
533BA
102
}
330
533BA
100
AcDbXrecord
280
     1
102
RTVSPropertyOp0
 70
     0
102
RTVSPropertyOp1
 70
     0
102
RTVSPropertyOp2
 70
     0
102
RTVSPropertyOp3
 70
     0
102
RTVSPropertyOp4
 70
     0
102
RTVSPropertyOp5
 70
     0
102
RTVSPropertyOp6
 70
     0
102
RTVSPropertyOp7
 70
     0
102
RTVSPropertyOp8
 70
     0
102
RTVSPropertyOp9
 70
     0
102
RTVSPropertyOp10
 70
     0
102
RTVSPropertyOp11
 70
     0
102
RTVSPropertyOp12
 70
     0
102
RTVSPropertyOp13
 70
     0
102
RTVSPropertyOp14
 70
     0
102
RTVSPropertyOp15
 70
     0
102
RTVSPropertyOp16
 70
     0
102
RTVSPropertyOp17
 70
     0
102
RTVSPropertyOp18
 70
     0
102
RTVSPropertyOp19
 70
     0
102
RTVSPropertyOp20
 70
     0
102
RTVSPropertyOp21
 70
     0
102
RTVSPropertyOp22
 70
     0
102
RTVSPropertyOp23
 70
     0
102
RTVSPropertyOp24
 70
     0
102
RTVSPropertyOp25
 70
     0
102
RTVSPropertyOp26
 70
     0
102
RTVSPropertyOp27
 70
     0
102
RTVSPropertyOp28
 70
     1
102
RTVSPropertyOp29
 70
     1
102
RTVSPropertyOp30
 70
     1
102
RTVSPropertyOp31
 70
     1
102
RTVSPropertyOp32
 70
     1
102
RTVSPropertyOp33
 70
     1
102
RTVSPropertyOp34
 70
     1
102
RTVSPropertyOp35
 70
     1
102
RTVSPropertyOp36
 70
     1
102
RTVSPropertyOp37
 70
     1
102
RTVSPropertyOp38
 70
     1
102
RTVSPropertyOp39
 70
     1
102
RTVSPropertyOp40
 70
     1
102
RTVSPropertyOp41
 70
     1
102
RTVSPropertyOp42
 70
     1
102
RTVSPropertyOp43
 70
     1
102
RTVSPropertyOp44
 70
     1
102
RTVSPropertyOp45
 70
     1
102
RTVSPropertyOp46
 70
     1
102
RTVSPropertyOp47
 70
     1
102
RTVSPropertyOp48
 70
     1
102
RTVSPropertyOp49
 70
     1
102
RTVSPropertyOp50
 70
     1
102
RTVSPropertyOp51
 70
     0
102
RTVSPropertyOp52
 70
     0
102
RTVSPropertyOp53
 70
     1
102
RTVSPropertyOp54
 70
     1
102
RTVSPropertyOp55
 70
     1
102
RTVSPropertyOp56
 70
     1
102
RTVSPropertyOp57
 70
     1
102
RTVSPost2010Prop28
280
     0
102
RTVSPost2010PropOp28
 70
     1
102
RTVSPost2010Prop29
280
     1
102
RTVSPost2010PropOp29
 70
     1
102
RTVSPost2010Prop30
280
     1
102
RTVSPost2010PropOp30
 70
     1
102
RTVSPost2010Prop31
280
     0
102
RTVSPost2010PropOp31
 70
     1
102
RTVSPost2010Prop32
280
     0
102
RTVSPost2010PropOp32
 70
     1
102
RTVSPost2010Prop33
280
     0
102
RTVSPost2010PropOp33
 70
     1
102
RTVSPost2010Prop34
280
     0
102
RTVSPost2010PropOp34
 70
     1
102
RTVSPost2010Prop35
280
     0
102
RTVSPost2010PropOp35
 70
     1
102
RTVSPost2010Prop36
280
     0
102
RTVSPost2010PropOp36
 70
     1
102
RTVSPost2010Prop37
 90
       50
102
RTVSPost2010PropOp37
 70
     1
102
RTVSPost2010Prop38
140
0.0
102
RTVSPost2010PropOp38
 70
     1
102
RTVSPost2010Prop39
140
1.0
102
RTVSPost2010PropOp39
 70
     1
102
RTVSPost2010Prop40
 90
        0
102
RTVSPost2010PropOp40
 70
     1
102
RTVSPost2010Prop41ColorIndex
 90
       18
102
RTVSPost2010Prop41ColorRGB
 90
        0
102
RTVSPost2010PropOp41
 70
     1
102
RTVSPost2010Prop42
 90
       50
102
RTVSPost2010PropOp42
 70
     1
102
RTVSPost2010Prop43
 90
        3
102
RTVSPost2010PropOp43
 70
     1
102
RTVSPost2010Prop44ColorIndex
 90
        5
102
RTVSPost2010Prop44ColorRGB
 90
      255
102
RTVSPost2010PropOp44
 70
     1
102
RTVSPost2010Prop45
280
     0
102
RTVSPost2010PropOp45
 70
     1
102
RTVSPost2010Prop46
 90
       50
102
RTVSPost2010PropOp46
 70
     1
102
RTVSPost2010Prop47
 90
       50
102
RTVSPost2010PropOp47
 70
     1
102
RTVSPost2010Prop48
 90
       50
102
RTVSPost2010PropOp48
 70
     1
102
RTVSPost2010Prop49
280
     0
102
RTVSPost2010PropOp49
 70
     1
102
RTVSPost2010Prop50
 90
       50
102
RTVSPost2010PropOp50
 70
     1
102
RTVSPost2010Prop51ColorIndex
 90
      256
102
RTVSPost2010Prop51ColorRGB
 90
-16777216
102
RTVSPost2010PropOp51
 70
     0
102
RTVSPost2010Prop52
140
1.0
102
RTVSPost2010PropOp52
 70
     0
102
RTVSPost2010Prop53
 90
        2
102
RTVSPost2010PropOp53
 70
     1
102
RTVSPost2010Prop54
  1
strokes_ogs.tif
102
RTVSPost2010PropOp54
 70
     1
102
RTVSPost2010Prop55
280
     0
102
RTVSPost2010PropOp55
 70
     1
102
RTVSPost2010Prop56
140
1.0
102
RTVSPost2010PropOp56
 70
     1
102
RTVSPost2010Prop57
140
1.0
102
RTVSPost2010PropOp57
 70
     1
  0
XRECORD
  5
533B1
102
{ACAD_REACTORS
330
533B0
102
}
330
533B0
100
AcDbXrecord
280
     1
102
RTVSPropertyOp0
 70
     1
102
RTVSPropertyOp1
 70
     1
102
RTVSPropertyOp2
 70
     1
102
RTVSPropertyOp3
 70
     1
102
RTVSPropertyOp4
 70
     1
102
RTVSPropertyOp5
 70
     1
102
RTVSPropertyOp6
 70
     1
102
RTVSPropertyOp7
 70
     1
102
RTVSPropertyOp8
 70
     1
102
RTVSPropertyOp9
 70
     1
102
RTVSPropertyOp10
 70
     1
102
RTVSPropertyOp11
 70
     1
102
RTVSPropertyOp12
 70
     1
102
RTVSPropertyOp13
 70
     1
102
RTVSPropertyOp14
 70
     1
102
RTVSPropertyOp15
 70
     1
102
RTVSPropertyOp16
 70
     1
102
RTVSPropertyOp17
 70
     1
102
RTVSPropertyOp18
 70
     1
102
RTVSPropertyOp19
 70
     1
102
RTVSPropertyOp20
 70
     1
102
RTVSPropertyOp21
 70
     1
102
RTVSPropertyOp22
 70
     1
102
RTVSPropertyOp23
 70
     1
102
RTVSPropertyOp24
 70
     1
102
RTVSPropertyOp25
 70
     1
102
RTVSPropertyOp26
 70
     1
102
RTVSPropertyOp27
 70
     1
102
RTVSPropertyOp28
 70
     1
102
RTVSPropertyOp29
 70
     1
102
RTVSPropertyOp30
 70
     1
102
RTVSPropertyOp31
 70
     1
102
RTVSPropertyOp32
 70
     1
102
RTVSPropertyOp33
 70
     1
102
RTVSPropertyOp34
 70
     1
102
RTVSPropertyOp35
 70
     1
102
RTVSPropertyOp36
 70
     1
102
RTVSPropertyOp37
 70
     1
102
RTVSPropertyOp38
 70
     1
102
RTVSPropertyOp39
 70
     1
102
RTVSPropertyOp40
 70
     1
102
RTVSPropertyOp41
 70
     1
102
RTVSPropertyOp42
 70
     1
102
RTVSPropertyOp43
 70
     1
102
RTVSPropertyOp44
 70
     1
102
RTVSPropertyOp45
 70
     1
102
RTVSPropertyOp46
 70
     1
102
RTVSPropertyOp47
 70
     1
102
RTVSPropertyOp48
 70
     1
102
RTVSPropertyOp49
 70
     1
102
RTVSPropertyOp50
 70
     1
102
RTVSPropertyOp51
 70
     0
102
RTVSPropertyOp52
 70
     0
102
RTVSPropertyOp53
 70
     1
102
RTVSPropertyOp54
 70
     1
102
RTVSPropertyOp55
 70
     1
102
RTVSPropertyOp56
 70
     1
102
RTVSPropertyOp57
 70
     1
102
RTVSPost2010Prop28
280
     0
102
RTVSPost2010PropOp28
 70
     1
102
RTVSPost2010Prop29
280
     1
102
RTVSPost2010PropOp29
 70
     1
102
RTVSPost2010Prop30
280
     1
102
RTVSPost2010PropOp30
 70
     1
102
RTVSPost2010Prop31
280
     0
102
RTVSPost2010PropOp31
 70
     1
102
RTVSPost2010Prop32
280
     0
102
RTVSPost2010PropOp32
 70
     1
102
RTVSPost2010Prop33
280
     0
102
RTVSPost2010PropOp33
 70
     1
102
RTVSPost2010Prop34
280
     0
102
RTVSPost2010PropOp34
 70
     1
102
RTVSPost2010Prop35
280
     0
102
RTVSPost2010PropOp35
 70
     1
102
RTVSPost2010Prop36
280
     0
102
RTVSPost2010PropOp36
 70
     1
102
RTVSPost2010Prop37
 90
       50
102
RTVSPost2010PropOp37
 70
     1
102
RTVSPost2010Prop38
140
0.0
102
RTVSPost2010PropOp38
 70
     1
102
RTVSPost2010Prop39
140
1.0
102
RTVSPost2010PropOp39
 70
     1
102
RTVSPost2010Prop40
 90
        0
102
RTVSPost2010PropOp40
 70
     1
102
RTVSPost2010Prop41ColorIndex
 90
       18
102
RTVSPost2010Prop41ColorRGB
 90
        0
102
RTVSPost2010PropOp41
 70
     1
102
RTVSPost2010Prop42
 90
       50
102
RTVSPost2010PropOp42
 70
     1
102
RTVSPost2010Prop43
 90
        3
102
RTVSPost2010PropOp43
 70
     1
102
RTVSPost2010Prop44ColorIndex
 90
        5
102
RTVSPost2010Prop44ColorRGB
 90
      255
102
RTVSPost2010PropOp44
 70
     1
102
RTVSPost2010Prop45
280
     0
102
RTVSPost2010PropOp45
 70
     1
102
RTVSPost2010Prop46
 90
       50
102
RTVSPost2010PropOp46
 70
     1
102
RTVSPost2010Prop47
 90
       50
102
RTVSPost2010PropOp47
 70
     1
102
RTVSPost2010Prop48
 90
       50
102
RTVSPost2010PropOp48
 70
     1
102
RTVSPost2010Prop49
280
     0
102
RTVSPost2010PropOp49
 70
     1
102
RTVSPost2010Prop50
 90
       50
102
RTVSPost2010PropOp50
 70
     1
102
RTVSPost2010Prop51ColorIndex
 90
      256
102
RTVSPost2010Prop51ColorRGB
 90
-16777216
102
RTVSPost2010PropOp51
 70
     0
102
RTVSPost2010Prop52
140
1.0
102
RTVSPost2010PropOp52
 70
     0
102
RTVSPost2010Prop53
 90
        2
102
RTVSPost2010PropOp53
 70
     1
102
RTVSPost2010Prop54
  1
strokes_ogs.tif
102
RTVSPost2010PropOp54
 70
     1
102
RTVSPost2010Prop55
280
     0
102
RTVSPost2010PropOp55
 70
     1
102
RTVSPost2010Prop56
140
1.0
102
RTVSPost2010PropOp56
 70
     1
102
RTVSPost2010Prop57
140
1.0
102
RTVSPost2010PropOp57
 70
     1
  0
XRECORD
  5
533BD
102
{ACAD_REACTORS
330
533BC
102
}
330
533BC
100
AcDbXrecord
280
     1
102
RTVSPropertyOp0
 70
     0
102
RTVSPropertyOp1
 70
     0
102
RTVSPropertyOp2
 70
     0
102
RTVSPropertyOp3
 70
     0
102
RTVSPropertyOp4
 70
     0
102
RTVSPropertyOp5
 70
     0
102
RTVSPropertyOp6
 70
     0
102
RTVSPropertyOp7
 70
     0
102
RTVSPropertyOp8
 70
     0
102
RTVSPropertyOp9
 70
     0
102
RTVSPropertyOp10
 70
     0
102
RTVSPropertyOp11
 70
     0
102
RTVSPropertyOp12
 70
     0
102
RTVSPropertyOp13
 70
     0
102
RTVSPropertyOp14
 70
     0
102
RTVSPropertyOp15
 70
     0
102
RTVSPropertyOp16
 70
     0
102
RTVSPropertyOp17
 70
     0
102
RTVSPropertyOp18
 70
     0
102
RTVSPropertyOp19
 70
     0
102
RTVSPropertyOp20
 70
     0
102
RTVSPropertyOp21
 70
     0
102
RTVSPropertyOp22
 70
     0
102
RTVSPropertyOp23
 70
     0
102
RTVSPropertyOp24
 70
     0
102
RTVSPropertyOp25
 70
     0
102
RTVSPropertyOp26
 70
     0
102
RTVSPropertyOp27
 70
     0
102
RTVSPropertyOp28
 70
     1
102
RTVSPropertyOp29
 70
     1
102
RTVSPropertyOp30
 70
     1
102
RTVSPropertyOp31
 70
     1
102
RTVSPropertyOp32
 70
     1
102
RTVSPropertyOp33
 70
     1
102
RTVSPropertyOp34
 70
     1
102
RTVSPropertyOp35
 70
     1
102
RTVSPropertyOp36
 70
     1
102
RTVSPropertyOp37
 70
     1
102
RTVSPropertyOp38
 70
     1
102
RTVSPropertyOp39
 70
     1
102
RTVSPropertyOp40
 70
     1
102
RTVSPropertyOp41
 70
     1
102
RTVSPropertyOp42
 70
     1
102
RTVSPropertyOp43
 70
     1
102
RTVSPropertyOp44
 70
     1
102
RTVSPropertyOp45
 70
     1
102
RTVSPropertyOp46
 70
     1
102
RTVSPropertyOp47
 70
     1
102
RTVSPropertyOp48
 70
     1
102
RTVSPropertyOp49
 70
     1
102
RTVSPropertyOp50
 70
     1
102
RTVSPropertyOp51
 70
     0
102
RTVSPropertyOp52
 70
     0
102
RTVSPropertyOp53
 70
     1
102
RTVSPropertyOp54
 70
     1
102
RTVSPropertyOp55
 70
     1
102
RTVSPropertyOp56
 70
     1
102
RTVSPropertyOp57
 70
     1
102
RTVSPost2010Prop28
280
     0
102
RTVSPost2010PropOp28
 70
     1
102
RTVSPost2010Prop29
280
     1
102
RTVSPost2010PropOp29
 70
     1
102
RTVSPost2010Prop30
280
     1
102
RTVSPost2010PropOp30
 70
     1
102
RTVSPost2010Prop31
280
     0
102
RTVSPost2010PropOp31
 70
     1
102
RTVSPost2010Prop32
280
     0
102
RTVSPost2010PropOp32
 70
     1
102
RTVSPost2010Prop33
280
     0
102
RTVSPost2010PropOp33
 70
     1
102
RTVSPost2010Prop34
280
     0
102
RTVSPost2010PropOp34
 70
     1
102
RTVSPost2010Prop35
280
     0
102
RTVSPost2010PropOp35
 70
     1
102
RTVSPost2010Prop36
280
     0
102
RTVSPost2010PropOp36
 70
     1
102
RTVSPost2010Prop37
 90
       50
102
RTVSPost2010PropOp37
 70
     1
102
RTVSPost2010Prop38
140
0.0
102
RTVSPost2010PropOp38
 70
     1
102
RTVSPost2010Prop39
140
1.0
102
RTVSPost2010PropOp39
 70
     1
102
RTVSPost2010Prop40
 90
        0
102
RTVSPost2010PropOp40
 70
     1
102
RTVSPost2010Prop41ColorIndex
 90
       18
102
RTVSPost2010Prop41ColorRGB
 90
        0
102
RTVSPost2010PropOp41
 70
     1
102
RTVSPost2010Prop42
 90
       50
102
RTVSPost2010PropOp42
 70
     1
102
RTVSPost2010Prop43
 90
        3
102
RTVSPost2010PropOp43
 70
     1
102
RTVSPost2010Prop44ColorIndex
 90
        5
102
RTVSPost2010Prop44ColorRGB
 90
      255
102
RTVSPost2010PropOp44
 70
     1
102
RTVSPost2010Prop45
280
     0
102
RTVSPost2010PropOp45
 70
     1
102
RTVSPost2010Prop46
 90
       50
102
RTVSPost2010PropOp46
 70
     1
102
RTVSPost2010Prop47
 90
       50
102
RTVSPost2010PropOp47
 70
     1
102
RTVSPost2010Prop48
 90
       50
102
RTVSPost2010PropOp48
 70
     1
102
RTVSPost2010Prop49
280
     0
102
RTVSPost2010PropOp49
 70
     1
102
RTVSPost2010Prop50
 90
       50
102
RTVSPost2010PropOp50
 70
     1
102
RTVSPost2010Prop51ColorIndex
 90
      256
102
RTVSPost2010Prop51ColorRGB
 90
-16777216
102
RTVSPost2010PropOp51
 70
     0
102
RTVSPost2010Prop52
140
1.0
102
RTVSPost2010PropOp52
 70
     0
102
RTVSPost2010Prop53
 90
        2
102
RTVSPost2010PropOp53
 70
     1
102
RTVSPost2010Prop54
  1
strokes_ogs.tif
102
RTVSPost2010PropOp54
 70
     1
102
RTVSPost2010Prop55
280
     0
102
RTVSPost2010PropOp55
 70
     1
102
RTVSPost2010Prop56
140
1.0
102
RTVSPost2010PropOp56
 70
     1
102
RTVSPost2010Prop57
140
1.0
102
RTVSPost2010PropOp57
 70
     1
  0
XRECORD
  5
533B3
102
{ACAD_REACTORS
330
533B2
102
}
330
533B2
100
AcDbXrecord
280
     1
102
RTVSPropertyOp0
 70
     1
102
RTVSPropertyOp1
 70
     1
102
RTVSPropertyOp2
 70
     1
102
RTVSPropertyOp3
 70
     1
102
RTVSPropertyOp4
 70
     1
102
RTVSPropertyOp5
 70
     1
102
RTVSPropertyOp6
 70
     1
102
RTVSPropertyOp7
 70
     1
102
RTVSPropertyOp8
 70
     1
102
RTVSPropertyOp9
 70
     1
102
RTVSPropertyOp10
 70
     1
102
RTVSPropertyOp11
 70
     1
102
RTVSPropertyOp12
 70
     1
102
RTVSPropertyOp13
 70
     1
102
RTVSPropertyOp14
 70
     1
102
RTVSPropertyOp15
 70
     1
102
RTVSPropertyOp16
 70
     1
102
RTVSPropertyOp17
 70
     1
102
RTVSPropertyOp18
 70
     1
102
RTVSPropertyOp19
 70
     1
102
RTVSPropertyOp20
 70
     1
102
RTVSPropertyOp21
 70
     1
102
RTVSPropertyOp22
 70
     1
102
RTVSPropertyOp23
 70
     1
102
RTVSPropertyOp24
 70
     1
102
RTVSPropertyOp25
 70
     1
102
RTVSPropertyOp26
 70
     1
102
RTVSPropertyOp27
 70
     1
102
RTVSPropertyOp28
 70
     1
102
RTVSPropertyOp29
 70
     1
102
RTVSPropertyOp30
 70
     1
102
RTVSPropertyOp31
 70
     1
102
RTVSPropertyOp32
 70
     1
102
RTVSPropertyOp33
 70
     1
102
RTVSPropertyOp34
 70
     1
102
RTVSPropertyOp35
 70
     1
102
RTVSPropertyOp36
 70
     1
102
RTVSPropertyOp37
 70
     1
102
RTVSPropertyOp38
 70
     1
102
RTVSPropertyOp39
 70
     1
102
RTVSPropertyOp40
 70
     1
102
RTVSPropertyOp41
 70
     1
102
RTVSPropertyOp42
 70
     1
102
RTVSPropertyOp43
 70
     1
102
RTVSPropertyOp44
 70
     1
102
RTVSPropertyOp45
 70
     1
102
RTVSPropertyOp46
 70
     1
102
RTVSPropertyOp47
 70
     1
102
RTVSPropertyOp48
 70
     1
102
RTVSPropertyOp49
 70
     1
102
RTVSPropertyOp50
 70
     1
102
RTVSPropertyOp51
 70
     0
102
RTVSPropertyOp52
 70
     0
102
RTVSPropertyOp53
 70
     1
102
RTVSPropertyOp54
 70
     1
102
RTVSPropertyOp55
 70
     1
102
RTVSPropertyOp56
 70
     1
102
RTVSPropertyOp57
 70
     1
102
RTVSPost2010Prop28
280
     0
102
RTVSPost2010PropOp28
 70
     1
102
RTVSPost2010Prop29
280
     1
102
RTVSPost2010PropOp29
 70
     1
102
RTVSPost2010Prop30
280
     1
102
RTVSPost2010PropOp30
 70
     1
102
RTVSPost2010Prop31
280
     0
102
RTVSPost2010PropOp31
 70
     1
102
RTVSPost2010Prop32
280
     0
102
RTVSPost2010PropOp32
 70
     1
102
RTVSPost2010Prop33
280
     0
102
RTVSPost2010PropOp33
 70
     1
102
RTVSPost2010Prop34
280
     0
102
RTVSPost2010PropOp34
 70
     1
102
RTVSPost2010Prop35
280
     0
102
RTVSPost2010PropOp35
 70
     1
102
RTVSPost2010Prop36
280
     0
102
RTVSPost2010PropOp36
 70
     1
102
RTVSPost2010Prop37
 90
       50
102
RTVSPost2010PropOp37
 70
     1
102
RTVSPost2010Prop38
140
0.0
102
RTVSPost2010PropOp38
 70
     1
102
RTVSPost2010Prop39
140
1.0
102
RTVSPost2010PropOp39
 70
     1
102
RTVSPost2010Prop40
 90
        0
102
RTVSPost2010PropOp40
 70
     1
102
RTVSPost2010Prop41ColorIndex
 90
       18
102
RTVSPost2010Prop41ColorRGB
 90
        0
102
RTVSPost2010PropOp41
 70
     1
102
RTVSPost2010Prop42
 90
       50
102
RTVSPost2010PropOp42
 70
     1
102
RTVSPost2010Prop43
 90
        3
102
RTVSPost2010PropOp43
 70
     1
102
RTVSPost2010Prop44ColorIndex
 90
        5
102
RTVSPost2010Prop44ColorRGB
 90
      255
102
RTVSPost2010PropOp44
 70
     1
102
RTVSPost2010Prop45
280
     0
102
RTVSPost2010PropOp45
 70
     1
102
RTVSPost2010Prop46
 90
       50
102
RTVSPost2010PropOp46
 70
     1
102
RTVSPost2010Prop47
 90
       50
102
RTVSPost2010PropOp47
 70
     1
102
RTVSPost2010Prop48
 90
       50
102
RTVSPost2010PropOp48
 70
     1
102
RTVSPost2010Prop49
280
     0
102
RTVSPost2010PropOp49
 70
     1
102
RTVSPost2010Prop50
 90
       50
102
RTVSPost2010PropOp50
 70
     1
102
RTVSPost2010Prop51ColorIndex
 90
      256
102
RTVSPost2010Prop51ColorRGB
 90
-16777216
102
RTVSPost2010PropOp51
 70
     0
102
RTVSPost2010Prop52
140
1.0
102
RTVSPost2010PropOp52
 70
     0
102
RTVSPost2010Prop53
 90
        2
102
RTVSPost2010PropOp53
 70
     1
102
RTVSPost2010Prop54
  1
strokes_ogs.tif
102
RTVSPost2010PropOp54
 70
     1
102
RTVSPost2010Prop55
280
     0
102
RTVSPost2010PropOp55
 70
     1
102
RTVSPost2010Prop56
140
1.0
102
RTVSPost2010PropOp56
 70
     1
102
RTVSPost2010Prop57
140
1.0
102
RTVSPost2010PropOp57
 70
     1
  0
XRECORD
  5
533C9
102
{ACAD_REACTORS
330
533C8
102
}
330
533C8
100
AcDbXrecord
280
     1
102
RTVSPropertyOp0
 70
     1
102
RTVSPropertyOp1
 70
     1
102
RTVSPropertyOp2
 70
     1
102
RTVSPropertyOp3
 70
     1
102
RTVSPropertyOp4
 70
     1
102
RTVSPropertyOp5
 70
     1
102
RTVSPropertyOp6
 70
     1
102
RTVSPropertyOp7
 70
     1
102
RTVSPropertyOp8
 70
     1
102
RTVSPropertyOp9
 70
     1
102
RTVSPropertyOp10
 70
     1
102
RTVSPropertyOp11
 70
     1
102
RTVSPropertyOp12
 70
     1
102
RTVSPropertyOp13
 70
     1
102
RTVSPropertyOp14
 70
     1
102
RTVSPropertyOp15
 70
     1
102
RTVSPropertyOp16
 70
     1
102
RTVSPropertyOp17
 70
     1
102
RTVSPropertyOp18
 70
     1
102
RTVSPropertyOp19
 70
     1
102
RTVSPropertyOp20
 70
     1
102
RTVSPropertyOp21
 70
     1
102
RTVSPropertyOp22
 70
     1
102
RTVSPropertyOp23
 70
     1
102
RTVSPropertyOp24
 70
     1
102
RTVSPropertyOp25
 70
     1
102
RTVSPropertyOp26
 70
     1
102
RTVSPropertyOp27
 70
     1
102
RTVSPropertyOp28
 70
     1
102
RTVSPropertyOp29
 70
     1
102
RTVSPropertyOp30
 70
     1
102
RTVSPropertyOp31
 70
     1
102
RTVSPropertyOp32
 70
     1
102
RTVSPropertyOp33
 70
     1
102
RTVSPropertyOp34
 70
     1
102
RTVSPropertyOp35
 70
     1
102
RTVSPropertyOp36
 70
     1
102
RTVSPropertyOp37
 70
     1
102
RTVSPropertyOp38
 70
     1
102
RTVSPropertyOp39
 70
     1
102
RTVSPropertyOp40
 70
     1
102
RTVSPropertyOp41
 70
     1
102
RTVSPropertyOp42
 70
     1
102
RTVSPropertyOp43
 70
     1
102
RTVSPropertyOp44
 70
     1
102
RTVSPropertyOp45
 70
     1
102
RTVSPropertyOp46
 70
     1
102
RTVSPropertyOp47
 70
     1
102
RTVSPropertyOp48
 70
     1
102
RTVSPropertyOp49
 70
     1
102
RTVSPropertyOp50
 70
     1
102
RTVSPropertyOp51
 70
     0
102
RTVSPropertyOp52
 70
     0
102
RTVSPropertyOp53
 70
     1
102
RTVSPropertyOp54
 70
     1
102
RTVSPropertyOp55
 70
     1
102
RTVSPropertyOp56
 70
     1
102
RTVSPropertyOp57
 70
     1
102
RTVSPost2010Prop28
280
     0
102
RTVSPost2010PropOp28
 70
     1
102
RTVSPost2010Prop29
280
     1
102
RTVSPost2010PropOp29
 70
     1
102
RTVSPost2010Prop30
280
     1
102
RTVSPost2010PropOp30
 70
     1
102
RTVSPost2010Prop31
280
     0
102
RTVSPost2010PropOp31
 70
     1
102
RTVSPost2010Prop32
280
     0
102
RTVSPost2010PropOp32
 70
     1
102
RTVSPost2010Prop33
280
     0
102
RTVSPost2010PropOp33
 70
     1
102
RTVSPost2010Prop34
280
     0
102
RTVSPost2010PropOp34
 70
     1
102
RTVSPost2010Prop35
280
     0
102
RTVSPost2010PropOp35
 70
     1
102
RTVSPost2010Prop36
280
     0
102
RTVSPost2010PropOp36
 70
     1
102
RTVSPost2010Prop37
 90
       50
102
RTVSPost2010PropOp37
 70
     1
102
RTVSPost2010Prop38
140
0.0
102
RTVSPost2010PropOp38
 70
     1
102
RTVSPost2010Prop39
140
1.0
102
RTVSPost2010PropOp39
 70
     1
102
RTVSPost2010Prop40
 90
        0
102
RTVSPost2010PropOp40
 70
     1
102
RTVSPost2010Prop41ColorIndex
 90
       18
102
RTVSPost2010Prop41ColorRGB
 90
        0
102
RTVSPost2010PropOp41
 70
     1
102
RTVSPost2010Prop42
 90
       50
102
RTVSPost2010PropOp42
 70
     1
102
RTVSPost2010Prop43
 90
        3
102
RTVSPost2010PropOp43
 70
     1
102
RTVSPost2010Prop44ColorIndex
 90
        5
102
RTVSPost2010Prop44ColorRGB
 90
      255
102
RTVSPost2010PropOp44
 70
     1
102
RTVSPost2010Prop45
280
     0
102
RTVSPost2010PropOp45
 70
     1
102
RTVSPost2010Prop46
 90
       50
102
RTVSPost2010PropOp46
 70
     1
102
RTVSPost2010Prop47
 90
       50
102
RTVSPost2010PropOp47
 70
     1
102
RTVSPost2010Prop48
 90
       50
102
RTVSPost2010PropOp48
 70
     1
102
RTVSPost2010Prop49
280
     0
102
RTVSPost2010PropOp49
 70
     1
102
RTVSPost2010Prop50
 90
       50
102
RTVSPost2010PropOp50
 70
     1
102
RTVSPost2010Prop51ColorIndex
 90
      256
102
RTVSPost2010Prop51ColorRGB
 90
-16777216
102
RTVSPost2010PropOp51
 70
     0
102
RTVSPost2010Prop52
140
1.0
102
RTVSPost2010PropOp52
 70
     0
102
RTVSPost2010Prop53
 90
        2
102
RTVSPost2010PropOp53
 70
     1
102
RTVSPost2010Prop54
  1
strokes_ogs.tif
102
RTVSPost2010PropOp54
 70
     1
102
RTVSPost2010Prop55
280
     0
102
RTVSPost2010PropOp55
 70
     1
102
RTVSPost2010Prop56
140
1.0
102
RTVSPost2010PropOp56
 70
     1
102
RTVSPost2010Prop57
140
1.0
102
RTVSPost2010PropOp57
 70
     1
  0
XRECORD
  5
533C7
102
{ACAD_REACTORS
330
533C6
102
}
330
533C6
100
AcDbXrecord
280
     1
102
RTVSPropertyOp0
 70
     1
102
RTVSPropertyOp1
 70
     1
102
RTVSPropertyOp2
 70
     1
102
RTVSPropertyOp3
 70
     1
102
RTVSPropertyOp4
 70
     1
102
RTVSPropertyOp5
 70
     1
102
RTVSPropertyOp6
 70
     1
102
RTVSPropertyOp7
 70
     1
102
RTVSPropertyOp8
 70
     1
102
RTVSPropertyOp9
 70
     1
102
RTVSPropertyOp10
 70
     1
102
RTVSPropertyOp11
 70
     1
102
RTVSPropertyOp12
 70
     1
102
RTVSPropertyOp13
 70
     1
102
RTVSPropertyOp14
 70
     1
102
RTVSPropertyOp15
 70
     1
102
RTVSPropertyOp16
 70
     1
102
RTVSPropertyOp17
 70
     1
102
RTVSPropertyOp18
 70
     1
102
RTVSPropertyOp19
 70
     1
102
RTVSPropertyOp20
 70
     1
102
RTVSPropertyOp21
 70
     1
102
RTVSPropertyOp22
 70
     1
102
RTVSPropertyOp23
 70
     1
102
RTVSPropertyOp24
 70
     1
102
RTVSPropertyOp25
 70
     1
102
RTVSPropertyOp26
 70
     1
102
RTVSPropertyOp27
 70
     1
102
RTVSPropertyOp28
 70
     1
102
RTVSPropertyOp29
 70
     1
102
RTVSPropertyOp30
 70
     1
102
RTVSPropertyOp31
 70
     1
102
RTVSPropertyOp32
 70
     1
102
RTVSPropertyOp33
 70
     1
102
RTVSPropertyOp34
 70
     1
102
RTVSPropertyOp35
 70
     1
102
RTVSPropertyOp36
 70
     1
102
RTVSPropertyOp37
 70
     1
102
RTVSPropertyOp38
 70
     1
102
RTVSPropertyOp39
 70
     1
102
RTVSPropertyOp40
 70
     1
102
RTVSPropertyOp41
 70
     1
102
RTVSPropertyOp42
 70
     1
102
RTVSPropertyOp43
 70
     1
102
RTVSPropertyOp44
 70
     1
102
RTVSPropertyOp45
 70
     1
102
RTVSPropertyOp46
 70
     1
102
RTVSPropertyOp47
 70
     1
102
RTVSPropertyOp48
 70
     1
102
RTVSPropertyOp49
 70
     1
102
RTVSPropertyOp50
 70
     1
102
RTVSPropertyOp51
 70
     0
102
RTVSPropertyOp52
 70
     0
102
RTVSPropertyOp53
 70
     1
102
RTVSPropertyOp54
 70
     1
102
RTVSPropertyOp55
 70
     1
102
RTVSPropertyOp56
 70
     1
102
RTVSPropertyOp57
 70
     1
102
RTVSPost2010Prop28
280
     0
102
RTVSPost2010PropOp28
 70
     1
102
RTVSPost2010Prop29
280
     1
102
RTVSPost2010PropOp29
 70
     1
102
RTVSPost2010Prop30
280
     1
102
RTVSPost2010PropOp30
 70
     1
102
RTVSPost2010Prop31
280
     0
102
RTVSPost2010PropOp31
 70
     1
102
RTVSPost2010Prop32
280
     0
102
RTVSPost2010PropOp32
 70
     1
102
RTVSPost2010Prop33
280
     0
102
RTVSPost2010PropOp33
 70
     1
102
RTVSPost2010Prop34
280
     0
102
RTVSPost2010PropOp34
 70
     1
102
RTVSPost2010Prop35
280
     0
102
RTVSPost2010PropOp35
 70
     1
102
RTVSPost2010Prop36
280
     0
102
RTVSPost2010PropOp36
 70
     1
102
RTVSPost2010Prop37
 90
       50
102
RTVSPost2010PropOp37
 70
     1
102
RTVSPost2010Prop38
140
0.0
102
RTVSPost2010PropOp38
 70
     1
102
RTVSPost2010Prop39
140
1.0
102
RTVSPost2010PropOp39
 70
     1
102
RTVSPost2010Prop40
 90
        0
102
RTVSPost2010PropOp40
 70
     1
102
RTVSPost2010Prop41ColorIndex
 90
       18
102
RTVSPost2010Prop41ColorRGB
 90
        0
102
RTVSPost2010PropOp41
 70
     1
102
RTVSPost2010Prop42
 90
       50
102
RTVSPost2010PropOp42
 70
     1
102
RTVSPost2010Prop43
 90
        3
102
RTVSPost2010PropOp43
 70
     1
102
RTVSPost2010Prop44ColorIndex
 90
        5
102
RTVSPost2010Prop44ColorRGB
 90
      255
102
RTVSPost2010PropOp44
 70
     1
102
RTVSPost2010Prop45
280
     0
102
RTVSPost2010PropOp45
 70
     1
102
RTVSPost2010Prop46
 90
       50
102
RTVSPost2010PropOp46
 70
     1
102
RTVSPost2010Prop47
 90
       50
102
RTVSPost2010PropOp47
 70
     1
102
RTVSPost2010Prop48
 90
       50
102
RTVSPost2010PropOp48
 70
     1
102
RTVSPost2010Prop49
280
     0
102
RTVSPost2010PropOp49
 70
     1
102
RTVSPost2010Prop50
 90
       50
102
RTVSPost2010PropOp50
 70
     1
102
RTVSPost2010Prop51ColorIndex
 90
      256
102
RTVSPost2010Prop51ColorRGB
 90
-16777216
102
RTVSPost2010PropOp51
 70
     0
102
RTVSPost2010Prop52
140
1.0
102
RTVSPost2010PropOp52
 70
     0
102
RTVSPost2010Prop53
 90
        2
102
RTVSPost2010PropOp53
 70
     1
102
RTVSPost2010Prop54
  1
strokes_ogs.tif
102
RTVSPost2010PropOp54
 70
     1
102
RTVSPost2010Prop55
280
     0
102
RTVSPost2010PropOp55
 70
     1
102
RTVSPost2010Prop56
140
1.0
102
RTVSPost2010PropOp56
 70
     1
102
RTVSPost2010Prop57
140
1.0
102
RTVSPost2010PropOp57
 70
     1
  0
XRECORD
  5
533C1
102
{ACAD_REACTORS
330
533C0
102
}
330
533C0
100
AcDbXrecord
280
     1
102
RTVSPropertyOp0
 70
     1
102
RTVSPropertyOp1
 70
     1
102
RTVSPropertyOp2
 70
     1
102
RTVSPropertyOp3
 70
     1
102
RTVSPropertyOp4
 70
     1
102
RTVSPropertyOp5
 70
     1
102
RTVSPropertyOp6
 70
     1
102
RTVSPropertyOp7
 70
     1
102
RTVSPropertyOp8
 70
     1
102
RTVSPropertyOp9
 70
     1
102
RTVSPropertyOp10
 70
     1
102
RTVSPropertyOp11
 70
     1
102
RTVSPropertyOp12
 70
     1
102
RTVSPropertyOp13
 70
     1
102
RTVSPropertyOp14
 70
     1
102
RTVSPropertyOp15
 70
     1
102
RTVSPropertyOp16
 70
     1
102
RTVSPropertyOp17
 70
     1
102
RTVSPropertyOp18
 70
     1
102
RTVSPropertyOp19
 70
     1
102
RTVSPropertyOp20
 70
     1
102
RTVSPropertyOp21
 70
     1
102
RTVSPropertyOp22
 70
     1
102
RTVSPropertyOp23
 70
     1
102
RTVSPropertyOp24
 70
     1
102
RTVSPropertyOp25
 70
     1
102
RTVSPropertyOp26
 70
     1
102
RTVSPropertyOp27
 70
     1
102
RTVSPropertyOp28
 70
     1
102
RTVSPropertyOp29
 70
     1
102
RTVSPropertyOp30
 70
     1
102
RTVSPropertyOp31
 70
     1
102
RTVSPropertyOp32
 70
     1
102
RTVSPropertyOp33
 70
     1
102
RTVSPropertyOp34
 70
     1
102
RTVSPropertyOp35
 70
     1
102
RTVSPropertyOp36
 70
     1
102
RTVSPropertyOp37
 70
     1
102
RTVSPropertyOp38
 70
     1
102
RTVSPropertyOp39
 70
     1
102
RTVSPropertyOp40
 70
     1
102
RTVSPropertyOp41
 70
     1
102
RTVSPropertyOp42
 70
     1
102
RTVSPropertyOp43
 70
     1
102
RTVSPropertyOp44
 70
     1
102
RTVSPropertyOp45
 70
     1
102
RTVSPropertyOp46
 70
     1
102
RTVSPropertyOp47
 70
     1
102
RTVSPropertyOp48
 70
     1
102
RTVSPropertyOp49
 70
     1
102
RTVSPropertyOp50
 70
     1
102
RTVSPropertyOp51
 70
     0
102
RTVSPropertyOp52
 70
     0
102
RTVSPropertyOp53
 70
     1
102
RTVSPropertyOp54
 70
     1
102
RTVSPropertyOp55
 70
     1
102
RTVSPropertyOp56
 70
     1
102
RTVSPropertyOp57
 70
     1
102
RTVSPost2010Prop28
280
     0
102
RTVSPost2010PropOp28
 70
     1
102
RTVSPost2010Prop29
280
     1
102
RTVSPost2010PropOp29
 70
     1
102
RTVSPost2010Prop30
280
     1
102
RTVSPost2010PropOp30
 70
     1
102
RTVSPost2010Prop31
280
     0
102
RTVSPost2010PropOp31
 70
     1
102
RTVSPost2010Prop32
280
     0
102
RTVSPost2010PropOp32
 70
     1
102
RTVSPost2010Prop33
280
     0
102
RTVSPost2010PropOp33
 70
     1
102
RTVSPost2010Prop34
280
     0
102
RTVSPost2010PropOp34
 70
     1
102
RTVSPost2010Prop35
280
     0
102
RTVSPost2010PropOp35
 70
     1
102
RTVSPost2010Prop36
280
     0
102
RTVSPost2010PropOp36
 70
     1
102
RTVSPost2010Prop37
 90
       50
102
RTVSPost2010PropOp37
 70
     1
102
RTVSPost2010Prop38
140
0.0
102
RTVSPost2010PropOp38
 70
     1
102
RTVSPost2010Prop39
140
1.0
102
RTVSPost2010PropOp39
 70
     1
102
RTVSPost2010Prop40
 90
        0
102
RTVSPost2010PropOp40
 70
     1
102
RTVSPost2010Prop41ColorIndex
 90
       18
102
RTVSPost2010Prop41ColorRGB
 90
        0
102
RTVSPost2010PropOp41
 70
     1
102
RTVSPost2010Prop42
 90
       50
102
RTVSPost2010PropOp42
 70
     1
102
RTVSPost2010Prop43
 90
        3
102
RTVSPost2010PropOp43
 70
     1
102
RTVSPost2010Prop44ColorIndex
 90
        5
102
RTVSPost2010Prop44ColorRGB
 90
      255
102
RTVSPost2010PropOp44
 70
     1
102
RTVSPost2010Prop45
280
     0
102
RTVSPost2010PropOp45
 70
     1
102
RTVSPost2010Prop46
 90
       50
102
RTVSPost2010PropOp46
 70
     1
102
RTVSPost2010Prop47
 90
       50
102
RTVSPost2010PropOp47
 70
     1
102
RTVSPost2010Prop48
 90
       50
102
RTVSPost2010PropOp48
 70
     1
102
RTVSPost2010Prop49
280
     0
102
RTVSPost2010PropOp49
 70
     1
102
RTVSPost2010Prop50
 90
       50
102
RTVSPost2010PropOp50
 70
     1
102
RTVSPost2010Prop51ColorIndex
 90
      256
102
RTVSPost2010Prop51ColorRGB
 90
-16777216
102
RTVSPost2010PropOp51
 70
     0
102
RTVSPost2010Prop52
140
1.0
102
RTVSPost2010PropOp52
 70
     0
102
RTVSPost2010Prop53
 90
        2
102
RTVSPost2010PropOp53
 70
     1
102
RTVSPost2010Prop54
  1
strokes_ogs.tif
102
RTVSPost2010PropOp54
 70
     1
102
RTVSPost2010Prop55
280
     0
102
RTVSPost2010PropOp55
 70
     1
102
RTVSPost2010Prop56
140
1.0
102
RTVSPost2010PropOp56
 70
     1
102
RTVSPost2010Prop57
140
1.0
102
RTVSPost2010PropOp57
 70
     1
  0
XRECORD
  5
533C3
102
{ACAD_REACTORS
330
533C2
102
}
330
533C2
100
AcDbXrecord
280
     1
102
RTVSPropertyOp0
 70
     1
102
RTVSPropertyOp1
 70
     1
102
RTVSPropertyOp2
 70
     1
102
RTVSPropertyOp3
 70
     1
102
RTVSPropertyOp4
 70
     1
102
RTVSPropertyOp5
 70
     1
102
RTVSPropertyOp6
 70
     1
102
RTVSPropertyOp7
 70
     1
102
RTVSPropertyOp8
 70
     1
102
RTVSPropertyOp9
 70
     1
102
RTVSPropertyOp10
 70
     1
102
RTVSPropertyOp11
 70
     1
102
RTVSPropertyOp12
 70
     1
102
RTVSPropertyOp13
 70
     1
102
RTVSPropertyOp14
 70
     1
102
RTVSPropertyOp15
 70
     1
102
RTVSPropertyOp16
 70
     1
102
RTVSPropertyOp17
 70
     1
102
RTVSPropertyOp18
 70
     1
102
RTVSPropertyOp19
 70
     1
102
RTVSPropertyOp20
 70
     1
102
RTVSPropertyOp21
 70
     1
102
RTVSPropertyOp22
 70
     1
102
RTVSPropertyOp23
 70
     1
102
RTVSPropertyOp24
 70
     1
102
RTVSPropertyOp25
 70
     1
102
RTVSPropertyOp26
 70
     1
102
RTVSPropertyOp27
 70
     1
102
RTVSPropertyOp28
 70
     1
102
RTVSPropertyOp29
 70
     1
102
RTVSPropertyOp30
 70
     1
102
RTVSPropertyOp31
 70
     1
102
RTVSPropertyOp32
 70
     1
102
RTVSPropertyOp33
 70
     1
102
RTVSPropertyOp34
 70
     1
102
RTVSPropertyOp35
 70
     1
102
RTVSPropertyOp36
 70
     1
102
RTVSPropertyOp37
 70
     1
102
RTVSPropertyOp38
 70
     1
102
RTVSPropertyOp39
 70
     1
102
RTVSPropertyOp40
 70
     1
102
RTVSPropertyOp41
 70
     1
102
RTVSPropertyOp42
 70
     1
102
RTVSPropertyOp43
 70
     1
102
RTVSPropertyOp44
 70
     1
102
RTVSPropertyOp45
 70
     1
102
RTVSPropertyOp46
 70
     1
102
RTVSPropertyOp47
 70
     1
102
RTVSPropertyOp48
 70
     1
102
RTVSPropertyOp49
 70
     1
102
RTVSPropertyOp50
 70
     1
102
RTVSPropertyOp51
 70
     0
102
RTVSPropertyOp52
 70
     0
102
RTVSPropertyOp53
 70
     1
102
RTVSPropertyOp54
 70
     1
102
RTVSPropertyOp55
 70
     1
102
RTVSPropertyOp56
 70
     1
102
RTVSPropertyOp57
 70
     1
102
RTVSPost2010Prop28
280
     0
102
RTVSPost2010PropOp28
 70
     1
102
RTVSPost2010Prop29
280
     1
102
RTVSPost2010PropOp29
 70
     1
102
RTVSPost2010Prop30
280
     1
102
RTVSPost2010PropOp30
 70
     1
102
RTVSPost2010Prop31
280
     0
102
RTVSPost2010PropOp31
 70
     1
102
RTVSPost2010Prop32
280
     0
102
RTVSPost2010PropOp32
 70
     1
102
RTVSPost2010Prop33
280
     0
102
RTVSPost2010PropOp33
 70
     1
102
RTVSPost2010Prop34
280
     0
102
RTVSPost2010PropOp34
 70
     1
102
RTVSPost2010Prop35
280
     0
102
RTVSPost2010PropOp35
 70
     1
102
RTVSPost2010Prop36
280
     0
102
RTVSPost2010PropOp36
 70
     1
102
RTVSPost2010Prop37
 90
       50
102
RTVSPost2010PropOp37
 70
     1
102
RTVSPost2010Prop38
140
0.0
102
RTVSPost2010PropOp38
 70
     1
102
RTVSPost2010Prop39
140
1.0
102
RTVSPost2010PropOp39
 70
     1
102
RTVSPost2010Prop40
 90
        0
102
RTVSPost2010PropOp40
 70
     1
102
RTVSPost2010Prop41ColorIndex
 90
       18
102
RTVSPost2010Prop41ColorRGB
 90
        0
102
RTVSPost2010PropOp41
 70
     1
102
RTVSPost2010Prop42
 90
       50
102
RTVSPost2010PropOp42
 70
     1
102
RTVSPost2010Prop43
 90
        3
102
RTVSPost2010PropOp43
 70
     1
102
RTVSPost2010Prop44ColorIndex
 90
        5
102
RTVSPost2010Prop44ColorRGB
 90
      255
102
RTVSPost2010PropOp44
 70
     1
102
RTVSPost2010Prop45
280
     0
102
RTVSPost2010PropOp45
 70
     1
102
RTVSPost2010Prop46
 90
       50
102
RTVSPost2010PropOp46
 70
     1
102
RTVSPost2010Prop47
 90
       50
102
RTVSPost2010PropOp47
 70
     1
102
RTVSPost2010Prop48
 90
       50
102
RTVSPost2010PropOp48
 70
     1
102
RTVSPost2010Prop49
280
     0
102
RTVSPost2010PropOp49
 70
     1
102
RTVSPost2010Prop50
 90
       50
102
RTVSPost2010PropOp50
 70
     1
102
RTVSPost2010Prop51ColorIndex
 90
      256
102
RTVSPost2010Prop51ColorRGB
 90
-16777216
102
RTVSPost2010PropOp51
 70
     0
102
RTVSPost2010Prop52
140
1.0
102
RTVSPost2010PropOp52
 70
     0
102
RTVSPost2010Prop53
 90
        2
102
RTVSPost2010PropOp53
 70
     1
102
RTVSPost2010Prop54
  1
strokes_ogs.tif
102
RTVSPost2010PropOp54
 70
     1
102
RTVSPost2010Prop55
280
     0
102
RTVSPost2010PropOp55
 70
     1
102
RTVSPost2010Prop56
140
1.0
102
RTVSPost2010PropOp56
 70
     1
102
RTVSPost2010Prop57
140
1.0
102
RTVSPost2010PropOp57
 70
     1
  0
XRECORD
  5
533B5
102
{ACAD_REACTORS
330
533B4
102
}
330
533B4
100
AcDbXrecord
280
     1
102
RTVSPropertyOp0
 70
     1
102
RTVSPropertyOp1
 70
     1
102
RTVSPropertyOp2
 70
     1
102
RTVSPropertyOp3
 70
     1
102
RTVSPropertyOp4
 70
     1
102
RTVSPropertyOp5
 70
     1
102
RTVSPropertyOp6
 70
     1
102
RTVSPropertyOp7
 70
     1
102
RTVSPropertyOp8
 70
     1
102
RTVSPropertyOp9
 70
     1
102
RTVSPropertyOp10
 70
     1
102
RTVSPropertyOp11
 70
     1
102
RTVSPropertyOp12
 70
     1
102
RTVSPropertyOp13
 70
     1
102
RTVSPropertyOp14
 70
     1
102
RTVSPropertyOp15
 70
     1
102
RTVSPropertyOp16
 70
     1
102
RTVSPropertyOp17
 70
     1
102
RTVSPropertyOp18
 70
     1
102
RTVSPropertyOp19
 70
     1
102
RTVSPropertyOp20
 70
     1
102
RTVSPropertyOp21
 70
     1
102
RTVSPropertyOp22
 70
     1
102
RTVSPropertyOp23
 70
     1
102
RTVSPropertyOp24
 70
     1
102
RTVSPropertyOp25
 70
     1
102
RTVSPropertyOp26
 70
     1
102
RTVSPropertyOp27
 70
     1
102
RTVSPropertyOp28
 70
     1
102
RTVSPropertyOp29
 70
     1
102
RTVSPropertyOp30
 70
     1
102
RTVSPropertyOp31
 70
     1
102
RTVSPropertyOp32
 70
     1
102
RTVSPropertyOp33
 70
     1
102
RTVSPropertyOp34
 70
     1
102
RTVSPropertyOp35
 70
     1
102
RTVSPropertyOp36
 70
     1
102
RTVSPropertyOp37
 70
     1
102
RTVSPropertyOp38
 70
     1
102
RTVSPropertyOp39
 70
     1
102
RTVSPropertyOp40
 70
     1
102
RTVSPropertyOp41
 70
     1
102
RTVSPropertyOp42
 70
     1
102
RTVSPropertyOp43
 70
     1
102
RTVSPropertyOp44
 70
     1
102
RTVSPropertyOp45
 70
     1
102
RTVSPropertyOp46
 70
     1
102
RTVSPropertyOp47
 70
     1
102
RTVSPropertyOp48
 70
     1
102
RTVSPropertyOp49
 70
     1
102
RTVSPropertyOp50
 70
     1
102
RTVSPropertyOp51
 70
     0
102
RTVSPropertyOp52
 70
     0
102
RTVSPropertyOp53
 70
     1
102
RTVSPropertyOp54
 70
     1
102
RTVSPropertyOp55
 70
     1
102
RTVSPropertyOp56
 70
     1
102
RTVSPropertyOp57
 70
     1
102
RTVSPost2010Prop28
280
     0
102
RTVSPost2010PropOp28
 70
     1
102
RTVSPost2010Prop29
280
     1
102
RTVSPost2010PropOp29
 70
     1
102
RTVSPost2010Prop30
280
     1
102
RTVSPost2010PropOp30
 70
     1
102
RTVSPost2010Prop31
280
     0
102
RTVSPost2010PropOp31
 70
     1
102
RTVSPost2010Prop32
280
     0
102
RTVSPost2010PropOp32
 70
     1
102
RTVSPost2010Prop33
280
     0
102
RTVSPost2010PropOp33
 70
     1
102
RTVSPost2010Prop34
280
     0
102
RTVSPost2010PropOp34
 70
     1
102
RTVSPost2010Prop35
280
     0
102
RTVSPost2010PropOp35
 70
     1
102
RTVSPost2010Prop36
280
     0
102
RTVSPost2010PropOp36
 70
     1
102
RTVSPost2010Prop37
 90
       50
102
RTVSPost2010PropOp37
 70
     1
102
RTVSPost2010Prop38
140
0.0
102
RTVSPost2010PropOp38
 70
     1
102
RTVSPost2010Prop39
140
1.0
102
RTVSPost2010PropOp39
 70
     1
102
RTVSPost2010Prop40
 90
        0
102
RTVSPost2010PropOp40
 70
     1
102
RTVSPost2010Prop41ColorIndex
 90
       18
102
RTVSPost2010Prop41ColorRGB
 90
        0
102
RTVSPost2010PropOp41
 70
     1
102
RTVSPost2010Prop42
 90
       50
102
RTVSPost2010PropOp42
 70
     1
102
RTVSPost2010Prop43
 90
        3
102
RTVSPost2010PropOp43
 70
     1
102
RTVSPost2010Prop44ColorIndex
 90
        5
102
RTVSPost2010Prop44ColorRGB
 90
      255
102
RTVSPost2010PropOp44
 70
     1
102
RTVSPost2010Prop45
280
     0
102
RTVSPost2010PropOp45
 70
     1
102
RTVSPost2010Prop46
 90
       50
102
RTVSPost2010PropOp46
 70
     1
102
RTVSPost2010Prop47
 90
       50
102
RTVSPost2010PropOp47
 70
     1
102
RTVSPost2010Prop48
 90
       50
102
RTVSPost2010PropOp48
 70
     1
102
RTVSPost2010Prop49
280
     0
102
RTVSPost2010PropOp49
 70
     1
102
RTVSPost2010Prop50
 90
       50
102
RTVSPost2010PropOp50
 70
     1
102
RTVSPost2010Prop51ColorIndex
 90
      256
102
RTVSPost2010Prop51ColorRGB
 90
-16777216
102
RTVSPost2010PropOp51
 70
     0
102
RTVSPost2010Prop52
140
1.0
102
RTVSPost2010PropOp52
 70
     0
102
RTVSPost2010Prop53
 90
        2
102
RTVSPost2010PropOp53
 70
     1
102
RTVSPost2010Prop54
  1
strokes_ogs.tif
102
RTVSPost2010PropOp54
 70
     1
102
RTVSPost2010Prop55
280
     0
102
RTVSPost2010PropOp55
 70
     1
102
RTVSPost2010Prop56
140
1.0
102
RTVSPost2010PropOp56
 70
     1
102
RTVSPost2010Prop57
140
1.0
102
RTVSPost2010PropOp57
 70
     1
  0
XRECORD
  5
533B7
102
{ACAD_REACTORS
330
533B6
102
}
330
533B6
100
AcDbXrecord
280
     1
102
RTVSPropertyOp0
 70
     1
102
RTVSPropertyOp1
 70
     1
102
RTVSPropertyOp2
 70
     1
102
RTVSPropertyOp3
 70
     1
102
RTVSPropertyOp4
 70
     1
102
RTVSPropertyOp5
 70
     1
102
RTVSPropertyOp6
 70
     1
102
RTVSPropertyOp7
 70
     1
102
RTVSPropertyOp8
 70
     1
102
RTVSPropertyOp9
 70
     1
102
RTVSPropertyOp10
 70
     1
102
RTVSPropertyOp11
 70
     1
102
RTVSPropertyOp12
 70
     1
102
RTVSPropertyOp13
 70
     1
102
RTVSPropertyOp14
 70
     1
102
RTVSPropertyOp15
 70
     1
102
RTVSPropertyOp16
 70
     1
102
RTVSPropertyOp17
 70
     1
102
RTVSPropertyOp18
 70
     1
102
RTVSPropertyOp19
 70
     1
102
RTVSPropertyOp20
 70
     1
102
RTVSPropertyOp21
 70
     1
102
RTVSPropertyOp22
 70
     1
102
RTVSPropertyOp23
 70
     1
102
RTVSPropertyOp24
 70
     1
102
RTVSPropertyOp25
 70
     1
102
RTVSPropertyOp26
 70
     1
102
RTVSPropertyOp27
 70
     1
102
RTVSPropertyOp28
 70
     1
102
RTVSPropertyOp29
 70
     1
102
RTVSPropertyOp30
 70
     1
102
RTVSPropertyOp31
 70
     1
102
RTVSPropertyOp32
 70
     1
102
RTVSPropertyOp33
 70
     1
102
RTVSPropertyOp34
 70
     1
102
RTVSPropertyOp35
 70
     1
102
RTVSPropertyOp36
 70
     1
102
RTVSPropertyOp37
 70
     1
102
RTVSPropertyOp38
 70
     1
102
RTVSPropertyOp39
 70
     1
102
RTVSPropertyOp40
 70
     1
102
RTVSPropertyOp41
 70
     1
102
RTVSPropertyOp42
 70
     1
102
RTVSPropertyOp43
 70
     1
102
RTVSPropertyOp44
 70
     1
102
RTVSPropertyOp45
 70
     1
102
RTVSPropertyOp46
 70
     1
102
RTVSPropertyOp47
 70
     1
102
RTVSPropertyOp48
 70
     1
102
RTVSPropertyOp49
 70
     1
102
RTVSPropertyOp50
 70
     1
102
RTVSPropertyOp51
 70
     0
102
RTVSPropertyOp52
 70
     0
102
RTVSPropertyOp53
 70
     1
102
RTVSPropertyOp54
 70
     1
102
RTVSPropertyOp55
 70
     1
102
RTVSPropertyOp56
 70
     1
102
RTVSPropertyOp57
 70
     1
102
RTVSPost2010Prop28
280
     0
102
RTVSPost2010PropOp28
 70
     1
102
RTVSPost2010Prop29
280
     1
102
RTVSPost2010PropOp29
 70
     1
102
RTVSPost2010Prop30
280
     1
102
RTVSPost2010PropOp30
 70
     1
102
RTVSPost2010Prop31
280
     0
102
RTVSPost2010PropOp31
 70
     1
102
RTVSPost2010Prop32
280
     0
102
RTVSPost2010PropOp32
 70
     1
102
RTVSPost2010Prop33
280
     0
102
RTVSPost2010PropOp33
 70
     1
102
RTVSPost2010Prop34
280
     0
102
RTVSPost2010PropOp34
 70
     1
102
RTVSPost2010Prop35
280
     0
102
RTVSPost2010PropOp35
 70
     1
102
RTVSPost2010Prop36
280
     0
102
RTVSPost2010PropOp36
 70
     1
102
RTVSPost2010Prop37
 90
       50
102
RTVSPost2010PropOp37
 70
     1
102
RTVSPost2010Prop38
140
0.0
102
RTVSPost2010PropOp38
 70
     1
102
RTVSPost2010Prop39
140
1.0
102
RTVSPost2010PropOp39
 70
     1
102
RTVSPost2010Prop40
 90
        0
102
RTVSPost2010PropOp40
 70
     1
102
RTVSPost2010Prop41ColorIndex
 90
       18
102
RTVSPost2010Prop41ColorRGB
 90
        0
102
RTVSPost2010PropOp41
 70
     1
102
RTVSPost2010Prop42
 90
       50
102
RTVSPost2010PropOp42
 70
     1
102
RTVSPost2010Prop43
 90
        3
102
RTVSPost2010PropOp43
 70
     1
102
RTVSPost2010Prop44ColorIndex
 90
        5
102
RTVSPost2010Prop44ColorRGB
 90
      255
102
RTVSPost2010PropOp44
 70
     1
102
RTVSPost2010Prop45
280
     0
102
RTVSPost2010PropOp45
 70
     1
102
RTVSPost2010Prop46
 90
       50
102
RTVSPost2010PropOp46
 70
     1
102
RTVSPost2010Prop47
 90
       50
102
RTVSPost2010PropOp47
 70
     1
102
RTVSPost2010Prop48
 90
       50
102
RTVSPost2010PropOp48
 70
     1
102
RTVSPost2010Prop49
280
     0
102
RTVSPost2010PropOp49
 70
     1
102
RTVSPost2010Prop50
 90
       50
102
RTVSPost2010PropOp50
 70
     1
102
RTVSPost2010Prop51ColorIndex
 90
      256
102
RTVSPost2010Prop51ColorRGB
 90
-16777216
102
RTVSPost2010PropOp51
 70
     0
102
RTVSPost2010Prop52
140
1.0
102
RTVSPost2010PropOp52
 70
     0
102
RTVSPost2010Prop53
 90
        2
102
RTVSPost2010PropOp53
 70
     1
102
RTVSPost2010Prop54
  1
strokes_ogs.tif
102
RTVSPost2010PropOp54
 70
     1
102
RTVSPost2010Prop55
280
     0
102
RTVSPost2010PropOp55
 70
     1
102
RTVSPost2010Prop56
140
1.0
102
RTVSPost2010PropOp56
 70
     1
102
RTVSPost2010Prop57
140
1.0
102
RTVSPost2010PropOp57
 70
     1
  0
XRECORD
  5
533C5
102
{ACAD_REACTORS
330
533C4
102
}
330
533C4
100
AcDbXrecord
280
     1
102
RTVSPropertyOp0
 70
     1
102
RTVSPropertyOp1
 70
     1
102
RTVSPropertyOp2
 70
     1
102
RTVSPropertyOp3
 70
     1
102
RTVSPropertyOp4
 70
     1
102
RTVSPropertyOp5
 70
     1
102
RTVSPropertyOp6
 70
     1
102
RTVSPropertyOp7
 70
     1
102
RTVSPropertyOp8
 70
     1
102
RTVSPropertyOp9
 70
     1
102
RTVSPropertyOp10
 70
     1
102
RTVSPropertyOp11
 70
     1
102
RTVSPropertyOp12
 70
     1
102
RTVSPropertyOp13
 70
     1
102
RTVSPropertyOp14
 70
     1
102
RTVSPropertyOp15
 70
     1
102
RTVSPropertyOp16
 70
     1
102
RTVSPropertyOp17
 70
     1
102
RTVSPropertyOp18
 70
     1
102
RTVSPropertyOp19
 70
     1
102
RTVSPropertyOp20
 70
     1
102
RTVSPropertyOp21
 70
     1
102
RTVSPropertyOp22
 70
     1
102
RTVSPropertyOp23
 70
     1
102
RTVSPropertyOp24
 70
     1
102
RTVSPropertyOp25
 70
     1
102
RTVSPropertyOp26
 70
     1
102
RTVSPropertyOp27
 70
     1
102
RTVSPropertyOp28
 70
     1
102
RTVSPropertyOp29
 70
     1
102
RTVSPropertyOp30
 70
     1
102
RTVSPropertyOp31
 70
     1
102
RTVSPropertyOp32
 70
     1
102
RTVSPropertyOp33
 70
     1
102
RTVSPropertyOp34
 70
     1
102
RTVSPropertyOp35
 70
     1
102
RTVSPropertyOp36
 70
     1
102
RTVSPropertyOp37
 70
     1
102
RTVSPropertyOp38
 70
     1
102
RTVSPropertyOp39
 70
     1
102
RTVSPropertyOp40
 70
     1
102
RTVSPropertyOp41
 70
     1
102
RTVSPropertyOp42
 70
     1
102
RTVSPropertyOp43
 70
     1
102
RTVSPropertyOp44
 70
     1
102
RTVSPropertyOp45
 70
     1
102
RTVSPropertyOp46
 70
     1
102
RTVSPropertyOp47
 70
     1
102
RTVSPropertyOp48
 70
     1
102
RTVSPropertyOp49
 70
     1
102
RTVSPropertyOp50
 70
     1
102
RTVSPropertyOp51
 70
     0
102
RTVSPropertyOp52
 70
     0
102
RTVSPropertyOp53
 70
     1
102
RTVSPropertyOp54
 70
     1
102
RTVSPropertyOp55
 70
     1
102
RTVSPropertyOp56
 70
     1
102
RTVSPropertyOp57
 70
     1
102
RTVSPost2010Prop28
280
     0
102
RTVSPost2010PropOp28
 70
     1
102
RTVSPost2010Prop29
280
     1
102
RTVSPost2010PropOp29
 70
     1
102
RTVSPost2010Prop30
280
     1
102
RTVSPost2010PropOp30
 70
     1
102
RTVSPost2010Prop31
280
     0
102
RTVSPost2010PropOp31
 70
     1
102
RTVSPost2010Prop32
280
     0
102
RTVSPost2010PropOp32
 70
     1
102
RTVSPost2010Prop33
280
     0
102
RTVSPost2010PropOp33
 70
     1
102
RTVSPost2010Prop34
280
     0
102
RTVSPost2010PropOp34
 70
     1
102
RTVSPost2010Prop35
280
     0
102
RTVSPost2010PropOp35
 70
     1
102
RTVSPost2010Prop36
280
     0
102
RTVSPost2010PropOp36
 70
     1
102
RTVSPost2010Prop37
 90
       50
102
RTVSPost2010PropOp37
 70
     1
102
RTVSPost2010Prop38
140
0.0
102
RTVSPost2010PropOp38
 70
     1
102
RTVSPost2010Prop39
140
1.0
102
RTVSPost2010PropOp39
 70
     1
102
RTVSPost2010Prop40
 90
        0
102
RTVSPost2010PropOp40
 70
     1
102
RTVSPost2010Prop41ColorIndex
 90
       18
102
RTVSPost2010Prop41ColorRGB
 90
        0
102
RTVSPost2010PropOp41
 70
     1
102
RTVSPost2010Prop42
 90
       50
102
RTVSPost2010PropOp42
 70
     1
102
RTVSPost2010Prop43
 90
        3
102
RTVSPost2010PropOp43
 70
     1
102
RTVSPost2010Prop44ColorIndex
 90
        5
102
RTVSPost2010Prop44ColorRGB
 90
      255
102
RTVSPost2010PropOp44
 70
     1
102
RTVSPost2010Prop45
280
     0
102
RTVSPost2010PropOp45
 70
     1
102
RTVSPost2010Prop46
 90
       50
102
RTVSPost2010PropOp46
 70
     1
102
RTVSPost2010Prop47
 90
       50
102
RTVSPost2010PropOp47
 70
     1
102
RTVSPost2010Prop48
 90
       50
102
RTVSPost2010PropOp48
 70
     1
102
RTVSPost2010Prop49
280
     0
102
RTVSPost2010PropOp49
 70
     1
102
RTVSPost2010Prop50
 90
       50
102
RTVSPost2010PropOp50
 70
     1
102
RTVSPost2010Prop51ColorIndex
 90
      256
102
RTVSPost2010Prop51ColorRGB
 90
-16777216
102
RTVSPost2010PropOp51
 70
     0
102
RTVSPost2010Prop52
140
1.0
102
RTVSPost2010PropOp52
 70
     0
102
RTVSPost2010Prop53
 90
        2
102
RTVSPost2010PropOp53
 70
     1
102
RTVSPost2010Prop54
  1
strokes_ogs.tif
102
RTVSPost2010PropOp54
 70
     1
102
RTVSPost2010Prop55
280
     0
102
RTVSPost2010PropOp55
 70
     1
102
RTVSPost2010Prop56
140
1.0
102
RTVSPost2010PropOp56
 70
     1
102
RTVSPost2010Prop57
140
1.0
102
RTVSPost2010PropOp57
 70
     1
  0
ENDSEC
  0
SECTION
  2
THUMBNAILIMAGE
 90
    16364
310
28000000B4000000550000000100080000000000C43B000000000000000000000001000000010000000000000000FF0000FFFF0000FF0000FFFF0000FF000000FF00FF00FFFFFF0080808000C0C0C0000000FF007F7FFF000000CC006666CC00000099004C4C990000007F003F3F7F0000004C0026264C00003FFF007F9FFF
310
000033CC00667FCC00002699004C5F9900001F7F003F4F7F0000134C00262F4C00007FFF007FBFFF000066CC006699CC00004C99004C729900003F7F003F5F7F0000264C0026394C0000BFFF007FDFFF000099CC0066B2CC00007299004C859900005F7F003F6F7F0000394C0026424C0000FFFF007FFFFF0000CCCC0066CC
310
CC00009999004C999900007F7F003F7F7F00004C4C00264C4C0000FFBF007FFFDF0000CC990066CCB200009972004C998500007F5F003F7F6F00004C3900264C420000FF7F007FFFBF0000CC660066CC990000994C004C997200007F3F003F7F5F00004C2600264C390000FF3F007FFF9F0000CC330066CC7F00009926004C
310
995F00007F1F003F7F4F00004C1300264C2F0000FF00007FFF7F0000CC000066CC6600009900004C994C00007F00003F7F3F00004C0000264C26003FFF00009FFF7F0033CC00007FCC6600269900005F994C001F7F00004F7F3F00134C00002F4C26007FFF0000BFFF7F0066CC000099CC66004C99000072994C003F7F0000
310
5F7F3F00264C0000394C2600BFFF0000DFFF7F0099CC0000B2CC66007299000085994C005F7F00006F7F3F00394C0000424C2600FFFF0000FFFF7F00CCCC0000CCCC66009999000099994C007F7F00007F7F3F004C4C00004C4C2600FFBF0000FFDF7F00CC990000CCB266009972000099854C007F5F00007F6F3F004C3900
310
004C422600FF7F0000FFBF7F00CC660000CC996600994C000099724C007F3F00007F5F3F004C2600004C392600FF3F0000FF9F7F00CC330000CC7F660099260000995F4C007F1F00007F4F3F004C1300004C2F2600FF000000FF7F7F00CC000000CC66660099000000994C4C007F0000007F3F3F004C0000004C262600FF00
310
3F00FF7F9F00CC003300CC667F0099002600994C5F007F001F007F3F4F004C0013004C262F00FF007F00FF7FBF00CC006600CC66990099004C00994C72007F003F007F3F5F004C0026004C263900FF00BF00FF7FDF00CC009900CC66B20099007200994C85007F005F007F3F6F004C0039004C264200FF00FF00FF7FFF00CC
310
00CC00CC66CC0099009900994C99007F007F007F3F7F004C004C004C264C00BF00FF00DF7FFF009900CC00B266CC0072009900854C99005F007F006F3F7F0039004C0042264C007F00FF00BF7FFF006600CC009966CC004C009900724C99003F007F005F3F7F0026004C0039264C003F00FF009F7FFF003300CC007F66CC00
310
260099005F4C99001F007F004F3F7F0013004C002F264C00333333005B5B5B0084848400ADADAD00D6D6D600FFFFFF0000000000000000000000000000000000000000000000000000000000000005000000000000000000000000000000000000000000000000000000000000000000000000000000000000000000000000
310
00000000000000000000000000000000000000000000000000000000000000000000000000000000000000000000000000000000000000000000000000000000000000000000000500000000000000000000000000000000000000000000000000000000000000000000000000000000000000000000000000000000000000
310
00000000050000000707070707070707070707070707070707070707070707070707070707070707070707070707070707070707070707070707070707070707070707070707070707070707070707070707070707070707070707070707070707070707070707070707070707070707070707070707070707000000050000
310
00000000000000000000000000000000000000000000000000000000000000000000000000000000000000000000000000000000000000000005000007070707070707070707070707070707070707070707070707070707070707070707070707070707070707070707070707070707070707070707070707070707070707
310
07070707070707070707070707070707070707070707070707070707070707070707070707070707070707070707070700000500000000000000000000000000000000000000000000000000000000000000000000000000000000000000000000000000000000000000000000000500000707070707070707070707070707
310
07070707070707070707070707070707070707070707070707070707070707070707070707070707070707070707070707070707070707070707070707070707070707070707070707070707070707070707070707070707070707070707070707070707070000050000000000000000000000000000000000000000000000
310
00000000000000000000000000000000000000000000000000000000000000000000000005000007070700000000000000000000000000000000000000000000000000000000000000000000000000000000000000000000000000000000000000000000000000000000000000000000000000000000000000000000000000
310
00000000000000000000000000000000000000000000000007070700000500000000000000000000000000000000000000000000000000000000000000000000000000000000000000000000000000000000000000000000000500000707070000000000000000000000000000000000000000000000000000000000000000
310
00000000000000000000000000000000000000000000000000000000000000070707000000000000000000000000000000000000000000000000000000000000000000000000000000000000000707070000050000000000000000000000000000000000000000000000000000000000000000000000000000000000000000
310
00000000000000000000000000000005000007070700000000000000000000000000000000000000000000000000000000000000000000000000000000000707070707070707000000000000000000000000000707070707000000000000000000000000000000000000000000000000000000000000000000000000000000
310
00000007070700000500000000000000000000000000000000000000000000000000000000000000000000000000000000000000000000000000000000000000000000000500000707070000000000000000000000000000000000000000000000000000000000000000000000000000000007070707070707070303030303
310
03000000000000000007070707070000000000000000000000000000000000000000000000000000000000000000000000000000000000000707070000050000000000000000000000000000000000000000000000000000000000000000000000000000000000000000000000000000000000000000000000050000070707
310
00000000000000000000000000000000000000000000000000000000000000000000000000000000070707070707070707070000000300000000000000000707070707000000000000000000000000000000000000000000000000000000000000000000000000000000000000070707000005000000000000000000000000
310
00000000000000000000000000000000000000000000000000000000000000000000000000000000000000000000000500000707070000000000000000000000000000000000000000000000000000000000000000000000000000000007070404040403030303030300030000000000000000070707070700000000000000
310
00000000000000000000000000000000000000000000000000000000000000000000000707070000050000000000000000000000000000000000000000000000000000000000000000000000000000000000000000000000000000000000000000000000050000070707000000000000000000000000000000000000000000
310
00000000000000000000000000000000000000070707070707070707070003000300000000000000000707070707000000000000000000000000000000000000000000000000000000000000000000000000000000000000070707000005000000000000000000000000000000000000000000000000000000000000000000
310
00000000000000000000000000000000000000000000000000000500000707070000000000000000000000000000000000000000000000000000000000000000000000000000000007070707070700070707000300030000000000000000070707070700000000000000000000000000000000000000000000000000000000
310
00000000000000000000000000000707070000050000000000000000000000000000000000000000000000000000000000000000000000000000000000000000000000000000000000000000000000050000070707000000000000000000000000000000000000000000000000000000000000000000000000000000000707
310
07000400000707070003000300000000000000000707070707070700000000000000000000000000000000000000000000000000000000000000000000000000000000070707000005000000000000000000000000000000000000000000000000000000000000000000000000000000000000000000000000000000000000
310
00000000000500000707070000000000000000000000000000000000000000000000000000000000000000000000000000000007070707070707070707000300030000000000000003070707070707070700000000000000000000000000000000000000000000000000000000000000000000000000000007070700000500
310
00000000000000000000000000000000000000000000000000000000000000000000000000000000000000000000000000000000000000000000050000070707000000000000000000000000000000000000000000000000000000000000000000000000000000000707070707070707070700030003000000000000000303
310
03030307070707000000000000000000000000000000000000000000000000000000000000000000000000000000070707000005000000000000000000000000000000000000000000000000000000000000000000000000000000000000000000000000000000000000000000000005000007070700000000000000000000
310
00000000000000000000000000000000000000000000000000000000000007070707070707070707000300030000000000000003070707070707070700000000000000000000000000000000000000000000000000000000000000000000000000000007070700000500000000000000000000000000000000000000000000
310
00000000000000000000000000000000000000000000000000000000000000000000000000050000070707000000000000000000000000000000000000000000000000000000000000000000000000000000000707070707070707070700030003000000000000000307070707070707070000000000000000000000000000
310
00000000000000000000000000000000000000000000000000070707000005000000000000000000000000000000000000000000000000000000000000000000000000000000000000000000000000000000000000000000000005000007070700000000000000000000000000000000000000000000000000000000000000
310
00000000000000000007070707070707070707000300030000000000000003070707070707070700000000000000000000000000000000000000000000000000000000000000000000000000000007070700000500000000000000000000000000000000000000000000000000000000000000000000000000000000000000
310
00000000000000000000000000000000050000070707000000000000000000000000000000000000000000000000000000000000000000000000000000000707070704000707070700030003000000000000000307070707070707070700000000000000000000000000000000000000000000000000000000000000000000
310
00000000070707000005000000000000000000000000000000000000000000000000000000000000000000000000000000000000000000000000000000000000000000000005000007070700000000000000000000000000000000000000000000000000000000000000000000000000000000070707070400070707070003
310
00030000000000000003070707070707070707000000000000000000000000000000000000000000000000000000000000000000000000000007070700000500000000000000000000000000000000000000000000000000000000000000000000000000000000000000000000000000000000000000000000000500000707
310
07000000000000000000000000000000000000000000000000000000000000000000000000000000000707070704000707070700030003000000000000000307070707070707070700000000000000000000000000000000000000000000000000000000000000000000000000000707070000050000000000000000000000
310
00000000000000000000000000000000000000000000000000000000000000000000000000000000000000000000000005000007070700000000000000000000000000000000000000000000000000000000000000000000000000000000070707070400070707070003000300000000000000030707070707070707000000
310
00000000000000000000000000000000000000000000000000000000000000000000000007070700000500000000000000000000000000000000000000000000000000000000000000000000000000000000000000000000000000000000000000000000000500000707070000000000000000000000000000000000000000
310
00000000000000000000000000000000000000000707070704000707070700030003000000000000000307070707070707070000000000000000000000000000000000000000000000000000000000000000000000000000000707070000050000000000000000000000000000000000000000000000000000000000000000
310
00000000000000000000000000000000000000000000000000000005000007070700000000000000000000000000000000000000000000000000000000000000000000000000000000070707070707070707070003000300000000000000030707070707070707000000000000000000000000000000000000000000000000
310
00000000000000000000000000000007070700000500000000000000000000000000000000000000000000000000000000000000000000000000000000000000000000000000000000000000000000000500000707070000000000000000000000000000000000000000000000000000000000000000000000000000000007
310
07070707070707070700030003000000000000000307070707070707070700000000000000000000000000000000000000000000000000000000000000000000000000000707070000050000000000000000000000000000000000000000000000000000000000000000000000000000000000000000000000000000000000
310
00000000000005000007070700000000000000000000000000000000000000000000000000000000000000000000000000000000070707070707070707070003000300000000000000030707070707070707070707000000000000000000000000000000000000000000000000000000000000000000000000070707000005
310
00000000000000000000000000000000000000000000000000000000000000000000000000000000000000000000000000000000000000000000000500000707070000000000000000000000000000000000000000000000000000000000000000000000000000000007070707070707070707000300030000000000000003
310
07070707070707070707070700000000000000000000000000000000000000000000000000000000000000000000000707070000050000000000000000000000000000000000000000000000000000000000000000000000000000000000000000000000000000000000000000000000050000070707000000000000000000
310
00000000000000000000000000000000000000000000000000000000000000070707070707070707070003000300000000000000030707070707070000070707070000000000000000000000000000000000000000000000000000000000000000000000070707000005000000000000000000000000000000000000000000
310
00000000000000000000000000000000000000000000000000000000000000000000000000000500000707070000000000000000000000000000000000000000000000000000000000000000000000000000000007070707070707070707000300030000000000000003070707070707000000070707000000000000000000
310
00000000000000000000000000000000000000000000000000000707070000050000000000000000000000000000000000000000000000000000000000000000000000000000000000000000000000000000000000000000000000050000070707000000000000000000000000000000000000000000000000000000000000
310
00000000000000000000070707070707070707070003000300000000000000030707070707070000000707070000000000000000000000000000000000000000000000000000000000000000000000070707000005000000000000000000000000000000000000000000000000000000000000000000000000000000000000
310
00000000000000000000000000000000000500000707070000000000000000000000000000000000000000000000000000000000000000000000000000000007070707070707070702020302030000000000000202070707070707070707070707000000000000000000000000000000000000000000000000000000000000
310
00000000000707070000050000000000000000000000000000000000000000000000000000000000000000000000000000000000000000000000000000000000000000000000050000070707000000000000000000000000000000000000000000000000000000000000000000000000000000000404040404040404040402
310
03020200000000000002020707070707070707070707070000000000000000000000000000000000000000000000000000000000000000000000070707000005000000000000000000000000000000000000000000000000000000000000000000000000000000000000000000000000000000000000000000000005000007
310
07070000000000000000000000000000000000000000000000000000000000000000000000000000000007070707040707070702020302020000000000000003070707070707070707070700000000000000000000000000000000000000000000000000000000000000000000000007070700000500000000000000000000
310
00000000000000000000000000000000000000000000000000000000000000000000000000000000000000000000000000050000070707000000000000000000000000000000000000000000000000000000000000000000000000000000000707070704070707070700030003000000000000000307070707070707070000
310
00000000000000000000000000000000000000000000000000000000000000000000000000070707000005000000000000000000000000000000000000000000000000000000000000000000000000000000000000000000000000000000000000000000000005000007070700000000000000000000000000000000000000
310
00000000000000000000000000000000000000000007070707040707070707000300030000000000000003070707070707070700000000000000000000000000000000000000000000000000000000000000000000000000000007070700000500000000000000000000000000000000000000000000000000000000000000
310
00000000000000000000000000000000000000000000000000000000050000070707000000000000000000000000000000000000000000000000000000000000000000000000000000000707070704070707070700030003000000000000000307070707070707070000000000000000000000000000000000000000000000
310
00000000000000000000000000000000070707000005000000000000000000000000000000000000000000000000000000000000000000000000000000000000000000000000000000000000000000000005000007070700000000000000000000000000000000000000000000000000000000000000000000000000000000
310
07070707040707070707000300030000000000000003070707070707070700000000000000000000000000000000000000000000000000000000000000000000000000000007070700000500000000000000000000000000000000000000000000000000000000000000000000000000000000000000000000000000000000
310
00000000000000050000070707000000000000000000000000000000000000000000000000000000000000000000000000000000000707070704070707070700030003000000000000000307070707070707070700000000000000000000000000000000000000000000000000000000000000000000000000000707070000
310
05000000000000000000000000000000000000000000000000000000000000000000000000000000000000000000000000000000000000000000000005000007070700000000000000000000000000000000000000000000000000000000000000000000000000000000070707070407070707070003000300000000000000
310
03070707070707070707000003000000000000000000000000000000000000000000000000000000000000000000000007070700000500000000000000000000000000000000000000000000000000000000000000000000000000000000000000000000000000000000000000000000000500000707070000000000000000
310
00000000000000000000000000000000000000000000000000000000000000000707070704070707070700030003000000000000000307070707070707070707020200000000000000000000000000000000000000000000000000000000000000000000000707070000050000000000000000000000000000000000000000
310
00000000000000000000000000000000000000000000000000000000000000000000000000000005000007070700000000000000000000000000000000000000000000000000000000000000000000000000000000070707070407070707070003000300000000000000030707070707070704070702020000000000000000
310
00000000000000000000000000000000000000000000000000000007070700000500000000000000000000000000000000000000000000000000000000000000000000000000000000000000000000000000000000000000000000000500000707070000000000000000000000000000000000000000000000000000000000
310
00000000000000000000000707070704070707070700030003000000000000000307070707070707040707020200000000000000000000000000000000000000000000000000000000000000000000000707070000050000000000000000000000000000000000000000000000000000000000000000000000000000000000
310
00000000000000000000000000000000000005000007070700000000000000000000000000000000000000000000000000000000000000000000000000000000070707070407070707070003000300000000000000030707070707070004070702020000000000000000000000000000000000000000000000000000000000
310
00000000000007070700000500000000000000000000000000000000000000000000000000000000000000000000000000000000000000000000000000000000000000000000000500000707070000000000000000000000000000000000000000000000000000000000000000000000000000000007070707070707070707
310
00030003000000000000000307070707070707040707020200000000000000000000000000000000000000000000000000000000000000000000000707070000050000000000000000000000000000000000000000000000000000000000000000000000000000000000000000000000000000000000000000000000050000
310
07070700000000000000000000000000000000000000000000000000000000000000000000000000000000070707070707070707070003000300000000000000030707070707070704030303030303030000000000000000000000000000000000000000000000000000000000000000070707000005000000000000000000
310
00000000000000000000000000000000000000000000000000000000000000000000000000000000000000000000000000000500000707070000000000000000000000000000000000000000000000000000000000000000000000000000000007070707070707070707000300030000000000000003070707070707020407
310
00000300030000000000000000000000000000000000000000000000000000000000000000000707070000050000000000000000000000000000000000000000000000000000000000000000000000000000000000000000000000000000000000000000000000050000070707000000000000000000000000000000000000
310
00000000000000000000000000000000000000000000070707070707070707070003000300000000000000030707070707070204020000030003000000000000000000000000000000000000000000000000000000000000000000070707000005000000000000000000000000000000000000000000000000000000000000
310
00000000000000000000000000000000000000000000000000000000000500000707070000000000000000000000000000000000000000000000000000000000000000000000000000000007070707070707070707000300030000000000000003070707070707000402000003000300000000000000000000000000000000
310
00000000000000000000000000000000000707070000050000000000000000000000000000000000000000000000000000000000000000000000000000000000000000000000000000000000000000000000050000070707000000000000000000000000000000000000000000000000000000000000000000000000000000
310
00070707070707070707070003000300000000000000030303030307070004020000030003000000000000000000000000000000000000000000000000000000000000000000070707000005000000000000000000000000000000000000000000000000000000000000000000000000000000000000000000000000000000
310
00000000000000000500000707070000000000000000000000000000000000000000000000000000000000000000000000000000000007070707070707070707000300030000000000000000070707070202020403030303020200000000000000000000000000000000000000000000000000000000000000000007070700
310
00050000000000000000000000000000000000000000000000000000000000000000000000000000000000000000000000000000000000000000000000050000070707000000000000000000000000000000000000000000000000000000000000000000000000000000000707070004000007070700030003000000000000
310
00000707070707000004000000000202000000000000000000000000000000000000000000000000000000000000000000070707000005000000000000000000000000000000000000000000000000000000000000000000000000000000000000000000000000000000000000000000000005000007070700000000000000
310
00000000000000000000000000000000000000000000000000000000000000000007070707070700070707000300030000000000000000070707070700000000000000000300000000000000000000000000000000000000000000000000000000000000000007070700000500000000000000000000000000000000000000
310
00000000000000000000000000000000000000000000000000000000000000000000000000000000050000070707000000000000000000000000000000000000000000000000000000000000000000000000000000000707070303070707070700030003000000000000000007070707070000000000000000030000000000
310
00000000000000000000000000000000000000000000000000000000070707000005000000000000000000000000000000000000000000000000000000000000000000000000000000000000000000000000000000000000000000000005000007070700000000000000000000000000000000000000000000000000000000
310
00000000000000000000000007070707030703030303030300030000000000000000070707070700000000000000000300000000000000000000000000000000000000000000000000000000000000000007070700000500000000000000000000000000000000000000000000000000000000000000000000000000000000
310
00000000000000000000000000000000000000050000070707000000000000000000000000000000000000000000000000000000000000000000000000000000000707070707030707070700000003000000000000000007070707070000000000000000030000000000000000000000000000000000000000000000000000
310
00000000000000070707000005000000000000000000000000000000000000000000000000000000000000000000000000000000000000000000000000000000000000000000000005000007070700000000000000000000000000000000000000000000000000000000000000000000000000000000070307070707030703
310
07000000030000000000000000070707030303030303030303030303000000000000000000000000000000000000000000000000000000000000000007070700000500000000000000000000000000000000000000000000000000000000000000000000000000000000000000000000000000000000000000000000000500
310
00070707000000000000000000000000000000000000000000000000000000000000000000000000000000000703070707070307030303030303000000000000000000070707000000000000000000000000000000000000000000000000000000000000000000000000000000000000000707070000050000000000000000
310
00000000000000000000000000000000000000000000000000000000000000000000000000000000000000000000000000000005000007070700000000000000000000000000000000000000000000000000000000000000000000000000000000000307070707070303020202020202020200000000000000000000000000
310
00000000000000000000000000000000000000000000000000000000000000000000000000000007070700000500000000000000000000000000000000000000000000000000000000000000000000000000000000000000000000000000000000000000000000000500000707070000000000000000000000000000000000
310
00000000000000000000000000000000000000000000000303030302020303030202020202020202000000000000000000000000000000000000000000000000000000000000000000000000000000000000000000000000000000000707070000050000000000000000000000000000000000000000000000000000000000
310
00000000000000000000000000000000000000000000000000000000000005000007070700000000000000000000000000000000000000000000000000000000000000000000000000000000000000000202000000000000000000000000000000000000000000000000000000000000000000000000000000000000000000
310
00000000000000000000000000000000000007070700000500000000000000000000000000000000000000000000000000000000000000000000000000000000000000000000000000000000000000000000000500000707070000000000000000000000000000000000000000000000000000000000000000000000000000
310
00000000000000000000000000000000000000000000000000000000000000000000000000000000000000000000000000000000000000000000000000000000000000000000000707070000050000000000000000000000000000000000000000000000000000000000000000000000000000000000000000000000000000
310
00000000000000000005000007070700000000000000000000000000000000000000000000000000000000000000000000000000000000000000000000000000000000000000000000000000000000000000000000000000000000000000000000000000000000000000000000000000000000000000000000000000070707
310
00000500000000000000000000000000000000000000000000000000000000000000000000000000000000000000000000000000000000000000000000000500000707070000000000000000000000000000000000000000000000000000000000000000000000000000000000070707070707070700000000000000000000
310
00000000000000000000000000000000000000000000000000000000000000000000000000000000000000000000000000000707070000050000000000000000000000000000000000000000000000000000000000000000000000000000000000000000000000000000000000000000000000050000070707000000000000
310
00000000000000000000000000000000000000000000000000000000000000000000070707070707070703030303030303030000000000000000000000000000000000000000000000000000000000000000000000000000000000000000000000000000000000070707000005000000000000000000000000000000000000
310
00000000000000000000000000000000000000000000000000000000000000000000000000000000000500000707070000000000000000000000000000000000000000000000000000000000000000000000000000000007070707070707070702020003000003000000000000000000000000000000000000000000000000
310
00000000000000000000000000000000000000000000000000000000000707070000050000000000000000000000000000000000000000000000000000000000000000000000000000000000000000000000000000000000000000000000050000070707000000000000000000000000000000000000000000000000000000
310
00000000000000000000000000070707070707070703030302020000030000000000000000000000000000000000000000000000000000000000000000000000000000000000000000000000000000000000070707000005000000000000000000000000000000000000000000000000000000000000000000000000000000
310
00000000000000000000000000000000000000000500000707070000000000000000000000000000000000000000000000000000000000000000000000000000000007070707070707070700000202020203000000000000000000000000000000000000000000000000000000000000000000000000000000000000000000
310
00000000000000000707070000050000000000000000000000000000000000000000000000000000000000000000000000000000000000000000000000000000000000000000000000050000070707000000000000000000000000000000000000000000000000000000000000000000000000000000000707070703030707
310
07000002020202030000000000000000000000000000000000000000000000000000000000000000000000000000000000000000000000000000000000070707000005000000000000000000000000000000000000000000000000000000000000000000000000000000000000000000000000000000000000000000000005
310
00000707070000000000000000000000000000000000000000000000000000000000000000000000000000000007030703070307030303030303030203000000000000000000000000000000000000000000000000000000000000000000000000000000000000000000000000000000000007070700000500000000000000
310
00000000000000000000000000000000000000000000000000000000000000000000000000000000000000000000000000000000050000070707000000000000000000000000000000000000000000000000000000000000000000000000000000000703070303030703070000000300000300000000000000000000000000
310
00000000000000000000000000000000000000000000000000000000000000000000000000000000070707000005000000000000000000000000000000000000000000000000000000000000000000000000000000000000000000000000000000000000000000000005000007070700000000000000000000000000000000
310
00000000000000000000000000000000000000000000000007030707030707030700000000000003000000000000000000000000000000000000000000000000000000000000000000000000000000000000000000000000000000000007070700000500000000000000000000000000000000000000000000000000000000
310
00000000000000000000000000000000000000000000000000000000000000050000070707070707070707070707070707070707070707070707070707000000000000000000000000000000000703070707070303070000000000000300000000000000000000000000000000000000000000000000000000000000000000
310
00000000000000000000000000000000000000070707000005000000000000000000000000000000000000000000000000000000000000000000000000000000000000000000000000000000000000000000000005000007070707070701070707070707070707070707070707070707070707000000000000000000000000
310
00000007030707070703030303030303030303000000000000000000000000000000000000000000000000000000000000000000000000000000000000000000000000000000000007070700000500000000000000000000000000000000000000000000000000000000000000000000000000000000000000000000000000
310
00000000000000000000050000070707020202010202020202020202020707070707070707070707070000000000000000000000000000000703070707070703020202020300000000000000000000000000000000000000000000000000000000000000000000000000000000000000000000000000000000000000000707
310
07000005000000000000000000000000000000000000000000000000000000000000000000000000000000000000000000000000000000000000000000000005000007070702020201020202020202020201010101010101010101070707000000000000000000000000000000000303020202030302020202020000000000
310
00000000000000000000000000000000000000000000000000000000000000000000000000000000000000000000000000000007070700000500000000000000000000000000000000000000000000000000000000000000000000000000000000000000000000000000000000000000000000000500000707070202020102
310
02020202020200000000000000000000000707070000000000000000000000000000000000000202020000000000000000000000000000000000000000000000000000000000000000000000000000000000000000000000000000000000000000000000000000000707070000050000000000000000000000000000000000
310
00000000000000000000000000000000000000000000000000000000000000000000000000000000000005000007070702020201000202020202020000000000000000000000070707000000000000000000000000000000000000000000000000000000000000000000000000000000000000000000000000000000000000
310
00000000000000000000000000000000000000000000000000000000000007070700000500000000000000000000000000000000000000000000000000000000000000000000000000000000000000000000000000000000000000000000000500000707070202010101020202020101010101010101010101010107070700
310
00000000000000000000000000000000000000000000000000000000000000000000000000000000000000000000000000000000000000000000000000000000000000000000000000000000000000000000000707070000050000000000000000000000000000000000000000000000000000000000000000000000000000
310
00000000000000000000000000000000000000000005000007070702020201000202020200000000000000000000000000070707000000000000000000000000000000000000000000000000000000000000000000000000000000000000000000000000000000000000000000000000000000000000000000000000000000
310
00000000000000000007070700000500000000000000000000000000000000000000000000000000000000000000000000000000000000000000000000000000000000000000000000000500000707070101010101010101010101010101010101010101010107070700000000000000000000000000000000000000000000
310
00000000000000000000000000000000000000000000000000000000000000000000000000000000000000000000000000000000000000000000000000000707070000050000000000000000000000000000000000000000000000000000000000000000000000000000000000000000000000000000000000000000000000
310
05000007070707070707070202020202070707070707070707070707070707070707070707070707070707070707070707070707070707070707070707070707070707070707070707070707070707070707070707070707070707070707070707070707070707070707070707070707070707070707000005000000000000
310
00000000000000000000000000000000000000000000000000000000000000000000000000000000000000000000000000000000000500000707070707070707070707020707070707070707070707070707070707070707070707070707070707070707070707070707070707070707070707070707070707070707070707
310
07070707070707070707070707070707070707070707070707070707070707070707070707070707070707070000050000000000000000000000000000000000000000000000000000000000000000000000000000000000000000000000000000000000000000000000050000000707070707070707070707070707070707
310
07070707070707070707070707070707070707070707070707070707070707070707070707070707070707070707070707070707070707070707070707070707070707070707070707070707070707070707070707070707070707070707070700000005000000000000000000000000000000000000000000000000000000
310
00000000000000000000000000000000000000000000000000000000000000000500000000000000000000000000000000000000000000000000000000000000000000000000000000000000000000000000000000000000000000000000000000000000000000000000000000000000000000000000000000000000000000
310
00000000000000000000000000000000000000000000000000050000000000000000000000000000000000000000000000000000000000000000000000000000000000000000000000000000000000000000000000050505050505050505050505050505050505050505050505050505050505050505050505050505050505
310
050505050505050505050505050505050505050505050505050505050505050505050505050505050505050505050505050505050505050505050505050505050505050505050505050505050505050000000000000000000000000000000000000000000000000000000000
  0
ENDSEC
  0
EOF
