  0
SECTION
  2
HEADER
  9
$ACADVER
  1
AC1015
  9
$ACADMAINTVER
 70
    20
  9
$DWGCODEPAGE
  3
ANSI_932
  9
$INSBASE
 10
0.0
 20
0.0
 30
0.0
  9
$EXTMIN
 10
4293.547826521641
 20
-2412.482271409579
 30
0.0
  9
$EXTMAX
 10
4887.54782652164
 20
-1992.482271409578
 30
0.0
  9
$LIMMIN
 10
1735.132052145826
 20
-6087.884660833434
  9
$LIMMAX
 10
2155.132052145826
 20
-5790.884660833434
  9
$ORTHOMODE
 70
     0
  9
$REGENMODE
 70
     1
  9
$FILLMODE
 70
     1
  9
$QTEXTMODE
 70
     0
  9
$MIRRTEXT
 70
     0
  9
$LTSCALE
 40
1.0
  9
$ATTMODE
 70
     1
  9
$TEXTSIZE
 40
3.5
  9
$TRACEWID
 40
1.0
  9
$TEXTSTYLE
  7
STANDARD
  9
$CLAYER
  8
0
  9
$CELTYPE
  6
ByLayer
  9
$CECOLOR
 62
   256
  9
$CELTSCALE
 40
0.5
  9
$DISPSILH
 70
     0
  9
$DIMSCALE
 40
1.0
  9
$DIMASZ
 40
1.0
  9
$DIMEXO
 40
1.0
  9
$DIMDLI
 40
10.0
  9
$DIMRND
 40
0.0
  9
$DIMDLE
 40
0.0
  9
$DIMEXE
 40
1.0
  9
$DIMTP
 40
0.1
  9
$DIMTM
 40
0.1
  9
$DIMTXT
 40
3.5
  9
$DIMCEN
 40
0.0
  9
$DIMTSZ
 40
0.0
  9
$DIMTOL
 70
     0
  9
$DIMLIM
 70
     0
  9
$DIMTIH
 70
     0
  9
$DIMTOH
 70
     0
  9
$DIMSE1
 70
     0
  9
$DIMSE2
 70
     0
  9
$DIMTAD
 70
     1
  9
$DIMZIN
 70
     8
  9
$DIMBLK
  1

  9
$DIMASO
 70
     1
  9
$DIMSHO
 70
     1
  9
$DIMPOST
  1

  9
$DIMAPOST
  1
"
  9
$DIMALT
 70
     0
  9
$DIMALTD
 70
     2
  9
$DIMALTF
 40
0.0393701
  9
$DIMLFAC
 40
1.0
  9
$DIMTOFL
 70
     1
  9
$DIMTVP
 40
0.0
  9
$DIMTIX
 70
     0
  9
$DIMSOXD
 70
     0
  9
$DIMSAH
 70
     0
  9
$DIMBLK1
  1

  9
$DIMBLK2
  1

  9
$DIMSTYLE
  2
SYS
  9
$DIMCLRD
 70
   256
  9
$DIMCLRE
 70
   256
  9
$DIMCLRT
 70
     7
  9
$DIMTFAC
 40
0.71
  9
$DIMGAP
 40
1.5
  9
$DIMJUST
 70
     0
  9
$DIMSD1
 70
     0
  9
$DIMSD2
 70
     0
  9
$DIMTOLJ
 70
     0
  9
$DIMTZIN
 70
     8
  9
$DIMALTZ
 70
     0
  9
$DIMALTTZ
 70
     0
  9
$DIMUPT
 70
     0
  9
$DIMDEC
 70
     1
  9
$DIMTDEC
 70
     2
  9
$DIMALTU
 70
     2
  9
$DIMALTTD
 70
     2
  9
$DIMTXSTY
  7
STANDARD
  9
$DIMAUNIT
 70
     0
  9
$DIMADEC
 70
     0
  9
$DIMALTRND
 40
0.0
  9
$DIMAZIN
 70
     2
  9
$DIMDSEP
 70
    46
  9
$DIMATFIT
 70
     3
  9
$DIMFRAC
 70
     0
  9
$DIMLDRBLK
  1

  9
$DIMLUNIT
 70
     2
  9
$DIMLWD
 70
    -1
  9
$DIMLWE
 70
    -1
  9
$DIMTMOVE
 70
     0
  9
$LUNITS
 70
     2
  9
$LUPREC
 70
     2
  9
$SKETCHINC
 40
1.0
  9
$FILLETRAD
 40
2.0
  9
$AUNITS
 70
     0
  9
$AUPREC
 70
     0
  9
$MENU
  1
.
  9
$ELEVATION
 40
0.0
  9
$PELEVATION
 40
0.0
  9
$THICKNESS
 40
0.0
  9
$LIMCHECK
 70
     0
  9
$CHAMFERA
 40
0.0
  9
$CHAMFERB
 40
0.0
  9
$CHAMFERC
 40
20.0
  9
$CHAMFERD
 40
0.0
  9
$SKPOLY
 70
     0
  9
$TDCREATE
 40
2455567.561054317
  9
$TDUCREATE
 40
2455567.186054318
  9
$TDUPDATE
 40
2456030.707530741
  9
$TDUUPDATE
 40
2456030.332530741
  9
$TDINDWG
 40
8.2695152894
  9
$TDUSRTIMER
 40
8.2695107639
  9
$USRTIMER
 70
     1
  9
$ANGBASE
 50
0.0
  9
$ANGDIR
 70
     0
  9
$PDMODE
 70
     0
  9
$PDSIZE
 40
-3.0
  9
$PLINEWID
 40
0.0
  9
$SPLFRAME
 70
     0
  9
$SPLINETYPE
 70
     6
  9
$SPLINESEGS
 70
     8
  9
$HANDSEED
  5
52840
  9
$SURFTAB1
 70
     6
  9
$SURFTAB2
 70
     6
  9
$SURFTYPE
 70
     6
  9
$SURFU
 70
     6
  9
$SURFV
 70
     6
  9
$UCSBASE
  2

  9
$UCSNAME
  2

  9
$UCSORG
 10
0.0
 20
0.0
 30
0.0
  9
$UCSXDIR
 10
1.0
 20
0.0
 30
0.0
  9
$UCSYDIR
 10
0.0
 20
1.0
 30
0.0
  9
$UCSORTHOREF
  2

  9
$UCSORTHOVIEW
 70
     0
  9
$UCSORGTOP
 10
0.0
 20
0.0
 30
0.0
  9
$UCSORGBOTTOM
 10
0.0
 20
0.0
 30
0.0
  9
$UCSORGLEFT
 10
0.0
 20
0.0
 30
0.0
  9
$UCSORGRIGHT
 10
0.0
 20
0.0
 30
0.0
  9
$UCSORGFRONT
 10
0.0
 20
0.0
 30
0.0
  9
$UCSORGBACK
 10
0.0
 20
0.0
 30
0.0
  9
$PUCSBASE
  2

  9
$PUCSNAME
  2

  9
$PUCSORG
 10
0.0
 20
0.0
 30
0.0
  9
$PUCSXDIR
 10
1.0
 20
0.0
 30
0.0
  9
$PUCSYDIR
 10
0.0
 20
1.0
 30
0.0
  9
$PUCSORTHOREF
  2

  9
$PUCSORTHOVIEW
 70
     0
  9
$PUCSORGTOP
 10
0.0
 20
0.0
 30
0.0
  9
$PUCSORGBOTTOM
 10
0.0
 20
0.0
 30
0.0
  9
$PUCSORGLEFT
 10
0.0
 20
0.0
 30
0.0
  9
$PUCSORGRIGHT
 10
0.0
 20
0.0
 30
0.0
  9
$PUCSORGFRONT
 10
0.0
 20
0.0
 30
0.0
  9
$PUCSORGBACK
 10
0.0
 20
0.0
 30
0.0
  9
$USERI1
 70
     0
  9
$USERI2
 70
     0
  9
$USERI3
 70
     0
  9
$USERI4
 70
     0
  9
$USERI5
 70
     0
  9
$USERR1
 40
0.0
  9
$USERR2
 40
0.0
  9
$USERR3
 40
0.0
  9
$USERR4
 40
0.0
  9
$USERR5
 40
0.0
  9
$WORLDVIEW
 70
     1
  9
$SHADEDGE
 70
     3
  9
$SHADEDIF
 70
    70
  9
$TILEMODE
 70
     1
  9
$MAXACTVP
 70
    64
  9
$PINSBASE
 10
0.0
 20
0.0
 30
0.0
  9
$PLIMCHECK
 70
     0
  9
$PEXTMIN
 10
1.000000000000000E+20
 20
1.000000000000000E+20
 30
1.000000000000000E+20
  9
$PEXTMAX
 10
-1.000000000000000E+20
 20
-1.000000000000000E+20
 30
-1.000000000000000E+20
  9
$PLIMMIN
 10
-3.17498779296875
 20
-3.174999952316283
  9
$PLIMMAX
 10
293.4970092773438
 20
206.692492723465
  9
$UNITMODE
 70
     0
  9
$VISRETAIN
 70
     1
  9
$PLINEGEN
 70
     0
  9
$PSLTSCALE
 70
     1
  9
$TREEDEPTH
 70
  3020
  9
$CMLSTYLE
  2
Standard
  9
$CMLJUST
 70
     0
  9
$CMLSCALE
 40
20.0
  9
$PROXYGRAPHICS
 70
     1
  9
$MEASUREMENT
 70
     1
  9
$CELWEIGHT
370
    -1
  9
$ENDCAPS
280
     0
  9
$JOINSTYLE
280
     0
  9
$LWDISPLAY
290
     1
  9
$INSUNITS
 70
     4
  9
$HYPERLINKBASE
  1

  9
$STYLESHEET
  1
MONOCHROME.CTB
  9
$XEDIT
290
     1
  9
$CEPSNTYPE
380
     0
  9
$PSTYLEMODE
290
     1
  9
$FINGERPRINTGUID
  2
{E0FB5660-30B4-4D8A-8C1D-9D7E99D72F0A}
  9
$VERSIONGUID
  2
{80FD19A7-8289-4DED-B3D5-CA473A89D83C}
  9
$EXTNAMES
290
     1
  9
$PSVPSCALE
 40
0.0
  9
$OLESTARTUP
290
     0
  0
ENDSEC
  0
SECTION
  2
CLASSES
  0
CLASS
  1
ACDBDICTIONARYWDFLT
  2
AcDbDictionaryWithDefault
  3
ObjectDBX Classes
 90
        0
280
     0
281
     0
  0
CLASS
  1
ACDBPLACEHOLDER
  2
AcDbPlaceHolder
  3
ObjectDBX Classes
 90
        0
280
     0
281
     0
  0
CLASS
  1
LAYOUT
  2
AcDbLayout
  3
ObjectDBX Classes
 90
        0
280
     0
281
     0
  0
CLASS
  1
AMGSETTINGSOBJ
  2
AmgSettingsObj
  3
"AcadM|Product Description: AutoCAD Mechanical|Company: Autodesk"
 90
        0
280
     0
281
     0
  0
CLASS
  1
ACME_DOCUMENT
  2
AcMeDbDoc
  3
AcMeServices
 90
        0
280
     0
281
     0
  0
CLASS
  1
ACMESCOPE
  2
AcMeScope
  3
AcMeServices
 90
        0
280
     0
281
     0
  0
CLASS
  1
ACMECOMMANDHISTORY
  2
AcMeCommandHistory
  3
AcMeServices
 90
        0
280
     0
281
     0
  0
CLASS
  1
DICTIONARYVAR
  2
AcDbDictionaryVar
  3
ObjectDBX Classes
 90
        0
280
     0
281
     0
  0
CLASS
  1
ACIMSYSVARMAN
  2
AcImSysVarManager
  3
AcMeServices
 90
        0
280
     0
281
     0
  0
CLASS
  1
ACIMREALSYSVAR
  2
AcImRealSysVar
  3
AcMeServices
 90
        0
280
     0
281
     0
  0
CLASS
  1
ACIMINTSYSVAR
  2
AcImIntSysVar
  3
AcMeServices
 90
        0
280
     0
281
     0
  0
CLASS
  1
ACMEDRAWINGMAN
  2
AcMeDrawingMan
  3
AcMeServices
 90
        0
280
     0
281
     0
  0
CLASS
  1
ACMEVIEW
  2
AcMeView
  3
AcMeServices
 90
        0
280
     0
281
     0
  0
CLASS
  1
ACDBENTITYCACHE
  2
AcMeEntityCache
  3
AcMeServices
 90
        0
280
     0
281
     0
  0
CLASS
  1
GSMANAGER
  2
AcMeGSManager
  3
AcMeServices
 90
        0
280
     0
281
     0
  0
CLASS
  1
AMDTINTERNALREACTOR
  2
AmdtInternalReactor
  3
AcMeServices
 90
        0
280
     0
281
     0
  0
CLASS
  1
ACMESTATEMGR
  2
AcMeStateMgr
  3
AcMeServices
 90
        0
280
     0
281
     0
  0
CLASS
  1
ACGREFMASTER
  2
AcGrefMaster
  3
AcAttribServices
 90
        0
280
     0
281
     0
  0
CLASS
  1
ACME_DATABASE
  2
AcMeDbDatabase
  3
AcMeServices
 90
        0
280
     0
281
     0
  0
CLASS
  1
ACRFINSADJUSTERMGR
  2
AcRfInsAdjusterMgr
  3
AcMeServices
 90
        0
280
     0
281
     0
  0
CLASS
  1
ACGREFACADMASTER
  2
AcGrefacadMaster
  3
AcGrefServices
 90
        0
280
     0
281
     0
  0
CLASS
  1
AMIMASTER
  2
AmiMaster
  3
AmiServices
 90
        0
280
     0
281
     0
  0
CLASS
  1
ACMDATADICTIONARY
  2
AcmDataDictionary
  3
"AcmSymBB|Product Description: AutoCAD Mechanical|Company: Autodesk"
 90
        0
280
     0
281
     0
  0
CLASS
  1
ACMDATAENTRYBLOCK
  2
AcmDataEntryBlock
  3
"AcmSymBB|Product Description: AutoCAD Mechanical|Company: Autodesk"
 90
    32768
280
     0
281
     0
  0
CLASS
  1
ACIMSTRSYSVAR
  2
AcImStrSysVar
  3
AcMeServices
 90
        0
280
     0
281
     0
  0
CLASS
  1
ACMSTANDARDISO
  2
AcmStandardISO
  3
"Amdt_StdImp|Product Description: AutoCAD Mechanical|Company: Autodesk"
 90
        0
280
     0
281
     0
  0
CLASS
  1
AMGOBJPROPCFG
  2
AmgObjPropCfg
  3
"AmgLay|Product Description: AutoCAD Mechanical|Company: Autodesk"
 90
        1
280
     0
281
     0
  0
CLASS
  1
AMDTEDGESTANDARDISO
  2
AmdtEdgeStdISO
  3
"Amdt_StdImp|Product Description: AutoCAD Mechanical|Company: Autodesk"
 90
    32768
280
     0
281
     0
  0
CLASS
  1
ACMSURFSTANDARDISO
  2
AcmSurfTextStdISO
  3
"Amdt_StdImp|Product Description: AutoCAD Mechanical|Company: Autodesk"
 90
        0
280
     0
281
     0
  0
CLASS
  1
ACMFCFSTANDARDISO
  2
AcmFCFStdISO
  3
"Amdt_StdImp|Product Description: AutoCAD Mechanical|Company: Autodesk"
 90
        0
280
     0
281
     0
  0
CLASS
  1
ACMWELDSTANDARDISO
  2
AcmWeldingStdISO
  3
"Amdt_StdImp|Product Description: AutoCAD Mechanical|Company: Autodesk"
 90
        0
280
     0
281
     0
  0
CLASS
  1
ACMIDSTANDARDISO
  2
AcmIdStdISO
  3
"Amdt_StdImp|Product Description: AutoCAD Mechanical|Company: Autodesk"
 90
        0
280
     0
281
     0
  0
CLASS
  1
ACMDATUMSTANDARDISO
  2
AcmDatumStdISO
  3
"Amdt_StdImp|Product Description: AutoCAD Mechanical|Company: Autodesk"
 90
        0
280
     0
281
     0
  0
CLASS
  1
ACMBOMSTANDARDISO
  2
AcmBOMStdISO
  3
"Amdt_StdImp|Product Description: AutoCAD Mechanical|Company: Autodesk"
 90
        0
280
     0
281
     0
  0
CLASS
  1
ACMDETAILSTANDARDISO
  2
AmdtDetailSymStdISO
  3
"Amdt_StdImp|Product Description: AutoCAD Mechanical|Company: Autodesk"
 90
        0
280
     0
281
     0
  0
CLASS
  1
ACMSECTIONSTANDARDISO
  2
AmdtSectionSymStdISO
  3
"Amdt_StdImp|Product Description: AutoCAD Mechanical|Company: Autodesk"
 90
        0
280
     0
281
     0
  0
CLASS
  1
ACMCENTERLINESTANDARDISO
  2
AmdtCenterLineStdISO
  3
"Amdt_StdImp|Product Description: AutoCAD Mechanical|Company: Autodesk"
 90
        0
280
     0
281
     0
  0
CLASS
  1
ACAMGLAYSTD
  2
AcAmgLayStd
  3
"AmgLay|Product Description: AutoCAD Mechanical|Company: Autodesk"
 90
        0
280
     0
281
     0
  0
CLASS
  1
ACAMGDIMSTD
  2
AcAmgDimStd
  3
"AmgDim|Product Description: AutoCAD Mechanical|Company: Autodesk"
 90
        0
280
     0
281
     0
  0
CLASS
  1
ACAMGTITLESTD
  2
AcAmgTitleStd
  3
"AmgTitle|Product Description: AutoCAD Mechanical|Company: Autodesk"
 90
        0
280
     0
281
     0
  0
CLASS
  1
ACAMGFILTERDAT
  2
AcAmgFilterDat
  3
"AcadM|Product Description: AutoCAD Mechanical|Company: Autodesk"
 90
    32768
280
     0
281
     0
  0
CLASS
  1
LAYER_INDEX
  2
AcDbLayerIndex
  3
ObjectDBX Classes
 90
    32768
280
     0
281
     0
  0
CLASS
  1
IDBUFFER
  2
AcDbIdBuffer
  3
ObjectDBX Classes
 90
    32768
280
     0
281
     0
  0
CLASS
  1
PLOTSETTINGS
  2
AcDbPlotSettings
  3
ObjectDBX Classes
 90
    32768
280
     0
281
     0
  0
CLASS
  1
AMDTFORMULAUPDATEDISPATCHER
  2
AmdtFormulaUpdateDispatcher
  3
AcMeServices
 90
    32768
280
     0
281
     0
  0
CLASS
  1
ACMSTANDARDANSI
  2
AcmStandardANSI
  3
"Amdt_StdImp|Product Description: AutoCAD Mechanical|Company: Autodesk"
 90
    32768
280
     0
281
     0
  0
CLASS
  1
ACMSURFSTANDARDANSI
  2
AcmSurfTextStdANSI
  3
"Amdt_StdImp|Product Description: AutoCAD Mechanical|Company: Autodesk"
 90
    32768
280
     0
281
     0
  0
CLASS
  1
ACMFCFSTANDARDANSI
  2
AcmFCFStdANSI
  3
"Amdt_StdImp|Product Description: AutoCAD Mechanical|Company: Autodesk"
 90
    32768
280
     0
281
     0
  0
CLASS
  1
ACMWELDSTANDARDANSI
  2
AcmWeldingStdANSI
  3
"Amdt_StdImp|Product Description: AutoCAD Mechanical|Company: Autodesk"
 90
    32768
280
     0
281
     0
  0
CLASS
  1
ACMIDSTANDARDANSI
  2
AcmIdStdANSI
  3
"Amdt_StdImp|Product Description: AutoCAD Mechanical|Company: Autodesk"
 90
    32768
280
     0
281
     0
  0
CLASS
  1
ACMDATUMSTANDARDANSI
  2
AcmDatumStdANSI
  3
"Amdt_StdImp|Product Description: AutoCAD Mechanical|Company: Autodesk"
 90
    32768
280
     0
281
     0
  0
CLASS
  1
ACMBOMSTANDARDANSI
  2
AcmBOMStdANSI
  3
"Amdt_StdImp|Product Description: AutoCAD Mechanical|Company: Autodesk"
 90
    32768
280
     0
281
     0
  0
CLASS
  1
ACMDETAILSTANDARDANSI
  2
AmdtDetailSymStdANSI
  3
"Amdt_StdImp|Product Description: AutoCAD Mechanical|Company: Autodesk"
 90
    32768
280
     0
281
     0
  0
CLASS
  1
ACMSECTIONSTANDARDANSI
  2
AmdtSectionSymStdANSI
  3
"Amdt_StdImp|Product Description: AutoCAD Mechanical|Company: Autodesk"
 90
    32768
280
     0
281
     0
  0
CLASS
  1
ACMCENTERLINESTANDARDANSI
  2
AmdtCenterLineStdANSI
  3
"Amdt_StdImp|Product Description: AutoCAD Mechanical|Company: Autodesk"
 90
    32768
280
     0
281
     0
  0
CLASS
  1
ACMBOM
  2
AcmBom
  3
"AcmSymBB|Product Description: AutoCAD Mechanical|Company: Autodesk"
 90
    32768
280
     0
281
     0
  0
CLASS
  1
ACMDATAENTRYPART
  2
AcmDataEntryPart
  3
"AcmSymBB|Product Description: AutoCAD Mechanical|Company: Autodesk"
 90
    32768
280
     0
281
     0
  0
CLASS
  1
ACMPARTREF
  2
AcmPartRef
  3
"AcmSymBB|Product Description: AutoCAD Mechanical|Company: Autodesk"
 90
    35839
280
     0
281
     1
  0
CLASS
  1
ACDBCIRCARCRES
  2
AcDbCircArcRes
  3
AcGrefServices
 90
    32768
280
     0
281
     0
  0
CLASS
  1
ACMBOMROW
  2
AcmBomRow
  3
"AcmSymBB|Product Description: AutoCAD Mechanical|Company: Autodesk"
 90
    32768
280
     0
281
     0
  0
CLASS
  1
ACMBALLOON
  2
AcmBalloon
  3
"AcmSymBB|Product Description: AutoCAD Mechanical|Company: Autodesk"
 90
    35839
280
     0
281
     1
  0
CLASS
  1
AMDTNOTE
  2
AmdtNote
  3
"AcmSymBB|Product Description: AutoCAD Mechanical|Company: Autodesk"
 90
    35839
280
     0
281
     1
  0
CLASS
  1
STDPART2D
  2
AmgStdPart
  3
"g3vace|Class: AmgStdPart|Product Description: AutoCAD Mechanical|Company: Autodesk"
 90
    35839
280
     0
281
     1
  0
CLASS
  1
ACDBSTDPARTRES_LINE
  2
AcDbStdPartRes_Line
  3
"g3vace|Class: AcDbStdPartRes_Line|Product Description: AutoCAD Mechanical|Company: Autodesk"
 90
    32768
280
     0
281
     0
  0
CLASS
  1
ACMDATAENTRY
  2
AcmDataEntry
  3
"AcmSymBB|Product Description: AutoCAD Mechanical|Company: Autodesk"
 90
    32768
280
     0
281
     0
  0
CLASS
  1
ACDBOPPOLYLINERES
  2
AcDbOpPolylineRes
  3
AcGrefServices
 90
    32768
280
     0
281
     0
  0
CLASS
  1
ACMPARTLIST
  2
AcmPartList
  3
"AcmSymBB|Product Description: AutoCAD Mechanical|Company: Autodesk"
 90
    35839
280
     0
281
     1
  0
CLASS
  1
ACDBLINERES
  2
AcDbLineRes
  3
AcGrefServices
 90
    32768
280
     0
281
     0
  0
CLASS
  1
ACRFINSADJ
  2
AcRfInsAdjuster
  3
AcMeServices
 90
    32768
280
     0
281
     0
  0
CLASS
  1
AM_DRAWING_MGR
  2
AcDmDwgMgr
  3
AcMechDwgViewMgmt
 90
        0
280
     0
281
     0
  0
CLASS
  1
AM_DWG_DOCUMENT
  2
AcDmDwgDocument
  3
AcMechDwgViewMgmt
 90
        0
280
     0
281
     0
  0
CLASS
  1
AM_DWG_SHEET
  2
AcDmSheet
  3
AcMechDwgViewMgmt
 90
        0
280
     0
281
     0
  0
CLASS
  1
AM_VIEWDIMPARMAP
  2
AcDmViewDimParMap
  3
AcMechDwgViewMgmt
 90
        0
280
     0
281
     0
  0
CLASS
  1
AM_DWGMGR_NAME
  2
AcDmDwgMgrName
  3
AcMechDwgViewMgmt
 90
        0
280
     0
281
     0
  0
CLASS
  1
AMDTMENUSTATEMGR
  2
AmdtMenuStateMgr
  3
McadcomServices
 90
        0
280
     0
281
     0
  0
CLASS
  1
AMDTMCOMMENUSTATE
  2
AmdtMcomMenuState
  3
McadcomServices
 90
        0
280
     0
281
     0
  0
CLASS
  1
ASAPP
  2
AcAsAppObject
  3
AutoSurfServices
 90
        0
280
     0
281
     0
  0
CLASS
  1
IM_STATIC_MAN
  2
AcImStaticVarManager
  3
AcMeServices
 90
    32768
280
     0
281
     0
  0
CLASS
  1
ACIMDBLSTATICVAR
  2
AcImDblStaticVar
  3
AcMeServices
 90
    32768
280
     0
281
     0
  0
CLASS
  1
ACIMSTRSTATICVAR
  2
AcImStrStaticVar
  3
AcMeServices
 90
    32768
280
     0
281
     0
  0
CLASS
  1
ACIMINTSTATICVAR
  2
AcImIntStaticVar
  3
AcMeServices
 90
    32768
280
     0
281
     0
  0
CLASS
  1
ACASGREFMASTER
  2
AcAsGrefMaster
  3
AutoSurfResolverServices
 90
        0
280
     0
281
     0
  0
CLASS
  1
ACADGREFMODULE
  2
AcAdGrefModule
  3
AdGrefServices
 90
        0
280
     0
281
     0
  0
CLASS
  1
AMDTMAPISURFMOUDULE
  2
AmdtMApiSurfModule
  3
MApiSurfServices
 90
        0
280
     0
281
     0
  0
CLASS
  1
MAPIAMMOUDLE
  2
MApiAmModule
  3
MApiAmServices
 90
        0
280
     0
281
     0
  0
CLASS
  1
AMDTADMENUSTATE
  2
AmdtAdMenuState
  3
DesignerServices
 90
        0
280
     0
281
     0
  0
CLASS
  1
ADAPPL
  2
AcAdAppl
  3
DesignerServices
 90
        0
280
     0
281
     0
  0
CLASS
  1
DEPMGR
  2
AcAdDepMgr
  3
DesignerServices
 90
        0
280
     0
281
     0
  0
CLASS
  1
PARAMMGR
  2
AcAdParamMgr
  3
DesignerServices
 90
        0
280
     0
281
     0
  0
CLASS
  1
PARAMSCOPE
  2
AcAdParamScope
  3
DesignerServices
 90
        0
280
     0
281
     0
  0
CLASS
  1
NAMEDAPPL
  2
AcAdNamedAppl
  3
DesignerServices
 90
        0
280
     0
281
     0
  0
CLASS
  1
ADHNTMPLT
  2
AdHoleNoteTemplateMgr
  3
DesignerServices
 90
    32768
280
     0
281
     0
  0
CLASS
  1
AM_HNTEMPLATE_MGR_NAME
  2
AdHoleNoteTemplateMgrName
  3
DesignerServices
 90
    32768
280
     0
281
     0
  0
CLASS
  1
AMDTDMMENUSTATE
  2
AmdtDmMenuState
  3
AcMechDwgViewMgmt
 90
        0
280
     0
281
     0
  0
CLASS
  1
MAPIADMODULE
  2
MApiAdModule
  3
MApiAdServices
 90
        0
280
     0
281
     0
  0
CLASS
  1
AMDTAMMENUSTATE
  2
AmdtAmMenuState
  3
DesignerAssemblies
 90
        0
280
     0
281
     0
  0
CLASS
  1
ACAMPROJECT
  2
AcAmProject
  3
DesignerAssemblies
 90
        0
280
     0
281
     0
  0
CLASS
  1
ACAMGRCOMPDEF
  2
AcAmGrCompDef
  3
DesignerAssemblies
 90
        0
280
     0
281
     0
  0
CLASS
  1
ACCMCONTEXT
  2
AcCmContext
  3
DesignerAssemblies
 90
        0
280
     0
281
     0
  0
CLASS
  1
ACAMCOMPDEF
  2
AcAmCompDef
  3
DesignerAssemblies
 90
        0
280
     0
281
     0
  0
CLASS
  1
ACAMCOMPDEFMGR
  2
AcAmCompDefMgr
  3
DesignerAssemblies
 90
        0
280
     0
281
     0
  0
CLASS
  1
AMCONTEXTMGR
  2
AcAmContextMgr
  3
DesignerAssemblies
 90
        0
280
     0
281
     0
  0
CLASS
  1
ACAMCONTEXTMODELER
  2
AcAmContextModeler
  3
DesignerAssemblies
 90
        0
280
     0
281
     0
  0
CLASS
  1
CATALOGSTATE
  2
AcAmCatalogState
  3
DesignerAssemblies
 90
        0
280
     0
281
     0
  0
CLASS
  1
ACAMGRCOMPDEFSET
  2
AcAmGrCompDefSet
  3
DesignerAssemblies
 90
        0
280
     0
281
     0
  0
CLASS
  1
AMDTBROWSERDBTAB
  2
AmdtBrowserDbTab
  3
McadcomServices
 90
        0
280
     0
281
     0
  0
CLASS
  1
CBROWSERAPPOBJECT
  2
CBrowserAppObject
  3
McadcomServices
 90
        0
280
     0
281
     0
  0
CLASS
  1
DM_PLACEHOLDER
  2
AcDmSelsetPlaceholder
  3
AcMechDwgViewMgmt
 90
        0
280
     0
281
     0
  0
CLASS
  1
ACMPICKOBJ
  2
AcmPickEnt
  3
"AcmSymBB|Product Description: AutoCAD Mechanical|Company: Autodesk"
 90
    32768
280
     0
281
     1
  0
CLASS
  1
ACMNOTESTANDARDISO
  2
AmdtNoteStdISO
  3
"Amdt_StdImp|Product Description: AutoCAD Mechanical|Company: Autodesk"
 90
        0
280
     0
281
     0
  0
CLASS
  1
ACMNOTESTANDARDANSI
  2
AmdtNoteStdANSI
  3
"Amdt_StdImp|Product Description: AutoCAD Mechanical|Company: Autodesk"
 90
    32768
280
     0
281
     0
  0
CLASS
  1
ACMTHREADLINESTANDARDISO
  2
AmdtThreadLineStdISO
  3
"Amdt_StdImp|Product Description: AutoCAD Mechanical|Company: Autodesk"
 90
        0
280
     0
281
     0
  0
CLASS
  1
ACMTHREADLINESTANDARDANSI
  2
AmdtThreadLineStdANSI
  3
"Amdt_StdImp|Product Description: AutoCAD Mechanical|Company: Autodesk"
 90
    32768
280
     0
281
     0
  0
CLASS
  1
TABLESTYLE
  2
AcDbTableStyle
  3
ObjectDBX Classes
 90
     4095
280
     0
281
     0
  0
CLASS
  1
SORTENTSTABLE
  2
AcDbSortentsTable
  3
ObjectDBX Classes
 90
        0
280
     0
281
     0
  0
CLASS
  1
MATERIAL
  2
AcDbMaterial
  3
ObjectDBX Classes
 90
     1024
280
     0
281
     0
  0
CLASS
  1
VISUALSTYLE
  2
AcDbVisualStyle
  3
ObjectDBX Classes
 90
     4095
280
     0
281
     0
  0
CLASS
  1
ACRFATTGENMGR
  2
AcRfAttGeneralMgr
  3
AcAttribServices
 90
    32768
280
     0
281
     0
  0
CLASS
  1
ACRFOBJATTMGR
  2
AcRfObjAttGroupMgr
  3
AcAttribServices
 90
    32768
280
     0
281
     0
  0
CLASS
  1
ACRFMCADAPIATTHOLDER
  2
AcRfMCADAPIAttHolder
  3
AcAttribServices
 90
    32768
280
     0
281
     0
  0
CLASS
  1
AMDTSYSATTR
  2
AmdtSystemAttribute
  3
AcAttribServices
 90
    32768
280
     0
281
     0
  0
CLASS
  1
ACMTAPERSTANDARDISO
  2
AcmTaperStdISO
  3
"Amdt_StdImp|Product Description: AutoCAD Mechanical|Company: Autodesk"
 90
        0
280
     0
281
     0
  0
CLASS
  1
CAMSSTRUCTBTNSTATE
  2
StructBtnState
  3
L"DesignerAssemblies"
 90
    32768
280
     0
281
     0
  0
CLASS
  1
DIMASSOC
  2
AcDbDimAssoc
  3
"AcDbDimAssoc|Product Desc:     AcDim ARX App For Dimension|Company:          Autodesk, Inc.|WEB Address:      www.autodesk.com"
 90
    32768
280
     0
281
     0
  0
CLASS
  1
AMDTNOTETEMPLATEDB
  2
AmdtNoteTemplateDB
  3
AMDT_STDIMP_MODULE_NAME
 90
        0
280
     0
281
     0
  0
CLASS
  1
ACMTAPERSTANDARDANSI
  2
AcmTaperStdANSI
  3
"Amdt_StdImp|Product Description: AutoCAD Mechanical|Company: Autodesk"
 90
    32768
280
     0
281
     0
  0
CLASS
  1
ACAMGHOLECHARTSTDANSI
  2
AcAmgHoleChartStdANSI
  3
ACMSYMBB_MODULE_NAME
 90
    32768
280
     0
281
     0
  0
CLASS
  1
AMDTACMWBLOCKBOMENTITY
  2
AmdtAcmWblockBomEntity
  3
"AcmSymBB|Product Description: AutoCAD Mechanical|Company: Autodesk"
 90
     3071
280
     0
281
     1
  0
CLASS
  1
EXACXREFPANELOBJECT
  2
ExAcXREFPanelObject
  3
EXAC_ESW
 90
    33793
280
     0
281
     0
  0
CLASS
  1
NPOCOLLECTION
  2
AcDbImpNonPersistentObjectsCollection
  3
ObjectDBX Classes
 90
    33921
280
     0
281
     0
  0
CLASS
  1
LARGE_RADIAL_DIMENSION
  2
AcDbRadialDimensionLarge
  3
ObjectDBX Classes
 90
    33793
280
     0
281
     1
  0
CLASS
  1
AMDTEDGESTANDARDISO13715
  2
AmdtEdgeStdISO13715
  3
"Amdt_StdImp|Product Description: AutoCAD Mechanical|Company: Autodesk"
 90
        0
280
     0
281
     0
  0
CLASS
  1
ACAMGHOLECHARTSTDISO
  2
AcAmgHoleChartStdISO
  3
ACMSYMBB_MODULE_NAME
 90
        0
280
     0
281
     0
  0
ENDSEC
  0
SECTION
  2
TABLES
  0
TABLE
  2
VPORT
  5
8
102
{ACAD_XDICTIONARY
360
52718
102
}
330
0
100
AcDbSymbolTable
 70
     1
  0
VPORT
  5
B0EC
330
8
100
AcDbSymbolTableRecord
100
AcDbViewportTableRecord
  2
*Active
 70
     0
 10
0.0
 20
0.0
 11
1.0
 21
1.0
 12
4618.105439441626
 22
-2195.988616127511
 13
0.0
 23
0.0
 14
2.5
 24
2.5
 15
10.0
 25
10.0
 16
0.0
 26
0.0
 36
1.0
 17
0.0
 27
0.0
 37
0.0
 40
421.4704948584277
 41
2.04325699745547
 42
50.0
 43
-1370.695619172058
 44
-1370.695619172058
 50
0.0
 51
0.0
 71
     0
 72
   100
 73
     1
 74
     3
 75
     0
 76
     0
 77
     0
 78
     0
281
     0
 65
     0
110
0.0
120
0.0
130
0.0
111
1.0
121
0.0
131
0.0
112
0.0
122
1.0
132
0.0
 79
     0
146
0.0
  0
ENDTAB
  0
TABLE
  2
LTYPE
  5
5
330
0
100
AcDbSymbolTable
 70
    34
  0
LTYPE
  5
14
330
5
100
AcDbSymbolTableRecord
100
AcDbLinetypeTableRecord
  2
ByBlock
 70
     0
  3

 72
    65
 73
     0
 40
0.0
  0
LTYPE
  5
15
330
5
100
AcDbSymbolTableRecord
100
AcDbLinetypeTableRecord
  2
ByLayer
 70
     0
  3

 72
    65
 73
     0
 40
0.0
  0
LTYPE
  5
16
330
5
100
AcDbSymbolTableRecord
100
AcDbLinetypeTableRecord
  2
Continuous
 70
     0
  3
Solid line
 72
    65
 73
     0
 40
0.0
  0
LTYPE
  5
4F
330
5
100
AcDbSymbolTableRecord
100
AcDbLinetypeTableRecord
  2
AM_ISO02W050
 70
     0
  3
__ __ __ __ __ __ __ __ __ __ __ __ __ __ __
 72
    65
 73
     2
 40
7.5
 49
6.0
 74
     0
 49
-1.5
 74
     0
  0
LTYPE
  5
52
330
5
100
AcDbSymbolTableRecord
100
AcDbLinetypeTableRecord
  2
Amconstr
 70
     0
  3
_______________________
 72
    65
 73
     2
 40
9999.0
 49
9999.0
 74
     0
 49
0.0
 74
     0
  0
LTYPE
  5
64
330
5
100
AcDbSymbolTableRecord
100
AcDbLinetypeTableRecord
  2
ACISOWELD
 70
     0
  3
_ _ _ _ _
 72
    65
 73
     2
 40
2.0
 49
2.0
 74
     0
 49
-1.0
 74
     0
  0
LTYPE
  5
65
330
5
100
AcDbSymbolTableRecord
100
AcDbLinetypeTableRecord
  2
ACISOTGB
 70
     0
  3
__ . . __ . .
 72
    65
 73
     6
 40
9.0
 49
4.0
 74
     0
 49
-1.0
 74
     0
 49
1.0
 74
     0
 49
-1.0
 74
     0
 49
1.0
 74
     0
 49
-1.0
 74
     0
  0
LTYPE
  5
66
330
5
100
AcDbSymbolTableRecord
100
AcDbLinetypeTableRecord
  2
ACISOTGL
 70
     0
  3
_ _ _ _ _
 72
    65
 73
     2
 40
3.0
 49
2.0
 74
     0
 49
-1.0
 74
     0
  0
LTYPE
  5
69
330
5
100
AcDbSymbolTableRecord
100
AcDbLinetypeTableRecord
  2
CENTER
 70
     0
  3
__ . __
 72
    65
 73
     4
 40
7.0
 49
4.0
 74
     0
 49
-1.0
 74
     0
 49
1.0
 74
     0
 49
-1.0
 74
     0
  0
LTYPE
  5
A6E
330
5
100
AcDbSymbolTableRecord
100
AcDbLinetypeTableRecord
  2
PHANTOM2
 70
     0
  3
Phantom (.5x) ___ _ _ ___ _ _ ___ _ _ ___ _ _
 72
    65
 73
     6
 40
31.75
 49
15.875
 74
     0
 49
-3.174999999999998
 74
     0
 49
3.174999999999998
 74
     0
 49
-3.174999999999998
 74
     0
 49
3.174999999999998
 74
     0
 49
-3.174999999999998
 74
     0
  0
LTYPE
  5
4DED
330
5
100
AcDbSymbolTableRecord
100
AcDbLinetypeTableRecord
  2
中線
 70
     0
  3
___________________
 72
    65
 73
     2
 40
2.0
 49
1.0
 74
     0
 49
1.0
 74
     0
  0
LTYPE
  5
4DF6
330
5
100
AcDbSymbolTableRecord
100
AcDbLinetypeTableRecord
  2
細線
 70
     0
  3
___________________
 72
    65
 73
     2
 40
2.0
 49
1.0
 74
     0
 49
1.0
 74
     0
  0
LTYPE
  5
4DF7
330
5
100
AcDbSymbolTableRecord
100
AcDbLinetypeTableRecord
  2
太線
 70
     0
  3
___________________
 72
    65
 73
     2
 40
2.0
 49
1.0
 74
     0
 49
1.0
 74
     0
  0
LTYPE
  5
4EA7
330
5
100
AcDbSymbolTableRecord
100
AcDbLinetypeTableRecord
  2
文字
 70
     0
  3
_________________
 72
    65
 73
     2
 40
2.0
 49
1.0
 74
     0
 49
1.0
 74
     0
  0
LTYPE
  5
4EA9
330
5
100
AcDbSymbolTableRecord
100
AcDbLinetypeTableRecord
  2
寸法線
 70
     0
  3
________________
 72
    65
 73
     2
 40
2.0
 49
1.0
 74
     0
 49
1.0
 74
     0
  0
LTYPE
  5
4F12
330
5
100
AcDbSymbolTableRecord
100
AcDbLinetypeTableRecord
  2
ハッチング
 70
     0
  3
_________________
 72
    65
 73
     2
 40
2.0
 49
1.0
 74
     0
 49
1.0
 74
     0
  0
LTYPE
  5
5180
330
5
100
AcDbSymbolTableRecord
100
AcDbLinetypeTableRecord
  2
陰線1
 70
     0
  3
__ __ __ __
 72
    65
 73
     2
 40
4.0
 49
2.2
 74
     0
 49
-1.8
 74
     0
  0
LTYPE
  5
5182
330
5
100
AcDbSymbolTableRecord
100
AcDbLinetypeTableRecord
  2
切断線
 70
     0
  3
/\/-/\/-/\/-/\/-/\/-/\/
 72
    65
 73
     2
 40
11.0001
 49
0.0001
 74
     4
 75
   135
340
56
 46
0.04
 50
0.0
 44
0.0
 45
0.0
 49
-11.0
 74
     0
  0
LTYPE
  5
5183
330
5
100
AcDbSymbolTableRecord
100
AcDbLinetypeTableRecord
  2
想像線1
 70
     0
  3
__ __ __ _____ __ __ ____
 72
    65
 73
     6
 40
14.5
 49
6.0
 74
     0
 49
-1.5
 74
     0
 49
2.0
 74
     0
 49
-1.5
 74
     0
 49
2.0
 74
     0
 49
-1.5
 74
     0
  0
LTYPE
  5
5185
330
5
100
AcDbSymbolTableRecord
100
AcDbLinetypeTableRecord
  2
中心線1
 70
     0
  3
___ _ ___ _ ___
 72
    65
 73
     4
 40
18.0
 49
12.0
 74
     0
 49
-2.0
 74
     0
 49
2.0
 74
     0
 49
-2.0
 74
     0
  0
LTYPE
  5
5188
330
5
100
AcDbSymbolTableRecord
100
AcDbLinetypeTableRecord
  2
補助線
 70
     0
  3
______________
 72
    65
 73
     2
 40
2.0
 49
1.0
 74
     0
 49
1.0
 74
     0
  0
LTYPE
  5
6427
330
5
100
AcDbSymbolTableRecord
100
AcDbLinetypeTableRecord
  2
HIDDEN
 70
     0
  3
Hidden __ __ __ __ __ __ __ __ __ __ __ __ __ _
 72
    65
 73
     2
 40
0.375
 49
0.25
 74
     0
 49
-0.125
 74
     0
  0
LTYPE
  5
AC81
330
5
100
AcDbSymbolTableRecord
100
AcDbLinetypeTableRecord
  2
破断線
 70
     0
  3
/\/-/\/-/\/-/\/-/\/-/\/
 72
    65
 73
     2
 40
0.4401
 49
0.0001
 74
     4
 75
   136
340
AC80
 46
0.0016
 50
0.0
 44
0.0
 45
0.0
 49
-0.4400000000000002
 74
     0
  0
LTYPE
  5
AC9E
330
5
100
AcDbSymbolTableRecord
100
AcDbLinetypeTableRecord
  2
Amzigzag
 70
     0
  3
/\/-/\/-/\/-/\/-/\/-/\/
 72
    65
 73
     2
 40
11.0001
 49
0.0001
 74
     4
 75
   135
340
56
 46
0.04
 50
0.0
 44
0.0
 45
0.0
 49
-11.0
 74
     0
  0
LTYPE
  5
AF0F
330
5
100
AcDbSymbolTableRecord
100
AcDbLinetypeTableRecord
  2
genzigzag
 70
     0
  3
/\/-/\/-/\/-/\/-/\/-/\/
 72
    65
 73
     2
 40
12.0001
 49
0.0001
 74
     4
 75
   135
340
AC80
 46
2.0
 50
0.0
 44
0.0
 45
0.0
 49
-12.0
 74
     0
  0
LTYPE
  5
AF95
330
5
100
AcDbSymbolTableRecord
100
AcDbLinetypeTableRecord
  2
AM_ISO08W050
 70
     0
  3
____ . ____ . ____ . ____ . ____ . ____ . ____
 72
    65
 73
     4
 40
18.0
 49
12.0
 74
     0
 49
-1.5
 74
     0
 49
3.0
 74
     0
 49
-1.5
 74
     0
  0
LTYPE
  5
AF96
330
5
100
AcDbSymbolTableRecord
100
AcDbLinetypeTableRecord
  2
AM_ISO09W050
 70
     0
  3
_____ . . _____ . . _____ . . ____ .. ____
 72
    65
 73
     6
 40
22.5
 49
12.0
 74
     0
 49
-1.5
 74
     0
 49
3.0
 74
     0
 49
-1.5
 74
     0
 49
3.0
 74
     0
 49
-1.5
 74
     0
  0
LTYPE
  5
AF97
330
5
100
AcDbSymbolTableRecord
100
AcDbLinetypeTableRecord
  2
AM_ISO08W050x2
 70
     0
  3
__ . __ . __ . __ . __ . __
 72
    65
 73
     4
 40
9.0
 49
6.0
 74
     0
 49
-0.75
 74
     0
 49
1.5
 74
     0
 49
-0.75
 74
     0
  0
LTYPE
  5
AF98
330
5
100
AcDbSymbolTableRecord
100
AcDbLinetypeTableRecord
  2
AM_ISO02W050x2
 70
     0
  3
 _ _ _ _ _ _ _ _ _ _ _ _
 72
    65
 73
     2
 40
3.75
 49
3.0
 74
     0
 49
-0.75
 74
     0
  0
LTYPE
  5
1D53A
330
5
100
AcDbSymbolTableRecord
100
AcDbLinetypeTableRecord
  2
DASHED
 70
     0
  3
__ __ __ __ __ __ __ __ __ __ __ __ __ __ __
 72
    65
 73
     2
 40
3.5
 49
2.0
 74
     0
 49
-1.5
 74
     0
  0
LTYPE
  5
1D53B
330
5
100
AcDbSymbolTableRecord
100
AcDbLinetypeTableRecord
  2
CENTER2
 70
     0
  3
Center (.5x) ___ _ ___ _ ___ _ ___ _ ___ _ ___
 72
    65
 73
     4
 40
1.125
 49
0.75
 74
     0
 49
-0.125
 74
     0
 49
0.125
 74
     0
 49
-0.125
 74
     0
  0
LTYPE
  5
1D53C
330
5
100
AcDbSymbolTableRecord
100
AcDbLinetypeTableRecord
  2
HIDDEN2
 70
     0
  3
Hidden (.5x) _ _ _ _ _ _ _ _ _ _ _ _ _ _ _ _ _
 72
    65
 73
     2
 40
0.1875
 49
0.125
 74
     0
 49
-0.0625
 74
     0
  0
LTYPE
  5
1D53D
330
5
100
AcDbSymbolTableRecord
100
AcDbLinetypeTableRecord
  2
Amzigzag2
 70
     0
  3
/\/-/\/-/\/-/\/-/\/-/\/
 72
    65
 73
     2
 40
0.4401
 49
0.0001
 74
     4
 75
   136
340
AC80
 46
0.0016
 50
0.0
 44
0.0
 45
0.0
 49
-0.4400000000000002
 74
     0
  0
LTYPE
  5
1D53E
330
5
100
AcDbSymbolTableRecord
100
AcDbLinetypeTableRecord
  2
ACANSTGB
 70
     0
  3
__ . . __ . .
 72
    65
 73
     6
 40
0.35433070866
 49
0.15748031496
 74
     0
 49
-0.03937007874
 74
     0
 49
0.03937007874
 74
     0
 49
-0.03937007874
 74
     0
 49
0.03937007874
 74
     0
 49
-0.03937007874
 74
     0
  0
LTYPE
  5
1D53F
330
5
100
AcDbSymbolTableRecord
100
AcDbLinetypeTableRecord
  2
ACANSTGL
 70
     0
  3
_ _ _ _ _
 72
    65
 73
     2
 40
0.11811023622
 49
0.07874015748
 74
     0
 49
-0.03937007874
 74
     0
  0
LTYPE
  5
3215C
330
5
100
AcDbSymbolTableRecord
100
AcDbLinetypeTableRecord
  2
PHANTOM
 70
     0
  3
_____ _ _ _____ _ _ _____ _ _ _____ _ _ ____  
 72
    65
 73
     6
 40
15.5
 49
8.0
 74
     0
 49
-1.5
 74
     0
 49
1.5
 74
     0
 49
-1.5
 74
     0
 49
1.5
 74
     0
 49
-1.5
 74
     0
  0
ENDTAB
  0
TABLE
  2
LAYER
  5
2
102
{ACAD_XDICTIONARY
360
3F95
102
}
330
0
100
AcDbSymbolTable
 70
    24
  0
LAYER
  5
10
330
2
100
AcDbSymbolTableRecord
100
AcDbLayerTableRecord
  2
0
 70
     0
 62
     7
  6
Continuous
370
    -3
390
F
  0
LAYER
  5
6D1
330
2
100
AcDbSymbolTableRecord
100
AcDbLayerTableRecord
  2
Defpoints
 70
     0
 62
     7
  6
Continuous
290
     0
370
    -3
390
F
  0
LAYER
  5
5F85
330
2
100
AcDbSymbolTableRecord
100
AcDbLayerTableRecord
  2
AM_0
 70
     0
 62
     7
  6
中線
370
    30
390
F
1001
AcAecLayerStandard
1000

1000

  0
LAYER
  5
AC9F
330
2
100
AcDbSymbolTableRecord
100
AcDbLayerTableRecord
  2
size
 70
     0
 62
     5
  6
Continuous
290
     0
370
    25
390
F
  0
LAYER
  5
ACA0
330
2
100
AcDbSymbolTableRecord
100
AcDbLayerTableRecord
  2
waku
 70
     0
 62
     7
  6
Continuous
370
    35
390
F
  0
LAYER
  5
ACA1
330
2
100
AcDbSymbolTableRecord
100
AcDbLayerTableRecord
  2
AM_6
 70
     0
 62
     2
  6
文字
370
    13
390
F
1001
AcAecLayerStandard
1000

1000

  0
LAYER
  5
ACC8
330
2
100
AcDbSymbolTableRecord
100
AcDbLayerTableRecord
  2
hyomoji
 70
     0
 62
     2
  6
Continuous
370
    13
390
F
  0
LAYER
  5
ACC9
330
2
100
AcDbSymbolTableRecord
100
AcDbLayerTableRecord
  2
hyosen1
 70
     0
 62
     1
  6
Continuous
370
    25
390
F
  0
LAYER
  5
ACCA
330
2
100
AcDbSymbolTableRecord
100
AcDbLayerTableRecord
  2
hyosen2
 70
     0
 62
     1
  6
Continuous
370
    13
390
F
  0
LAYER
  5
AD60
330
2
100
AcDbSymbolTableRecord
100
AcDbLayerTableRecord
  2
AM_1
 70
     0
 62
    30
  6
太線
370
    40
390
F
1001
AcAecLayerStandard
1000

1000

  0
LAYER
  5
AD64
330
2
100
AcDbSymbolTableRecord
100
AcDbLayerTableRecord
  2
AM_2
 70
     0
 62
     1
  6
細線
370
     9
390
F
1001
AcAecLayerStandard
1000

1000

  0
LAYER
  5
AD67
330
2
100
AcDbSymbolTableRecord
100
AcDbLayerTableRecord
  2
AM_3
 70
     0
 62
     6
  6
陰線1
370
     9
390
F
1001
AcAecLayerStandard
1000

1000

  0
LAYER
  5
AD68
330
2
100
AcDbSymbolTableRecord
100
AcDbLayerTableRecord
  2
AM_5
 70
     0
 62
     3
  6
寸法線
370
     9
390
F
1001
AcAecLayerStandard
1000

1000

  0
LAYER
  5
AD69
330
2
100
AcDbSymbolTableRecord
100
AcDbLayerTableRecord
  2
AM_7
 70
     0
 62
     4
  6
中心線1
370
     9
390
F
1001
AcAecLayerStandard
1000

1000

  0
LAYER
  5
AD6A
330
2
100
AcDbSymbolTableRecord
100
AcDbLayerTableRecord
  2
AM_8
 70
     0
 62
     1
  6
ハッチング
370
     9
390
F
1001
AcAecLayerStandard
1000

1000

  0
LAYER
  5
AD6E
330
2
100
AcDbSymbolTableRecord
100
AcDbLayerTableRecord
  2
AM_10
 70
     0
 62
     7
  6
切断線
370
    13
390
F
1001
AcAecLayerStandard
1000

1000

  0
LAYER
  5
AD6F
330
2
100
AcDbSymbolTableRecord
100
AcDbLayerTableRecord
  2
AM_11
 70
     0
 62
     2
  6
想像線1
370
     9
390
F
1001
AcAecLayerStandard
1000

1000

  0
LAYER
  5
B1B6
330
2
100
AcDbSymbolTableRecord
100
AcDbLayerTableRecord
  2
AM_CL
 70
     0
 62
     1
  6
Amconstr
370
    15
390
F
1001
AcAecLayerStandard
1000

1000

  0
LAYER
  5
B2EB
330
2
100
AcDbSymbolTableRecord
100
AcDbLayerTableRecord
  2
AM_14
 70
     0
 62
     5
  6
細線
370
     9
390
F
1001
AcAecLayerStandard
1000

1000

  0
LAYER
  5
B2EC
330
2
100
AcDbSymbolTableRecord
100
AcDbLayerTableRecord
  2
AM_15
 70
     0
 62
     6
  6
陰線1
370
     9
390
F
1001
AcAecLayerStandard
1000

1000

  0
LAYER
  5
CA46
330
2
100
AcDbSymbolTableRecord
100
AcDbLayerTableRecord
  2
001本体
 70
     0
 62
   121
  6
中線
370
    30
390
F
1001
AcAecLayerStandard
1000

1000

  0
LAYER
  5
EB4F
330
2
100
AcDbSymbolTableRecord
100
AcDbLayerTableRecord
  2
AM_4
 70
     0
 62
     3
  6
補助線
370
     9
390
F
1001
AcAecLayerStandard
1000

1000

  0
LAYER
  5
19759
330
2
100
AcDbSymbolTableRecord
100
AcDbLayerTableRecord
  2
000確認事項
 70
     0
 62
   130
  6
中線
370
    30
390
F
1001
AcAecLayerStandard
1000

1000

  0
LAYER
  5
1E1B6
330
2
100
AcDbSymbolTableRecord
100
AcDbLayerTableRecord
  2
AM_12
 70
     0
 62
     7
  6
Continuous
290
     0
370
    15
390
F
  0
ENDTAB
  0
TABLE
  2
STYLE
  5
3
330
0
100
AcDbSymbolTable
 70
    11
  0
STYLE
  5
11
330
3
100
AcDbSymbolTableRecord
100
AcDbTextStyleTableRecord
  2
STANDARD
 70
     0
 40
0.0
 41
0.7
 50
0.0
 71
     0
 42
3.5
  3
romans.shx
  4
extfont.shx
  0
STYLE
  5
56
330
3
100
AcDbSymbolTableRecord
100
AcDbTextStyleTableRecord
  2

 70
     1
 40
0.0
 41
1.0
 50
0.0
 71
     0
 42
2.5
  3
ltypeshp.shx
  4

  0
STYLE
  5
58
330
3
100
AcDbSymbolTableRecord
100
AcDbTextStyleTableRecord
  2
ACISOTS
 70
     0
 40
1.0
 41
1.0
 50
0.0
 71
     0
 42
2.5
  3
isocp.shx
  4
extfont.shx
  0
STYLE
  5
63
330
3
100
AcDbSymbolTableRecord
100
AcDbTextStyleTableRecord
  2
ACISOGDT
 70
     0
 40
0.0
 41
1.0
 50
0.0
 71
     0
 42
2.5
  3
amgdt.shx
  4

  0
STYLE
  5
A74
330
3
100
AcDbSymbolTableRecord
100
AcDbTextStyleTableRecord
  2
DIM
 70
     0
 40
0.0
 41
1.0
 50
0.0
 71
     0
 42
2.5
  3
monotxt.shx
  4
extfont.shx
  0
STYLE
  5
AC80
330
3
100
AcDbSymbolTableRecord
100
AcDbTextStyleTableRecord
  2

 70
     1
 40
0.0
 41
1.0
 50
0.0
 71
     0
 42
3.2
  3
genltshp.shx
  4

  0
STYLE
  5
CA48
330
3
100
AcDbSymbolTableRecord
100
AcDbTextStyleTableRecord
  2
横書き
 70
     0
 40
0.0
 41
1.0
 50
0.0
 71
     0
 42
3.5
  3
TXT.shx
  4
bigfont.shx
  0
STYLE
  5
CA49
330
3
100
AcDbSymbolTableRecord
100
AcDbTextStyleTableRecord
  2
横書き2
 70
     0
 40
0.0
 41
1.0
 50
0.0
 71
     0
 42
4.0
  3
TXT.shx
  4
extfont2.shx
  0
STYLE
  5
CA4A
330
3
100
AcDbSymbolTableRecord
100
AcDbTextStyleTableRecord
  2
明朝
 70
     0
 40
0.0
 41
1.0
 50
0.0
 71
     0
 42
3.0
  3
MS Mincho.ttf
  4

1001
ACAD
1000
MS Mincho
1071
    32785
  0
STYLE
  5
1D540
330
3
100
AcDbSymbolTableRecord
100
AcDbTextStyleTableRecord
  2
ACANSTS
 70
     0
 40
1.0
 41
1.0
 50
0.0
 71
     0
 42
3.2
  3
romans.shx
  4
extfont.shx
  0
STYLE
  5
1D541
330
3
100
AcDbSymbolTableRecord
100
AcDbTextStyleTableRecord
  2
ACANSGDT
 70
     0
 40
0.0
 41
1.0
 50
0.0
 71
     0
 42
3.2
  3
amgdt.shx
  4

  0
ENDTAB
  0
TABLE
  2
VIEW
  5
6
330
0
100
AcDbSymbolTable
 70
     6
  0
VIEW
  5
AE1
330
6
100
AcDbSymbolTableRecord
100
AcDbViewTableRecord
  2
AM_VIEW1
 70
     0
 40
148.5
 10
1876.338856879554
 20
-5865.134660833434
 41
282.4136094674557
 11
0.0
 21
0.0
 31
1.0
 12
0.0
 22
0.0
 32
0.0
 42
50.0
 43
-1370.695619172058
 44
-1370.695619172058
 50
0.0
 71
     0
281
     0
 72
     0
  0
VIEW
  5
AE2
330
6
100
AcDbSymbolTableRecord
100
AcDbViewTableRecord
  2
AM_VIEW2
 70
     0
 40
148.5
 10
2013.925247412098
 20
-5865.134660833434
 41
282.4136094674557
 11
0.0
 21
0.0
 31
1.0
 12
0.0
 22
0.0
 32
0.0
 42
50.0
 43
-1370.695619172058
 44
-1370.695619172058
 50
0.0
 71
     0
281
     0
 72
     0
  0
VIEW
  5
AE3
330
6
100
AcDbSymbolTableRecord
100
AcDbViewTableRecord
  2
AM_VIEW3
 70
     0
 40
148.5
 10
1876.338856879554
 20
-6013.634660833434
 41
282.4136094674557
 11
0.0
 21
0.0
 31
1.0
 12
0.0
 22
0.0
 32
0.0
 42
50.0
 43
-1370.695619172058
 44
-1370.695619172058
 50
0.0
 71
     0
281
     0
 72
     0
  0
VIEW
  5
AE4
330
6
100
AcDbSymbolTableRecord
100
AcDbViewTableRecord
  2
AM_VIEW4
 70
     0
 40
148.5
 10
2013.925247412098
 20
-6013.634660833434
 41
282.4136094674557
 11
0.0
 21
0.0
 31
1.0
 12
0.0
 22
0.0
 32
0.0
 42
50.0
 43
-1370.695619172058
 44
-1370.695619172058
 50
0.0
 71
     0
281
     0
 72
     0
  0
VIEW
  5
AE5
330
6
100
AcDbSymbolTableRecord
100
AcDbViewTableRecord
  2
AM_VIEW5
 70
     0
 40
148.5
 10
1945.132052145826
 20
-5939.384660833434
 41
282.4136094674557
 11
0.0
 21
0.0
 31
1.0
 12
0.0
 22
0.0
 32
0.0
 42
50.0
 43
-1370.695619172058
 44
-1370.695619172058
 50
0.0
 71
     0
281
     0
 72
     0
  0
VIEW
  5
AE6
330
6
100
AcDbSymbolTableRecord
100
AcDbViewTableRecord
  2
AM_VIEW6
 70
     0
 40
296.9970300000004
 10
1945.132052145826
 20
-5939.384660833434
 41
564.8215706627218
 11
0.0
 21
0.0
 31
1.0
 12
0.0
 22
0.0
 32
0.0
 42
50.0
 43
-1370.695619172058
 44
-1370.695619172058
 50
0.0
 71
     0
281
     0
 72
     0
  0
ENDTAB
  0
TABLE
  2
UCS
  5
7
330
0
100
AcDbSymbolTable
 70
     0
  0
ENDTAB
  0
TABLE
  2
APPID
  5
9
330
0
100
AcDbSymbolTable
 70
    60
  0
APPID
  5
12
330
9
100
AcDbSymbolTableRecord
100
AcDbRegAppTableRecord
  2
ACAD
 70
     0
  0
APPID
  5
30
330
9
100
AcDbSymbolTableRecord
100
AcDbRegAppTableRecord
  2
MCAD_NO_VIS
 70
     0
  0
APPID
  5
31
330
9
100
AcDbSymbolTableRecord
100
AcDbRegAppTableRecord
  2
ACAD_TEMP_GRAPHIC
 70
     0
  0
APPID
  5
44
330
9
100
AcDbSymbolTableRecord
100
AcDbRegAppTableRecord
  2
ACATTRIBSERVICES
 70
     0
  0
APPID
  5
7A1
330
9
100
AcDbSymbolTableRecord
100
AcDbRegAppTableRecord
  2
GENIUS_GENDIMSH_14
 70
     0
  0
APPID
  5
A49
330
9
100
AcDbSymbolTableRecord
100
AcDbRegAppTableRecord
  2
GENIUS_GENREC_14
 70
     0
  0
APPID
  5
A4A
330
9
100
AcDbSymbolTableRecord
100
AcDbRegAppTableRecord
  2
GENIUS_GENOBJ-N-REC_13
 70
     0
  0
APPID
  5
A4B
330
9
100
AcDbSymbolTableRecord
100
AcDbRegAppTableRecord
  2
GENIUS_GENODEF_13
 70
     0
  0
APPID
  5
A4C
330
9
100
AcDbSymbolTableRecord
100
AcDbRegAppTableRecord
  2
DCO15
 70
     0
  0
APPID
  5
ADC
330
9
100
AcDbSymbolTableRecord
100
AcDbRegAppTableRecord
  2
GENIUS_GENOLIS_13
 70
     0
  0
APPID
  5
ADD
330
9
100
AcDbSymbolTableRecord
100
AcDbRegAppTableRecord
  2
GENIUS_GENOENT_13
 70
     0
  0
APPID
  5
ADE
330
9
100
AcDbSymbolTableRecord
100
AcDbRegAppTableRecord
  2
GENIUS_GENOBJ-N-TIT_13
 70
     0
  0
APPID
  5
ADF
330
9
100
AcDbSymbolTableRecord
100
AcDbRegAppTableRecord
  2
GENIUS_GENTITLE_13
 70
     0
  0
APPID
  5
AE0
330
9
100
AcDbSymbolTableRecord
100
AcDbRegAppTableRecord
  2
GENIUS_GENOREF_13
 70
     0
  0
APPID
  5
AE7
330
9
100
AcDbSymbolTableRecord
100
AcDbRegAppTableRecord
  2
GENIUS_GENSCREG_15
 70
     0
  0
APPID
  5
AE8
330
9
100
AcDbSymbolTableRecord
100
AcDbRegAppTableRecord
  2
GENIUS_GENOBJ-N-SDF_13
 70
     0
  0
APPID
  5
FAF
330
9
100
AcDbSymbolTableRecord
100
AcDbRegAppTableRecord
  2
GENIUS_GENBLLY_14
 70
     0
  0
APPID
  5
FB0
330
9
100
AcDbSymbolTableRecord
100
AcDbRegAppTableRecord
  2
GENIUS_GENTRA_14
 70
     0
  0
APPID
  5
1285
330
9
100
AcDbSymbolTableRecord
100
AcDbRegAppTableRecord
  2
GENIUS_GENDTOL_13
 70
     0
  0
APPID
  5
142D
330
9
100
AcDbSymbolTableRecord
100
AcDbRegAppTableRecord
  2
GENIUS_GENOBJ-N-CEN_13
 70
     0
  0
APPID
  5
1AB5
330
9
100
AcDbSymbolTableRecord
100
AcDbRegAppTableRecord
  2
GENIUS_GENOBJ-N-CRS_13
 70
     0
  0
APPID
  5
1B36
330
9
100
AcDbSymbolTableRecord
100
AcDbRegAppTableRecord
  2
GENIUS_GENOBJ-N-HTC_13
 70
     0
  0
APPID
  5
1B37
330
9
100
AcDbSymbolTableRecord
100
AcDbRegAppTableRecord
  2
GENIUS_GENHATCH_13
 70
     0
  0
APPID
  5
216D
330
9
100
AcDbSymbolTableRecord
100
AcDbRegAppTableRecord
  2
GENIUS_GENOBJ-N-FIL_13
 70
     0
  0
APPID
  5
2356
330
9
100
AcDbSymbolTableRecord
100
AcDbRegAppTableRecord
  2
GEVID990412420
 70
     0
  0
APPID
  5
2357
330
9
100
AcDbSymbolTableRecord
100
AcDbRegAppTableRecord
  2
GEVDC
 70
     0
  0
APPID
  5
2358
330
9
100
AcDbSymbolTableRecord
100
AcDbRegAppTableRecord
  2
GEVCON
 70
     0
  0
APPID
  5
235B
330
9
100
AcDbSymbolTableRecord
100
AcDbRegAppTableRecord
  2
GEVRADREF
 70
     0
  0
APPID
  5
2360
330
9
100
AcDbSymbolTableRecord
100
AcDbRegAppTableRecord
  2
GENIUS_GENBH_13
 70
     0
  0
APPID
  5
2362
330
9
100
AcDbSymbolTableRecord
100
AcDbRegAppTableRecord
  2
GENIUS_GENOBJ-NBEHI-BHF_13
 70
     0
  0
APPID
  5
2364
330
9
100
AcDbSymbolTableRecord
100
AcDbRegAppTableRecord
  2
GENIUS_GENOBJ-NBEHI-BHB_13
 70
     0
  0
APPID
  5
2379
330
9
100
AcDbSymbolTableRecord
100
AcDbRegAppTableRecord
  2
GENIUS_GENOBJ-F-SCPASSM_13
 70
     0
  0
APPID
  5
3D74
330
9
100
AcDbSymbolTableRecord
100
AcDbRegAppTableRecord
  2
GENIUS_GENDIM_13
 70
     0
  0
APPID
  5
3D76
330
9
100
AcDbSymbolTableRecord
100
AcDbRegAppTableRecord
  2
GENIUS_GE3DTOL_13
 70
     0
  0
APPID
  5
3D9C
330
9
100
AcDbSymbolTableRecord
100
AcDbRegAppTableRecord
  2
AD_DRAW
 70
     0
  0
APPID
  5
3DE8
330
9
100
AcDbSymbolTableRecord
100
AcDbRegAppTableRecord
  2
ASURF_PCURVE_APPNAME
 70
     0
  0
APPID
  5
3DED
330
9
100
AcDbSymbolTableRecord
100
AcDbRegAppTableRecord
  2
AMG_3D2D_5.0
 70
     0
  0
APPID
  5
3E1B
330
9
100
AcDbSymbolTableRecord
100
AcDbRegAppTableRecord
  2
DESIGNERASSEMBLIES
 70
     0
  0
APPID
  5
3E20
330
9
100
AcDbSymbolTableRecord
100
AcDbRegAppTableRecord
  2
ACADM_DIM_EDIT
 70
     0
  0
APPID
  5
3E21
330
9
100
AcDbSymbolTableRecord
100
AcDbRegAppTableRecord
  2
AMDT_DM_ADJ
 70
     0
  0
APPID
  5
4143
330
9
100
AcDbSymbolTableRecord
100
AcDbRegAppTableRecord
  2
GENIUS_GENFIL_13
 70
     0
  0
APPID
  5
4144
330
9
100
AcDbSymbolTableRecord
100
AcDbRegAppTableRecord
  2
GENIUS_GENOBJ-N-CHA_13
 70
     0
  0
APPID
  5
4E17
330
9
100
AcDbSymbolTableRecord
100
AcDbRegAppTableRecord
  2
GEVID1008153417
 70
     0
  0
APPID
  5
4E58
330
9
100
AcDbSymbolTableRecord
100
AcDbRegAppTableRecord
  2
GEVID1008153418
 70
     0
  0
APPID
  5
4E5E
330
9
100
AcDbSymbolTableRecord
100
AcDbRegAppTableRecord
  2
GEVID1008153419
 70
     0
  0
APPID
  5
4E64
330
9
100
AcDbSymbolTableRecord
100
AcDbRegAppTableRecord
  2
GEVID1008153420
 70
     0
  0
APPID
  5
4E75
330
9
100
AcDbSymbolTableRecord
100
AcDbRegAppTableRecord
  2
GEVID1008153421
 70
     0
  0
APPID
  5
4EB7
330
9
100
AcDbSymbolTableRecord
100
AcDbRegAppTableRecord
  2
GENIUS_AMGTXT_16
 70
     0
  0
APPID
  5
7645
330
9
100
AcDbSymbolTableRecord
100
AcDbRegAppTableRecord
  2
GENIUS_GENOBJ-N-DIM_13
 70
     0
  0
APPID
  5
AAD0
330
9
100
AcDbSymbolTableRecord
100
AcDbRegAppTableRecord
  2
ACAD_DSTYLE_DIMARC_LENGTH_SYMBOL
 70
     0
  0
APPID
  5
AAD1
330
9
100
AcDbSymbolTableRecord
100
AcDbRegAppTableRecord
  2
ACAD_DSTYLE_DIMJOGGED_JOGANGLE_SYMBOL
 70
     0
  0
APPID
  5
AAFD
330
9
100
AcDbSymbolTableRecord
100
AcDbRegAppTableRecord
  2
ACAD_PSEXT
 70
     0
  0
APPID
  5
AD61
330
9
100
AcDbSymbolTableRecord
100
AcDbRegAppTableRecord
  2
AcAecLayerStandard
 70
     0
  0
APPID
  5
AEE3
330
9
100
AcDbSymbolTableRecord
100
AcDbRegAppTableRecord
  2
ACAD_EXEMPT_FROM_CAD_STANDARDS
 70
     0
  0
APPID
  5
B1BE
330
9
100
AcDbSymbolTableRecord
100
AcDbRegAppTableRecord
  2
GENIUS_GENCEN_19
 70
     0
  0
APPID
  5
B4DF
330
9
100
AcDbSymbolTableRecord
100
AcDbRegAppTableRecord
  2
ACAD_MLEADERVER
 70
     0
  0
APPID
  5
CA4C
330
9
100
AcDbSymbolTableRecord
100
AcDbRegAppTableRecord
  2
ACAD_DSTYLE_DIMRADIAL_EXTENSION
 70
     0
  0
APPID
  5
1ED6D
330
9
100
AcDbSymbolTableRecord
100
AcDbRegAppTableRecord
  2
ACAD_DSTYLE_DIMINSPECT
 70
     0
  0
APPID
  5
219D8
330
9
100
AcDbSymbolTableRecord
100
AcDbRegAppTableRecord
  2
ACDBBLOCKREPETAG
 70
     0
  0
APPID
  5
219D9
330
9
100
AcDbSymbolTableRecord
100
AcDbRegAppTableRecord
  2
AcDbDynamicBlockGUID
 70
     0
  0
ENDTAB
  0
TABLE
  2
DIMSTYLE
  5
A
330
0
100
AcDbSymbolTable
 70
    30
100
AcDbDimStyleTable
 71
     1
340
2515
  0
DIMSTYLE
105
A76
330
A
100
AcDbSymbolTableRecord
100
AcDbDimStyleTableRecord
  2
STANDARD
 70
     0
 41
3.0
 42
1.0
 43
7.0
 44
2.0
 73
     0
 74
     0
 77
     1
140
2.799999999999998
141
0.0
143
0.0394
147
0.7
171
     4
172
     1
173
     1
176
     3
177
     3
178
     2
271
     3
272
     3
273
     8
274
     4
289
     0
340
A74
341
A66
343
A66
344
A66
  0
DIMSTYLE
105
2515
330
A
100
AcDbSymbolTableRecord
100
AcDbDimStyleTableRecord
  2
SYS
 70
     0
  4
"
 41
1.0
 42
1.0
 43
10.0
 44
1.0
 47
0.1
 48
0.1
 73
     0
 74
     0
 77
     1
 78
     8
 79
     2
140
3.5
141
0.0
143
0.0393701
146
0.71
147
1.5
172
     1
176
   256
177
   256
178
     7
271
     2
272
     2
283
     0
284
     8
340
11
371
    -1
372
    -1
1001
ACAD_DSTYLE_DIMJOGGED_JOGANGLE_SYMBOL
1070
   384
1040
0.7853981633974483
1001
ACAD_DSTYLE_DIMARC_LENGTH_SYMBOL
1070
   379
1070
     1
  0
DIMSTYLE
105
2516
102
{ACAD_REACTORS
330
38CDC
330
38D73
330
3D010
102
}
330
A
100
AcDbSymbolTableRecord
100
AcDbDimStyleTableRecord
  2
SYS$3
 70
     0
  4
"
 41
2.0
 42
1.0
 43
10.0
 44
1.0
 47
0.1
 48
0.1
 73
     0
 77
     1
 78
     8
 79
     2
140
3.2
141
0.0
143
0.0393701
146
0.71
147
1.0
176
   256
177
   256
178
     2
271
     2
272
     2
283
     0
284
     8
288
     1
340
11
342
A66
371
    -1
372
    -1
1001
ACAD_DSTYLE_DIMJOGGED_JOGANGLE_SYMBOL
1070
   384
1040
0.7853981633974483
1001
ACAD_DSTYLE_DIMARC_LENGTH_SYMBOL
1070
   379
1070
     1
  0
DIMSTYLE
105
2517
330
A
100
AcDbSymbolTableRecord
100
AcDbDimStyleTableRecord
  2
SYS$4
 70
     0
  4
"
 41
2.0
 42
1.0
 43
10.0
 44
1.0
 47
0.1
 48
0.1
 73
     0
 77
     1
 78
     8
 79
     2
140
3.2
141
0.0
143
0.0393701
146
0.71
147
1.0
173
     1
176
   256
177
   256
178
     2
271
     2
272
     2
283
     0
284
     8
288
     1
340
11
344
A66
371
    -1
372
    -1
1001
ACAD_DSTYLE_DIMJOGGED_JOGANGLE_SYMBOL
1070
   384
1040
0.7853981633974483
1001
ACAD_DSTYLE_DIMARC_LENGTH_SYMBOL
1070
   379
1070
     1
  0
DIMSTYLE
105
2518
330
A
100
AcDbSymbolTableRecord
100
AcDbDimStyleTableRecord
  2
SYS$6
 70
     0
  4
"
 41
2.0
 42
1.0
 43
10.0
 44
1.0
 47
0.1
 48
0.1
 73
     0
 74
     0
 78
     8
 79
     2
140
3.5
141
0.0
143
0.0393701
146
0.71
147
1.5
172
     1
176
   256
177
   256
178
     2
271
     2
272
     2
283
     0
284
     8
340
11
341
A66
371
    -1
372
    -1
1001
ACAD_DSTYLE_DIMJOGGED_JOGANGLE_SYMBOL
1070
   384
1040
0.7853981633974483
1001
ACAD_DSTYLE_DIMARC_LENGTH_SYMBOL
1070
   379
1070
     1
  0
DIMSTYLE
105
2519
330
A
100
AcDbSymbolTableRecord
100
AcDbDimStyleTableRecord
  2
SYS$7
 70
     0
  4
"
 41
2.0
 42
1.0
 43
10.0
 44
1.0
 47
0.1
 48
0.1
 73
     0
 74
     0
 77
     1
 78
     8
 79
     2
140
3.2
141
0.0
143
0.0393701
146
0.71
147
1.0
172
     1
176
   256
177
   256
178
     2
271
     2
272
     2
283
     0
284
     8
340
11
341
A66
342
A66
371
    -1
372
    -1
1001
ACAD_DSTYLE_DIMJOGGED_JOGANGLE_SYMBOL
1070
   384
1040
0.7853981633974483
1001
ACAD_DSTYLE_DIMARC_LENGTH_SYMBOL
1070
   379
1070
     1
  0
DIMSTYLE
105
251A
330
A
100
AcDbSymbolTableRecord
100
AcDbDimStyleTableRecord
  2
SYS$SF
 70
     0
  4
"
 41
2.5
 42
1.0
 43
10.0
 44
1.0
 47
0.1
 48
0.1
 73
     0
 74
     0
 75
     1
 76
     1
 77
     1
 78
     8
 79
     2
140
3.5
141
0.0
143
0.0393701
146
0.71
147
1.5
172
     1
176
   256
177
   256
178
     2
271
     2
272
     3
283
     0
284
     8
340
11
341
6C4
342
6C4
371
    -1
372
    -1
1001
ACAD_DSTYLE_DIMJOGGED_JOGANGLE_SYMBOL
1070
   384
1040
0.7853981633974483
1001
ACAD_DSTYLE_DIMARC_LENGTH_SYMBOL
1070
   379
1070
     1
  0
DIMSTYLE
105
251B
330
A
100
AcDbSymbolTableRecord
100
AcDbDimStyleTableRecord
  2
SYS$SH
 70
     0
  4
"
 41
2.5
 42
1.0
 43
10.0
 44
1.0
 47
0.1
 48
0.1
 73
     0
 74
     0
 75
     1
 76
     1
 77
     1
 78
     8
 79
     2
140
3.5
141
0.0
143
0.0393701
144
2.0
146
0.71
147
1.5
172
     1
173
     1
176
   256
177
   256
178
     2
271
     2
272
     3
283
     0
284
     8
340
11
341
6C4
343
72
344
6C4
371
    -1
372
    -1
1001
ACAD_DSTYLE_DIMJOGGED_JOGANGLE_SYMBOL
1070
   384
1040
0.7853981633974483
1001
ACAD_DSTYLE_DIMARC_LENGTH_SYMBOL
1070
   379
1070
     1
  0
DIMSTYLE
105
2A59
330
A
100
AcDbSymbolTableRecord
100
AcDbDimStyleTableRecord
  2
SYS$2
 70
     0
  4
"
 41
1.0
 42
1.0
 43
10.0
 44
1.0
 47
0.1
 48
0.1
 73
     0
 74
     0
 77
     1
 78
     8
 79
     2
140
3.2
141
0.0
143
0.0393701
146
0.71
147
1.0
172
     1
176
   256
177
   256
178
     2
271
     2
272
     2
283
     0
284
     8
340
11
342
6C4
371
    -1
372
    -1
1001
ACAD_DSTYLE_DIMJOGGED_JOGANGLE_SYMBOL
1070
   384
1040
0.7853981633974483
1001
ACAD_DSTYLE_DIMARC_LENGTH_SYMBOL
1070
   379
1070
     1
  0
DIMSTYLE
105
2AAB
102
{ACAD_REACTORS
330
346F8
330
346F9
330
34701
330
34702
330
34703
330
34704
330
34705
330
34716
330
34717
330
34718
330
34719
330
34729
330
3472B
330
3472C
330
3472D
330
3472F
330
34730
330
34736
330
34737
330
34738
330
3473D
330
38D69
330
38D6A
330
38D6B
330
38D6C
330
38D72
330
38DF2
330
3D008
330
3D009
330
3D00A
330
3D00B
330
3D00C
330
3D00D
102
}
330
A
100
AcDbSymbolTableRecord
100
AcDbDimStyleTableRecord
  2
SYS$0
 70
     0
  4
"
 41
1.0
 42
1.0
 43
10.0
 44
1.0
 47
0.1
 48
0.1
 73
     0
 74
     0
 77
     1
 78
     8
 79
     2
140
3.200000000000001
141
0.0
143
0.0393701
146
0.71
147
1.0
172
     1
176
   256
177
   256
178
     2
271
     2
272
     2
283
     0
284
     8
340
11
341
A66
342
6C4
371
    -1
372
    -1
1001
ACAD_DSTYLE_DIMJOGGED_JOGANGLE_SYMBOL
1070
   384
1040
0.7853981633974483
1001
ACAD_DSTYLE_DIMARC_LENGTH_SYMBOL
1070
   379
1070
     1
  0
DIMSTYLE
105
AF99
330
A
100
AcDbSymbolTableRecord
100
AcDbDimStyleTableRecord
  2
AM_ISO
 70
     0
  4
"
 41
2.5
 42
1.0
 43
10.0
 44
1.0
 47
0.1
 48
0.1
 73
     0
 74
     0
 77
     1
 78
     8
 79
     2
140
3.5
141
0.0
143
0.0393701
146
0.71
147
1.5
172
     1
176
   256
177
   256
178
     2
271
     2
272
     3
274
     4
283
     0
284
     8
340
11
371
    -1
372
    -1
  0
DIMSTYLE
105
AF9A
330
A
100
AcDbSymbolTableRecord
100
AcDbDimStyleTableRecord
  2
AM_ISO$3
 70
     0
  4
"
 41
2.5
 42
1.0
 43
10.0
 44
1.0
 47
0.1
 48
0.1
 73
     0
 77
     1
 78
     8
 79
     2
140
3.5
141
0.0
143
0.0393701
146
0.71
147
1.5
176
   256
177
   256
178
     2
271
     2
272
     3
274
     4
283
     0
284
     8
288
     1
289
     0
340
11
371
    -1
372
    -1
  0
DIMSTYLE
105
AF9B
330
A
100
AcDbSymbolTableRecord
100
AcDbDimStyleTableRecord
  2
AM_ISO$4
 70
     0
  4
"
 41
2.5
 42
1.0
 43
10.0
 44
1.0
 47
0.1
 48
0.1
 73
     0
 77
     1
 78
     8
 79
     2
140
3.5
141
0.0
143
0.0393701
146
0.71
147
1.5
176
   256
177
   256
178
     2
271
     2
272
     3
274
     4
283
     0
284
     8
288
     1
289
     0
340
11
371
    -1
372
    -1
  0
DIMSTYLE
105
AF9C
330
A
100
AcDbSymbolTableRecord
100
AcDbDimStyleTableRecord
  2
AM_ISO$6
 70
     0
  4
"
 41
2.5
 42
1.0
 43
10.0
 44
1.0
 47
0.1
 48
0.1
 73
     0
 74
     0
 78
     8
 79
     2
140
3.5
141
0.0
143
0.0393701
146
0.71
147
1.5
172
     1
176
   256
177
   256
178
     2
271
     2
272
     3
274
     4
283
     0
284
     8
340
11
371
    -1
372
    -1
  0
DIMSTYLE
105
AF9D
330
A
100
AcDbSymbolTableRecord
100
AcDbDimStyleTableRecord
  2
AM_ISO$7
 70
     0
  4
"
 41
2.5
 42
1.0
 43
10.0
 44
1.0
 47
0.1
 48
0.1
 73
     0
 74
     0
 77
     1
 78
     8
 79
     2
140
5.0
141
0.0
143
0.0393701
146
0.71
147
1.5
172
     1
176
   256
177
   256
178
     2
271
     2
272
     3
274
     4
283
     0
284
     8
340
11
371
    -1
372
    -1
  0
DIMSTYLE
105
AF9E
330
A
100
AcDbSymbolTableRecord
100
AcDbDimStyleTableRecord
  2
AM_ISO$SF
 70
     0
  4
"
 41
2.5
 42
1.0
 43
10.0
 44
1.0
 47
0.1
 48
0.1
 73
     0
 74
     0
 75
     1
 76
     1
 77
     1
 78
     8
 79
     2
140
3.5
141
0.0
143
0.0393701
146
0.71
147
1.5
172
     1
176
   256
177
   256
178
     2
271
     2
272
     3
274
     4
283
     0
284
     8
340
11
371
    -1
372
    -1
  0
DIMSTYLE
105
AF9F
330
A
100
AcDbSymbolTableRecord
100
AcDbDimStyleTableRecord
  2
AM_ISO$SH
 70
     0
  4
"
 41
2.5
 42
1.0
 43
10.0
 44
1.0
 47
0.1
 48
0.1
 73
     0
 74
     0
 75
     1
 76
     1
 77
     1
 78
     8
 79
     2
140
3.5
141
0.0
143
0.0393701
144
2.0
146
0.71
147
1.5
172
     1
173
     1
176
   256
177
   256
178
     2
271
     2
272
     3
274
     4
283
     0
284
     8
340
11
343
72
371
    -1
372
    -1
  0
DIMSTYLE
105
B658
330
A
100
AcDbSymbolTableRecord
100
AcDbDimStyleTableRecord
  2
AM_ANSI
 70
     0
  4
mm
 41
0.1
 42
0.05
 43
0.5
 44
0.1
 47
0.1
 48
0.1
 78
     7
 79
     2
140
0.12
141
0.0
146
0.71
147
0.06
176
   256
177
   256
178
     2
274
     4
284
     7
340
11
371
    -1
372
    -1
  0
DIMSTYLE
105
CA4B
330
A
100
AcDbSymbolTableRecord
100
AcDbDimStyleTableRecord
  2
原寸
 70
     0
 41
2.5
 42
1.0
 43
10.0
 44
0.7
 73
     0
 74
     0
 77
     3
 78
     8
 79
     2
140
3.5
141
0.0
147
1.0
172
     1
179
     1
271
     2
272
     2
340
CA48
341
A66
342
A66
  0
DIMSTYLE
105
1D542
330
A
100
AcDbSymbolTableRecord
100
AcDbDimStyleTableRecord
  2
DIMSTYLE
 70
     0
 41
1.0
 42
2.54
 44
2.54
 73
     0
 74
     0
140
3.2
147
1.6
173
     1
279
     2
340
11
  0
DIMSTYLE
105
1D543
330
A
100
AcDbSymbolTableRecord
100
AcDbDimStyleTableRecord
  2
AM_ANSI$3
 70
     0
  4
mm
 41
0.1
 42
0.05
 43
0.5
 44
0.1
 47
0.1
 48
0.1
 78
     7
 79
     2
140
0.12
141
0.0
146
0.71
147
0.06
176
   256
177
   256
178
     2
274
     4
284
     7
288
     1
289
     0
340
11
371
    -1
372
    -1
1001
ACAD_DSTYLE_DIMARC_LENGTH_SYMBOL
1070
   379
1070
     1
  0
DIMSTYLE
105
1D544
330
A
100
AcDbSymbolTableRecord
100
AcDbDimStyleTableRecord
  2
AM_ANSI$4
 70
     0
  4
mm
 41
0.1
 42
0.05
 43
0.5
 44
0.1
 47
0.1
 48
0.1
 78
     7
 79
     2
140
0.12
141
0.0
146
0.71
147
0.06
176
   256
177
   256
178
     2
274
     4
284
     7
288
     1
289
     0
340
11
371
    -1
372
    -1
1001
ACAD_DSTYLE_DIMARC_LENGTH_SYMBOL
1070
   379
1070
     1
  0
DIMSTYLE
105
1D545
330
A
100
AcDbSymbolTableRecord
100
AcDbDimStyleTableRecord
  2
AM_ANSI$7
 70
     0
  4
mm
 41
0.1
 42
0.05
 43
0.5
 44
0.1
 47
0.1
 48
0.1
 78
     7
 79
     2
140
0.24
141
0.0
146
0.71
147
0.06
176
   256
177
   256
178
     2
274
     4
284
     7
340
11
371
    -1
372
    -1
1001
ACAD_DSTYLE_DIMARC_LENGTH_SYMBOL
1070
   379
1070
     1
  0
DIMSTYLE
105
1D546
330
A
100
AcDbSymbolTableRecord
100
AcDbDimStyleTableRecord
  2
AM_ANSI$SF
 70
     0
  4
mm
 41
0.1
 42
0.05
 43
0.5
 44
0.1
 47
0.1
 48
0.1
 75
     1
 76
     1
 78
     7
 79
     2
140
0.12
141
0.0
146
0.71
147
0.06
176
   256
177
   256
178
     2
274
     4
284
     7
340
11
371
    -1
372
    -1
1001
ACAD_DSTYLE_DIMARC_LENGTH_SYMBOL
1070
   379
1070
     1
  0
DIMSTYLE
105
1D547
330
A
100
AcDbSymbolTableRecord
100
AcDbDimStyleTableRecord
  2
AM_ANSI$SH
 70
     0
  4
mm
 41
0.1
 42
0.05
 43
0.5
 44
0.1
 47
0.1
 48
0.1
 75
     1
 76
     1
 78
     7
 79
     2
140
0.12
141
0.0
146
0.71
147
0.06
173
     1
176
   256
177
   256
178
     2
274
     4
284
     7
340
11
343
72
371
    -1
372
    -1
1001
ACAD_DSTYLE_DIMARC_LENGTH_SYMBOL
1070
   379
1070
     1
  0
DIMSTYLE
105
1DA90
330
A
100
AcDbSymbolTableRecord
100
AcDbDimStyleTableRecord
  2
SYSORG4P0
 70
     0
  4
"
 41
1.0
 42
1.0
 43
10.0
 44
1.0
 47
0.2
 48
0.2000000002
 71
     1
 73
     0
 74
     0
 77
     1
 78
     8
 79
     2
140
3.5
141
0.0
143
0.0393701
144
3.999999999999793
146
0.6
147
1.5
172
     1
176
   256
177
   256
178
     7
271
     2
272
     2
283
     0
284
     8
340
11
341
A66
342
6C4
371
    -1
372
    -1
  0
DIMSTYLE
105
1DA91
330
A
100
AcDbSymbolTableRecord
100
AcDbDimStyleTableRecord
  2
SYSORG2P0
 70
     0
  4
"
 41
1.0
 42
1.0
 43
10.0
 44
1.0
 47
0.2
 48
0.2000000002
 71
     1
 73
     0
 74
     0
 77
     1
 78
     8
 79
     2
140
3.5
141
0.0
143
0.0393701
144
2.000000119209306
146
0.6
147
1.5
172
     1
176
   256
177
   256
178
     7
271
     2
272
     2
283
     0
284
     8
340
11
341
A66
342
6C4
371
    -1
372
    -1
  0
DIMSTYLE
105
1DA92
330
A
100
AcDbSymbolTableRecord
100
AcDbDimStyleTableRecord
  2
SYSORG0P5
 70
     0
  4
"
 41
1.0
 42
1.0
 43
10.0
 44
1.0
 47
0.1
 48
0.1
 73
     0
 74
     0
 77
     1
 78
     8
 79
     2
140
3.5
141
0.0
143
0.0393701
144
0.5
146
0.71
147
1.5
172
     1
176
   256
177
   256
178
     7
271
     2
272
     2
283
     0
284
     8
340
11
371
    -1
372
    -1
  0
DIMSTYLE
105
32EB5
330
A
100
AcDbSymbolTableRecord
100
AcDbDimStyleTableRecord
  2
SYS0000
 70
     0
  4
"
 41
2.5
 42
1.0
 43
10.0
 44
1.0
 47
0.1
 48
0.1
 73
     0
 74
     0
 77
     1
 78
     8
 79
     2
140
3.5
141
0.0
143
0.0393701
146
0.71
147
1.5
172
     1
176
   256
177
   256
178
     2
271
     1
272
     3
283
     0
284
     8
340
11
341
6C4
342
32DFB
371
    -1
372
    -1
  0
DIMSTYLE
105
425A4
330
A
100
AcDbSymbolTableRecord
100
AcDbDimStyleTableRecord
  2
DIMSTYLE$0
 70
     0
 41
1.0
 42
2.54
 44
2.54
 73
     0
 74
     0
140
3.2
147
1.6
173
     1
279
     2
340
11
  0
ENDTAB
  0
TABLE
  2
BLOCK_RECORD
  5
1
330
0
100
AcDbSymbolTable
 70
    43
  0
BLOCK_RECORD
  5
1F
102
{ACAD_XDICTIONARY
360
8A
102
}
330
1
100
AcDbSymbolTableRecord
100
AcDbBlockTableRecord
  2
*Model_Space
340
22
  0
BLOCK_RECORD
  5
1B
330
1
100
AcDbSymbolTableRecord
100
AcDbBlockTableRecord
  2
*Paper_Space
340
1E
  0
BLOCK_RECORD
  5
23
330
1
100
AcDbSymbolTableRecord
100
AcDbBlockTableRecord
  2
*Paper_Space0
340
26
  0
BLOCK_RECORD
  5
72
330
1
100
AcDbSymbolTableRecord
100
AcDbBlockTableRecord
  2
GENAXEH
340
0
  0
BLOCK_RECORD
  5
6C4
330
1
100
AcDbSymbolTableRecord
100
AcDbBlockTableRecord
  2
_Dot
340
0
102
{BLKREFS
331
502FB
331
502FC
331
5030F
331
50310
331
50321
331
50322
331
50337
331
50338
331
50349
331
5034A
331
5035B
331
5035C
331
5036D
331
5036E
331
5037F
331
50380
331
50391
331
50392
331
503A3
331
503A4
331
503B5
331
503B6
331
503C7
331
503C8
331
503DD
331
503DE
331
503EF
331
503F0
331
50401
331
50402
331
50417
331
50418
331
5042D
331
5042E
331
5043F
331
50440
331
50451
331
50452
331
50463
331
50464
331
50475
331
50476
331
50B73
331
50B74
331
50B85
331
50B86
331
50B97
331
50B98
331
50BA9
331
50BAA
331
50BBB
331
50BBC
331
50BE1
331
50BE2
331
515AB
331
515AC
331
515BD
331
515BE
331
515CF
331
515D0
331
515E1
331
515E2
331
515F7
331
515F8
331
51609
331
5160A
102
}
  0
BLOCK_RECORD
  5
A66
330
1
100
AcDbSymbolTableRecord
100
AcDbBlockTableRecord
  2
_OPEN30
340
0
  0
BLOCK_RECORD
  5
32629
330
1
100
AcDbSymbolTableRecord
100
AcDbBlockTableRecord
  2
GENDOT
340
0
102
{BLKREFS
331
50B63
331
50B64
331
50BCF
331
50BD0
331
5161D
331
5161E
102
}
  0
BLOCK_RECORD
  5
32DFB
330
1
100
AcDbSymbolTableRecord
100
AcDbBlockTableRecord
  2
_DotSmall
340
0
  0
BLOCK_RECORD
  5
3476F
330
1
100
AcDbSymbolTableRecord
100
AcDbBlockTableRecord
  2
*D6
340
0
  0
BLOCK_RECORD
  5
3477B
330
1
100
AcDbSymbolTableRecord
100
AcDbBlockTableRecord
  2
*D7
340
0
  0
BLOCK_RECORD
  5
34788
330
1
100
AcDbSymbolTableRecord
100
AcDbBlockTableRecord
  2
*D8
340
0
  0
BLOCK_RECORD
  5
34794
330
1
100
AcDbSymbolTableRecord
100
AcDbBlockTableRecord
  2
*D9
340
0
  0
BLOCK_RECORD
  5
347A2
330
1
100
AcDbSymbolTableRecord
100
AcDbBlockTableRecord
  2
*D10
340
0
  0
BLOCK_RECORD
  5
347AE
330
1
100
AcDbSymbolTableRecord
100
AcDbBlockTableRecord
  2
*D11
340
0
  0
BLOCK_RECORD
  5
347BA
330
1
100
AcDbSymbolTableRecord
100
AcDbBlockTableRecord
  2
*D12
340
0
  0
BLOCK_RECORD
  5
347D2
330
1
100
AcDbSymbolTableRecord
100
AcDbBlockTableRecord
  2
*D13
340
0
  0
BLOCK_RECORD
  5
347DE
330
1
100
AcDbSymbolTableRecord
100
AcDbBlockTableRecord
  2
*D14
340
0
  0
BLOCK_RECORD
  5
347EA
330
1
100
AcDbSymbolTableRecord
100
AcDbBlockTableRecord
  2
*D15
340
0
  0
BLOCK_RECORD
  5
347F6
330
1
100
AcDbSymbolTableRecord
100
AcDbBlockTableRecord
  2
*D16
340
0
  0
BLOCK_RECORD
  5
34802
330
1
100
AcDbSymbolTableRecord
100
AcDbBlockTableRecord
  2
*D17
340
0
  0
BLOCK_RECORD
  5
3481A
330
1
100
AcDbSymbolTableRecord
100
AcDbBlockTableRecord
  2
*D18
340
0
  0
BLOCK_RECORD
  5
34828
330
1
100
AcDbSymbolTableRecord
100
AcDbBlockTableRecord
  2
*D19
340
0
  0
BLOCK_RECORD
  5
34834
330
1
100
AcDbSymbolTableRecord
100
AcDbBlockTableRecord
  2
*D20
340
0
  0
BLOCK_RECORD
  5
34840
330
1
100
AcDbSymbolTableRecord
100
AcDbBlockTableRecord
  2
*D21
340
0
  0
BLOCK_RECORD
  5
3484E
330
1
100
AcDbSymbolTableRecord
100
AcDbBlockTableRecord
  2
*D22
340
0
  0
BLOCK_RECORD
  5
34868
330
1
100
AcDbSymbolTableRecord
100
AcDbBlockTableRecord
  2
*D23
340
0
  0
BLOCK_RECORD
  5
34874
330
1
100
AcDbSymbolTableRecord
100
AcDbBlockTableRecord
  2
*D24
340
0
  0
BLOCK_RECORD
  5
34880
330
1
100
AcDbSymbolTableRecord
100
AcDbBlockTableRecord
  2
*D25
340
0
  0
BLOCK_RECORD
  5
3488C
330
1
100
AcDbSymbolTableRecord
100
AcDbBlockTableRecord
  2
*D26
340
0
  0
BLOCK_RECORD
  5
38CDD
330
1
100
AcDbSymbolTableRecord
100
AcDbBlockTableRecord
  2
*D27
340
0
  0
BLOCK_RECORD
  5
38D74
330
1
100
AcDbSymbolTableRecord
100
AcDbBlockTableRecord
  2
*D28
340
0
  0
BLOCK_RECORD
  5
38D80
330
1
100
AcDbSymbolTableRecord
100
AcDbBlockTableRecord
  2
*D29
340
0
  0
BLOCK_RECORD
  5
38D8C
330
1
100
AcDbSymbolTableRecord
100
AcDbBlockTableRecord
  2
*D30
340
0
  0
BLOCK_RECORD
  5
38D98
330
1
100
AcDbSymbolTableRecord
100
AcDbBlockTableRecord
  2
*D31
340
0
  0
BLOCK_RECORD
  5
38DA4
330
1
100
AcDbSymbolTableRecord
100
AcDbBlockTableRecord
  2
*D32
340
0
  0
BLOCK_RECORD
  5
38DB0
330
1
100
AcDbSymbolTableRecord
100
AcDbBlockTableRecord
  2
*D33
340
0
  0
BLOCK_RECORD
  5
38DF3
330
1
100
AcDbSymbolTableRecord
100
AcDbBlockTableRecord
  2
*D34
340
0
  0
BLOCK_RECORD
  5
3D013
330
1
100
AcDbSymbolTableRecord
100
AcDbBlockTableRecord
  2
*D35
340
0
  0
BLOCK_RECORD
  5
3D01F
330
1
100
AcDbSymbolTableRecord
100
AcDbBlockTableRecord
  2
*D36
340
0
  0
BLOCK_RECORD
  5
3D02B
330
1
100
AcDbSymbolTableRecord
100
AcDbBlockTableRecord
  2
*D37
340
0
  0
BLOCK_RECORD
  5
3D037
330
1
100
AcDbSymbolTableRecord
100
AcDbBlockTableRecord
  2
*D38
340
0
  0
BLOCK_RECORD
  5
3D043
330
1
100
AcDbSymbolTableRecord
100
AcDbBlockTableRecord
  2
*D39
340
0
  0
BLOCK_RECORD
  5
3D04F
330
1
100
AcDbSymbolTableRecord
100
AcDbBlockTableRecord
  2
*D40
340
0
  0
BLOCK_RECORD
  5
3D05D
330
1
100
AcDbSymbolTableRecord
100
AcDbBlockTableRecord
  2
*D41
340
0
  0
ENDTAB
  0
ENDSEC
  0
SECTION
  2
BLOCKS
  0
BLOCK
  5
20
330
1F
100
AcDbEntity
  8
0
100
AcDbBlockBegin
  2
*Model_Space
 70
     0
 10
0.0
 20
0.0
 30
0.0
  3
*Model_Space
  1

  0
ENDBLK
  5
21
330
1F
100
AcDbEntity
  8
0
100
AcDbBlockEnd
  0
BLOCK
  5
1C
330
1B
100
AcDbEntity
 67
     1
  8
0
100
AcDbBlockBegin
  2
*Paper_Space
 70
     0
 10
0.0
 20
0.0
 30
0.0
  3
*Paper_Space
  1

  0
ENDBLK
  5
1D
330
1B
100
AcDbEntity
 67
     1
  8
0
100
AcDbBlockEnd
  0
BLOCK
  5
24
330
23
100
AcDbEntity
 67
     1
  8
0
100
AcDbBlockBegin
  2
*Paper_Space0
 70
     0
 10
0.0
 20
0.0
 30
0.0
  3
*Paper_Space0
  1

  0
ENDBLK
  5
25
330
23
100
AcDbEntity
 67
     1
  8
0
100
AcDbBlockEnd
  0
BLOCK
  5
74
330
72
100
AcDbEntity
  8
0
100
AcDbBlockBegin
  2
GENAXEH
 70
     0
 10
0.0
 20
0.0
 30
0.0
  3
GENAXEH
  1

  0
LINE
  5
73
330
72
100
AcDbEntity
  8
0
100
AcDbLine
 10
-1.0
 20
0.0
 30
0.0
 11
1.0
 21
0.0
 31
0.0
  0
ENDBLK
  5
75
330
72
100
AcDbEntity
  8
0
100
AcDbBlockEnd
  0
BLOCK
  5
6C7
330
6C4
100
AcDbEntity
  8
0
100
AcDbBlockBegin
  2
_Dot
 70
     0
 10
0.0
 20
0.0
 30
0.0
  3
_Dot
  1

  0
LWPOLYLINE
  5
6C5
330
6C4
100
AcDbEntity
  8
0
  6
ByBlock
 62
     0
100
AcDbPolyline
 90
        2
 70
     1
 43
0.5
 10
-0.25
 20
0.0
 42
1.0
 10
0.25
 20
0.0
 42
1.0
  0
LINE
  5
6C6
330
6C4
100
AcDbEntity
  8
0
  6
ByBlock
 62
     0
370
    -2
100
AcDbLine
 10
-0.5
 20
0.0
 30
0.0
 11
-1.0
 21
0.0
 31
0.0
  0
ENDBLK
  5
6C8
330
6C4
100
AcDbEntity
  8
0
100
AcDbBlockEnd
  0
BLOCK
  5
A6A
330
A66
100
AcDbEntity
  8
0
100
AcDbBlockBegin
  2
_OPEN30
 70
     0
 10
0.0
 20
0.0
 30
0.0
  3
_OPEN30
  1

  0
LINE
  5
A67
330
A66
100
AcDbEntity
  8
0
  6
ByBlock
 62
     0
100
AcDbLine
 10
-1.0
 20
0.26794919
 30
0.0
 11
0.0
 21
0.0
 31
0.0
  0
LINE
  5
A68
330
A66
100
AcDbEntity
  8
0
  6
ByBlock
 62
     0
100
AcDbLine
 10
0.0
 20
0.0
 30
0.0
 11
-1.0
 21
-0.26794919
 31
0.0
  0
LINE
  5
A69
330
A66
100
AcDbEntity
  8
0
  6
ByBlock
 62
     0
100
AcDbLine
 10
0.0
 20
0.0
 30
0.0
 11
-1.0
 21
0.0
 31
0.0
  0
ENDBLK
  5
A6B
330
A66
100
AcDbEntity
  8
0
100
AcDbBlockEnd
  0
BLOCK
  5
3262A
330
32629
100
AcDbEntity
  8
0
100
AcDbBlockBegin
  2
GENDOT
 70
     0
 10
0.0
 20
0.0
 30
0.0
  3
GENDOT
  1

  0
LINE
  5
3262B
330
32629
100
AcDbEntity
  8
0
100
AcDbLine
 10
0.0
 20
0.0
 30
0.0
 11
-1.0
 21
0.0
 31
0.0
  0
LWPOLYLINE
  5
3262C
330
32629
100
AcDbEntity
  8
0
100
AcDbPolyline
 90
        2
 70
     1
 43
0.25
 10
-0.125
 20
0.0
 42
1.0
 10
0.125
 20
0.0
 42
1.0
  0
ENDBLK
  5
3262D
330
32629
100
AcDbEntity
  8
0
100
AcDbBlockEnd
  0
BLOCK
  5
32DFC
330
32DFB
100
AcDbEntity
  8
0
100
AcDbBlockBegin
  2
_DotSmall
 70
     0
 10
0.0
 20
0.0
 30
0.0
  3
_DotSmall
  1

  0
LWPOLYLINE
  5
32DFD
330
32DFB
100
AcDbEntity
  8
0
  6
ByBlock
 62
     0
100
AcDbPolyline
 90
        2
 70
     1
 43
0.5
 10
-0.0625
 20
0.0
 42
1.0
 10
0.0625
 20
0.0
 42
1.0
  0
ENDBLK
  5
32DFE
330
32DFB
100
AcDbEntity
  8
0
100
AcDbBlockEnd
  0
BLOCK
  5
34779
330
3476F
100
AcDbEntity
  8
0
 48
0.5
100
AcDbBlockBegin
  2
*D6
 70
     1
 10
0.0
 20
0.0
 30
0.0
  3
*D6
  1

  0
LINE
  5
502F8
330
3476F
100
AcDbEntity
  8
AM_5
100
AcDbLine
 10
4540.089843698008
 20
-2135.659103504413
 30
0.0
 11
4540.089843698008
 21
-2127.659103528412
 31
0.0
  0
LINE
  5
502F9
330
3476F
100
AcDbEntity
  8
AM_5
100
AcDbLine
 10
4530.089843816798
 20
-2135.659103528412
 30
0.0
 11
4530.089843816798
 21
-2127.659103528412
 31
0.0
  0
LINE
  5
502FA
330
3476F
100
AcDbEntity
  8
AM_5
100
AcDbLine
 10
4539.089843698008
 20
-2128.659103528411
 30
0.0
 11
4531.089843816799
 21
-2128.659103528411
 31
0.0
  0
INSERT
  5
502FB
330
3476F
100
AcDbEntity
  8
AM_5
100
AcDbBlockReference
  2
_Dot
 10
4540.089843698008
 20
-2128.659103528411
 30
0.0
  0
INSERT
  5
502FC
330
3476F
100
AcDbEntity
  8
AM_5
100
AcDbBlockReference
  2
_Dot
 10
4530.089843816798
 20
-2128.659103528411
 30
0.0
 50
180.0
  0
MTEXT
  5
502FD
330
3476F
100
AcDbEntity
  8
AM_5
 62
     2
100
AcDbMText
 10
4535.089843757403
 20
-2126.059103528412
 30
0.0
 40
3.200000000000001
 41
0.0
 71
     5
 72
     1
  1
%%c10
 73
     1
 44
1.0
1001
ACAD
1000
MTEXTBEGIN
1070
    73
1070
     1
1070
    44
1040
1.0
1070
    74
1070
     0
1000
MTEXTEND
  0
POINT
  5
502FE
330
3476F
100
AcDbEntity
  8
Defpoints
 62
     0
100
AcDbPoint
 10
4540.089843698008
 20
-2136.659103504413
 30
0.0
  0
POINT
  5
502FF
330
3476F
100
AcDbEntity
  8
Defpoints
 62
     0
100
AcDbPoint
 10
4530.089843816798
 20
-2136.659103528411
 30
0.0
  0
POINT
  5
50300
330
3476F
100
AcDbEntity
  8
Defpoints
 62
     0
100
AcDbPoint
 10
4530.089843816798
 20
-2128.659103528411
 30
0.0
  0
ENDBLK
  5
3477A
330
3476F
100
AcDbEntity
  8
0
 48
0.5
100
AcDbBlockEnd
  0
BLOCK
  5
34786
330
3477B
100
AcDbEntity
  8
0
 48
0.5
100
AcDbBlockBegin
  2
*D7
 70
     1
 10
0.0
 20
0.0
 30
0.0
  3
*D7
  1

  0
LINE
  5
5030B
330
3477B
100
AcDbEntity
  8
AM_5
100
AcDbLine
 10
4541.089843816799
 20
-2154.659103528411
 30
0.0
 11
4569.746201833981
 21
-2154.659103528411
 31
0.0
  0
LINE
  5
5030C
330
3477B
100
AcDbEntity
  8
AM_5
100
AcDbLine
 10
4541.089843816799
 20
-2136.659103528411
 30
0.0
 11
4569.746201833981
 21
-2136.659103528411
 31
0.0
  0
LINE
  5
5030D
330
3477B
100
AcDbEntity
  8
AM_5
100
AcDbLine
 10
4568.746201833983
 20
-2137.659103528411
 30
0.0
 11
4568.746201833983
 21
-2153.659103528411
 31
0.0
  0
LINE
  5
5030E
330
3477B
100
AcDbEntity
  8
AM_5
100
AcDbLine
 10
4568.746201833983
 20
-2154.659103528411
 30
0.0
 11
4568.746201833983
 21
-2175.247103528412
 31
0.0
  0
INSERT
  5
5030F
330
3477B
100
AcDbEntity
  8
AM_5
100
AcDbBlockReference
  2
_Dot
 10
4568.746201833983
 20
-2136.659103528411
 30
0.0
 50
90.0
  0
INSERT
  5
50310
330
3477B
100
AcDbEntity
  8
AM_5
100
AcDbBlockReference
  2
_Dot
 10
4568.746201833983
 20
-2154.659103528411
 30
0.0
 50
270.0
  0
MTEXT
  5
50311
330
3477B
100
AcDbEntity
  8
AM_5
 62
     2
100
AcDbMText
 10
4566.146201833983
 20
-2165.703103528411
 30
0.0
 40
3.200000000000001
 41
0.0
 71
     5
 72
     1
  1
ストローク18
 11
0.0000000000000001
 21
1.0
 31
0.0
 73
     1
 44
1.0
1001
ACAD
1000
MTEXTBEGIN
1070
    73
1070
     1
1070
    44
1040
1.0
1070
    74
1070
     0
1000
MTEXTEND
  0
POINT
  5
50312
330
3477B
100
AcDbEntity
  8
Defpoints
 62
     0
100
AcDbPoint
 10
4540.089843816797
 20
-2154.659103528411
 30
0.0
  0
POINT
  5
50313
330
3477B
100
AcDbEntity
  8
Defpoints
 62
     0
100
AcDbPoint
 10
4540.089843816797
 20
-2136.659103528411
 30
0.0
  0
POINT
  5
50314
330
3477B
100
AcDbEntity
  8
Defpoints
 62
     0
100
AcDbPoint
 10
4568.746201833983
 20
-2136.659103528411
 30
0.0
  0
ENDBLK
  5
34787
330
3477B
100
AcDbEntity
  8
0
 48
0.5
100
AcDbBlockEnd
  0
BLOCK
  5
34792
330
34788
100
AcDbEntity
  8
0
 48
0.5
100
AcDbBlockBegin
  2
*D8
 70
     1
 10
0.0
 20
0.0
 30
0.0
  3
*D8
  1

  0
LINE
  5
5031E
330
34788
100
AcDbEntity
  8
AM_5
100
AcDbLine
 10
4445.638887092227
 20
-2317.179623528412
 30
0.0
 11
4445.638887092227
 21
-2326.929623528411
 31
0.0
  0
LINE
  5
5031F
330
34788
100
AcDbEntity
  8
AM_5
100
AcDbLine
 10
4458.638887092229
 20
-2317.179623528412
 30
0.0
 11
4458.638887092229
 21
-2326.929623528411
 31
0.0
  0
LINE
  5
50320
330
34788
100
AcDbEntity
  8
AM_5
100
AcDbLine
 10
4446.638887092229
 20
-2325.929623528411
 30
0.0
 11
4457.638887092229
 21
-2325.929623528411
 31
0.0
  0
INSERT
  5
50321
330
34788
100
AcDbEntity
  8
AM_5
100
AcDbBlockReference
  2
_Dot
 10
4445.638887092227
 20
-2325.929623528411
 30
0.0
 50
180.0
  0
INSERT
  5
50322
330
34788
100
AcDbEntity
  8
AM_5
100
AcDbBlockReference
  2
_Dot
 10
4458.638887092229
 20
-2325.929623528411
 30
0.0
  0
MTEXT
  5
50323
330
34788
100
AcDbEntity
  8
AM_5
 62
     2
100
AcDbMText
 10
4452.138887092229
 20
-2323.329623528412
 30
0.0
 40
3.200000000000001
 41
0.0
 71
     5
 72
     1
  1
13
 73
     1
 44
1.0
1001
ACAD
1000
MTEXTBEGIN
1070
    73
1070
     1
1070
    44
1040
1.0
1070
    74
1070
     0
1000
MTEXTEND
  0
POINT
  5
50324
330
34788
100
AcDbEntity
  8
Defpoints
 62
     0
100
AcDbPoint
 10
4445.638887092227
 20
-2316.179623528412
 30
0.0
  0
POINT
  5
50325
330
34788
100
AcDbEntity
  8
Defpoints
 62
     0
100
AcDbPoint
 10
4458.638887092229
 20
-2316.179623528412
 30
0.0
  0
POINT
  5
50326
330
34788
100
AcDbEntity
  8
Defpoints
 62
     0
100
AcDbPoint
 10
4458.638887092229
 20
-2325.929623528411
 30
0.0
  0
ENDBLK
  5
34793
330
34788
100
AcDbEntity
  8
0
 48
0.5
100
AcDbBlockEnd
  0
BLOCK
  5
347A0
330
34794
100
AcDbEntity
  8
0
 48
0.5
100
AcDbBlockBegin
  2
*D9
 70
     1
 10
0.0
 20
0.0
 30
0.0
  3
*D9
  1

  0
LINE
  5
50332
330
34794
100
AcDbEntity
  8
AM_5
100
AcDbLine
 10
4527.089843816798
 20
-2316.929623528412
 30
0.0
 11
4527.089843816798
 21
-2326.929623528411
 31
0.0
  0
LINE
  5
50333
330
34794
100
AcDbEntity
  8
AM_5
100
AcDbLine
 10
4525.089843816799
 20
-2316.929623528412
 30
0.0
 11
4525.089843816799
 21
-2326.929623528411
 31
0.0
  0
LINE
  5
50334
330
34794
100
AcDbEntity
  8
AM_5
100
AcDbLine
 10
4528.089843816799
 20
-2325.929623528411
 30
0.0
 11
4529.089843816797
 21
-2325.929623528411
 31
0.0
  0
LINE
  5
50335
330
34794
100
AcDbEntity
  8
AM_5
100
AcDbLine
 10
4524.089843816798
 20
-2325.929623528411
 30
0.0
 11
4519.596510483466
 21
-2325.929623528411
 31
0.0
  0
LINE
  5
50336
330
34794
100
AcDbEntity
  8
AM_5
100
AcDbLine
 10
4527.089843816798
 20
-2325.929623528411
 30
0.0
 11
4525.089843816799
 21
-2325.929623528411
 31
0.0
  0
INSERT
  5
50337
330
34794
100
AcDbEntity
  8
AM_5
100
AcDbBlockReference
  2
_Dot
 10
4527.089843816798
 20
-2325.929623528411
 30
0.0
 50
180.0
  0
INSERT
  5
50338
330
34794
100
AcDbEntity
  8
AM_5
100
AcDbBlockReference
  2
_Dot
 10
4525.089843816799
 20
-2325.929623528411
 30
0.0
  0
MTEXT
  5
50339
330
34794
100
AcDbEntity
  8
AM_5
 62
     2
100
AcDbMText
 10
4521.343177150131
 20
-2323.329623528412
 30
0.0
 40
3.200000000000001
 41
0.0
 71
     5
 72
     1
  1
2
 73
     1
 44
1.0
1001
ACAD
1000
MTEXTBEGIN
1070
    73
1070
     1
1070
    44
1040
1.0
1070
    74
1070
     0
1000
MTEXTEND
  0
POINT
  5
5033A
330
34794
100
AcDbEntity
  8
Defpoints
 62
     0
100
AcDbPoint
 10
4527.089843816798
 20
-2315.929623528411
 30
0.0
  0
POINT
  5
5033B
330
34794
100
AcDbEntity
  8
Defpoints
 62
     0
100
AcDbPoint
 10
4525.089843816799
 20
-2315.929623528411
 30
0.0
  0
POINT
  5
5033C
330
34794
100
AcDbEntity
  8
Defpoints
 62
     0
100
AcDbPoint
 10
4525.089843816799
 20
-2325.929623528411
 30
0.0
  0
ENDBLK
  5
347A1
330
34794
100
AcDbEntity
  8
0
 48
0.5
100
AcDbBlockEnd
  0
BLOCK
  5
347AC
330
347A2
100
AcDbEntity
  8
0
 48
0.5
100
AcDbBlockBegin
  2
*D10
 70
     1
 10
0.0
 20
0.0
 30
0.0
  3
*D10
  1

  0
LINE
  5
50346
330
347A2
100
AcDbEntity
  8
AM_5
100
AcDbLine
 10
4464.138887092229
 20
-2155.159103528411
 30
0.0
 11
4482.434297906758
 21
-2155.159103528411
 31
0.0
  0
LINE
  5
50347
330
347A2
100
AcDbEntity
  8
AM_5
100
AcDbLine
 10
4465.888887092229
 20
-2196.663183528412
 30
0.0
 11
4482.434297906758
 21
-2196.663183528412
 31
0.0
  0
LINE
  5
50348
330
347A2
100
AcDbEntity
  8
AM_5
100
AcDbLine
 10
4481.434297906758
 20
-2156.159103528411
 30
0.0
 11
4481.434297906758
 21
-2195.663183528412
 31
0.0
  0
INSERT
  5
50349
330
347A2
100
AcDbEntity
  8
AM_5
100
AcDbBlockReference
  2
_Dot
 10
4481.434297906758
 20
-2155.159103528411
 30
0.0
 50
90.0
  0
INSERT
  5
5034A
330
347A2
100
AcDbEntity
  8
AM_5
100
AcDbBlockReference
  2
_Dot
 10
4481.434297906758
 20
-2196.663183528412
 30
0.0
 50
270.0
  0
MTEXT
  5
5034B
330
347A2
100
AcDbEntity
  8
AM_5
 62
     2
100
AcDbMText
 10
4478.834297906757
 20
-2175.911143528411
 30
0.0
 40
3.200000000000001
 41
0.0
 71
     5
 72
     1
  1
150
 11
0.0000000000000001
 21
1.0
 31
0.0
 73
     1
 44
1.0
1001
ACAD
1000
MTEXTBEGIN
1070
    73
1070
     1
1070
    44
1040
1.0
1070
    74
1070
     0
1000
MTEXTEND
  0
POINT
  5
5034C
330
347A2
100
AcDbEntity
  8
Defpoints
 62
     0
100
AcDbPoint
 10
4463.138887092229
 20
-2155.159103528411
 30
0.0
  0
POINT
  5
5034D
330
347A2
100
AcDbEntity
  8
Defpoints
 62
     0
100
AcDbPoint
 10
4464.888887092229
 20
-2196.663183528412
 30
0.0
  0
POINT
  5
5034E
330
347A2
100
AcDbEntity
  8
Defpoints
 62
     0
100
AcDbPoint
 10
4481.434297906758
 20
-2196.663183528412
 30
0.0
  0
ENDBLK
  5
347AD
330
347A2
100
AcDbEntity
  8
0
 48
0.5
100
AcDbBlockEnd
  0
BLOCK
  5
347B8
330
347AE
100
AcDbEntity
  8
0
 48
0.5
100
AcDbBlockBegin
  2
*D11
 70
     1
 10
0.0
 20
0.0
 30
0.0
  3
*D11
  1

  0
LINE
  5
50358
330
347AE
100
AcDbEntity
  8
AM_5
100
AcDbLine
 10
4465.888887092229
 20
-2196.663183528412
 30
0.0
 11
4482.434297906758
 21
-2196.663183528412
 31
0.0
  0
LINE
  5
50359
330
347AE
100
AcDbEntity
  8
AM_5
100
AcDbLine
 10
4465.888887092229
 20
-2309.929623528411
 30
0.0
 11
4482.434297906758
 21
-2309.929623528411
 31
0.0
  0
LINE
  5
5035A
330
347AE
100
AcDbEntity
  8
AM_5
100
AcDbLine
 10
4481.434297906758
 20
-2197.663183528412
 30
0.0
 11
4481.434297906758
 21
-2308.929623528412
 31
0.0
  0
INSERT
  5
5035B
330
347AE
100
AcDbEntity
  8
AM_5
100
AcDbBlockReference
  2
_Dot
 10
4481.434297906758
 20
-2196.663183528412
 30
0.0
 50
90.0
  0
INSERT
  5
5035C
330
347AE
100
AcDbEntity
  8
AM_5
100
AcDbBlockReference
  2
_Dot
 10
4481.434297906758
 20
-2309.929623528411
 30
0.0
 50
270.0
  0
MTEXT
  5
5035D
330
347AE
100
AcDbEntity
  8
AM_5
 62
     2
100
AcDbMText
 10
4478.834297906757
 20
-2253.296403528411
 30
0.0
 40
3.200000000000001
 41
0.0
 71
     5
 72
     1
  1
144
 11
0.0000000000000001
 21
1.0
 31
0.0
 73
     1
 44
1.0
1001
ACAD
1000
MTEXTBEGIN
1070
    73
1070
     1
1070
    44
1040
1.0
1070
    74
1070
     0
1000
MTEXTEND
  0
POINT
  5
5035E
330
347AE
100
AcDbEntity
  8
Defpoints
 62
     0
100
AcDbPoint
 10
4464.888887092229
 20
-2196.663183528412
 30
0.0
  0
POINT
  5
5035F
330
347AE
100
AcDbEntity
  8
Defpoints
 62
     0
100
AcDbPoint
 10
4464.888887092229
 20
-2309.929623528411
 30
0.0
  0
POINT
  5
50360
330
347AE
100
AcDbEntity
  8
Defpoints
 62
     0
100
AcDbPoint
 10
4481.434297906758
 20
-2309.929623528411
 30
0.0
  0
ENDBLK
  5
347B9
330
347AE
100
AcDbEntity
  8
0
 48
0.5
100
AcDbBlockEnd
  0
BLOCK
  5
347C4
330
347BA
100
AcDbEntity
  8
0
 48
0.5
100
AcDbBlockBegin
  2
*D12
 70
     1
 10
0.0
 20
0.0
 30
0.0
  3
*D12
  1

  0
LINE
  5
5036A
330
347BA
100
AcDbEntity
  8
AM_5
100
AcDbLine
 10
4464.138887092229
 20
-2155.159103528411
 30
0.0
 11
4492.434297906758
 21
-2155.159103528411
 31
0.0
  0
LINE
  5
5036B
330
347BA
100
AcDbEntity
  8
AM_5
100
AcDbLine
 10
4464.138887092229
 20
-2315.929623528411
 30
0.0
 11
4492.434297906758
 21
-2315.929623528411
 31
0.0
  0
LINE
  5
5036C
330
347BA
100
AcDbEntity
  8
AM_5
100
AcDbLine
 10
4491.434297906756
 20
-2156.159103528411
 30
0.0
 11
4491.434297906756
 21
-2314.929623528412
 31
0.0
  0
INSERT
  5
5036D
330
347BA
100
AcDbEntity
  8
AM_5
100
AcDbBlockReference
  2
_Dot
 10
4491.434297906756
 20
-2155.159103528411
 30
0.0
 50
90.0
  0
INSERT
  5
5036E
330
347BA
100
AcDbEntity
  8
AM_5
100
AcDbBlockReference
  2
_Dot
 10
4491.434297906756
 20
-2315.929623528411
 30
0.0
 50
270.0
  0
MTEXT
  5
5036F
330
347BA
100
AcDbEntity
  8
AM_5
 62
     2
100
AcDbMText
 10
4488.834297906757
 20
-2235.544363528411
 30
0.0
 40
3.200000000000001
 41
0.0
 71
     5
 72
     1
  1
300
 11
0.0000000000000001
 21
1.0
 31
0.0
 73
     1
 44
1.0
1001
ACAD
1000
MTEXTBEGIN
1070
    73
1070
     1
1070
    44
1040
1.0
1070
    74
1070
     0
1000
MTEXTEND
  0
POINT
  5
50370
330
347BA
100
AcDbEntity
  8
Defpoints
 62
     0
100
AcDbPoint
 10
4463.138887092229
 20
-2155.159103528411
 30
0.0
  0
POINT
  5
50371
330
347BA
100
AcDbEntity
  8
Defpoints
 62
     0
100
AcDbPoint
 10
4463.138887092229
 20
-2315.929623528411
 30
0.0
  0
POINT
  5
50372
330
347BA
100
AcDbEntity
  8
Defpoints
 62
     0
100
AcDbPoint
 10
4491.434297906756
 20
-2315.929623528411
 30
0.0
  0
ENDBLK
  5
347C5
330
347BA
100
AcDbEntity
  8
0
 48
0.5
100
AcDbBlockEnd
  0
BLOCK
  5
347DC
330
347D2
100
AcDbEntity
  8
0
 48
0.5
100
AcDbBlockBegin
  2
*D13
 70
     1
 10
0.0
 20
0.0
 30
0.0
  3
*D13
  1

  0
LINE
  5
5037C
330
347D2
100
AcDbEntity
  8
AM_5
100
AcDbLine
 10
4644.879640685487
 20
-2125.919878985909
 30
0.0
 11
4652.879640685487
 21
-2125.919878985909
 31
0.0
  0
LINE
  5
5037D
330
347D2
100
AcDbEntity
  8
AM_5
100
AcDbLine
 10
4641.879640685487
 20
-2115.919878985908
 30
0.0
 11
4652.879640685487
 21
-2115.919878985908
 31
0.0
  0
LINE
  5
5037E
330
347D2
100
AcDbEntity
  8
AM_5
100
AcDbLine
 10
4651.879640685487
 20
-2124.919878985908
 30
0.0
 11
4651.879640685487
 21
-2116.919878985909
 31
0.0
  0
INSERT
  5
5037F
330
347D2
100
AcDbEntity
  8
AM_5
100
AcDbBlockReference
  2
_Dot
 10
4651.879640685487
 20
-2125.919878985909
 30
0.0
 50
270.0
  0
INSERT
  5
50380
330
347D2
100
AcDbEntity
  8
AM_5
100
AcDbBlockReference
  2
_Dot
 10
4651.879640685487
 20
-2115.919878985908
 30
0.0
 50
90.0
  0
MTEXT
  5
50381
330
347D2
100
AcDbEntity
  8
AM_5
 62
     2
100
AcDbMText
 10
4649.279640685487
 20
-2120.919878985908
 30
0.0
 40
3.200000000000001
 41
0.0
 71
     5
 72
     1
  1
10
 11
0.0000000000000001
 21
1.0
 31
0.0
 73
     1
 44
1.0
1001
ACAD
1000
MTEXTBEGIN
1070
    73
1070
     1
1070
    44
1040
1.0
1070
    74
1070
     0
1000
MTEXTEND
  0
POINT
  5
50382
330
347D2
100
AcDbEntity
  8
Defpoints
 62
     0
100
AcDbPoint
 10
4643.879640685486
 20
-2125.919878985909
 30
0.0
  0
POINT
  5
50383
330
347D2
100
AcDbEntity
  8
Defpoints
 62
     0
100
AcDbPoint
 10
4640.879640685487
 20
-2115.919878985908
 30
0.0
  0
POINT
  5
50384
330
347D2
100
AcDbEntity
  8
Defpoints
 62
     0
100
AcDbPoint
 10
4651.879640685487
 20
-2115.919878985908
 30
0.0
  0
ENDBLK
  5
347DD
330
347D2
100
AcDbEntity
  8
0
 48
0.5
100
AcDbBlockEnd
  0
BLOCK
  5
347E8
330
347DE
100
AcDbEntity
  8
0
 48
0.5
100
AcDbBlockBegin
  2
*D14
 70
     1
 10
0.0
 20
0.0
 30
0.0
  3
*D14
  1

  0
LINE
  5
5038E
330
347DE
100
AcDbEntity
  8
AM_5
100
AcDbLine
 10
4644.879640685487
 20
-2125.919878985909
 30
0.0
 11
4660.879640685487
 21
-2125.919878985909
 31
0.0
  0
LINE
  5
5038F
330
347DE
100
AcDbEntity
  8
AM_5
100
AcDbLine
 10
4646.629640685487
 20
-2096.919878985909
 30
0.0
 11
4660.879640685487
 21
-2096.919878985909
 31
0.0
  0
LINE
  5
50390
330
347DE
100
AcDbEntity
  8
AM_5
100
AcDbLine
 10
4659.879640685487
 20
-2124.919878985908
 30
0.0
 11
4659.879640685487
 21
-2097.919878985909
 31
0.0
  0
INSERT
  5
50391
330
347DE
100
AcDbEntity
  8
AM_5
100
AcDbBlockReference
  2
_Dot
 10
4659.879640685487
 20
-2125.919878985909
 30
0.0
 50
270.0
  0
INSERT
  5
50392
330
347DE
100
AcDbEntity
  8
AM_5
100
AcDbBlockReference
  2
_Dot
 10
4659.879640685487
 20
-2096.919878985909
 30
0.0
 50
90.0
  0
MTEXT
  5
50393
330
347DE
100
AcDbEntity
  8
AM_5
 62
     2
100
AcDbMText
 10
4657.279640685486
 20
-2111.419878985908
 30
0.0
 40
3.200000000000001
 41
0.0
 71
     5
 72
     1
  1
29
 11
0.0000000000000001
 21
1.0
 31
0.0
 73
     1
 44
1.0
1001
ACAD
1000
MTEXTBEGIN
1070
    73
1070
     1
1070
    44
1040
1.0
1070
    74
1070
     0
1000
MTEXTEND
  0
POINT
  5
50394
330
347DE
100
AcDbEntity
  8
Defpoints
 62
     0
100
AcDbPoint
 10
4643.879640685486
 20
-2125.919878985909
 30
0.0
  0
POINT
  5
50395
330
347DE
100
AcDbEntity
  8
Defpoints
 62
     0
100
AcDbPoint
 10
4645.629640685487
 20
-2096.919878985909
 30
0.0
  0
POINT
  5
50396
330
347DE
100
AcDbEntity
  8
Defpoints
 62
     0
100
AcDbPoint
 10
4659.879640685487
 20
-2096.919878985909
 30
0.0
  0
ENDBLK
  5
347E9
330
347DE
100
AcDbEntity
  8
0
 48
0.5
100
AcDbBlockEnd
  0
BLOCK
  5
347F4
330
347EA
100
AcDbEntity
  8
0
 48
0.5
100
AcDbBlockBegin
  2
*D15
 70
     1
 10
0.0
 20
0.0
 30
0.0
  3
*D15
  1

  0
LINE
  5
503A0
330
347EA
100
AcDbEntity
  8
AM_5
100
AcDbLine
 10
4644.879640685487
 20
-2125.919878985909
 30
0.0
 11
4668.879640685487
 21
-2125.919878985909
 31
0.0
  0
LINE
  5
503A1
330
347EA
100
AcDbEntity
  8
AM_5
100
AcDbLine
 10
4644.879640685487
 20
-2090.919878985908
 30
0.0
 11
4668.879640685487
 21
-2090.919878985908
 31
0.0
  0
LINE
  5
503A2
330
347EA
100
AcDbEntity
  8
AM_5
100
AcDbLine
 10
4667.879640685486
 20
-2124.919878985908
 30
0.0
 11
4667.879640685486
 21
-2091.919878985908
 31
0.0
  0
INSERT
  5
503A3
330
347EA
100
AcDbEntity
  8
AM_5
100
AcDbBlockReference
  2
_Dot
 10
4667.879640685486
 20
-2125.919878985909
 30
0.0
 50
270.0
  0
INSERT
  5
503A4
330
347EA
100
AcDbEntity
  8
AM_5
100
AcDbBlockReference
  2
_Dot
 10
4667.879640685486
 20
-2090.919878985908
 30
0.0
 50
90.0
  0
MTEXT
  5
503A5
330
347EA
100
AcDbEntity
  8
AM_5
 62
     2
100
AcDbMText
 10
4665.279640685486
 20
-2108.419878985908
 30
0.0
 40
3.200000000000001
 41
0.0
 71
     5
 72
     1
  1
35
 11
0.0000000000000001
 21
1.0
 31
0.0
 73
     1
 44
1.0
1001
ACAD
1000
MTEXTBEGIN
1070
    73
1070
     1
1070
    44
1040
1.0
1070
    74
1070
     0
1000
MTEXTEND
  0
POINT
  5
503A6
330
347EA
100
AcDbEntity
  8
Defpoints
 62
     0
100
AcDbPoint
 10
4643.879640685486
 20
-2125.919878985909
 30
0.0
  0
POINT
  5
503A7
330
347EA
100
AcDbEntity
  8
Defpoints
 62
     0
100
AcDbPoint
 10
4643.879640685486
 20
-2090.919878985908
 30
0.0
  0
POINT
  5
503A8
330
347EA
100
AcDbEntity
  8
Defpoints
 62
     0
100
AcDbPoint
 10
4667.879640685486
 20
-2090.919878985908
 30
0.0
  0
ENDBLK
  5
347F5
330
347EA
100
AcDbEntity
  8
0
 48
0.5
100
AcDbBlockEnd
  0
BLOCK
  5
34800
330
347F6
100
AcDbEntity
  8
0
 48
0.5
100
AcDbBlockBegin
  2
*D16
 70
     1
 10
0.0
 20
0.0
 30
0.0
  3
*D16
  1

  0
LINE
  5
503B2
330
347F6
100
AcDbEntity
  8
AM_5
100
AcDbLine
 10
4626.379640685487
 20
-2089.669878985908
 30
0.0
 11
4626.379640685487
 21
-2081.919878985909
 31
0.0
  0
LINE
  5
503B3
330
347F6
100
AcDbEntity
  8
AM_5
100
AcDbLine
 10
4639.379640685487
 20
-2089.669878985908
 30
0.0
 11
4639.379640685487
 21
-2081.919878985909
 31
0.0
  0
LINE
  5
503B4
330
347F6
100
AcDbEntity
  8
AM_5
100
AcDbLine
 10
4627.379640685487
 20
-2082.919878985908
 30
0.0
 11
4638.379640685487
 21
-2082.919878985908
 31
0.0
  0
INSERT
  5
503B5
330
347F6
100
AcDbEntity
  8
AM_5
100
AcDbBlockReference
  2
_Dot
 10
4626.379640685487
 20
-2082.919878985908
 30
0.0
 50
180.0
  0
INSERT
  5
503B6
330
347F6
100
AcDbEntity
  8
AM_5
100
AcDbBlockReference
  2
_Dot
 10
4639.379640685487
 20
-2082.919878985908
 30
0.0
  0
MTEXT
  5
503B7
330
347F6
100
AcDbEntity
  8
AM_5
 62
     2
100
AcDbMText
 10
4632.879640685486
 20
-2080.319878985909
 30
0.0
 40
3.200000000000001
 41
0.0
 71
     5
 72
     1
  1
13
 73
     1
 44
1.0
1001
ACAD
1000
MTEXTBEGIN
1070
    73
1070
     1
1070
    44
1040
1.0
1070
    74
1070
     0
1000
MTEXTEND
  0
POINT
  5
503B8
330
347F6
100
AcDbEntity
  8
Defpoints
 62
     0
100
AcDbPoint
 10
4626.379640685487
 20
-2090.669878985909
 30
0.0
  0
POINT
  5
503B9
330
347F6
100
AcDbEntity
  8
Defpoints
 62
     0
100
AcDbPoint
 10
4639.379640685487
 20
-2090.669878985909
 30
0.0
  0
POINT
  5
503BA
330
347F6
100
AcDbEntity
  8
Defpoints
 62
     0
100
AcDbPoint
 10
4639.379640685487
 20
-2082.919878985908
 30
0.0
  0
ENDBLK
  5
34801
330
347F6
100
AcDbEntity
  8
0
 48
0.5
100
AcDbBlockEnd
  0
BLOCK
  5
3480C
330
34802
100
AcDbEntity
  8
0
 48
0.5
100
AcDbBlockBegin
  2
*D17
 70
     1
 10
0.0
 20
0.0
 30
0.0
  3
*D17
  1

  0
LINE
  5
503C4
330
34802
100
AcDbEntity
  8
AM_5
100
AcDbLine
 10
4626.379640685487
 20
-2317.179623528412
 30
0.0
 11
4626.379640685487
 21
-2326.929623528411
 31
0.0
  0
LINE
  5
503C5
330
34802
100
AcDbEntity
  8
AM_5
100
AcDbLine
 10
4639.379640685487
 20
-2317.179623528412
 30
0.0
 11
4639.379640685487
 21
-2326.929623528411
 31
0.0
  0
LINE
  5
503C6
330
34802
100
AcDbEntity
  8
AM_5
100
AcDbLine
 10
4627.379640685487
 20
-2325.929623528411
 30
0.0
 11
4638.379640685487
 21
-2325.929623528411
 31
0.0
  0
INSERT
  5
503C7
330
34802
100
AcDbEntity
  8
AM_5
100
AcDbBlockReference
  2
_Dot
 10
4626.379640685487
 20
-2325.929623528411
 30
0.0
 50
180.0
  0
INSERT
  5
503C8
330
34802
100
AcDbEntity
  8
AM_5
100
AcDbBlockReference
  2
_Dot
 10
4639.379640685487
 20
-2325.929623528411
 30
0.0
  0
MTEXT
  5
503C9
330
34802
100
AcDbEntity
  8
AM_5
 62
     2
100
AcDbMText
 10
4632.879640685486
 20
-2323.329623528412
 30
0.0
 40
3.200000000000001
 41
0.0
 71
     5
 72
     1
  1
13
 73
     1
 44
1.0
1001
ACAD
1000
MTEXTBEGIN
1070
    73
1070
     1
1070
    44
1040
1.0
1070
    74
1070
     0
1000
MTEXTEND
  0
POINT
  5
503CA
330
34802
100
AcDbEntity
  8
Defpoints
 62
     0
100
AcDbPoint
 10
4626.379640685487
 20
-2316.179623528412
 30
0.0
  0
POINT
  5
503CB
330
34802
100
AcDbEntity
  8
Defpoints
 62
     0
100
AcDbPoint
 10
4639.379640685487
 20
-2316.179623528412
 30
0.0
  0
POINT
  5
503CC
330
34802
100
AcDbEntity
  8
Defpoints
 62
     0
100
AcDbPoint
 10
4639.379640685487
 20
-2325.929623528411
 30
0.0
  0
ENDBLK
  5
3480D
330
34802
100
AcDbEntity
  8
0
 48
0.5
100
AcDbBlockEnd
  0
BLOCK
  5
34826
330
3481A
100
AcDbEntity
  8
0
 48
0.5
100
AcDbBlockBegin
  2
*D18
 70
     1
 10
0.0
 20
0.0
 30
0.0
  3
*D18
  1

  0
LINE
  5
503D8
330
3481A
100
AcDbEntity
  8
AM_5
100
AcDbLine
 10
4464.138887092229
 20
-2155.159103528411
 30
0.0
 11
4492.434297906757
 21
-2155.159103528411
 31
0.0
  0
LINE
  5
503D9
330
3481A
100
AcDbEntity
  8
AM_5
100
AcDbLine
 10
4464.138887092229
 20
-2154.159103528412
 30
0.0
 11
4492.434297906757
 21
-2154.159103528412
 31
0.0
  0
LINE
  5
503DA
330
3481A
100
AcDbEntity
  8
AM_5
100
AcDbLine
 10
4491.434297906756
 20
-2156.159103528411
 30
0.0
 11
4491.434297906756
 21
-2157.159103528412
 31
0.0
  0
LINE
  5
503DB
330
3481A
100
AcDbEntity
  8
AM_5
100
AcDbLine
 10
4491.434297906756
 20
-2153.159103528412
 30
0.0
 11
4491.434297906756
 21
-2149.625770195078
 31
0.0
  0
LINE
  5
503DC
330
3481A
100
AcDbEntity
  8
AM_5
100
AcDbLine
 10
4491.434297906756
 20
-2155.159103528411
 30
0.0
 11
4491.434297906756
 21
-2154.159103528412
 31
0.0
  0
INSERT
  5
503DD
330
3481A
100
AcDbEntity
  8
AM_5
100
AcDbBlockReference
  2
_Dot
 10
4491.434297906756
 20
-2155.159103528411
 30
0.0
 50
90.0
  0
INSERT
  5
503DE
330
3481A
100
AcDbEntity
  8
AM_5
100
AcDbBlockReference
  2
_Dot
 10
4491.434297906756
 20
-2154.159103528412
 30
0.0
 50
270.0
  0
MTEXT
  5
503DF
330
3481A
100
AcDbEntity
  8
AM_5
 62
     2
100
AcDbMText
 10
4488.834297906757
 20
-2150.892436861744
 30
0.0
 40
3.200000000000001
 41
0.0
 71
     5
 72
     1
  1
1
 11
0.0000000000000001
 21
1.0
 31
0.0
 73
     1
 44
1.0
1001
ACAD
1000
MTEXTBEGIN
1070
    73
1070
     1
1070
    44
1040
1.0
1070
    74
1070
     0
1000
MTEXTEND
  0
POINT
  5
503E0
330
3481A
100
AcDbEntity
  8
Defpoints
 62
     0
100
AcDbPoint
 10
4463.138887092229
 20
-2155.159103528411
 30
0.0
  0
POINT
  5
503E1
330
3481A
100
AcDbEntity
  8
Defpoints
 62
     0
100
AcDbPoint
 10
4463.138887092229
 20
-2154.159103528412
 30
0.0
  0
POINT
  5
503E2
330
3481A
100
AcDbEntity
  8
Defpoints
 62
     0
100
AcDbPoint
 10
4491.434297906756
 20
-2154.159103528412
 30
0.0
  0
ENDBLK
  5
34827
330
3481A
100
AcDbEntity
  8
0
 48
0.5
100
AcDbBlockEnd
  0
BLOCK
  5
34832
330
34828
100
AcDbEntity
  8
0
 48
0.5
100
AcDbBlockBegin
  2
*D19
 70
     1
 10
0.0
 20
0.0
 30
0.0
  3
*D19
  1

  0
LINE
  5
503EC
330
34828
100
AcDbEntity
  8
AM_5
100
AcDbLine
 10
4646.629640685487
 20
-2309.929623528411
 30
0.0
 11
4656.879641685487
 21
-2309.929623528411
 31
0.0
  0
LINE
  5
503ED
330
34828
100
AcDbEntity
  8
AM_5
100
AcDbLine
 10
4644.879640685487
 20
-2165.929643528412
 30
0.0
 11
4656.879641685487
 21
-2165.929643528412
 31
0.0
  0
LINE
  5
503EE
330
34828
100
AcDbEntity
  8
AM_5
100
AcDbLine
 10
4655.879641685487
 20
-2308.929623528412
 30
0.0
 11
4655.879641685487
 21
-2166.929643528411
 31
0.0
  0
INSERT
  5
503EF
330
34828
100
AcDbEntity
  8
AM_5
100
AcDbBlockReference
  2
_Dot
 10
4655.879641685487
 20
-2309.929623528411
 30
0.0
 50
270.0
  0
INSERT
  5
503F0
330
34828
100
AcDbEntity
  8
AM_5
100
AcDbBlockReference
  2
_Dot
 10
4655.879641685487
 20
-2165.929643528412
 30
0.0
 50
90.0
  0
MTEXT
  5
503F1
330
34828
100
AcDbEntity
  8
AM_5
 62
     2
100
AcDbMText
 10
4653.279641685488
 20
-2237.929633528411
 30
0.0
 40
3.200000000000001
 41
0.0
 71
     5
 72
     1
  1
144
 11
0.0000000000000001
 21
1.0
 31
0.0
 73
     1
 44
1.0
1001
ACAD
1000
MTEXTBEGIN
1070
    73
1070
     1
1070
    44
1040
1.0
1070
    74
1070
     0
1000
MTEXTEND
  0
POINT
  5
503F2
330
34828
100
AcDbEntity
  8
Defpoints
 62
     0
100
AcDbPoint
 10
4645.629640685487
 20
-2309.929623528411
 30
0.0
  0
POINT
  5
503F3
330
34828
100
AcDbEntity
  8
Defpoints
 62
     0
100
AcDbPoint
 10
4643.879640685486
 20
-2165.929643528412
 30
0.0
  0
POINT
  5
503F4
330
34828
100
AcDbEntity
  8
Defpoints
 62
     0
100
AcDbPoint
 10
4655.879641685487
 20
-2165.929643528412
 30
0.0
  0
ENDBLK
  5
34833
330
34828
100
AcDbEntity
  8
0
 48
0.5
100
AcDbBlockEnd
  0
BLOCK
  5
3483E
330
34834
100
AcDbEntity
  8
0
 48
0.5
100
AcDbBlockBegin
  2
*D20
 70
     1
 10
0.0
 20
0.0
 30
0.0
  3
*D20
  1

  0
LINE
  5
503FE
330
34834
100
AcDbEntity
  8
AM_5
100
AcDbLine
 10
4644.879640685487
 20
-2315.929623528411
 30
0.0
 11
4666.879641685485
 21
-2315.929623528411
 31
0.0
  0
LINE
  5
503FF
330
34834
100
AcDbEntity
  8
AM_5
100
AcDbLine
 10
4644.879640685487
 20
-2165.929643528412
 30
0.0
 11
4666.879641685485
 21
-2165.929643528412
 31
0.0
  0
LINE
  5
50400
330
34834
100
AcDbEntity
  8
AM_5
100
AcDbLine
 10
4665.879641685488
 20
-2314.929623528412
 30
0.0
 11
4665.879641685488
 21
-2166.929643528411
 31
0.0
  0
INSERT
  5
50401
330
34834
100
AcDbEntity
  8
AM_5
100
AcDbBlockReference
  2
_Dot
 10
4665.879641685488
 20
-2315.929623528411
 30
0.0
 50
270.0
  0
INSERT
  5
50402
330
34834
100
AcDbEntity
  8
AM_5
100
AcDbBlockReference
  2
_Dot
 10
4665.879641685488
 20
-2165.929643528412
 30
0.0
 50
90.0
  0
MTEXT
  5
50403
330
34834
100
AcDbEntity
  8
AM_5
 62
     2
100
AcDbMText
 10
4663.279641685487
 20
-2240.929633528411
 30
0.0
 40
3.200000000000001
 41
0.0
 71
     5
 72
     1
  1
150
 11
0.0000000000000001
 21
1.0
 31
0.0
 73
     1
 44
1.0
1001
ACAD
1000
MTEXTBEGIN
1070
    73
1070
     1
1070
    44
1040
1.0
1070
    74
1070
     0
1000
MTEXTEND
  0
POINT
  5
50404
330
34834
100
AcDbEntity
  8
Defpoints
 62
     0
100
AcDbPoint
 10
4643.879640685486
 20
-2315.929623528411
 30
0.0
  0
POINT
  5
50405
330
34834
100
AcDbEntity
  8
Defpoints
 62
     0
100
AcDbPoint
 10
4643.879640685486
 20
-2165.929643528412
 30
0.0
  0
POINT
  5
50406
330
34834
100
AcDbEntity
  8
Defpoints
 62
     0
100
AcDbPoint
 10
4665.879641685488
 20
-2165.929643528412
 30
0.0
  0
ENDBLK
  5
3483F
330
34834
100
AcDbEntity
  8
0
 48
0.5
100
AcDbBlockEnd
  0
BLOCK
  5
3484C
330
34840
100
AcDbEntity
  8
0
 48
0.5
100
AcDbBlockBegin
  2
*D21
 70
     1
 10
0.0
 20
0.0
 30
0.0
  3
*D21
  1

  0
LINE
  5
50412
330
34840
100
AcDbEntity
  8
AM_5
100
AcDbLine
 10
4698.638398369559
 20
-2316.929623528412
 30
0.0
 11
4698.638398369559
 21
-2326.929623528411
 31
0.0
  0
LINE
  5
50413
330
34840
100
AcDbEntity
  8
AM_5
100
AcDbLine
 10
4696.63839836956
 20
-2316.929623528412
 30
0.0
 11
4696.63839836956
 21
-2326.929623528411
 31
0.0
  0
LINE
  5
50414
330
34840
100
AcDbEntity
  8
AM_5
100
AcDbLine
 10
4699.638398369558
 20
-2325.929623528411
 30
0.0
 11
4700.63839836956
 21
-2325.929623528411
 31
0.0
  0
LINE
  5
50415
330
34840
100
AcDbEntity
  8
AM_5
100
AcDbLine
 10
4695.638398369559
 20
-2325.929623528411
 30
0.0
 11
4691.145065036226
 21
-2325.929623528411
 31
0.0
  0
LINE
  5
50416
330
34840
100
AcDbEntity
  8
AM_5
100
AcDbLine
 10
4698.638398369559
 20
-2325.929623528411
 30
0.0
 11
4696.63839836956
 21
-2325.929623528411
 31
0.0
  0
INSERT
  5
50417
330
34840
100
AcDbEntity
  8
AM_5
100
AcDbBlockReference
  2
_Dot
 10
4698.638398369559
 20
-2325.929623528411
 30
0.0
 50
180.0
  0
INSERT
  5
50418
330
34840
100
AcDbEntity
  8
AM_5
100
AcDbBlockReference
  2
_Dot
 10
4696.63839836956
 20
-2325.929623528411
 30
0.0
  0
MTEXT
  5
50419
330
34840
100
AcDbEntity
  8
AM_5
 62
     2
100
AcDbMText
 10
4692.891731702892
 20
-2323.329623528412
 30
0.0
 40
3.200000000000001
 41
0.0
 71
     5
 72
     1
  1
2
 73
     1
 44
1.0
1001
ACAD
1000
MTEXTBEGIN
1070
    73
1070
     1
1070
    44
1040
1.0
1070
    74
1070
     0
1000
MTEXTEND
  0
POINT
  5
5041A
330
34840
100
AcDbEntity
  8
Defpoints
 62
     0
100
AcDbPoint
 10
4698.638398369559
 20
-2315.929623528411
 30
0.0
  0
POINT
  5
5041B
330
34840
100
AcDbEntity
  8
Defpoints
 62
     0
100
AcDbPoint
 10
4696.63839836956
 20
-2315.929623528411
 30
0.0
  0
POINT
  5
5041C
330
34840
100
AcDbEntity
  8
Defpoints
 62
     0
100
AcDbPoint
 10
4696.63839836956
 20
-2325.929623528411
 30
0.0
  0
ENDBLK
  5
3484D
330
34840
100
AcDbEntity
  8
0
 48
0.5
100
AcDbBlockEnd
  0
BLOCK
  5
3485A
330
3484E
100
AcDbEntity
  8
0
 48
0.5
100
AcDbBlockBegin
  2
*D22
 70
     1
 10
0.0
 20
0.0
 30
0.0
  3
*D22
  1

  0
LINE
  5
50428
330
3484E
100
AcDbEntity
  8
AM_5
100
AcDbLine
 10
4644.879640685487
 20
-2164.929643528411
 30
0.0
 11
4666.879641685484
 21
-2164.929643528411
 31
0.0
  0
LINE
  5
50429
330
3484E
100
AcDbEntity
  8
AM_5
100
AcDbLine
 10
4644.879640685487
 20
-2165.929643528412
 30
0.0
 11
4666.879641685484
 21
-2165.929643528412
 31
0.0
  0
LINE
  5
5042A
330
3484E
100
AcDbEntity
  8
AM_5
100
AcDbLine
 10
4665.879641685484
 20
-2166.929643528411
 30
0.0
 11
4665.879641685484
 21
-2167.929643528411
 31
0.0
  0
LINE
  5
5042B
330
3484E
100
AcDbEntity
  8
AM_5
100
AcDbLine
 10
4665.879641685484
 20
-2163.929643528411
 30
0.0
 11
4665.879641685484
 21
-2159.896310195079
 31
0.0
  0
LINE
  5
5042C
330
3484E
100
AcDbEntity
  8
AM_5
100
AcDbLine
 10
4665.879641685484
 20
-2165.929643528412
 30
0.0
 11
4665.879641685484
 21
-2164.929643528411
 31
0.0
  0
INSERT
  5
5042D
330
3484E
100
AcDbEntity
  8
AM_5
100
AcDbBlockReference
  2
_Dot
 10
4665.879641685484
 20
-2165.929643528412
 30
0.0
 50
90.0
  0
INSERT
  5
5042E
330
3484E
100
AcDbEntity
  8
AM_5
100
AcDbBlockReference
  2
_Dot
 10
4665.879641685484
 20
-2164.929643528411
 30
0.0
 50
270.0
  0
MTEXT
  5
5042F
330
3484E
100
AcDbEntity
  8
AM_5
 62
     2
100
AcDbMText
 10
4663.279641685487
 20
-2161.162976861744
 30
0.0
 40
3.200000000000001
 41
0.0
 71
     5
 72
     1
  1
1
 11
0.0000000000000001
 21
1.0
 31
0.0
 73
     1
 44
1.0
1001
ACAD
1000
MTEXTBEGIN
1070
    73
1070
     1
1070
    44
1040
1.0
1070
    74
1070
     0
1000
MTEXTEND
  0
POINT
  5
50430
330
3484E
100
AcDbEntity
  8
Defpoints
 62
     0
100
AcDbPoint
 10
4643.879640685486
 20
-2164.929643528411
 30
0.0
  0
POINT
  5
50431
330
3484E
100
AcDbEntity
  8
Defpoints
 62
     0
100
AcDbPoint
 10
4643.879640685486
 20
-2165.929643528412
 30
0.0
  0
POINT
  5
50432
330
3484E
100
AcDbEntity
  8
Defpoints
 62
     0
100
AcDbPoint
 10
4665.879641685484
 20
-2165.929643528412
 30
0.0
  0
ENDBLK
  5
3485B
330
3484E
100
AcDbEntity
  8
0
 48
0.5
100
AcDbBlockEnd
  0
BLOCK
  5
34872
330
34868
100
AcDbEntity
  8
0
 48
0.5
100
AcDbBlockBegin
  2
*D23
 70
     1
 10
0.0
 20
0.0
 30
0.0
  3
*D23
  1

  0
LINE
  5
5043C
330
34868
100
AcDbEntity
  8
AM_5
100
AcDbLine
 10
4441.138887092229
 20
-2316.929623528412
 30
0.0
 11
4441.138887092229
 21
-2334.929623528411
 31
0.0
  0
LINE
  5
5043D
330
34868
100
AcDbEntity
  8
AM_5
100
AcDbLine
 10
4463.138887092229
 20
-2316.929623528412
 30
0.0
 11
4463.138887092229
 21
-2334.929623528411
 31
0.0
  0
LINE
  5
5043E
330
34868
100
AcDbEntity
  8
AM_5
100
AcDbLine
 10
4442.138887092229
 20
-2333.929623528411
 30
0.0
 11
4462.138887092229
 21
-2333.929623528411
 31
0.0
  0
INSERT
  5
5043F
330
34868
100
AcDbEntity
  8
AM_5
100
AcDbBlockReference
  2
_Dot
 10
4441.138887092229
 20
-2333.929623528411
 30
0.0
 50
180.0
  0
INSERT
  5
50440
330
34868
100
AcDbEntity
  8
AM_5
100
AcDbBlockReference
  2
_Dot
 10
4463.138887092229
 20
-2333.929623528411
 30
0.0
  0
MTEXT
  5
50441
330
34868
100
AcDbEntity
  8
AM_5
 62
     2
100
AcDbMText
 10
4452.138887092229
 20
-2331.329623528412
 30
0.0
 40
3.200000000000001
 41
0.0
 71
     5
 72
     1
  1
22
 73
     1
 44
1.0
1001
ACAD
1000
MTEXTBEGIN
1070
    73
1070
     1
1070
    44
1040
1.0
1070
    74
1070
     0
1000
MTEXTEND
  0
POINT
  5
50442
330
34868
100
AcDbEntity
  8
Defpoints
 62
     0
100
AcDbPoint
 10
4441.138887092229
 20
-2315.929623528411
 30
0.0
  0
POINT
  5
50443
330
34868
100
AcDbEntity
  8
Defpoints
 62
     0
100
AcDbPoint
 10
4463.138887092229
 20
-2315.929623528411
 30
0.0
  0
POINT
  5
50444
330
34868
100
AcDbEntity
  8
Defpoints
 62
     0
100
AcDbPoint
 10
4463.138887092229
 20
-2333.929623528411
 30
0.0
  0
ENDBLK
  5
34873
330
34868
100
AcDbEntity
  8
0
 48
0.5
100
AcDbBlockEnd
  0
BLOCK
  5
3487E
330
34874
100
AcDbEntity
  8
0
 48
0.5
100
AcDbBlockBegin
  2
*D24
 70
     1
 10
0.0
 20
0.0
 30
0.0
  3
*D24
  1

  0
LINE
  5
5044E
330
34874
100
AcDbEntity
  8
AM_5
100
AcDbLine
 10
4621.879640685487
 20
-2316.929623528412
 30
0.0
 11
4621.879640685487
 21
-2334.929623528411
 31
0.0
  0
LINE
  5
5044F
330
34874
100
AcDbEntity
  8
AM_5
100
AcDbLine
 10
4643.879640685486
 20
-2316.929623528412
 30
0.0
 11
4643.879640685486
 21
-2334.929623528411
 31
0.0
  0
LINE
  5
50450
330
34874
100
AcDbEntity
  8
AM_5
100
AcDbLine
 10
4622.879640685487
 20
-2333.929623528411
 30
0.0
 11
4642.879640685487
 21
-2333.929623528411
 31
0.0
  0
INSERT
  5
50451
330
34874
100
AcDbEntity
  8
AM_5
100
AcDbBlockReference
  2
_Dot
 10
4621.879640685487
 20
-2333.929623528411
 30
0.0
 50
180.0
  0
INSERT
  5
50452
330
34874
100
AcDbEntity
  8
AM_5
100
AcDbBlockReference
  2
_Dot
 10
4643.879640685486
 20
-2333.929623528411
 30
0.0
  0
MTEXT
  5
50453
330
34874
100
AcDbEntity
  8
AM_5
 62
     2
100
AcDbMText
 10
4632.879640685486
 20
-2331.329623528412
 30
0.0
 40
3.200000000000001
 41
0.0
 71
     5
 72
     1
  1
22
 73
     1
 44
1.0
1001
ACAD
1000
MTEXTBEGIN
1070
    73
1070
     1
1070
    44
1040
1.0
1070
    74
1070
     0
1000
MTEXTEND
  0
POINT
  5
50454
330
34874
100
AcDbEntity
  8
Defpoints
 62
     0
100
AcDbPoint
 10
4621.879640685487
 20
-2315.929623528411
 30
0.0
  0
POINT
  5
50455
330
34874
100
AcDbEntity
  8
Defpoints
 62
     0
100
AcDbPoint
 10
4643.879640685486
 20
-2315.929623528411
 30
0.0
  0
POINT
  5
50456
330
34874
100
AcDbEntity
  8
Defpoints
 62
     0
100
AcDbPoint
 10
4643.879640685486
 20
-2333.929623528411
 30
0.0
  0
ENDBLK
  5
3487F
330
34874
100
AcDbEntity
  8
0
 48
0.5
100
AcDbBlockEnd
  0
BLOCK
  5
3488A
330
34880
100
AcDbEntity
  8
0
 48
0.5
100
AcDbBlockBegin
  2
*D25
 70
     1
 10
0.0
 20
0.0
 30
0.0
  3
*D25
  1

  0
LINE
  5
50460
330
34880
100
AcDbEntity
  8
AM_5
100
AcDbLine
 10
4621.879640685487
 20
-2089.919878985909
 30
0.0
 11
4621.879640685487
 21
-2073.919878985909
 31
0.0
  0
LINE
  5
50461
330
34880
100
AcDbEntity
  8
AM_5
100
AcDbLine
 10
4643.879640685486
 20
-2089.919878985909
 30
0.0
 11
4643.879640685486
 21
-2073.919878985909
 31
0.0
  0
LINE
  5
50462
330
34880
100
AcDbEntity
  8
AM_5
100
AcDbLine
 10
4622.879640685487
 20
-2074.919878985908
 30
0.0
 11
4642.879640685487
 21
-2074.919878985908
 31
0.0
  0
INSERT
  5
50463
330
34880
100
AcDbEntity
  8
AM_5
100
AcDbBlockReference
  2
_Dot
 10
4621.879640685487
 20
-2074.919878985908
 30
0.0
 50
180.0
  0
INSERT
  5
50464
330
34880
100
AcDbEntity
  8
AM_5
100
AcDbBlockReference
  2
_Dot
 10
4643.879640685486
 20
-2074.919878985908
 30
0.0
  0
MTEXT
  5
50465
330
34880
100
AcDbEntity
  8
AM_5
 62
     2
100
AcDbMText
 10
4632.879640685486
 20
-2072.319878985908
 30
0.0
 40
3.200000000000001
 41
0.0
 71
     5
 72
     1
  1
22
 73
     1
 44
1.0
1001
ACAD
1000
MTEXTBEGIN
1070
    73
1070
     1
1070
    44
1040
1.0
1070
    74
1070
     0
1000
MTEXTEND
  0
POINT
  5
50466
330
34880
100
AcDbEntity
  8
Defpoints
 62
     0
100
AcDbPoint
 10
4621.879640685487
 20
-2090.919878985908
 30
0.0
  0
POINT
  5
50467
330
34880
100
AcDbEntity
  8
Defpoints
 62
     0
100
AcDbPoint
 10
4643.879640685486
 20
-2090.919878985908
 30
0.0
  0
POINT
  5
50468
330
34880
100
AcDbEntity
  8
Defpoints
 62
     0
100
AcDbPoint
 10
4643.879640685486
 20
-2074.919878985908
 30
0.0
  0
ENDBLK
  5
3488B
330
34880
100
AcDbEntity
  8
0
 48
0.5
100
AcDbBlockEnd
  0
BLOCK
  5
34896
330
3488C
100
AcDbEntity
  8
0
 48
0.5
100
AcDbBlockBegin
  2
*D26
 70
     1
 10
0.0
 20
0.0
 30
0.0
  3
*D26
  1

  0
LINE
  5
50472
330
3488C
100
AcDbEntity
  8
AM_5
100
AcDbLine
 10
4711.638396641684
 20
-2146.429643829481
 30
0.0
 11
4711.638396641684
 21
-2137.929643528412
 31
0.0
  0
LINE
  5
50473
330
3488C
100
AcDbEntity
  8
AM_5
100
AcDbLine
 10
4701.638396760475
 20
-2146.429643853479
 30
0.0
 11
4701.638396760475
 21
-2137.929643528412
 31
0.0
  0
LINE
  5
50474
330
3488C
100
AcDbEntity
  8
AM_5
100
AcDbLine
 10
4710.638396641684
 20
-2138.929643528411
 30
0.0
 11
4702.638396760475
 21
-2138.929643528411
 31
0.0
  0
INSERT
  5
50475
330
3488C
100
AcDbEntity
  8
AM_5
100
AcDbBlockReference
  2
_Dot
 10
4711.638396641684
 20
-2138.929643528411
 30
0.0
  0
INSERT
  5
50476
330
3488C
100
AcDbEntity
  8
AM_5
100
AcDbBlockReference
  2
_Dot
 10
4701.638396760475
 20
-2138.929643528411
 30
0.0
 50
180.0
  0
MTEXT
  5
50477
330
3488C
100
AcDbEntity
  8
AM_5
 62
     2
100
AcDbMText
 10
4706.638396701078
 20
-2136.329643528412
 30
0.0
 40
3.200000000000001
 41
0.0
 71
     5
 72
     1
  1
%%c10
 73
     1
 44
1.0
1001
ACAD
1000
MTEXTBEGIN
1070
    73
1070
     1
1070
    44
1040
1.0
1070
    74
1070
     0
1000
MTEXTEND
  0
POINT
  5
50478
330
3488C
100
AcDbEntity
  8
Defpoints
 62
     0
100
AcDbPoint
 10
4711.638396641684
 20
-2147.429643829481
 30
0.0
  0
POINT
  5
50479
330
3488C
100
AcDbEntity
  8
Defpoints
 62
     0
100
AcDbPoint
 10
4701.638396760475
 20
-2147.429643853479
 30
0.0
  0
POINT
  5
5047A
330
3488C
100
AcDbEntity
  8
Defpoints
 62
     0
100
AcDbPoint
 10
4701.638396760475
 20
-2138.929643528411
 30
0.0
  0
ENDBLK
  5
34897
330
3488C
100
AcDbEntity
  8
0
 48
0.5
100
AcDbBlockEnd
  0
BLOCK
  5
38CE6
330
38CDD
100
AcDbEntity
  8
0
 48
0.5
100
AcDbBlockBegin
  2
*D27
 70
     1
 10
0.0
 20
0.0
 30
0.0
  3
*D27
  1

  0
LINE
  5
50B5E
330
38CDD
100
AcDbEntity
  8
AM_5
100
AcDbLine
 10
4671.963089589747
 20
-2086.959242167083
 30
0.0
 11
4647.688422923073
 21
-2086.959242167083
 31
0.0
  0
LINE
  5
50B5F
330
38CDD
100
AcDbEntity
  8
AM_5
100
AcDbLine
 10
4647.688422923073
 20
-2086.959242167083
 30
0.0
 11
4642.742579397935
 21
-2092.888360262609
 31
0.0
  0
LINE
  5
50B60
330
38CDD
100
AcDbEntity
  8
AM_5
100
AcDbLine
 10
4636.016701973042
 20
-2100.951397709212
 30
0.0
 11
4634.735582463537
 21
-2102.487214365708
 31
0.0
  0
MTEXT
  5
50B61
330
38CDD
100
AcDbEntity
  8
AM_5
 62
     2
100
AcDbMText
 10
4660.325756256415
 20
-2084.359242167083
 30
0.0
 40
3.2
 41
0.0
 71
     5
 72
     1
  1
4-\U+22054×\U+22056.5サラ\P
 73
     1
 44
1.0
1001
ACAD
1000
MTEXTBEGIN
1070
    73
1070
     1
1070
    44
1040
1.0
1070
    74
1070
     0
1000
MTEXTEND
  0
LINE
  5
50B62
330
38CDD
100
AcDbEntity
  8
AM_5
100
AcDbLine
 10
4637.297821482545
 20
-2099.415581052717
 30
0.0
 11
4641.461459888431
 21
-2094.424176919105
 31
0.0
  0
INSERT
  5
50B63
330
38CDD
100
AcDbEntity
  8
AM_5
100
AcDbBlockReference
  2
GENDOT
 10
4637.297821482545
 20
-2099.415581052717
 30
0.0
 41
2.0
 42
2.0
 43
2.0
 50
50.16642832525801
  0
INSERT
  5
50B64
330
38CDD
100
AcDbEntity
  8
AM_5
100
AcDbBlockReference
  2
GENDOT
 10
4641.461459888431
 20
-2094.424176919105
 30
0.0
 41
2.0
 42
2.0
 43
2.0
 50
230.166428325258
  0
POINT
  5
50B65
330
38CDD
100
AcDbEntity
  8
Defpoints
 62
     0
100
AcDbPoint
 10
4641.461459888431
 20
-2094.424176919105
 30
0.0
  0
POINT
  5
50B66
330
38CDD
100
AcDbEntity
  8
Defpoints
 62
     0
100
AcDbPoint
 10
4637.297821482545
 20
-2099.415581052717
 30
0.0
  0
ENDBLK
  5
38CE7
330
38CDD
100
AcDbEntity
  8
0
 48
0.5
100
AcDbBlockEnd
  0
BLOCK
  5
38D7E
330
38D74
100
AcDbEntity
  8
0
 48
0.5
100
AcDbBlockBegin
  2
*D28
 70
     1
 10
0.0
 20
0.0
 30
0.0
  3
*D28
  1

  0
LINE
  5
50BCA
330
38D74
100
AcDbEntity
  8
AM_5
100
AcDbLine
 10
4491.22233599649
 20
-2076.188702167084
 30
0.0
 11
4466.947669329813
 21
-2076.188702167084
 31
0.0
  0
LINE
  5
50BCB
330
38D74
100
AcDbEntity
  8
AM_5
100
AcDbLine
 10
4466.947669329813
 20
-2076.188702167084
 30
0.0
 11
4462.001825804676
 21
-2082.117820262609
 31
0.0
  0
LINE
  5
50BCC
330
38D74
100
AcDbEntity
  8
AM_5
100
AcDbLine
 10
4455.275948379783
 20
-2090.18085770921
 30
0.0
 11
4453.994828870277
 21
-2091.716674365705
 31
0.0
  0
MTEXT
  5
50BCD
330
38D74
100
AcDbEntity
  8
AM_5
 62
     2
100
AcDbMText
 10
4479.585002663156
 20
-2073.588702167084
 30
0.0
 40
3.2
 41
0.0
 71
     5
 72
     1
  1
4-\U+22054×\U+22056.5サラ\P
 73
     1
 44
1.0
1001
ACAD
1000
MTEXTBEGIN
1070
    73
1070
     1
1070
    44
1040
1.0
1070
    74
1070
     0
1000
MTEXTEND
  0
LINE
  5
50BCE
330
38D74
100
AcDbEntity
  8
AM_5
100
AcDbLine
 10
4456.557067889285
 20
-2088.645041052714
 30
0.0
 11
4460.720706295171
 21
-2083.653636919104
 31
0.0
  0
INSERT
  5
50BCF
330
38D74
100
AcDbEntity
  8
AM_5
100
AcDbBlockReference
  2
GENDOT
 10
4456.557067889285
 20
-2088.645041052714
 30
0.0
 41
2.0
 42
2.0
 43
2.0
 50
50.16642832525377
  0
INSERT
  5
50BD0
330
38D74
100
AcDbEntity
  8
AM_5
100
AcDbBlockReference
  2
GENDOT
 10
4460.720706295171
 20
-2083.653636919104
 30
0.0
 41
2.0
 42
2.0
 43
2.0
 50
230.1664283252538
  0
POINT
  5
50BD1
330
38D74
100
AcDbEntity
  8
Defpoints
 62
     0
100
AcDbPoint
 10
4460.720706295171
 20
-2083.653636919104
 30
0.0
  0
POINT
  5
50BD2
330
38D74
100
AcDbEntity
  8
Defpoints
 62
     0
100
AcDbPoint
 10
4456.557067889285
 20
-2088.645041052714
 30
0.0
  0
ENDBLK
  5
38D7F
330
38D74
100
AcDbEntity
  8
0
 48
0.5
100
AcDbBlockEnd
  0
BLOCK
  5
38D8A
330
38D80
100
AcDbEntity
  8
0
 48
0.5
100
AcDbBlockBegin
  2
*D29
 70
     1
 10
0.0
 20
0.0
 30
0.0
  3
*D29
  1

  0
LINE
  5
50B70
330
38D80
100
AcDbEntity
  8
AM_5
100
AcDbLine
 10
4464.138887092229
 20
-2115.149338985908
 30
0.0
 11
4472.138887092229
 21
-2115.149338985908
 31
0.0
  0
LINE
  5
50B71
330
38D80
100
AcDbEntity
  8
AM_5
100
AcDbLine
 10
4461.138887092229
 20
-2105.149338985908
 30
0.0
 11
4472.138887092229
 21
-2105.149338985908
 31
0.0
  0
LINE
  5
50B72
330
38D80
100
AcDbEntity
  8
AM_5
100
AcDbLine
 10
4471.138887092229
 20
-2114.149338985908
 30
0.0
 11
4471.138887092229
 21
-2106.149338985908
 31
0.0
  0
INSERT
  5
50B73
330
38D80
100
AcDbEntity
  8
AM_5
100
AcDbBlockReference
  2
_Dot
 10
4471.138887092229
 20
-2115.149338985908
 30
0.0
 50
270.0
  0
INSERT
  5
50B74
330
38D80
100
AcDbEntity
  8
AM_5
100
AcDbBlockReference
  2
_Dot
 10
4471.138887092229
 20
-2105.149338985908
 30
0.0
 50
90.0
  0
MTEXT
  5
50B75
330
38D80
100
AcDbEntity
  8
AM_5
 62
     2
100
AcDbMText
 10
4468.538887092228
 20
-2110.149338985908
 30
0.0
 40
3.200000000000001
 41
0.0
 71
     5
 72
     1
  1
10
 11
0.0000000000000001
 21
1.0
 31
0.0
 73
     1
 44
1.0
1001
ACAD
1000
MTEXTBEGIN
1070
    73
1070
     1
1070
    44
1040
1.0
1070
    74
1070
     0
1000
MTEXTEND
  0
POINT
  5
50B76
330
38D80
100
AcDbEntity
  8
Defpoints
 62
     0
100
AcDbPoint
 10
4463.138887092229
 20
-2115.149338985908
 30
0.0
  0
POINT
  5
50B77
330
38D80
100
AcDbEntity
  8
Defpoints
 62
     0
100
AcDbPoint
 10
4460.138887092229
 20
-2105.149338985908
 30
0.0
  0
POINT
  5
50B78
330
38D80
100
AcDbEntity
  8
Defpoints
 62
     0
100
AcDbPoint
 10
4471.138887092229
 20
-2105.149338985908
 30
0.0
  0
ENDBLK
  5
38D8B
330
38D80
100
AcDbEntity
  8
0
 48
0.5
100
AcDbBlockEnd
  0
BLOCK
  5
38D96
330
38D8C
100
AcDbEntity
  8
0
 48
0.5
100
AcDbBlockBegin
  2
*D30
 70
     1
 10
0.0
 20
0.0
 30
0.0
  3
*D30
  1

  0
LINE
  5
50B82
330
38D8C
100
AcDbEntity
  8
AM_5
100
AcDbLine
 10
4464.138887092229
 20
-2115.149338985908
 30
0.0
 11
4480.13888709223
 21
-2115.149338985908
 31
0.0
  0
LINE
  5
50B83
330
38D8C
100
AcDbEntity
  8
AM_5
100
AcDbLine
 10
4465.888887092229
 20
-2086.149338985908
 30
0.0
 11
4480.13888709223
 21
-2086.149338985908
 31
0.0
  0
LINE
  5
50B84
330
38D8C
100
AcDbEntity
  8
AM_5
100
AcDbLine
 10
4479.138887092227
 20
-2114.149338985908
 30
0.0
 11
4479.138887092227
 21
-2087.149338985908
 31
0.0
  0
INSERT
  5
50B85
330
38D8C
100
AcDbEntity
  8
AM_5
100
AcDbBlockReference
  2
_Dot
 10
4479.138887092227
 20
-2115.149338985908
 30
0.0
 50
270.0
  0
INSERT
  5
50B86
330
38D8C
100
AcDbEntity
  8
AM_5
100
AcDbBlockReference
  2
_Dot
 10
4479.138887092227
 20
-2086.149338985908
 30
0.0
 50
90.0
  0
MTEXT
  5
50B87
330
38D8C
100
AcDbEntity
  8
AM_5
 62
     2
100
AcDbMText
 10
4476.53888709223
 20
-2100.649338985908
 30
0.0
 40
3.200000000000001
 41
0.0
 71
     5
 72
     1
  1
29
 11
0.0000000000000001
 21
1.0
 31
0.0
 73
     1
 44
1.0
1001
ACAD
1000
MTEXTBEGIN
1070
    73
1070
     1
1070
    44
1040
1.0
1070
    74
1070
     0
1000
MTEXTEND
  0
POINT
  5
50B88
330
38D8C
100
AcDbEntity
  8
Defpoints
 62
     0
100
AcDbPoint
 10
4463.138887092229
 20
-2115.149338985908
 30
0.0
  0
POINT
  5
50B89
330
38D8C
100
AcDbEntity
  8
Defpoints
 62
     0
100
AcDbPoint
 10
4464.888887092229
 20
-2086.149338985908
 30
0.0
  0
POINT
  5
50B8A
330
38D8C
100
AcDbEntity
  8
Defpoints
 62
     0
100
AcDbPoint
 10
4479.138887092227
 20
-2086.149338985908
 30
0.0
  0
ENDBLK
  5
38D97
330
38D8C
100
AcDbEntity
  8
0
 48
0.5
100
AcDbBlockEnd
  0
BLOCK
  5
38DA2
330
38D98
100
AcDbEntity
  8
0
 48
0.5
100
AcDbBlockBegin
  2
*D31
 70
     1
 10
0.0
 20
0.0
 30
0.0
  3
*D31
  1

  0
LINE
  5
50B94
330
38D98
100
AcDbEntity
  8
AM_5
100
AcDbLine
 10
4464.138887092229
 20
-2115.149338985908
 30
0.0
 11
4488.138887092229
 21
-2115.149338985908
 31
0.0
  0
LINE
  5
50B95
330
38D98
100
AcDbEntity
  8
AM_5
100
AcDbLine
 10
4464.138887092229
 20
-2080.149338985908
 30
0.0
 11
4488.138887092229
 21
-2080.149338985908
 31
0.0
  0
LINE
  5
50B96
330
38D98
100
AcDbEntity
  8
AM_5
100
AcDbLine
 10
4487.138887092229
 20
-2114.149338985908
 30
0.0
 11
4487.138887092229
 21
-2081.149338985909
 31
0.0
  0
INSERT
  5
50B97
330
38D98
100
AcDbEntity
  8
AM_5
100
AcDbBlockReference
  2
_Dot
 10
4487.138887092229
 20
-2115.149338985908
 30
0.0
 50
270.0
  0
INSERT
  5
50B98
330
38D98
100
AcDbEntity
  8
AM_5
100
AcDbBlockReference
  2
_Dot
 10
4487.138887092229
 20
-2080.149338985908
 30
0.0
 50
90.0
  0
MTEXT
  5
50B99
330
38D98
100
AcDbEntity
  8
AM_5
 62
     2
100
AcDbMText
 10
4484.53888709223
 20
-2097.649338985908
 30
0.0
 40
3.200000000000001
 41
0.0
 71
     5
 72
     1
  1
35
 11
0.0000000000000001
 21
1.0
 31
0.0
 73
     1
 44
1.0
1001
ACAD
1000
MTEXTBEGIN
1070
    73
1070
     1
1070
    44
1040
1.0
1070
    74
1070
     0
1000
MTEXTEND
  0
POINT
  5
50B9A
330
38D98
100
AcDbEntity
  8
Defpoints
 62
     0
100
AcDbPoint
 10
4463.138887092229
 20
-2115.149338985908
 30
0.0
  0
POINT
  5
50B9B
330
38D98
100
AcDbEntity
  8
Defpoints
 62
     0
100
AcDbPoint
 10
4463.138887092229
 20
-2080.149338985908
 30
0.0
  0
POINT
  5
50B9C
330
38D98
100
AcDbEntity
  8
Defpoints
 62
     0
100
AcDbPoint
 10
4487.138887092229
 20
-2080.149338985908
 30
0.0
  0
ENDBLK
  5
38DA3
330
38D98
100
AcDbEntity
  8
0
 48
0.5
100
AcDbBlockEnd
  0
BLOCK
  5
38DAE
330
38DA4
100
AcDbEntity
  8
0
 48
0.5
100
AcDbBlockBegin
  2
*D32
 70
     1
 10
0.0
 20
0.0
 30
0.0
  3
*D32
  1

  0
LINE
  5
50BA6
330
38DA4
100
AcDbEntity
  8
AM_5
100
AcDbLine
 10
4445.638887092227
 20
-2078.899338985908
 30
0.0
 11
4445.638887092227
 21
-2071.149338985908
 31
0.0
  0
LINE
  5
50BA7
330
38DA4
100
AcDbEntity
  8
AM_5
100
AcDbLine
 10
4458.638887092229
 20
-2078.899338985908
 30
0.0
 11
4458.638887092229
 21
-2071.149338985908
 31
0.0
  0
LINE
  5
50BA8
330
38DA4
100
AcDbEntity
  8
AM_5
100
AcDbLine
 10
4446.638887092229
 20
-2072.149338985909
 30
0.0
 11
4457.638887092229
 21
-2072.149338985909
 31
0.0
  0
INSERT
  5
50BA9
330
38DA4
100
AcDbEntity
  8
AM_5
100
AcDbBlockReference
  2
_Dot
 10
4445.638887092227
 20
-2072.149338985909
 30
0.0
 50
180.0
  0
INSERT
  5
50BAA
330
38DA4
100
AcDbEntity
  8
AM_5
100
AcDbBlockReference
  2
_Dot
 10
4458.638887092229
 20
-2072.149338985909
 30
0.0
  0
MTEXT
  5
50BAB
330
38DA4
100
AcDbEntity
  8
AM_5
 62
     2
100
AcDbMText
 10
4452.138887092229
 20
-2069.549338985908
 30
0.0
 40
3.200000000000001
 41
0.0
 71
     5
 72
     1
  1
13
 73
     1
 44
1.0
1001
ACAD
1000
MTEXTBEGIN
1070
    73
1070
     1
1070
    44
1040
1.0
1070
    74
1070
     0
1000
MTEXTEND
  0
POINT
  5
50BAC
330
38DA4
100
AcDbEntity
  8
Defpoints
 62
     0
100
AcDbPoint
 10
4445.638887092227
 20
-2079.899338985908
 30
0.0
  0
POINT
  5
50BAD
330
38DA4
100
AcDbEntity
  8
Defpoints
 62
     0
100
AcDbPoint
 10
4458.638887092229
 20
-2079.899338985908
 30
0.0
  0
POINT
  5
50BAE
330
38DA4
100
AcDbEntity
  8
Defpoints
 62
     0
100
AcDbPoint
 10
4458.638887092229
 20
-2072.149338985909
 30
0.0
  0
ENDBLK
  5
38DAF
330
38DA4
100
AcDbEntity
  8
0
 48
0.5
100
AcDbBlockEnd
  0
BLOCK
  5
38DBA
330
38DB0
100
AcDbEntity
  8
0
 48
0.5
100
AcDbBlockBegin
  2
*D33
 70
     1
 10
0.0
 20
0.0
 30
0.0
  3
*D33
  1

  0
LINE
  5
50BB8
330
38DB0
100
AcDbEntity
  8
AM_5
100
AcDbLine
 10
4441.138887092229
 20
-2079.149338985908
 30
0.0
 11
4441.138887092229
 21
-2063.149338985908
 31
0.0
  0
LINE
  5
50BB9
330
38DB0
100
AcDbEntity
  8
AM_5
100
AcDbLine
 10
4463.138887092229
 20
-2079.149338985908
 30
0.0
 11
4463.138887092229
 21
-2063.149338985908
 31
0.0
  0
LINE
  5
50BBA
330
38DB0
100
AcDbEntity
  8
AM_5
100
AcDbLine
 10
4442.138887092229
 20
-2064.149338985908
 30
0.0
 11
4462.138887092229
 21
-2064.149338985908
 31
0.0
  0
INSERT
  5
50BBB
330
38DB0
100
AcDbEntity
  8
AM_5
100
AcDbBlockReference
  2
_Dot
 10
4441.138887092229
 20
-2064.149338985908
 30
0.0
 50
180.0
  0
INSERT
  5
50BBC
330
38DB0
100
AcDbEntity
  8
AM_5
100
AcDbBlockReference
  2
_Dot
 10
4463.138887092229
 20
-2064.149338985908
 30
0.0
  0
MTEXT
  5
50BBD
330
38DB0
100
AcDbEntity
  8
AM_5
 62
     2
100
AcDbMText
 10
4452.138887092229
 20
-2061.549338985908
 30
0.0
 40
3.200000000000001
 41
0.0
 71
     5
 72
     1
  1
22
 73
     1
 44
1.0
1001
ACAD
1000
MTEXTBEGIN
1070
    73
1070
     1
1070
    44
1040
1.0
1070
    74
1070
     0
1000
MTEXTEND
  0
POINT
  5
50BBE
330
38DB0
100
AcDbEntity
  8
Defpoints
 62
     0
100
AcDbPoint
 10
4441.138887092229
 20
-2080.149338985908
 30
0.0
  0
POINT
  5
50BBF
330
38DB0
100
AcDbEntity
  8
Defpoints
 62
     0
100
AcDbPoint
 10
4463.138887092229
 20
-2080.149338985908
 30
0.0
  0
POINT
  5
50BC0
330
38DB0
100
AcDbEntity
  8
Defpoints
 62
     0
100
AcDbPoint
 10
4463.138887092229
 20
-2064.149338985908
 30
0.0
  0
ENDBLK
  5
38DBB
330
38DB0
100
AcDbEntity
  8
0
 48
0.5
100
AcDbBlockEnd
  0
BLOCK
  5
38DFE
330
38DF3
100
AcDbEntity
  8
0
 48
0.5
100
AcDbBlockBegin
  2
*D34
 70
     1
 10
0.0
 20
0.0
 30
0.0
  3
*D34
  1

  0
LINE
  5
50BDD
330
38DF3
100
AcDbEntity
  8
AM_5
100
AcDbLine
 10
4712.638398369558
 20
-2165.429643528411
 30
0.0
 11
4741.294756386744
 21
-2165.429643528411
 31
0.0
  0
LINE
  5
50BDE
330
38DF3
100
AcDbEntity
  8
AM_5
100
AcDbLine
 10
4712.638398369558
 20
-2147.429643528411
 30
0.0
 11
4741.294756386744
 21
-2147.429643528411
 31
0.0
  0
LINE
  5
50BDF
330
38DF3
100
AcDbEntity
  8
AM_5
100
AcDbLine
 10
4740.294756386743
 20
-2148.429643528412
 30
0.0
 11
4740.294756386743
 21
-2164.429643528412
 31
0.0
  0
LINE
  5
50BE0
330
38DF3
100
AcDbEntity
  8
AM_5
100
AcDbLine
 10
4740.294756386743
 20
-2165.429643528411
 30
0.0
 11
4740.294756386743
 21
-2186.017643528412
 31
0.0
  0
INSERT
  5
50BE1
330
38DF3
100
AcDbEntity
  8
AM_5
100
AcDbBlockReference
  2
_Dot
 10
4740.294756386743
 20
-2147.429643528411
 30
0.0
 50
90.0
  0
INSERT
  5
50BE2
330
38DF3
100
AcDbEntity
  8
AM_5
100
AcDbBlockReference
  2
_Dot
 10
4740.294756386743
 20
-2165.429643528411
 30
0.0
 50
270.0
  0
MTEXT
  5
50BE3
330
38DF3
100
AcDbEntity
  8
AM_5
 62
     2
100
AcDbMText
 10
4737.694756386743
 20
-2176.473643528411
 30
0.0
 40
3.200000000000001
 41
0.0
 71
     5
 72
     1
  1
ストローク18
 11
0.0000000000000001
 21
1.0
 31
0.0
 73
     1
 44
1.0
1001
ACAD
1000
MTEXTBEGIN
1070
    73
1070
     1
1070
    44
1040
1.0
1070
    74
1070
     0
1000
MTEXTEND
  0
POINT
  5
50BE4
330
38DF3
100
AcDbEntity
  8
Defpoints
 62
     0
100
AcDbPoint
 10
4711.63839836956
 20
-2165.429643528411
 30
0.0
  0
POINT
  5
50BE5
330
38DF3
100
AcDbEntity
  8
Defpoints
 62
     0
100
AcDbPoint
 10
4711.63839836956
 20
-2147.429643528411
 30
0.0
  0
POINT
  5
50BE6
330
38DF3
100
AcDbEntity
  8
Defpoints
 62
     0
100
AcDbPoint
 10
4740.294756386743
 20
-2147.429643528411
 30
0.0
  0
ENDBLK
  5
38DFF
330
38DF3
100
AcDbEntity
  8
0
 48
0.5
100
AcDbBlockEnd
  0
BLOCK
  5
3D01D
330
3D013
100
AcDbEntity
  8
0
 48
0.5
100
AcDbBlockBegin
  2
*D35
 70
     1
 10
0.0
 20
0.0
 30
0.0
  3
*D35
  1

  0
LINE
  5
51618
330
3D013
100
AcDbEntity
  8
AM_5
100
AcDbLine
 10
4747.660071763252
 20
-2298.63352057763
 30
0.0
 11
4771.934738429918
 21
-2298.633520577629
 31
0.0
  0
LINE
  5
51619
330
3D013
100
AcDbEntity
  8
AM_5
100
AcDbLine
 10
4771.934738429918
 20
-2298.633520577629
 30
0.0
 11
4780.346517742675
 21
-2308.756146494443
 31
0.0
  0
LINE
  5
5161A
330
3D013
100
AcDbEntity
  8
AM_5
100
AcDbLine
 10
4787.057269115305
 20
-2316.831777492379
 30
0.0
 11
4788.335507471995
 21
-2318.369992920557
 31
0.0
  0
MTEXT
  5
5161B
330
3D013
100
AcDbEntity
  8
AM_5
 62
     2
100
AcDbMText
 10
4759.297405096588
 20
-2296.033520577628
 30
0.0
 40
3.2
 41
0.0
 71
     5
 72
     1
  1
2-\U+22054×\U+22056.5サラ\P
 73
     1
 44
1.0
1001
ACAD
1000
MTEXTBEGIN
1070
    73
1070
     1
1070
    44
1040
1.0
1070
    74
1070
     0
1000
MTEXTEND
  0
LINE
  5
5161C
330
3D013
100
AcDbEntity
  8
AM_5
100
AcDbLine
 10
4785.779030758613
 20
-2315.293562064201
 30
0.0
 11
4781.624756099366
 21
-2310.294361922621
 31
0.0
  0
INSERT
  5
5161D
330
3D013
100
AcDbEntity
  8
AM_5
100
AcDbBlockReference
  2
GENDOT
 10
4785.779030758613
 20
-2315.293562064201
 30
0.0
 41
2.0
 42
2.0
 43
2.0
 50
129.7261701620662
  0
INSERT
  5
5161E
330
3D013
100
AcDbEntity
  8
AM_5
100
AcDbBlockReference
  2
GENDOT
 10
4781.624756099366
 20
-2310.294361922621
 30
0.0
 41
2.0
 42
2.0
 43
2.0
 50
309.7261701620662
  0
POINT
  5
5161F
330
3D013
100
AcDbEntity
  8
Defpoints
 62
     0
100
AcDbPoint
 10
4781.624756099366
 20
-2310.294361922621
 30
0.0
  0
POINT
  5
51620
330
3D013
100
AcDbEntity
  8
Defpoints
 62
     0
100
AcDbPoint
 10
4785.779030758613
 20
-2315.293562064201
 30
0.0
  0
ENDBLK
  5
3D01E
330
3D013
100
AcDbEntity
  8
0
 48
0.5
100
AcDbBlockEnd
  0
BLOCK
  5
3D029
330
3D01F
100
AcDbEntity
  8
0
 48
0.5
100
AcDbBlockBegin
  2
*D36
 70
     1
 10
0.0
 20
0.0
 30
0.0
  3
*D36
  1

  0
LINE
  5
515A8
330
3D01F
100
AcDbEntity
  8
AM_5
100
AcDbLine
 10
4783.70188342899
 20
-2305.54432199341
 30
0.0
 11
4783.70188342899
 21
-2285.54396199341
 31
0.0
  0
LINE
  5
515A9
330
3D01F
100
AcDbEntity
  8
AM_5
100
AcDbLine
 10
4814.701873428989
 20
-2305.54432199341
 30
0.0
 11
4814.701873428989
 21
-2285.54396199341
 31
0.0
  0
LINE
  5
515AA
330
3D01F
100
AcDbEntity
  8
AM_5
100
AcDbLine
 10
4784.70188342899
 20
-2286.54396199341
 30
0.0
 11
4813.701873428989
 21
-2286.54396199341
 31
0.0
  0
INSERT
  5
515AB
330
3D01F
100
AcDbEntity
  8
AM_5
100
AcDbBlockReference
  2
_Dot
 10
4783.70188342899
 20
-2286.54396199341
 30
0.0
 50
180.0
  0
INSERT
  5
515AC
330
3D01F
100
AcDbEntity
  8
AM_5
100
AcDbBlockReference
  2
_Dot
 10
4814.701873428989
 20
-2286.54396199341
 30
0.0
  0
MTEXT
  5
515AD
330
3D01F
100
AcDbEntity
  8
AM_5
 62
     2
100
AcDbMText
 10
4799.20187842899
 20
-2283.94396199341
 30
0.0
 40
3.200000000000001
 41
0.0
 71
     5
 72
     1
  1
31
 73
     1
 44
1.0
1001
ACAD
1000
MTEXTBEGIN
1070
    73
1070
     1
1070
    44
1040
1.0
1070
    74
1070
     0
1000
MTEXTEND
  0
POINT
  5
515AE
330
3D01F
100
AcDbEntity
  8
Defpoints
 62
     0
100
AcDbPoint
 10
4783.70188342899
 20
-2306.54432199341
 30
0.0
  0
POINT
  5
515AF
330
3D01F
100
AcDbEntity
  8
Defpoints
 62
     0
100
AcDbPoint
 10
4814.701873428989
 20
-2306.54432199341
 30
0.0
  0
POINT
  5
515B0
330
3D01F
100
AcDbEntity
  8
Defpoints
 62
     0
100
AcDbPoint
 10
4814.701873428989
 20
-2286.54396199341
 30
0.0
  0
ENDBLK
  5
3D02A
330
3D01F
100
AcDbEntity
  8
0
 48
0.5
100
AcDbBlockEnd
  0
BLOCK
  5
3D035
330
3D02B
100
AcDbEntity
  8
0
 48
0.5
100
AcDbBlockBegin
  2
*D37
 70
     1
 10
0.0
 20
0.0
 30
0.0
  3
*D37
  1

  0
LINE
  5
515BA
330
3D02B
100
AcDbEntity
  8
AM_5
100
AcDbLine
 10
4779.20188342899
 20
-2301.54396199341
 30
0.0
 11
4779.20188342899
 21
-2277.54396199341
 31
0.0
  0
LINE
  5
515BB
330
3D02B
100
AcDbEntity
  8
AM_5
100
AcDbLine
 10
4819.20187342899
 20
-2301.54396199341
 30
0.0
 11
4819.20187342899
 21
-2277.54396199341
 31
0.0
  0
LINE
  5
515BC
330
3D02B
100
AcDbEntity
  8
AM_5
100
AcDbLine
 10
4780.20188342899
 20
-2278.54396199341
 30
0.0
 11
4818.201873428989
 21
-2278.54396199341
 31
0.0
  0
INSERT
  5
515BD
330
3D02B
100
AcDbEntity
  8
AM_5
100
AcDbBlockReference
  2
_Dot
 10
4779.20188342899
 20
-2278.54396199341
 30
0.0
 50
180.0
  0
INSERT
  5
515BE
330
3D02B
100
AcDbEntity
  8
AM_5
100
AcDbBlockReference
  2
_Dot
 10
4819.20187342899
 20
-2278.54396199341
 30
0.0
  0
MTEXT
  5
515BF
330
3D02B
100
AcDbEntity
  8
AM_5
 62
     2
100
AcDbMText
 10
4799.20187842899
 20
-2275.94396199341
 30
0.0
 40
3.200000000000001
 41
0.0
 71
     5
 72
     1
  1
40
 73
     1
 44
1.0
1001
ACAD
1000
MTEXTBEGIN
1070
    73
1070
     1
1070
    44
1040
1.0
1070
    74
1070
     0
1000
MTEXTEND
  0
POINT
  5
515C0
330
3D02B
100
AcDbEntity
  8
Defpoints
 62
     0
100
AcDbPoint
 10
4779.20188342899
 20
-2302.54396199341
 30
0.0
  0
POINT
  5
515C1
330
3D02B
100
AcDbEntity
  8
Defpoints
 62
     0
100
AcDbPoint
 10
4819.20187342899
 20
-2302.54396199341
 30
0.0
  0
POINT
  5
515C2
330
3D02B
100
AcDbEntity
  8
Defpoints
 62
     0
100
AcDbPoint
 10
4819.20187342899
 20
-2278.54396199341
 30
0.0
  0
ENDBLK
  5
3D036
330
3D02B
100
AcDbEntity
  8
0
 48
0.5
100
AcDbBlockEnd
  0
BLOCK
  5
3D041
330
3D037
100
AcDbEntity
  8
0
 48
0.5
100
AcDbBlockBegin
  2
*D38
 70
     1
 10
0.0
 20
0.0
 30
0.0
  3
*D38
  1

  0
LINE
  5
515CC
330
3D037
100
AcDbEntity
  8
AM_5
100
AcDbLine
 10
4795.45188342899
 20
-2307.54396199341
 30
0.0
 11
4770.20188342899
 21
-2307.54396199341
 31
0.0
  0
LINE
  5
515CD
330
3D037
100
AcDbEntity
  8
AM_5
100
AcDbLine
 10
4795.45188342899
 20
-2318.04396199341
 30
0.0
 11
4770.20188342899
 21
-2318.04396199341
 31
0.0
  0
LINE
  5
515CE
330
3D037
100
AcDbEntity
  8
AM_5
100
AcDbLine
 10
4771.201883428989
 20
-2308.54396199341
 30
0.0
 11
4771.201883428989
 21
-2317.04396199341
 31
0.0
  0
INSERT
  5
515CF
330
3D037
100
AcDbEntity
  8
AM_5
100
AcDbBlockReference
  2
_Dot
 10
4771.201883428989
 20
-2307.54396199341
 30
0.0
 50
90.0
  0
INSERT
  5
515D0
330
3D037
100
AcDbEntity
  8
AM_5
100
AcDbBlockReference
  2
_Dot
 10
4771.201883428989
 20
-2318.04396199341
 30
0.0
 50
270.0
  0
MTEXT
  5
515D1
330
3D037
100
AcDbEntity
  8
AM_5
 62
     2
100
AcDbMText
 10
4768.601883428991
 20
-2312.79396199341
 30
0.0
 40
3.200000000000001
 41
0.0
 71
     5
 72
     1
  1
10.5
 11
0.0000000000000001
 21
1.0
 31
0.0
 73
     1
 44
1.0
1001
ACAD
1000
MTEXTBEGIN
1070
    73
1070
     1
1070
    44
1040
1.0
1070
    74
1070
     0
1000
MTEXTEND
  0
POINT
  5
515D2
330
3D037
100
AcDbEntity
  8
Defpoints
 62
     0
100
AcDbPoint
 10
4796.45188342899
 20
-2307.54396199341
 30
0.0
  0
POINT
  5
515D3
330
3D037
100
AcDbEntity
  8
Defpoints
 62
     0
100
AcDbPoint
 10
4796.45188342899
 20
-2318.04396199341
 30
0.0
  0
POINT
  5
515D4
330
3D037
100
AcDbEntity
  8
Defpoints
 62
     0
100
AcDbPoint
 10
4771.201883428989
 20
-2318.04396199341
 30
0.0
  0
ENDBLK
  5
3D042
330
3D037
100
AcDbEntity
  8
0
 48
0.5
100
AcDbBlockEnd
  0
BLOCK
  5
3D04D
330
3D043
100
AcDbEntity
  8
0
 48
0.5
100
AcDbBlockBegin
  2
*D39
 70
     1
 10
0.0
 20
0.0
 30
0.0
  3
*D39
  1

  0
LINE
  5
515DE
330
3D043
100
AcDbEntity
  8
AM_5
100
AcDbLine
 10
4778.20188342899
 20
-2302.54396199341
 30
0.0
 11
4762.20188342899
 21
-2302.54396199341
 31
0.0
  0
LINE
  5
515DF
330
3D043
100
AcDbEntity
  8
AM_5
100
AcDbLine
 10
4778.20188342899
 20
-2323.04396199341
 30
0.0
 11
4762.20188342899
 21
-2323.04396199341
 31
0.0
  0
LINE
  5
515E0
330
3D043
100
AcDbEntity
  8
AM_5
100
AcDbLine
 10
4763.201883428989
 20
-2303.54396199341
 30
0.0
 11
4763.201883428989
 21
-2322.04396199341
 31
0.0
  0
INSERT
  5
515E1
330
3D043
100
AcDbEntity
  8
AM_5
100
AcDbBlockReference
  2
_Dot
 10
4763.201883428989
 20
-2302.54396199341
 30
0.0
 50
90.0
  0
INSERT
  5
515E2
330
3D043
100
AcDbEntity
  8
AM_5
100
AcDbBlockReference
  2
_Dot
 10
4763.201883428989
 20
-2323.04396199341
 30
0.0
 50
270.0
  0
MTEXT
  5
515E3
330
3D043
100
AcDbEntity
  8
AM_5
 62
     2
100
AcDbMText
 10
4760.601883428989
 20
-2312.79396199341
 30
0.0
 40
3.200000000000001
 41
0.0
 71
     5
 72
     1
  1
20.5
 11
0.0000000000000001
 21
1.0
 31
0.0
 73
     1
 44
1.0
1001
ACAD
1000
MTEXTBEGIN
1070
    73
1070
     1
1070
    44
1040
1.0
1070
    74
1070
     0
1000
MTEXTEND
  0
POINT
  5
515E4
330
3D043
100
AcDbEntity
  8
Defpoints
 62
     0
100
AcDbPoint
 10
4779.20188342899
 20
-2302.54396199341
 30
0.0
  0
POINT
  5
515E5
330
3D043
100
AcDbEntity
  8
Defpoints
 62
     0
100
AcDbPoint
 10
4779.20188342899
 20
-2323.04396199341
 30
0.0
  0
POINT
  5
515E6
330
3D043
100
AcDbEntity
  8
Defpoints
 62
     0
100
AcDbPoint
 10
4763.201883428989
 20
-2323.04396199341
 30
0.0
  0
ENDBLK
  5
3D04E
330
3D043
100
AcDbEntity
  8
0
 48
0.5
100
AcDbBlockEnd
  0
BLOCK
  5
3D05B
330
3D04F
100
AcDbEntity
  8
0
 48
0.5
100
AcDbBlockBegin
  2
*D40
 70
     1
 10
0.0
 20
0.0
 30
0.0
  3
*D40
  1

  0
LINE
  5
515F2
330
3D04F
100
AcDbEntity
  8
AM_5
100
AcDbLine
 10
4839.000378406915
 20
-2301.54396199341
 30
0.0
 11
4839.000378406915
 21
-2293.54396199341
 31
0.0
  0
LINE
  5
515F3
330
3D04F
100
AcDbEntity
  8
AM_5
100
AcDbLine
 10
4840.500378406916
 20
-2301.54396199341
 30
0.0
 11
4840.500378406916
 21
-2293.54396199341
 31
0.0
  0
LINE
  5
515F4
330
3D04F
100
AcDbEntity
  8
AM_5
100
AcDbLine
 10
4838.000378406917
 20
-2294.54396199341
 30
0.0
 11
4837.000378406917
 21
-2294.54396199341
 31
0.0
  0
LINE
  5
515F5
330
3D04F
100
AcDbEntity
  8
AM_5
100
AcDbLine
 10
4841.500378406917
 20
-2294.54396199341
 30
0.0
 11
4848.87371174025
 21
-2294.54396199341
 31
0.0
  0
LINE
  5
515F6
330
3D04F
100
AcDbEntity
  8
AM_5
100
AcDbLine
 10
4839.000378406915
 20
-2294.54396199341
 30
0.0
 11
4840.500378406916
 21
-2294.54396199341
 31
0.0
  0
INSERT
  5
515F7
330
3D04F
100
AcDbEntity
  8
AM_5
100
AcDbBlockReference
  2
_Dot
 10
4839.000378406915
 20
-2294.54396199341
 30
0.0
  0
INSERT
  5
515F8
330
3D04F
100
AcDbEntity
  8
AM_5
100
AcDbBlockReference
  2
_Dot
 10
4840.500378406916
 20
-2294.54396199341
 30
0.0
 50
180.0
  0
MTEXT
  5
515F9
330
3D04F
100
AcDbEntity
  8
AM_5
 62
     2
100
AcDbMText
 10
4845.687045073582
 20
-2291.94396199341
 30
0.0
 40
3.200000000000001
 41
0.0
 71
     5
 72
     1
  1
1.5
 73
     1
 44
1.0
1001
ACAD
1000
MTEXTBEGIN
1070
    73
1070
     1
1070
    44
1040
1.0
1070
    74
1070
     0
1000
MTEXTEND
  0
POINT
  5
515FA
330
3D04F
100
AcDbEntity
  8
Defpoints
 62
     0
100
AcDbPoint
 10
4839.000378406915
 20
-2302.54396199341
 30
0.0
  0
POINT
  5
515FB
330
3D04F
100
AcDbEntity
  8
Defpoints
 62
     0
100
AcDbPoint
 10
4840.500378406916
 20
-2302.54396199341
 30
0.0
  0
POINT
  5
515FC
330
3D04F
100
AcDbEntity
  8
Defpoints
 62
     0
100
AcDbPoint
 10
4840.500378406916
 20
-2294.54396199341
 30
0.0
  0
ENDBLK
  5
3D05C
330
3D04F
100
AcDbEntity
  8
0
 48
0.5
100
AcDbBlockEnd
  0
BLOCK
  5
3D067
330
3D05D
100
AcDbEntity
  8
0
 48
0.5
100
AcDbBlockBegin
  2
*D41
 70
     1
 10
0.0
 20
0.0
 30
0.0
  3
*D41
  1

  0
LINE
  5
51606
330
3D05D
100
AcDbEntity
  8
AM_5
100
AcDbLine
 10
4791.20188342899
 20
-2311.79396199341
 30
0.0
 11
4791.20188342899
 21
-2293.54396199341
 31
0.0
  0
LINE
  5
51607
330
3D05D
100
AcDbEntity
  8
AM_5
100
AcDbLine
 10
4807.201883428991
 20
-2311.79396199341
 30
0.0
 11
4807.201883428991
 21
-2293.54396199341
 31
0.0
  0
LINE
  5
51608
330
3D05D
100
AcDbEntity
  8
AM_5
100
AcDbLine
 10
4792.201883428989
 20
-2294.54396199341
 30
0.0
 11
4806.20188342899
 21
-2294.54396199341
 31
0.0
  0
INSERT
  5
51609
330
3D05D
100
AcDbEntity
  8
AM_5
100
AcDbBlockReference
  2
_Dot
 10
4791.20188342899
 20
-2294.54396199341
 30
0.0
 50
180.0
  0
INSERT
  5
5160A
330
3D05D
100
AcDbEntity
  8
AM_5
100
AcDbBlockReference
  2
_Dot
 10
4807.201883428991
 20
-2294.54396199341
 30
0.0
  0
MTEXT
  5
5160B
330
3D05D
100
AcDbEntity
  8
AM_5
 62
     2
100
AcDbMText
 10
4799.20188342899
 20
-2291.94396199341
 30
0.0
 40
3.200000000000001
 41
0.0
 71
     5
 72
     1
  1
16
 73
     1
 44
1.0
1001
ACAD
1000
MTEXTBEGIN
1070
    73
1070
     1
1070
    44
1040
1.0
1070
    74
1070
     0
1000
MTEXTEND
  0
POINT
  5
5160C
330
3D05D
100
AcDbEntity
  8
Defpoints
 62
     0
100
AcDbPoint
 10
4791.20188342899
 20
-2312.79396199341
 30
0.0
  0
POINT
  5
5160D
330
3D05D
100
AcDbEntity
  8
Defpoints
 62
     0
100
AcDbPoint
 10
4807.201883428991
 20
-2312.79396199341
 30
0.0
  0
POINT
  5
5160E
330
3D05D
100
AcDbEntity
  8
Defpoints
 62
     0
100
AcDbPoint
 10
4807.201883428991
 20
-2294.54396199341
 30
0.0
  0
ENDBLK
  5
3D068
330
3D05D
100
AcDbEntity
  8
0
 48
0.5
100
AcDbBlockEnd
  0
ENDSEC
  0
SECTION
  2
ENTITIES
  0
AMDTACMWBLOCKBOMENTITY
  5
1EB3A
330
1F
100
AcDbEntity
  8
AM_6
 92
        8
310
0800000000000000
  0
AMDTACMWBLOCKBOMENTITY
  5
1EB3B
330
1F
100
AcDbEntity
  8
AM_5
 92
        8
310
0800000000000000
  0
AMDTACMWBLOCKBOMENTITY
  5
1EB3C
330
1F
100
AcDbEntity
  8
AM_5
 92
        8
310
0800000000000000
  0
AMDTACMWBLOCKBOMENTITY
  5
1EB3D
330
1F
100
AcDbEntity
  8
AM_5
 92
        8
310
0800000000000000
  0
AMDTACMWBLOCKBOMENTITY
  5
1EB3E
330
1F
100
AcDbEntity
  8
AM_5
 92
        8
310
0800000000000000
  0
AMDTACMWBLOCKBOMENTITY
  5
1EB3F
330
1F
100
AcDbEntity
  8
AM_5
 92
        8
310
0800000000000000
  0
AMDTACMWBLOCKBOMENTITY
  5
1EB40
330
1F
100
AcDbEntity
  8
AM_5
 92
        8
310
0800000000000000
  0
AMDTACMWBLOCKBOMENTITY
  5
1EB41
330
1F
100
AcDbEntity
  8
AM_5
 92
        8
310
0800000000000000
  0
ARC
  5
2121D
330
1F
100
AcDbEntity
  8
001本体
 48
0.5
 60
     1
100
AcDbCircle
 10
4762.519581199091
 20
-2259.06618040198
 30
0.0
 40
17.0
100
AcDbArc
 50
113.1764439438205
 51
176.107466317104
  0
AMDTACMWBLOCKBOMENTITY
  5
214E3
330
1F
100
AcDbEntity
  8
AM_5
 92
        8
310
0800000000000000
  0
AMDTACMWBLOCKBOMENTITY
  5
21FF0
330
1F
100
AcDbEntity
  8
AM_5
 92
        8
310
0800000000000000
  0
AMDTACMWBLOCKBOMENTITY
  5
21FF1
330
1F
100
AcDbEntity
  8
AM_5
 92
        8
310
0800000000000000
  0
AMDTACMWBLOCKBOMENTITY
  5
21FF2
330
1F
100
AcDbEntity
  8
AM_5
 92
        8
310
0800000000000000
  0
AMDTACMWBLOCKBOMENTITY
  5
21FF3
330
1F
100
AcDbEntity
  8
AM_5
 92
        8
310
0800000000000000
  0
AMDTACMWBLOCKBOMENTITY
  5
2627D
330
1F
100
AcDbEntity
  8
AM_6
 92
        8
310
0800000000000000
  0
AMDTACMWBLOCKBOMENTITY
  5
2627E
330
1F
100
AcDbEntity
  8
AM_5
 92
        8
310
0800000000000000
  0
AMDTACMWBLOCKBOMENTITY
  5
2627F
330
1F
100
AcDbEntity
  8
AM_5
 92
        8
310
0800000000000000
  0
AMDTACMWBLOCKBOMENTITY
  5
26280
330
1F
100
AcDbEntity
  8
AM_5
 92
        8
310
0800000000000000
  0
AMDTACMWBLOCKBOMENTITY
  5
26281
330
1F
100
AcDbEntity
  8
AM_5
 92
        8
310
0800000000000000
  0
AMDTACMWBLOCKBOMENTITY
  5
26282
330
1F
100
AcDbEntity
  8
AM_5
 92
        8
310
0800000000000000
  0
AMDTACMWBLOCKBOMENTITY
  5
26283
330
1F
100
AcDbEntity
  8
AM_5
 92
        8
310
0800000000000000
  0
LINE
  5
3459B
330
1F
100
AcDbEntity
  8
AM_0
100
AcDbLine
 10
4447.138887092227
 20
-2154.659103528411
 30
0.0
 11
4457.138887092229
 21
-2154.659103528411
 31
0.0
  0
LINE
  5
3459C
330
1F
100
AcDbEntity
  8
AM_0
100
AcDbLine
 10
4449.278897092229
 20
-2253.009623528411
 30
0.0
 11
4454.998867092229
 21
-2253.009623528411
 31
0.0
  0
LINE
  5
3459D
330
1F
100
AcDbEntity
  8
AM_0
100
AcDbLine
 10
4448.277887092229
 20
-2235.849623528411
 30
0.0
 11
4455.999877092229
 21
-2235.849623528411
 31
0.0
  0
LINE
  5
3459E
330
1F
100
AcDbEntity
  8
AM_0
100
AcDbLine
 10
4448.277887092229
 20
-2238.709603528411
 30
0.0
 11
4455.999877092229
 21
-2238.709603528411
 31
0.0
  0
LINE
  5
3459F
330
1F
100
AcDbEntity
  8
AM_0
100
AcDbLine
 10
4449.278897092229
 20
-2273.315623528411
 30
0.0
 11
4454.998867092229
 21
-2273.315623528411
 31
0.0
  0
LINE
  5
345A0
330
1F
100
AcDbEntity
  8
AM_0
100
AcDbLine
 10
4446.84786709223
 20
-2270.169623528412
 30
0.0
 11
4457.429897092229
 21
-2270.169623528412
 31
0.0
  0
LINE
  5
345A1
330
1F
100
AcDbEntity
  8
AM_0
100
AcDbLine
 10
4446.84786709223
 20
-2272.457623528411
 30
0.0
 11
4457.429897092229
 21
-2272.457623528411
 31
0.0
  0
LINE
  5
345A2
330
1F
100
AcDbEntity
  8
AM_0
100
AcDbLine
 10
4448.277887092229
 20
-2290.189613528411
 30
0.0
 11
4455.999877092229
 21
-2290.189613528411
 31
0.0
  0
LINE
  5
345A3
330
1F
100
AcDbEntity
  8
AM_0
100
AcDbLine
 10
4448.277887092229
 20
-2287.329633528411
 30
0.0
 11
4455.999877092229
 21
-2287.329633528411
 31
0.0
  0
LINE
  5
345A4
330
1F
100
AcDbEntity
  8
AM_0
100
AcDbLine
 10
4449.278897092229
 20
-2253.009623528411
 30
0.0
 11
4449.278897092229
 21
-2270.169623528412
 31
0.0
  0
LINE
  5
345A5
330
1F
100
AcDbEntity
  8
AM_0
100
AcDbLine
 10
4443.987887092229
 20
-2240.139623528412
 30
0.0
 11
4443.987887092229
 21
-2285.899603528411
 31
0.0
  0
LINE
  5
345A6
330
1F
100
AcDbEntity
  8
AM_0
100
AcDbLine
 10
4446.84786709223
 20
-2240.139623528412
 30
0.0
 11
4446.84786709223
 21
-2285.899603528411
 31
0.0
  0
LINE
  5
345A7
330
1F
100
AcDbEntity
  8
AM_0
100
AcDbLine
 10
4449.278897092229
 20
-2272.457623528411
 30
0.0
 11
4449.278897092229
 21
-2273.315623528411
 31
0.0
  0
LINE
  5
345A8
330
1F
100
AcDbEntity
  8
AM_0
100
AcDbLine
 10
4447.138887092227
 20
-2155.159103528411
 30
0.0
 11
4447.138887092227
 21
-2154.659103528411
 31
0.0
  0
LINE
  5
345A9
330
1F
100
AcDbEntity
  8
AM_0
100
AcDbLine
 10
4537.949823816799
 20
-2177.359083528411
 30
0.0
 11
4537.949823816799
 21
-2183.590223528411
 31
0.0
  0
LINE
  5
345AA
330
1F
100
AcDbEntity
  8
AM_0
100
AcDbLine
 10
4532.229823816797
 20
-2177.359083528411
 30
0.0
 11
4532.229823816797
 21
-2182.768933528411
 31
0.0
  0
LINE
  5
345AB
330
1F
100
AcDbEntity
  8
AM_0
100
AcDbLine
 10
4527.089843816798
 20
-2315.929623528411
 30
0.0
 11
4527.089843816798
 21
-2300.985113528411
 31
0.0
  0
LINE
  5
345AC
330
1F
100
AcDbEntity
  8
AM_0
100
AcDbLine
 10
4525.089843816799
 20
-2157.159103528412
 30
0.0
 11
4525.089843816799
 21
-2180.578863528412
 31
0.0
  0
LINE
  5
345AD
330
1F
100
AcDbEntity
  8
AM_7
 48
0.5
100
AcDbLine
 10
4535.089843816797
 20
-2133.159103528411
 30
0.0
 11
4535.089843816797
 21
-2295.519603528412
 31
0.0
  0
LINE
  5
345AE
330
1F
100
AcDbEntity
  8
AM_0
100
AcDbLine
 10
4454.998867092229
 20
-2253.009623528411
 30
0.0
 11
4454.998867092229
 21
-2270.169623528412
 31
0.0
  0
LINE
  5
345AF
330
1F
100
AcDbEntity
  8
AM_0
100
AcDbLine
 10
4460.289887092229
 20
-2240.139623528412
 30
0.0
 11
4460.289887092229
 21
-2285.899603528411
 31
0.0
  0
LINE
  5
345B0
330
1F
100
AcDbEntity
  8
AM_0
100
AcDbLine
 10
4457.429897092229
 20
-2240.139623528412
 30
0.0
 11
4457.429897092229
 21
-2285.899603528411
 31
0.0
  0
LINE
  5
345B1
330
1F
100
AcDbEntity
  8
AM_0
100
AcDbLine
 10
4454.998867092229
 20
-2272.457623528411
 30
0.0
 11
4454.998867092229
 21
-2273.315623528411
 31
0.0
  0
LINE
  5
345B2
330
1F
100
AcDbEntity
  8
AM_0
100
AcDbLine
 10
4533.659843816798
 20
-2232.459603528411
 30
0.0
 11
4533.659843816798
 21
-2292.519603528412
 31
0.0
  0
LINE
  5
345B3
330
1F
100
AcDbEntity
  8
AM_0
100
AcDbLine
 10
4536.519833816798
 20
-2232.459603528411
 30
0.0
 11
4536.519833816798
 21
-2292.519603528412
 31
0.0
  0
LINE
  5
345B4
330
1F
100
AcDbEntity
  8
AM_0
100
AcDbLine
 10
4531.665833816798
 20
-2236.749613528411
 30
0.0
 11
4531.665833816798
 21
-2288.229593528412
 31
0.0
  0
LINE
  5
345B5
330
1F
100
AcDbEntity
  8
AM_0
100
AcDbLine
 10
4527.089843816798
 20
-2291.089613528411
 30
0.0
 11
4531.665863816798
 21
-2288.229623528411
 31
0.0
  0
LINE
  5
345B6
330
1F
100
AcDbEntity
  8
AM_0
100
AcDbLine
 10
4523.659843816798
 20
-2269.639593528411
 30
0.0
 11
4523.659843816798
 21
-2272.499613528411
 31
0.0
  0
LINE
  5
345B7
330
1F
100
AcDbEntity
  8
AM_0
100
AcDbLine
 10
4523.659843816798
 20
-2272.499613528411
 30
0.0
 11
4525.089843816799
 21
-2272.499613528411
 31
0.0
  0
LINE
  5
345B8
330
1F
100
AcDbEntity
  8
AM_0
100
AcDbLine
 10
4523.659843816798
 20
-2269.639593528411
 30
0.0
 11
4525.089843816799
 21
-2269.639593528411
 31
0.0
  0
LINE
  5
345B9
330
1F
100
AcDbEntity
  8
AM_0
100
AcDbLine
 10
4533.659843816798
 20
-2292.519603528412
 30
0.0
 11
4536.519833816798
 21
-2292.519603528412
 31
0.0
  0
LINE
  5
345BA
330
1F
100
AcDbEntity
  8
AM_0
100
AcDbLine
 10
4537.949823816799
 20
-2269.639593528411
 30
0.0
 11
4537.949823816799
 21
-2272.499613528411
 31
0.0
  0
LINE
  5
345BB
330
1F
100
AcDbEntity
  8
AM_0
100
AcDbLine
 10
4531.665833816798
 20
-2272.499613528411
 30
0.0
 11
4533.659843816798
 21
-2272.499613528411
 31
0.0
  0
LINE
  5
345BC
330
1F
100
AcDbEntity
  8
AM_0
100
AcDbLine
 10
4536.519833816798
 20
-2272.499613528411
 30
0.0
 11
4537.949823816799
 21
-2272.499613528411
 31
0.0
  0
LINE
  5
345BD
330
1F
100
AcDbEntity
  8
AM_0
100
AcDbLine
 10
4531.665833816798
 20
-2269.639593528411
 30
0.0
 11
4533.659843816798
 21
-2269.639593528411
 31
0.0
  0
LINE
  5
345BE
330
1F
100
AcDbEntity
  8
AM_0
100
AcDbLine
 10
4536.519833816798
 20
-2269.639593528411
 30
0.0
 11
4537.949823816799
 21
-2269.639593528411
 31
0.0
  0
LINE
  5
345BF
330
1F
100
AcDbEntity
  8
AM_0
100
AcDbLine
 10
4531.665893816798
 20
-2236.749583528411
 30
0.0
 11
4527.089873816799
 21
-2233.889563528411
 31
0.0
  0
LINE
  5
345C0
330
1F
100
AcDbEntity
  8
AM_0
100
AcDbLine
 10
4527.089843816798
 20
-2232.459603528411
 30
0.0
 11
4528.059843816799
 21
-2232.459603528411
 31
0.0
  0
LINE
  5
345C1
330
1F
100
AcDbEntity
  8
AM_0
100
AcDbLine
 10
4537.949853816797
 20
-2229.599623528411
 30
0.0
 11
4536.519893816797
 21
-2232.459633528411
 31
0.0
  0
LINE
  5
345C2
330
1F
100
AcDbEntity
  8
AM_0
100
AcDbLine
 10
4532.229823816797
 20
-2229.599593528412
 30
0.0
 11
4533.659843816798
 21
-2232.459603528411
 31
0.0
  0
LINE
  5
345C3
330
1F
100
AcDbEntity
  8
AM_0
100
AcDbLine
 10
4533.659843816798
 20
-2232.459603528411
 30
0.0
 11
4536.519833816798
 21
-2232.459603528411
 31
0.0
  0
LINE
  5
345C4
330
1F
100
AcDbEntity
  8
AM_0
100
AcDbLine
 10
4532.229853816799
 20
-2215.445783528411
 30
0.0
 11
4532.229853816799
 21
-2229.599593528412
 31
0.0
  0
LINE
  5
345C5
330
1F
100
AcDbEntity
  8
AM_0
100
AcDbLine
 10
4532.229853816799
 20
-2229.599593528412
 30
0.0
 11
4537.949823816799
 21
-2229.599593528412
 31
0.0
  0
LINE
  5
345C6
330
1F
100
AcDbEntity
  8
AM_0
100
AcDbLine
 10
4457.138887092229
 20
-2154.659103528411
 30
0.0
 11
4457.138887092229
 21
-2155.159103528411
 31
0.0
  0
LINE
  5
345C7
330
1F
100
AcDbEntity
  8
AM_11
100
AcDbLine
 10
4530.089843816798
 20
-2136.659103528411
 30
0.0
 11
4530.089843816798
 21
-2155.159103528411
 31
0.0
  0
LINE
  5
345C8
330
1F
100
AcDbEntity
  8
AM_11
100
AcDbLine
 10
4540.089843816797
 20
-2155.159103528411
 30
0.0
 11
4540.089843816797
 21
-2136.659103528411
 31
0.0
  0
LINE
  5
345C9
330
1F
100
AcDbEntity
  8
AM_0
100
AcDbLine
 10
4530.089843816798
 20
-2177.359083528411
 30
0.0
 11
4540.089843816797
 21
-2177.359083528411
 31
0.0
  0
LINE
  5
345CA
330
1F
100
AcDbEntity
  8
AM_0
100
AcDbLine
 10
4530.089843816798
 20
-2154.659103528411
 30
0.0
 11
4540.089843816797
 21
-2154.659103528411
 31
0.0
  0
LINE
  5
345CB
330
1F
100
AcDbEntity
  8
AM_0
100
AcDbLine
 10
4527.089843816798
 20
-2155.159103528411
 30
0.0
 11
4560.089843816799
 21
-2155.159103528411
 31
0.0
  0
LINE
  5
345CC
330
1F
100
AcDbEntity
  8
AM_0
100
AcDbLine
 10
4530.089843816798
 20
-2157.159103528412
 30
0.0
 11
4530.089843816798
 21
-2177.359083528411
 31
0.0
  0
LINE
  5
345CD
330
1F
100
AcDbEntity
  8
AM_0
100
AcDbLine
 10
4530.089843816798
 20
-2155.159103528411
 30
0.0
 11
4530.089843816798
 21
-2154.659103528411
 31
0.0
  0
LINE
  5
345CE
330
1F
100
AcDbEntity
  8
AM_0
100
AcDbLine
 10
4540.089843816797
 20
-2177.359083528411
 30
0.0
 11
4540.089843816797
 21
-2157.159103528412
 31
0.0
  0
LINE
  5
345CF
330
1F
100
AcDbEntity
  8
AM_0
100
AcDbLine
 10
4540.089843816797
 20
-2154.659103528411
 30
0.0
 11
4540.089843816797
 21
-2155.159103528411
 31
0.0
  0
LINE
  5
345D0
330
1F
100
AcDbEntity
  8
AM_11
100
AcDbLine
 10
4530.089843816798
 20
-2136.659103528411
 30
0.0
 11
4540.089843816797
 21
-2136.659103528411
 31
0.0
  0
LINE
  5
345D2
330
1F
100
AcDbEntity
  8
AM_0
100
AcDbLine
 10
4525.089843816799
 20
-2185.588573201684
 30
0.0
 11
4525.089843816799
 21
-2295.578853528411
 31
0.0
  0
LINE
  5
345D3
330
1F
100
AcDbEntity
  8
AM_0
100
AcDbLine
 10
4537.949823816799
 20
-2188.590223528411
 30
0.0
 11
4537.949823816799
 21
-2229.599593528412
 31
0.0
  0
LINE
  5
345D4
330
1F
100
AcDbEntity
  8
AM_0
100
AcDbLine
 10
4532.229823816797
 20
-2187.768933528412
 30
0.0
 11
4532.229883816799
 21
-2211.945783528411
 31
0.0
  0
LINE
  5
345D6
330
1F
100
AcDbEntity
  8
AM_0
100
AcDbLine
 10
4527.089843816798
 20
-2180.985113528411
 30
0.0
 11
4527.089843816798
 21
-2157.159103528412
 31
0.0
  0
LINE
  5
345D7
330
1F
100
AcDbEntity
  8
AM_0
100
AcDbLine
 10
4528.059843816799
 20
-2219.160903528411
 30
0.0
 11
4528.059843816799
 21
-2232.459603528411
 31
0.0
  0
LINE
  5
345D8
330
1F
100
AcDbEntity
  8
AM_0
100
AcDbLine
 10
4532.229883816799
 20
-2215.445783528411
 30
0.0
 11
4528.901453816798
 21
-2217.418403528412
 31
0.0
  0
LINE
  5
345D9
330
1F
100
AcDbEntity
  8
AM_0
100
AcDbLine
 10
4531.563043816798
 20
-2214.678533528411
 30
0.0
 11
4528.391593816798
 21
-2216.558143528411
 31
0.0
  0
LINE
  5
345DA
330
1F
100
AcDbEntity
  8
AM_0
100
AcDbLine
 10
4529.972503816799
 20
-2212.749793528411
 30
0.0
 11
4529.454283816799
 21
-2211.887373528412
 31
0.0
  0
LINE
  5
345DB
330
1F
100
AcDbEntity
  8
AM_0
100
AcDbLine
 10
4525.089843816799
 20
-2300.578853528412
 30
0.0
 11
4525.089843816799
 21
-2315.929623528411
 31
0.0
  0
LINE
  5
345DC
330
1F
100
AcDbEntity
  8
AM_0
100
AcDbLine
 10
4527.089843816798
 20
-2295.985113528411
 30
0.0
 11
4527.089843816798
 21
-2185.971619139881
 31
0.0
  0
ARC
  5
345DD
330
1F
100
AcDbEntity
  8
AM_0
100
AcDbCircle
 10
4452.138887092229
 20
-2179.409103528412
 30
0.0
 40
25.25
100
AcDbArc
 50
78.57881400001644
 51
101.4211900000155
  0
CIRCLE
  5
345DF
330
1F
100
AcDbEntity
  8
AM_0
100
AcDbCircle
 10
4445.638887092227
 20
-2309.929623528411
 30
0.0
 40
3.25
  0
CIRCLE
  5
345E0
330
1F
100
AcDbEntity
  8
AM_0
100
AcDbCircle
 10
4445.638887092227
 20
-2309.929623528411
 30
0.0
 40
2.0
  0
ARC
  5
345E1
330
1F
100
AcDbEntity
  8
AM_0
100
AcDbCircle
 10
4448.277887092229
 20
-2285.899603528411
 30
0.0
 40
4.29
100
AcDbArc
 50
180.0
 51
270.0
  0
ARC
  5
345E2
330
1F
100
AcDbEntity
  8
AM_0
100
AcDbCircle
 10
4448.277887092229
 20
-2285.899603528411
 30
0.0
 40
1.4299998
100
AcDbArc
 50
180.0
 51
270.0
  0
ARC
  5
345E3
330
1F
100
AcDbEntity
  8
AM_0
100
AcDbCircle
 10
4448.277887092229
 20
-2240.139623528412
 30
0.0
 40
4.29
100
AcDbArc
 50
90.0
 51
180.0
  0
ARC
  5
345E4
330
1F
100
AcDbEntity
  8
AM_0
100
AcDbCircle
 10
4448.277887092229
 20
-2240.139623528412
 30
0.0
 40
1.4299998
100
AcDbArc
 50
90.0
 51
180.0
  0
CIRCLE
  5
345E7
330
1F
100
AcDbEntity
  8
AM_0
100
AcDbCircle
 10
4458.638887092229
 20
-2309.929623528411
 30
0.0
 40
3.25
  0
CIRCLE
  5
345E8
330
1F
100
AcDbEntity
  8
AM_0
100
AcDbCircle
 10
4458.638887092229
 20
-2309.929623528411
 30
0.0
 40
2.0
  0
ARC
  5
345E9
330
1F
100
AcDbEntity
  8
AM_0
100
AcDbCircle
 10
4455.999877092229
 20
-2285.899603528411
 30
0.0
 40
4.29
100
AcDbArc
 50
270.0
 51
0.0
  0
ARC
  5
345EA
330
1F
100
AcDbEntity
  8
AM_0
100
AcDbCircle
 10
4455.999877092229
 20
-2285.899603528411
 30
0.0
 40
1.4299998
100
AcDbArc
 50
270.0
 51
0.0
  0
ARC
  5
345EB
330
1F
100
AcDbEntity
  8
AM_0
100
AcDbCircle
 10
4455.999877092229
 20
-2240.139623528412
 30
0.0
 40
4.29
100
AcDbArc
 50
0.0
 51
90.0
  0
ARC
  5
345EC
330
1F
100
AcDbEntity
  8
AM_0
100
AcDbCircle
 10
4455.999877092229
 20
-2240.139623528412
 30
0.0
 40
1.4299998
100
AcDbArc
 50
0.0
 51
90.0
  0
ARC
  5
345ED
330
1F
100
AcDbEntity
  8
AM_0
100
AcDbCircle
 10
4535.089843816797
 20
-2179.409103528412
 30
0.0
 40
25.25
100
AcDbArc
 50
78.57881400001635
 51
101.4211900000155
  0
ARC
  5
345EE
330
1F
100
AcDbEntity
  8
AM_0
100
AcDbCircle
 10
4527.089843816798
 20
-2157.159103528412
 30
0.0
 40
2.0
100
AcDbArc
 50
90.0
 51
180.0
  0
ARC
  5
345EF
330
1F
100
AcDbEntity
  8
AM_11
100
AcDbCircle
 10
4535.089843816797
 20
-2161.409103528411
 30
0.0
 40
25.25
100
AcDbArc
 50
78.57881400001635
 51
101.4211900000155
  0
CIRCLE
  5
345F2
330
1F
100
AcDbEntity
  8
AM_0
100
AcDbCircle
 10
4445.638887092227
 20
-2196.663183528412
 30
0.0
 40
2.0
  0
CIRCLE
  5
345F3
330
1F
100
AcDbEntity
  8
AM_0
100
AcDbCircle
 10
4458.638887092229
 20
-2196.663183528412
 30
0.0
 40
2.0
  0
CIRCLE
  5
345F4
330
1F
100
AcDbEntity
  8
AM_0
100
AcDbCircle
 10
4445.638887092227
 20
-2196.663183528412
 30
0.0
 40
3.25
  0
CIRCLE
  5
345F5
330
1F
100
AcDbEntity
  8
AM_0
100
AcDbCircle
 10
4458.638887092229
 20
-2196.663183528412
 30
0.0
 40
3.25
  0
ARC
  5
345F7
330
1F
100
AcDbEntity
  8
AM_0
100
AcDbCircle
 10
4532.229853816799
 20
-2213.695783528411
 30
0.0
 40
1.75
100
AcDbArc
 50
270.0
 51
90.0
  0
ARC
  5
345F8
330
1F
100
AcDbEntity
  8
AM_0
100
AcDbCircle
 10
4530.767783816798
 20
-2213.714183528411
 30
0.0
 40
2.25
100
AcDbArc
 50
294.0546500000005
 51
125.7161000000069
  0
ARC
  5
345F9
330
1F
100
AcDbEntity
  8
AM_0
100
AcDbCircle
 10
4529.793723816799
 20
-2218.923873528411
 30
0.0
 40
1.75
100
AcDbArc
 50
120.6539499999963
 51
187.7843400000131
  0
ARC
  5
345FA
330
1F
100
AcDbEntity
  8
AM_0
100
AcDbCircle
 10
4529.793723816799
 20
-2218.923873528411
 30
0.0
 40
2.75
100
AcDbArc
 50
120.6540700000097
 51
169.4920099999978
  0
ARC
  5
345FB
330
1F
100
AcDbEntity
  8
AM_0
100
AcDbCircle
 10
4530.767783816798
 20
-2213.714183528411
 30
0.0
 40
1.25
100
AcDbArc
 50
291.7964699999842
 51
129.5109499999946
  0
POLYLINE
  5
34603
330
1F
100
AcDbEntity
  8
AM_0
100
AcDb2dPolyline
 66
     1
 10
0.0
 20
0.0
 30
0.0
  0
VERTEX
  5
34604
330
34603
100
AcDbEntity
  8
AM_0
100
AcDbVertex
100
AcDb2dVertex
 10
4525.089843816799
 20
-2315.929623528411
 30
0.0
  0
VERTEX
  5
34605
330
34603
100
AcDbEntity
  8
AM_0
100
AcDbVertex
100
AcDb2dVertex
 10
4527.089843816798
 20
-2315.929623528411
 30
0.0
  0
SEQEND
  5
34606
330
34603
100
AcDbEntity
  8
AM_0
  0
POLYLINE
  5
34607
330
1F
100
AcDbEntity
  8
AM_0
100
AcDb2dPolyline
 66
     1
 10
0.0
 20
0.0
 30
0.0
  0
VERTEX
  5
34608
330
34607
100
AcDbEntity
  8
AM_0
100
AcDbVertex
100
AcDb2dVertex
 10
4560.089843816799
 20
-2155.159103528411
 30
0.0
  0
VERTEX
  5
34609
330
34607
100
AcDbEntity
  8
AM_0
100
AcDbVertex
100
AcDb2dVertex
 10
4560.089843816799
 20
-2157.159103528412
 30
0.0
  0
VERTEX
  5
3460A
330
34607
100
AcDbEntity
  8
AM_0
100
AcDbVertex
100
AcDb2dVertex
 10
4527.089843816798
 20
-2157.159103528412
 30
0.0
  0
SEQEND
  5
3460B
330
34607
100
AcDbEntity
  8
AM_0
  0
POLYLINE
  5
3467E
330
1F
100
AcDbEntity
  8
AM_0
100
AcDb2dPolyline
 66
     1
 10
0.0
 20
0.0
 30
0.0
  0
VERTEX
  5
3467F
330
3467E
100
AcDbEntity
  8
AM_0
100
AcDbVertex
100
AcDb2dVertex
 10
4441.138887092229
 20
-2185.013982213513
 30
0.0
  0
VERTEX
  5
34680
330
3467E
100
AcDbEntity
  8
AM_0
100
AcDbVertex
100
AcDb2dVertex
 10
4441.138887092229
 20
-2295.015273528411
 30
0.0
  0
SEQEND
  5
34681
330
3467E
100
AcDbEntity
  8
AM_0
  0
POLYLINE
  5
34682
330
1F
100
AcDbEntity
  8
AM_0
100
AcDb2dPolyline
 66
     1
 10
0.0
 20
0.0
 30
0.0
  0
VERTEX
  5
34683
330
34682
100
AcDbEntity
  8
AM_0
100
AcDbVertex
100
AcDb2dVertex
 10
4441.138887092229
 20
-2300.015273528412
 30
0.0
  0
VERTEX
  5
34684
330
34682
100
AcDbEntity
  8
AM_0
100
AcDbVertex
100
AcDb2dVertex
 10
4441.138887092229
 20
-2315.929623528411
 30
0.0
  0
VERTEX
  5
34685
330
34682
100
AcDbEntity
  8
AM_0
100
AcDbVertex
100
AcDb2dVertex
 10
4463.138887092229
 20
-2315.929623528411
 30
0.0
  0
VERTEX
  5
34686
330
34682
100
AcDbEntity
  8
AM_0
100
AcDbVertex
100
AcDb2dVertex
 10
4463.138887092229
 20
-2301.962423528411
 30
0.0
  0
SEQEND
  5
34687
330
34682
100
AcDbEntity
  8
AM_0
  0
POLYLINE
  5
34688
330
1F
100
AcDbEntity
  8
AM_0
100
AcDb2dPolyline
 66
     1
 10
0.0
 20
0.0
 30
0.0
  0
VERTEX
  5
34689
330
34688
100
AcDbEntity
  8
AM_0
100
AcDbVertex
100
AcDb2dVertex
 10
4463.138887092229
 20
-2296.962423528412
 30
0.0
  0
VERTEX
  5
3468A
330
34688
100
AcDbEntity
  8
AM_0
100
AcDbVertex
100
AcDb2dVertex
 10
4463.138887092229
 20
-2186.971000910457
 30
0.0
  0
SEQEND
  5
3468B
330
34688
100
AcDbEntity
  8
AM_0
  0
LINE
  5
3468C
330
1F
100
AcDbEntity
  8
AM_7
 48
0.5
100
AcDbLine
 10
4706.638398369558
 20
-2143.929643528411
 30
0.0
 11
4706.638398369558
 21
-2295.519613528412
 31
0.0
  0
LINE
  5
3468D
330
1F
100
AcDbEntity
  8
AM_0
100
AcDbLine
 10
4696.63839836956
 20
-2167.929643528411
 30
0.0
 11
4696.63839836956
 21
-2315.929623528411
 31
0.0
  0
LINE
  5
3468E
330
1F
100
AcDbEntity
  8
AM_0
100
AcDbLine
 10
4698.638398369559
 20
-2165.929643528412
 30
0.0
 11
4731.638398369558
 21
-2165.929643528412
 31
0.0
  0
LINE
  5
3468F
330
1F
100
AcDbEntity
  8
AM_0
100
AcDbLine
 10
4698.638398369559
 20
-2315.929623528411
 30
0.0
 11
4698.638398369559
 21
-2167.929643528411
 31
0.0
  0
LINE
  5
34690
330
1F
100
AcDbEntity
  8
AM_11
100
AcDbLine
 10
4711.63839836956
 20
-2165.929643528412
 30
0.0
 11
4711.63839836956
 21
-2147.429643528411
 31
0.0
  0
LINE
  5
34691
330
1F
100
AcDbEntity
  8
AM_11
100
AcDbLine
 10
4701.638398369559
 20
-2147.429643528411
 30
0.0
 11
4701.638398369559
 21
-2165.929643528412
 31
0.0
  0
LINE
  5
34692
330
1F
100
AcDbEntity
  8
AM_11
100
AcDbLine
 10
4701.638398369559
 20
-2147.429643528411
 30
0.0
 11
4711.63839836956
 21
-2147.429643528411
 31
0.0
  0
LINE
  5
34693
330
1F
100
AcDbEntity
  8
AM_0
100
AcDbLine
 10
4701.638398369559
 20
-2165.929643528412
 30
0.0
 11
4701.638398369559
 21
-2165.429643528411
 31
0.0
  0
LINE
  5
34694
330
1F
100
AcDbEntity
  8
AM_0
100
AcDbLine
 10
4701.638398369559
 20
-2165.429643528411
 30
0.0
 11
4711.63839836956
 21
-2165.429643528411
 31
0.0
  0
LINE
  5
34695
330
1F
100
AcDbEntity
  8
AM_0
100
AcDbLine
 10
4711.63839836956
 20
-2165.429643528411
 30
0.0
 11
4711.63839836956
 21
-2165.929643528412
 31
0.0
  0
LINE
  5
34696
330
1F
100
AcDbEntity
  8
AM_0
100
AcDbLine
 10
4638.170650685487
 20
-2240.139633528411
 30
0.0
 11
4638.170650685487
 21
-2285.899613528412
 31
0.0
  0
LINE
  5
34697
330
1F
100
AcDbEntity
  8
AM_0
100
AcDbLine
 10
4627.588620685489
 20
-2240.139633528411
 30
0.0
 11
4627.588620685489
 21
-2285.899613528412
 31
0.0
  0
LINE
  5
34698
330
1F
100
AcDbEntity
  8
AM_0
100
AcDbLine
 10
4641.030640685487
 20
-2240.139633528411
 30
0.0
 11
4641.030640685487
 21
-2285.899613528412
 31
0.0
  0
LINE
  5
34699
330
1F
100
AcDbEntity
  8
AM_0
100
AcDbLine
 10
4624.728630685488
 20
-2240.139633528411
 30
0.0
 11
4624.728630685488
 21
-2285.899613528412
 31
0.0
  0
LINE
  5
3469A
330
1F
100
AcDbEntity
  8
AM_0
100
AcDbLine
 10
4629.018640685487
 20
-2287.329633528411
 30
0.0
 11
4636.740630685487
 21
-2287.329633528411
 31
0.0
  0
LINE
  5
3469B
330
1F
100
AcDbEntity
  8
AM_0
100
AcDbLine
 10
4629.018640685487
 20
-2290.189623528411
 30
0.0
 11
4636.740630685487
 21
-2290.189623528411
 31
0.0
  0
LINE
  5
3469C
330
1F
100
AcDbEntity
  8
AM_0
100
AcDbLine
 10
4630.019650685487
 20
-2253.009633528412
 30
0.0
 11
4630.019650685487
 21
-2270.169633528412
 31
0.0
  0
LINE
  5
3469D
330
1F
100
AcDbEntity
  8
AM_0
100
AcDbLine
 10
4635.739620685487
 20
-2253.009633528412
 30
0.0
 11
4635.739620685487
 21
-2270.169633528412
 31
0.0
  0
LINE
  5
3469E
330
1F
100
AcDbEntity
  8
AM_0
100
AcDbLine
 10
4627.588620685489
 20
-2272.457623528411
 30
0.0
 11
4638.170650685487
 21
-2272.457623528411
 31
0.0
  0
LINE
  5
3469F
330
1F
100
AcDbEntity
  8
AM_0
100
AcDbLine
 10
4627.588620685489
 20
-2270.169633528412
 30
0.0
 11
4638.170650685487
 21
-2270.169633528412
 31
0.0
  0
LINE
  5
346A0
330
1F
100
AcDbEntity
  8
AM_0
100
AcDbLine
 10
4630.019650685487
 20
-2272.457623528411
 30
0.0
 11
4630.019650685487
 21
-2273.315633528411
 31
0.0
  0
LINE
  5
346A1
330
1F
100
AcDbEntity
  8
AM_0
100
AcDbLine
 10
4635.739620685487
 20
-2272.457623528411
 30
0.0
 11
4635.739620685487
 21
-2273.315633528411
 31
0.0
  0
LINE
  5
346A2
330
1F
100
AcDbEntity
  8
AM_0
100
AcDbLine
 10
4630.019650685487
 20
-2273.315633528411
 30
0.0
 11
4635.739620685487
 21
-2273.315633528411
 31
0.0
  0
LINE
  5
346A3
330
1F
100
AcDbEntity
  8
AM_0
100
AcDbLine
 10
4629.018640685487
 20
-2238.709613528412
 30
0.0
 11
4636.740630685487
 21
-2238.709613528412
 31
0.0
  0
LINE
  5
346A4
330
1F
100
AcDbEntity
  8
AM_0
100
AcDbLine
 10
4629.018640685487
 20
-2235.849623528411
 30
0.0
 11
4636.740630685487
 21
-2235.849623528411
 31
0.0
  0
LINE
  5
346A5
330
1F
100
AcDbEntity
  8
AM_0
100
AcDbLine
 10
4630.019650685487
 20
-2253.009633528412
 30
0.0
 11
4635.739620685487
 21
-2253.009633528412
 31
0.0
  0
LINE
  5
346A6
330
1F
100
AcDbEntity
  8
AM_0
100
AcDbLine
 10
4627.879640685487
 20
-2165.429643528411
 30
0.0
 11
4637.879640685487
 21
-2165.429643528411
 31
0.0
  0
LINE
  5
346A7
330
1F
100
AcDbEntity
  8
AM_0
100
AcDbLine
 10
4627.879640685487
 20
-2165.929643528412
 30
0.0
 11
4627.879640685487
 21
-2165.429643528411
 31
0.0
  0
LINE
  5
346A8
330
1F
100
AcDbEntity
  8
AM_0
100
AcDbLine
 10
4637.879640685487
 20
-2165.429643528411
 30
0.0
 11
4637.879640685487
 21
-2165.929643528412
 31
0.0
  0
LINE
  5
346A9
330
1F
100
AcDbEntity
  8
AM_0
100
AcDbLine
 10
4701.638398369559
 20
-2167.929643528411
 30
0.0
 11
4701.638398369559
 21
-2188.129623528411
 31
0.0
  0
LINE
  5
346AA
330
1F
100
AcDbEntity
  8
AM_0
100
AcDbLine
 10
4701.638398369559
 20
-2188.129623528411
 30
0.0
 11
4711.63839836956
 21
-2188.129623528411
 31
0.0
  0
LINE
  5
346AB
330
1F
100
AcDbEntity
  8
AM_0
100
AcDbLine
 10
4711.63839836956
 20
-2188.129623528411
 30
0.0
 11
4711.63839836956
 21
-2167.929643528411
 31
0.0
  0
LINE
  5
346AC
330
1F
100
AcDbEntity
  8
AM_0
100
AcDbLine
 10
4703.778388369558
 20
-2188.129623528411
 30
0.0
 11
4703.778418369558
 21
-2211.978803528412
 31
0.0
  0
LINE
  5
346AD
330
1F
100
AcDbEntity
  8
AM_0
100
AcDbLine
 10
4709.498388369558
 20
-2188.129623528411
 30
0.0
 11
4709.498388369558
 21
-2229.599623528411
 31
0.0
  0
LINE
  5
346AE
330
1F
100
AcDbEntity
  8
AM_0
100
AcDbLine
 10
4703.214388369558
 20
-2236.749623528411
 30
0.0
 11
4703.214388369558
 21
-2288.229633528411
 31
0.0
  0
LINE
  5
346AF
330
1F
100
AcDbEntity
  8
AM_0
100
AcDbLine
 10
4708.06839836956
 20
-2232.459613528412
 30
0.0
 11
4708.06839836956
 21
-2292.519613528412
 31
0.0
  0
LINE
  5
346B0
330
1F
100
AcDbEntity
  8
AM_0
100
AcDbLine
 10
4705.20840836956
 20
-2232.459613528412
 30
0.0
 11
4705.20840836956
 21
-2292.519613528412
 31
0.0
  0
LINE
  5
346B1
330
1F
100
AcDbEntity
  8
AM_0
100
AcDbLine
 10
4705.20840836956
 20
-2292.519613528412
 30
0.0
 11
4708.06839836956
 21
-2292.519613528412
 31
0.0
  0
LINE
  5
346B2
330
1F
100
AcDbEntity
  8
AM_0
100
AcDbLine
 10
4708.06839836956
 20
-2272.499623528411
 30
0.0
 11
4709.498388369558
 21
-2272.499623528411
 31
0.0
  0
LINE
  5
346B3
330
1F
100
AcDbEntity
  8
AM_0
100
AcDbLine
 10
4708.06839836956
 20
-2269.639633528411
 30
0.0
 11
4709.498388369558
 21
-2269.639633528411
 31
0.0
  0
LINE
  5
346B4
330
1F
100
AcDbEntity
  8
AM_0
100
AcDbLine
 10
4703.214388369558
 20
-2272.499623528411
 30
0.0
 11
4705.20840836956
 21
-2272.499623528411
 31
0.0
  0
LINE
  5
346B5
330
1F
100
AcDbEntity
  8
AM_0
100
AcDbLine
 10
4703.214388369558
 20
-2269.639633528411
 30
0.0
 11
4705.20840836956
 21
-2269.639633528411
 31
0.0
  0
LINE
  5
346B6
330
1F
100
AcDbEntity
  8
AM_0
100
AcDbLine
 10
4709.498388369558
 20
-2269.639633528411
 30
0.0
 11
4709.498388369558
 21
-2272.499623528411
 31
0.0
  0
LINE
  5
346B7
330
1F
100
AcDbEntity
  8
AM_0
100
AcDbLine
 10
4703.778418369558
 20
-2215.449603528412
 30
0.0
 11
4703.778418369558
 21
-2229.599623528411
 31
0.0
  0
LINE
  5
346B8
330
1F
100
AcDbEntity
  8
AM_0
100
AcDbLine
 10
4703.778418369558
 20
-2229.599593528412
 30
0.0
 11
4705.20843836956
 21
-2232.459613528412
 31
0.0
  0
LINE
  5
346B9
330
1F
100
AcDbEntity
  8
AM_0
100
AcDbLine
 10
4709.498418369558
 20
-2229.599623528411
 30
0.0
 11
4708.068428369559
 21
-2232.459643528411
 31
0.0
  0
LINE
  5
346BA
330
1F
100
AcDbEntity
  8
AM_0
100
AcDbLine
 10
4705.20840836956
 20
-2232.459613528412
 30
0.0
 11
4708.06839836956
 21
-2232.459613528412
 31
0.0
  0
LINE
  5
346BB
330
1F
100
AcDbEntity
  8
AM_0
100
AcDbLine
 10
4703.778418369558
 20
-2229.599623528411
 30
0.0
 11
4709.498388369558
 21
-2229.599623528411
 31
0.0
  0
LINE
  5
346BC
330
1F
100
AcDbEntity
  8
AM_0
100
AcDbLine
 10
4703.21441836956
 20
-2236.749653528411
 30
0.0
 11
4698.638398369559
 21
-2233.889633528411
 31
0.0
  0
LINE
  5
346BD
330
1F
100
AcDbEntity
  8
AM_0
100
AcDbLine
 10
4698.63842836956
 20
-2291.089613528412
 30
0.0
 11
4703.21441836956
 21
-2288.229633528411
 31
0.0
  0
LINE
  5
346BE
330
1F
100
AcDbEntity
  8
AM_0
100
AcDbLine
 10
4698.638398369559
 20
-2232.459643528411
 30
0.0
 11
4699.638398369558
 21
-2232.459643528411
 31
0.0
  0
LINE
  5
346BF
330
1F
100
AcDbEntity
  8
AM_0
100
AcDbLine
 10
4695.20840836956
 20
-2269.639633528411
 30
0.0
 11
4696.63839836956
 21
-2269.639633528411
 31
0.0
  0
LINE
  5
346C0
330
1F
100
AcDbEntity
  8
AM_0
100
AcDbLine
 10
4695.20840836956
 20
-2269.639633528411
 30
0.0
 11
4695.20840836956
 21
-2272.499623528411
 31
0.0
  0
LINE
  5
346C1
330
1F
100
AcDbEntity
  8
AM_0
100
AcDbLine
 10
4695.20840836956
 20
-2272.499623528411
 30
0.0
 11
4696.63839836956
 21
-2272.499623528411
 31
0.0
  0
LINE
  5
346C2
330
1F
100
AcDbEntity
  8
AM_0
100
AcDbLine
 10
4703.141608369558
 20
-2214.678573528411
 30
0.0
 11
4699.97018836956
 21
-2216.558153528412
 31
0.0
  0
LINE
  5
346C3
330
1F
100
AcDbEntity
  8
AM_0
100
AcDbLine
 10
4703.808418369559
 20
-2215.445813528411
 30
0.0
 11
4700.480048369558
 21
-2217.418443528412
 31
0.0
  0
LINE
  5
346C4
330
1F
100
AcDbEntity
  8
AM_0
100
AcDbLine
 10
4699.638398369558
 20
-2219.160933528411
 30
0.0
 11
4699.638398369558
 21
-2232.459643528411
 31
0.0
  0
LINE
  5
346C5
330
1F
100
AcDbEntity
  8
AM_0
100
AcDbLine
 10
4701.55102836956
 20
-2212.749833528411
 30
0.0
 11
4701.032838369559
 21
-2211.887403528411
 31
0.0
  0
CIRCLE
  5
346C6
330
1F
100
AcDbEntity
  8
AM_0
100
AcDbCircle
 10
4639.379640685487
 20
-2309.929623528411
 30
0.0
 40
2.0
  0
CIRCLE
  5
346C7
330
1F
100
AcDbEntity
  8
AM_0
100
AcDbCircle
 10
4639.379640685487
 20
-2309.929623528411
 30
0.0
 40
3.25
  0
CIRCLE
  5
346C8
330
1F
100
AcDbEntity
  8
AM_0
100
AcDbCircle
 10
4626.379640685487
 20
-2309.929623528411
 30
0.0
 40
2.0
  0
CIRCLE
  5
346C9
330
1F
100
AcDbEntity
  8
AM_0
100
AcDbCircle
 10
4626.379640685487
 20
-2309.929623528411
 30
0.0
 40
3.25
  0
ARC
  5
346CA
330
1F
100
AcDbEntity
  8
AM_11
100
AcDbCircle
 10
4706.638398369558
 20
-2172.179643528412
 30
0.0
 40
25.25
100
AcDbArc
 50
78.57881400001635
 51
101.4211900000153
  0
ARC
  5
346CB
330
1F
100
AcDbEntity
  8
AM_0
100
AcDbCircle
 10
4706.638398369558
 20
-2190.179643528411
 30
0.0
 40
25.25
100
AcDbArc
 50
78.57881400001635
 51
101.4211900000153
  0
ARC
  5
346CC
330
1F
100
AcDbEntity
  8
AM_0
100
AcDbCircle
 10
4629.018640685487
 20
-2285.899643528411
 30
0.0
 40
1.4299998
100
AcDbArc
 50
180.0
 51
270.0
  0
ARC
  5
346CD
330
1F
100
AcDbEntity
  8
AM_0
100
AcDbCircle
 10
4629.018640685487
 20
-2285.899643528411
 30
0.0
 40
4.29
100
AcDbArc
 50
180.0
 51
270.0
  0
ARC
  5
346CE
330
1F
100
AcDbEntity
  8
AM_0
100
AcDbCircle
 10
4636.740630685487
 20
-2285.899643528411
 30
0.0
 40
1.4299998
100
AcDbArc
 50
270.0
 51
0.0
  0
ARC
  5
346CF
330
1F
100
AcDbEntity
  8
AM_0
100
AcDbCircle
 10
4636.740630685487
 20
-2285.899643528411
 30
0.0
 40
4.29
100
AcDbArc
 50
270.0
 51
0.0
  0
ARC
  5
346D0
330
1F
100
AcDbEntity
  8
AM_0
100
AcDbCircle
 10
4629.018640685487
 20
-2240.139633528411
 30
0.0
 40
1.4299998
100
AcDbArc
 50
90.0
 51
180.0
  0
ARC
  5
346D1
330
1F
100
AcDbEntity
  8
AM_0
100
AcDbCircle
 10
4629.018640685487
 20
-2240.139633528411
 30
0.0
 40
4.29
100
AcDbArc
 50
90.0
 51
180.0
  0
ARC
  5
346D2
330
1F
100
AcDbEntity
  8
AM_0
100
AcDbCircle
 10
4636.740630685487
 20
-2240.139633528411
 30
0.0
 40
1.4299998
100
AcDbArc
 50
0.0
 51
90.0
  0
ARC
  5
346D3
330
1F
100
AcDbEntity
  8
AM_0
100
AcDbCircle
 10
4636.740630685487
 20
-2240.139633528411
 30
0.0
 40
4.29
100
AcDbArc
 50
0.0
 51
90.0
  0
ARC
  5
346D4
330
1F
100
AcDbEntity
  8
AM_0
100
AcDbCircle
 10
4632.879640685486
 20
-2190.179643528411
 30
0.0
 40
25.25
100
AcDbArc
 50
78.57881400001635
 51
101.4211900000153
  0
ARC
  5
346D5
330
1F
100
AcDbEntity
  8
AM_0
100
AcDbCircle
 10
4698.638398369559
 20
-2167.929643528411
 30
0.0
 40
2.0
100
AcDbArc
 50
90.0
 51
180.0
  0
ARC
  5
346D6
330
1F
100
AcDbEntity
  8
AM_0
100
AcDbCircle
 10
4703.80844836956
 20
-2213.695813528412
 30
0.0
 40
1.75
100
AcDbArc
 50
270.0
 51
90.0
  0
ARC
  5
346D7
330
1F
100
AcDbEntity
  8
AM_0
100
AcDbCircle
 10
4702.346348369558
 20
-2213.714193528411
 30
0.0
 40
1.25
100
AcDbArc
 50
291.7964699999844
 51
129.510950000015
  0
ARC
  5
346D8
330
1F
100
AcDbEntity
  8
AM_0
100
AcDbCircle
 10
4702.346348369558
 20
-2213.714193528411
 30
0.0
 40
2.25
100
AcDbArc
 50
294.0546500000008
 51
125.716100000007
  0
ARC
  5
346D9
330
1F
100
AcDbEntity
  8
AM_0
100
AcDbCircle
 10
4701.37228836956
 20
-2218.923903528411
 30
0.0
 40
2.75
100
AcDbArc
 50
120.6540700000096
 51
169.4920099999978
  0
ARC
  5
346DA
330
1F
100
AcDbEntity
  8
AM_0
100
AcDbCircle
 10
4701.37228836956
 20
-2218.923903528411
 30
0.0
 40
1.75
100
AcDbArc
 50
120.6539499999965
 51
187.7843400000131
  0
POLYLINE
  5
346E2
330
1F
100
AcDbEntity
  8
AM_0
100
AcDb2dPolyline
 66
     1
 10
0.0
 20
0.0
 30
0.0
  0
VERTEX
  5
346E3
330
346E2
100
AcDbEntity
  8
AM_0
100
AcDbVertex
100
AcDb2dVertex
 10
4696.63839836956
 20
-2315.929623528411
 30
0.0
  0
VERTEX
  5
346E4
330
346E2
100
AcDbEntity
  8
AM_0
100
AcDbVertex
100
AcDb2dVertex
 10
4698.638398369559
 20
-2315.929623528411
 30
0.0
  0
SEQEND
  5
346E5
330
346E2
100
AcDbEntity
  8
AM_0
  0
POLYLINE
  5
346E6
330
1F
100
AcDbEntity
  8
AM_0
100
AcDb2dPolyline
 66
     1
 10
0.0
 20
0.0
 30
0.0
  0
VERTEX
  5
346E7
330
346E6
100
AcDbEntity
  8
AM_0
100
AcDbVertex
100
AcDb2dVertex
 10
4731.638398369558
 20
-2165.929643528412
 30
0.0
  0
VERTEX
  5
346E8
330
346E6
100
AcDbEntity
  8
AM_0
100
AcDbVertex
100
AcDb2dVertex
 10
4731.638398369558
 20
-2167.929643528411
 30
0.0
  0
VERTEX
  5
346E9
330
346E6
100
AcDbEntity
  8
AM_0
100
AcDbVertex
100
AcDb2dVertex
 10
4698.638398369559
 20
-2167.929643528411
 30
0.0
  0
SEQEND
  5
346EA
330
346E6
100
AcDbEntity
  8
AM_0
  0
DIMENSION
  5
346F8
330
1F
100
AcDbEntity
  8
AM_5
100
AcDbDimension
  2
*D6
 10
4530.089843816798
 20
-2128.659103528411
 30
0.0
 11
4535.089843757403
 21
-2126.059103528412
 31
0.0
 70
    32
  1
%%c<>
 71
     5
 42
9.999999881209078
  3
SYS$0
100
AcDbAlignedDimension
 13
4540.089843698008
 23
-2136.659103504413
 33
0.0
 14
4530.089843816798
 24
-2136.659103528411
 34
0.0
100
AcDbRotatedDimension
1001
ACAD_DSTYLE_DIMINSPECT
1070
   396
1000
100%
1070
   395
1000

1070
   394
1070
    33
1070
   393
1070
     0
  0
DIMENSION
  5
346F9
330
1F
100
AcDbEntity
  8
AM_5
100
AcDbDimension
  2
*D7
 10
4568.746201833983
 20
-2136.659103528411
 30
0.0
 11
4568.746201833984
 21
-2165.703103528411
 31
0.0
 70
   160
  1
ストローク<>
 71
     5
 42
18.0
  3
SYS$0
100
AcDbAlignedDimension
 13
4540.089843816797
 23
-2154.659103528411
 33
0.0
 14
4540.089843816797
 24
-2136.659103528411
 34
0.0
 50
90.0
100
AcDbRotatedDimension
1001
ACAD_DSTYLE_DIMINSPECT
1070
   396
1000
100%
1070
   395
1000

1070
   394
1070
    33
1070
   393
1070
     0
  0
LINE
  5
346FA
330
1F
100
AcDbEntity
  8
AM_7
 48
0.5
100
AcDbLine
 10
4439.388887092229
 20
-2196.663183528412
 30
0.0
 11
4464.888887092229
 21
-2196.663183528412
 31
0.0
1001
GENIUS_GENOBJ-N-CEN_13
1002
{
1000
OWNER
1000
GEN
1002
}
1001
GENIUS_GENODEF_13
1002
{
1000
HIER
1070
     0
1002
}
1002
{
1000
MANEDIT
1070
     0
1002
}
1002
{
1000
NOSEL
1070
     0
1002
}
1002
{
1000
BEHIND
1070
     0
1002
}
1002
{
1000
OTHER
1070
     0
1002
}
1002
{
1000
REACTOR
1002
}
1001
GENIUS_GENCEN_19
1002
{
1040
3.0
1002
}
  0
LINE
  5
346FB
330
1F
100
AcDbEntity
  8
AM_7
 48
0.5
100
AcDbLine
 10
4458.638887092229
 20
-2190.413183528411
 30
0.0
 11
4458.638887092229
 21
-2202.913183528412
 31
0.0
1001
GENIUS_GENODEF_13
1002
{
1000
HIER
1070
     0
1002
}
1002
{
1000
MANEDIT
1070
     0
1002
}
1002
{
1000
NOSEL
1070
     0
1002
}
1002
{
1000
BEHIND
1070
     0
1002
}
1002
{
1000
OTHER
1070
     0
1002
}
1002
{
1000
REACTOR
1002
}
1001
GENIUS_GENOBJ-N-CEN_13
1002
{
1000
OWNER
1000
GEN
1002
}
1001
GENIUS_GENCEN_19
1002
{
1040
3.0
1002
}
  0
LINE
  5
346FC
330
1F
100
AcDbEntity
  8
AM_7
 48
0.5
100
AcDbLine
 10
4445.638887092227
 20
-2190.413183528411
 30
0.0
 11
4445.638887092227
 21
-2202.913183528412
 31
0.0
1001
GENIUS_GENODEF_13
1002
{
1000
HIER
1070
     0
1002
}
1002
{
1000
MANEDIT
1070
     0
1002
}
1002
{
1000
NOSEL
1070
     0
1002
}
1002
{
1000
BEHIND
1070
     0
1002
}
1002
{
1000
OTHER
1070
     0
1002
}
1002
{
1000
REACTOR
1002
}
1001
GENIUS_GENOBJ-N-CEN_13
1002
{
1000
OWNER
1000
GEN
1002
}
1001
GENIUS_GENCEN_19
1002
{
1040
3.0
1002
}
  0
LINE
  5
346FD
330
1F
100
AcDbEntity
  8
AM_7
 48
0.5
100
AcDbLine
 10
4452.138887092229
 20
-2151.159103528411
 30
0.0
 11
4452.138887092229
 21
-2318.929623528411
 31
0.0
1001
GENIUS_GENOBJ-N-CEN_13
1002
{
1000
OWNER
1000
GEN
1002
}
1001
GENIUS_GENODEF_13
1002
{
1000
HIER
1070
     0
1002
}
1002
{
1000
MANEDIT
1070
     0
1002
}
1002
{
1000
NOSEL
1070
     0
1002
}
1002
{
1000
BEHIND
1070
     0
1002
}
1002
{
1000
OTHER
1070
     0
1002
}
1002
{
1000
REACTOR
1002
}
1001
GENIUS_GENCEN_19
1002
{
1040
3.0
1002
}
  0
LINE
  5
346FE
330
1F
100
AcDbEntity
  8
AM_7
 48
0.5
100
AcDbLine
 10
4439.388887092229
 20
-2309.929623528411
 30
0.0
 11
4464.888887092229
 21
-2309.929623528411
 31
0.0
1001
GENIUS_GENOBJ-N-CEN_13
1002
{
1000
OWNER
1000
GEN
1002
}
1001
GENIUS_GENODEF_13
1002
{
1000
HIER
1070
     0
1002
}
1002
{
1000
MANEDIT
1070
     0
1002
}
1002
{
1000
NOSEL
1070
     0
1002
}
1002
{
1000
BEHIND
1070
     0
1002
}
1002
{
1000
OTHER
1070
     0
1002
}
1002
{
1000
REACTOR
1002
}
1001
GENIUS_GENCEN_19
1002
{
1040
3.0
1002
}
  0
LINE
  5
346FF
330
1F
100
AcDbEntity
  8
AM_7
 48
0.5
100
AcDbLine
 10
4458.638887092229
 20
-2303.679623528411
 30
0.0
 11
4458.638887092229
 21
-2316.179623528412
 31
0.0
1001
GENIUS_GENODEF_13
1002
{
1000
HIER
1070
     0
1002
}
1002
{
1000
MANEDIT
1070
     0
1002
}
1002
{
1000
NOSEL
1070
     0
1002
}
1002
{
1000
BEHIND
1070
     0
1002
}
1002
{
1000
OTHER
1070
     0
1002
}
1002
{
1000
REACTOR
1002
}
1001
GENIUS_GENOBJ-N-CEN_13
1002
{
1000
OWNER
1000
GEN
1002
}
1001
GENIUS_GENCEN_19
1002
{
1040
3.0
1002
}
  0
LINE
  5
34700
330
1F
100
AcDbEntity
  8
AM_7
 48
0.5
100
AcDbLine
 10
4445.638887092227
 20
-2303.679623528411
 30
0.0
 11
4445.638887092227
 21
-2316.179623528412
 31
0.0
1001
GENIUS_GENODEF_13
1002
{
1000
HIER
1070
     0
1002
}
1002
{
1000
MANEDIT
1070
     0
1002
}
1002
{
1000
NOSEL
1070
     0
1002
}
1002
{
1000
BEHIND
1070
     0
1002
}
1002
{
1000
OTHER
1070
     0
1002
}
1002
{
1000
REACTOR
1002
}
1001
GENIUS_GENOBJ-N-CEN_13
1002
{
1000
OWNER
1000
GEN
1002
}
1001
GENIUS_GENCEN_19
1002
{
1040
3.0
1002
}
  0
DIMENSION
  5
34701
330
1F
100
AcDbEntity
  8
AM_5
100
AcDbDimension
  2
*D8
 10
4458.638887092229
 20
-2325.929623528411
 30
0.0
 11
4452.138887092229
 21
-2323.329623528412
 31
0.0
 70
    32
 71
     5
 42
13.0
  3
SYS$0
100
AcDbAlignedDimension
 13
4445.638887092227
 23
-2316.179623528412
 33
0.0
 14
4458.638887092229
 24
-2316.179623528412
 34
0.0
100
AcDbRotatedDimension
1001
ACAD_DSTYLE_DIMINSPECT
1070
   396
1000
100%
1070
   395
1000

1070
   394
1070
    33
1070
   393
1070
     0
  0
DIMENSION
  5
34702
330
1F
100
AcDbEntity
  8
AM_5
100
AcDbDimension
  2
*D9
 10
4525.089843816799
 20
-2325.929623528411
 30
0.0
 11
4521.343177150131
 21
-2323.329623528412
 31
0.0
 70
    32
 71
     5
 42
2.0
  3
SYS$0
100
AcDbAlignedDimension
 13
4527.089843816798
 23
-2315.929623528411
 33
0.0
 14
4525.089843816799
 24
-2315.929623528411
 34
0.0
100
AcDbRotatedDimension
1001
ACAD_DSTYLE_DIMINSPECT
1070
   396
1000
100%
1070
   395
1000

1070
   394
1070
    33
1070
   393
1070
     0
  0
DIMENSION
  5
34703
330
1F
100
AcDbEntity
  8
AM_5
100
AcDbDimension
  2
*D10
 10
4481.434297906758
 20
-2196.663183528412
 30
0.0
 11
4478.834297906757
 21
-2175.911143528411
 31
0.0
 70
    32
  1
150
 71
     5
 42
41.50408000000015
  3
SYS$0
100
AcDbAlignedDimension
 13
4463.138887092229
 23
-2155.159103528411
 33
0.0
 14
4464.888887092229
 24
-2196.663183528412
 34
0.0
 50
90.0
100
AcDbRotatedDimension
1001
ACAD_DSTYLE_DIMINSPECT
1070
   396
1000
100%
1070
   395
1000

1070
   394
1070
    33
1070
   393
1070
     0
  0
DIMENSION
  5
34704
330
1F
100
AcDbEntity
  8
AM_5
100
AcDbDimension
  2
*D11
 10
4481.434297906758
 20
-2309.929623528411
 30
0.0
 11
4478.834297906757
 21
-2253.296403528411
 31
0.0
 70
    32
  1
144
 71
     5
 42
113.2664399999999
  3
SYS$0
100
AcDbAlignedDimension
 13
4464.888887092229
 23
-2196.663183528412
 33
0.0
 14
4464.888887092229
 24
-2309.929623528411
 34
0.0
 50
90.0
100
AcDbRotatedDimension
1001
ACAD_DSTYLE_DIMINSPECT
1070
   396
1000
100%
1070
   395
1000

1070
   394
1070
    33
1070
   393
1070
     0
  0
DIMENSION
  5
34705
330
1F
100
AcDbEntity
  8
AM_5
100
AcDbDimension
  2
*D12
 10
4491.434297906756
 20
-2315.929623528411
 30
0.0
 11
4488.834297906757
 21
-2235.544363528411
 31
0.0
 70
    32
  1
300
 71
     5
 42
160.77052
  3
SYS$0
100
AcDbAlignedDimension
 13
4463.138887092229
 23
-2155.159103528411
 33
0.0
 14
4463.138887092229
 24
-2315.929623528411
 34
0.0
 50
90.0
100
AcDbRotatedDimension
1001
ACAD_DSTYLE_DIMINSPECT
1070
   396
1000
100%
1070
   395
1000

1070
   394
1070
    33
1070
   393
1070
     0
  0
CIRCLE
  5
34709
330
1F
100
AcDbEntity
  8
AM_0
100
AcDbCircle
 10
4632.879640685486
 20
-2115.919878985908
 30
0.0
 40
5.0
  0
CIRCLE
  5
3470A
330
1F
100
AcDbEntity
  8
AM_0
100
AcDbCircle
 10
4626.379640685487
 20
-2096.919878985909
 30
0.0
 40
3.25
  0
CIRCLE
  5
3470B
330
1F
100
AcDbEntity
  8
AM_0
100
AcDbCircle
 10
4626.379640685487
 20
-2096.919878985909
 30
0.0
 40
2.0
  0
CIRCLE
  5
3470C
330
1F
100
AcDbEntity
  8
AM_0
100
AcDbCircle
 10
4639.379640685487
 20
-2096.919878985909
 30
0.0
 40
3.25
  0
CIRCLE
  5
3470D
330
1F
100
AcDbEntity
  8
AM_0
100
AcDbCircle
 10
4639.379640685487
 20
-2096.919878985909
 30
0.0
 40
2.0
  0
CIRCLE
  5
3470E
330
1F
100
AcDbEntity
  8
AM_0
100
AcDbCircle
 10
4632.879640685486
 20
-2115.919878985908
 30
0.0
 40
5.25
  0
DIMENSION
  5
34716
330
1F
100
AcDbEntity
  8
AM_5
100
AcDbDimension
  2
*D13
 10
4651.879640685487
 20
-2115.919878985908
 30
0.0
 11
4649.279640685487
 21
-2120.919878985908
 31
0.0
 70
    32
 71
     5
 42
10.0
  3
SYS$0
100
AcDbAlignedDimension
 13
4643.879640685486
 23
-2125.919878985909
 33
0.0
 14
4640.879640685487
 24
-2115.919878985908
 34
0.0
 50
90.0
100
AcDbRotatedDimension
1001
ACAD_DSTYLE_DIMINSPECT
1070
   396
1000
100%
1070
   395
1000

1070
   394
1070
    33
1070
   393
1070
     0
  0
DIMENSION
  5
34717
330
1F
100
AcDbEntity
  8
AM_5
100
AcDbDimension
  2
*D14
 10
4659.879640685487
 20
-2096.919878985909
 30
0.0
 11
4657.279640685486
 21
-2111.419878985908
 31
0.0
 70
    32
 71
     5
 42
29.0
  3
SYS$0
100
AcDbAlignedDimension
 13
4643.879640685486
 23
-2125.919878985909
 33
0.0
 14
4645.629640685487
 24
-2096.919878985909
 34
0.0
 50
90.0
100
AcDbRotatedDimension
1001
ACAD_DSTYLE_DIMINSPECT
1070
   396
1000
100%
1070
   395
1000

1070
   394
1070
    33
1070
   393
1070
     0
  0
DIMENSION
  5
34718
330
1F
100
AcDbEntity
  8
AM_5
100
AcDbDimension
  2
*D15
 10
4667.879640685486
 20
-2090.919878985908
 30
0.0
 11
4665.279640685486
 21
-2108.419878985908
 31
0.0
 70
    32
 71
     5
 42
35.0
  3
SYS$0
100
AcDbAlignedDimension
 13
4643.879640685486
 23
-2125.919878985909
 33
0.0
 14
4643.879640685486
 24
-2090.919878985908
 34
0.0
 50
90.0
100
AcDbRotatedDimension
1001
ACAD_DSTYLE_DIMINSPECT
1070
   396
1000
100%
1070
   395
1000

1070
   394
1070
    33
1070
   393
1070
     0
  0
DIMENSION
  5
34719
330
1F
100
AcDbEntity
  8
AM_5
100
AcDbDimension
  2
*D16
 10
4639.379640685487
 20
-2082.919878985908
 30
0.0
 11
4632.879640685486
 21
-2080.319878985909
 31
0.0
 70
    32
 71
     5
 42
13.0
  3
SYS$0
100
AcDbAlignedDimension
 13
4626.379640685487
 23
-2090.669878985909
 33
0.0
 14
4639.379640685487
 24
-2090.669878985909
 34
0.0
100
AcDbRotatedDimension
1001
ACAD_DSTYLE_DIMINSPECT
1070
   396
1000
100%
1070
   395
1000

1070
   394
1070
    33
1070
   393
1070
     0
  0
LINE
  5
34720
330
1F
100
AcDbEntity
  8
AM_7
 48
0.5
100
AcDbLine
 10
4620.129640685487
 20
-2096.919878985909
 30
0.0
 11
4645.629640685487
 21
-2096.919878985909
 31
0.0
1001
GENIUS_GENODEF_13
1002
{
1000
HIER
1070
     0
1002
}
1002
{
1000
MANEDIT
1070
     0
1002
}
1002
{
1000
NOSEL
1070
     0
1002
}
1002
{
1000
BEHIND
1070
     0
1002
}
1002
{
1000
OTHER
1070
     0
1002
}
1002
{
1000
REACTOR
1002
}
1001
GENIUS_GENOBJ-N-CEN_13
1002
{
1000
OWNER
1000
GEN
1002
}
1001
GENIUS_GENCEN_19
1002
{
1040
3.0
1002
}
  0
LINE
  5
34721
330
1F
100
AcDbEntity
  8
AM_7
 48
0.5
100
AcDbLine
 10
4639.379640685487
 20
-2090.669878985909
 30
0.0
 11
4639.379640685487
 21
-2103.169878985909
 31
0.0
1001
GENIUS_GENODEF_13
1002
{
1000
HIER
1070
     0
1002
}
1002
{
1000
MANEDIT
1070
     0
1002
}
1002
{
1000
NOSEL
1070
     0
1002
}
1002
{
1000
BEHIND
1070
     0
1002
}
1002
{
1000
OTHER
1070
     0
1002
}
1002
{
1000
REACTOR
1002
}
1001
GENIUS_GENOBJ-N-CEN_13
1002
{
1000
OWNER
1000
GEN
1002
}
1001
GENIUS_GENCEN_19
1002
{
1040
3.0
1002
}
  0
LINE
  5
34722
330
1F
100
AcDbEntity
  8
AM_7
 48
0.5
100
AcDbLine
 10
4626.379640685487
 20
-2090.669878985909
 30
0.0
 11
4626.379640685487
 21
-2103.169878985909
 31
0.0
1001
GENIUS_GENODEF_13
1002
{
1000
HIER
1070
     0
1002
}
1002
{
1000
MANEDIT
1070
     0
1002
}
1002
{
1000
NOSEL
1070
     0
1002
}
1002
{
1000
BEHIND
1070
     0
1002
}
1002
{
1000
OTHER
1070
     0
1002
}
1002
{
1000
REACTOR
1002
}
1001
GENIUS_GENOBJ-N-CEN_13
1002
{
1000
OWNER
1000
GEN
1002
}
1001
GENIUS_GENCEN_19
1002
{
1040
3.0
1002
}
  0
LINE
  5
34723
330
1F
100
AcDbEntity
  8
AM_7
 48
0.5
100
AcDbLine
 10
4632.879640685486
 20
-2087.919878985909
 30
0.0
 11
4632.879640685486
 21
-2128.919878985908
 31
0.0
1001
GENIUS_GENOBJ-N-CEN_13
1002
{
1000
OWNER
1000
GEN
1002
}
1001
GENIUS_GENODEF_13
1002
{
1000
HIER
1070
     0
1002
}
1002
{
1000
MANEDIT
1070
     0
1002
}
1002
{
1000
NOSEL
1070
     0
1002
}
1002
{
1000
BEHIND
1070
     0
1002
}
1002
{
1000
OTHER
1070
     0
1002
}
1002
{
1000
REACTOR
1002
}
1001
GENIUS_GENCEN_19
1002
{
1040
3.0
1002
}
  0
LINE
  5
34724
330
1F
100
AcDbEntity
  8
AM_7
 48
0.5
100
AcDbLine
 10
4624.629640685487
 20
-2115.919878985908
 30
0.0
 11
4641.129640685487
 21
-2115.919878985908
 31
0.0
1001
GENIUS_GENODEF_13
1002
{
1000
HIER
1070
     0
1002
}
1002
{
1000
MANEDIT
1070
     0
1002
}
1002
{
1000
NOSEL
1070
     0
1002
}
1002
{
1000
BEHIND
1070
     0
1002
}
1002
{
1000
OTHER
1070
     0
1002
}
1002
{
1000
REACTOR
1002
}
1001
GENIUS_GENOBJ-N-CEN_13
1002
{
1000
OWNER
1000
GEN
1002
}
1001
GENIUS_GENCEN_19
1002
{
1040
3.0
1002
}
  0
LINE
  5
34725
330
1F
100
AcDbEntity
  8
AM_7
 48
0.5
100
AcDbLine
 10
4632.879640685486
 20
-2161.929643528411
 30
0.0
 11
4632.879640685486
 21
-2318.929623528411
 31
0.0
1001
GENIUS_GENOBJ-N-CEN_13
1002
{
1000
OWNER
1000
GEN
1002
}
1001
GENIUS_GENODEF_13
1002
{
1000
HIER
1070
     0
1002
}
1002
{
1000
MANEDIT
1070
     0
1002
}
1002
{
1000
NOSEL
1070
     0
1002
}
1002
{
1000
BEHIND
1070
     0
1002
}
1002
{
1000
OTHER
1070
     0
1002
}
1002
{
1000
REACTOR
1002
}
1001
GENIUS_GENCEN_19
1002
{
1040
3.0
1002
}
  0
LINE
  5
34726
330
1F
100
AcDbEntity
  8
AM_7
 48
0.5
100
AcDbLine
 10
4620.129640685487
 20
-2309.929623528411
 30
0.0
 11
4645.629640685487
 21
-2309.929623528411
 31
0.0
1001
GENIUS_GENOBJ-N-CEN_13
1002
{
1000
OWNER
1000
GEN
1002
}
1001
GENIUS_GENODEF_13
1002
{
1000
HIER
1070
     0
1002
}
1002
{
1000
MANEDIT
1070
     0
1002
}
1002
{
1000
NOSEL
1070
     0
1002
}
1002
{
1000
BEHIND
1070
     0
1002
}
1002
{
1000
OTHER
1070
     0
1002
}
1002
{
1000
REACTOR
1002
}
1001
GENIUS_GENCEN_19
1002
{
1040
3.0
1002
}
  0
LINE
  5
34727
330
1F
100
AcDbEntity
  8
AM_7
 48
0.5
100
AcDbLine
 10
4639.379640685487
 20
-2303.679623528411
 30
0.0
 11
4639.379640685487
 21
-2316.179623528412
 31
0.0
1001
GENIUS_GENODEF_13
1002
{
1000
HIER
1070
     0
1002
}
1002
{
1000
MANEDIT
1070
     0
1002
}
1002
{
1000
NOSEL
1070
     0
1002
}
1002
{
1000
BEHIND
1070
     0
1002
}
1002
{
1000
OTHER
1070
     0
1002
}
1002
{
1000
REACTOR
1002
}
1001
GENIUS_GENOBJ-N-CEN_13
1002
{
1000
OWNER
1000
GEN
1002
}
1001
GENIUS_GENCEN_19
1002
{
1040
3.0
1002
}
  0
LINE
  5
34728
330
1F
100
AcDbEntity
  8
AM_7
 48
0.5
100
AcDbLine
 10
4626.379640685487
 20
-2303.679623528411
 30
0.0
 11
4626.379640685487
 21
-2316.179623528412
 31
0.0
1001
GENIUS_GENODEF_13
1002
{
1000
HIER
1070
     0
1002
}
1002
{
1000
MANEDIT
1070
     0
1002
}
1002
{
1000
NOSEL
1070
     0
1002
}
1002
{
1000
BEHIND
1070
     0
1002
}
1002
{
1000
OTHER
1070
     0
1002
}
1002
{
1000
REACTOR
1002
}
1001
GENIUS_GENOBJ-N-CEN_13
1002
{
1000
OWNER
1000
GEN
1002
}
1001
GENIUS_GENCEN_19
1002
{
1040
3.0
1002
}
  0
DIMENSION
  5
34729
330
1F
100
AcDbEntity
  8
AM_5
100
AcDbDimension
  2
*D17
 10
4639.379640685487
 20
-2325.929623528411
 30
0.0
 11
4632.879640685486
 21
-2323.329623528412
 31
0.0
 70
    32
 71
     5
 42
13.0
  3
SYS$0
100
AcDbAlignedDimension
 13
4626.379640685487
 23
-2316.179623528412
 33
0.0
 14
4639.379640685487
 24
-2316.179623528412
 34
0.0
100
AcDbRotatedDimension
1001
ACAD_DSTYLE_DIMINSPECT
1070
   396
1000
100%
1070
   395
1000

1070
   394
1070
    33
1070
   393
1070
     0
  0
DIMENSION
  5
3472B
330
1F
100
AcDbEntity
  8
AM_5
100
AcDbDimension
  2
*D18
 10
4491.434297906756
 20
-2154.159103528412
 30
0.0
 11
4488.834297906757
 21
-2150.892436861744
 31
0.0
 70
    32
 71
     5
 42
-1.0
  3
SYS$0
100
AcDbAlignedDimension
 13
4463.138887092229
 23
-2155.159103528411
 33
0.0
 14
4463.138887092229
 24
-2154.159103528412
 34
0.0
 50
90.0
100
AcDbRotatedDimension
1001
ACAD_DSTYLE_DIMINSPECT
1070
   396
1000
100%
1070
   395
1000

1070
   394
1070
    33
1070
   393
1070
     0
  0
DIMENSION
  5
3472C
330
1F
100
AcDbEntity
  8
AM_5
100
AcDbDimension
  2
*D19
 10
4655.879641685487
 20
-2165.929643528412
 30
0.0
 11
4653.279641685488
 21
-2237.929633528411
 31
0.0
 70
    32
 71
     5
 42
143.99998
  3
SYS$0
100
AcDbAlignedDimension
 13
4645.629640685487
 23
-2309.929623528411
 33
0.0
 14
4643.879640685486
 24
-2165.929643528412
 34
0.0
 50
90.0
100
AcDbRotatedDimension
1001
ACAD_DSTYLE_DIMINSPECT
1070
   396
1000
100%
1070
   395
1000

1070
   394
1070
    33
1070
   393
1070
     0
  0
DIMENSION
  5
3472D
330
1F
100
AcDbEntity
  8
AM_5
100
AcDbDimension
  2
*D20
 10
4665.879641685488
 20
-2165.929643528412
 30
0.0
 11
4663.279641685487
 21
-2240.929633528411
 31
0.0
 70
    32
 71
     5
 42
149.99998
  3
SYS$0
100
AcDbAlignedDimension
 13
4643.879640685486
 23
-2315.929623528411
 33
0.0
 14
4643.879640685486
 24
-2165.929643528412
 34
0.0
 50
90.0
100
AcDbRotatedDimension
1001
ACAD_DSTYLE_DIMINSPECT
1070
   396
1000
100%
1070
   395
1000

1070
   394
1070
    33
1070
   393
1070
     0
  0
ARC
  5
3472E
330
1F
100
AcDbEntity
  8
AM_0
100
AcDbCircle
 10
4632.879640685486
 20
-2190.179643528411
 30
0.0
 40
25.25
100
AcDbArc
 50
78.57881400001635
 51
101.4211900000153
  0
DIMENSION
  5
3472F
330
1F
100
AcDbEntity
  8
AM_5
100
AcDbDimension
  2
*D21
 10
4696.63839836956
 20
-2325.929623528411
 30
0.0
 11
4692.891731702892
 21
-2323.329623528412
 31
0.0
 70
    32
 71
     5
 42
2.0
  3
SYS$0
100
AcDbAlignedDimension
 13
4698.638398369559
 23
-2315.929623528411
 33
0.0
 14
4696.63839836956
 24
-2315.929623528411
 34
0.0
100
AcDbRotatedDimension
1001
ACAD_DSTYLE_DIMINSPECT
1070
   396
1000
100%
1070
   395
1000

1070
   394
1070
    33
1070
   393
1070
     0
  0
DIMENSION
  5
34730
330
1F
100
AcDbEntity
  8
AM_5
100
AcDbDimension
  2
*D22
 10
4665.879641685484
 20
-2165.929643528412
 30
0.0
 11
4665.879641685488
 21
-2161.162976861744
 31
0.0
 70
   160
 71
     5
 42
-1.0
  3
SYS$0
100
AcDbAlignedDimension
 13
4643.879640685486
 23
-2164.929643528411
 33
0.0
 14
4643.879640685486
 24
-2165.929643528412
 34
0.0
 50
90.0
100
AcDbRotatedDimension
1001
ACAD_DSTYLE_DIMINSPECT
1070
   396
1000
100%
1070
   395
1000

1070
   394
1070
    33
1070
   393
1070
     0
  0
DIMENSION
  5
34736
330
1F
100
AcDbEntity
  8
AM_5
100
AcDbDimension
  2
*D23
 10
4463.138887092229
 20
-2333.929623528411
 30
0.0
 11
4452.138887092229
 21
-2331.329623528412
 31
0.0
 70
    32
 71
     5
 42
22.0
  3
SYS$0
100
AcDbAlignedDimension
 13
4441.138887092229
 23
-2315.929623528411
 33
0.0
 14
4463.138887092229
 24
-2315.929623528411
 34
0.0
100
AcDbRotatedDimension
1001
ACAD_DSTYLE_DIMINSPECT
1070
   396
1000
100%
1070
   395
1000

1070
   394
1070
    33
1070
   393
1070
     0
  0
DIMENSION
  5
34737
330
1F
100
AcDbEntity
  8
AM_5
100
AcDbDimension
  2
*D24
 10
4643.879640685486
 20
-2333.929623528411
 30
0.0
 11
4632.879640685486
 21
-2331.329623528412
 31
0.0
 70
    32
 71
     5
 42
22.0
  3
SYS$0
100
AcDbAlignedDimension
 13
4621.879640685487
 23
-2315.929623528411
 33
0.0
 14
4643.879640685486
 24
-2315.929623528411
 34
0.0
100
AcDbRotatedDimension
1001
ACAD_DSTYLE_DIMINSPECT
1070
   396
1000
100%
1070
   395
1000

1070
   394
1070
    33
1070
   393
1070
     0
  0
DIMENSION
  5
34738
330
1F
100
AcDbEntity
  8
AM_5
100
AcDbDimension
  2
*D25
 10
4643.879640685486
 20
-2074.919878985908
 30
0.0
 11
4632.879640685486
 21
-2072.319878985908
 31
0.0
 70
    32
 71
     5
 42
22.0
  3
SYS$0
100
AcDbAlignedDimension
 13
4621.879640685487
 23
-2090.919878985908
 33
0.0
 14
4643.879640685486
 24
-2090.919878985908
 34
0.0
100
AcDbRotatedDimension
1001
ACAD_DSTYLE_DIMINSPECT
1070
   396
1000
100%
1070
   395
1000

1070
   394
1070
    33
1070
   393
1070
     0
  0
DIMENSION
  5
3473D
330
1F
100
AcDbEntity
  8
AM_5
100
AcDbDimension
  2
*D26
 10
4701.638396760475
 20
-2138.929643528411
 30
0.0
 11
4706.638396701078
 21
-2136.329643528412
 31
0.0
 70
    32
  1
%%c<>
 71
     5
 42
9.999999881209078
  3
SYS$0
100
AcDbAlignedDimension
 13
4711.638396641684
 23
-2147.429643829481
 33
0.0
 14
4701.638396760475
 24
-2147.429643853479
 34
0.0
100
AcDbRotatedDimension
1001
ACAD_DSTYLE_DIMINSPECT
1070
   396
1000
100%
1070
   395
1000

1070
   394
1070
    33
1070
   393
1070
     0
  0
LINE
  5
38BBD
330
1F
100
AcDbEntity
  8
AM_3
100
AcDbLine
 10
4463.138887092229
 20
-2157.159103528412
 30
0.0
 11
4441.138887092227
 21
-2157.159103528412
 31
0.0
  0
LINE
  5
38BBF
330
1F
100
AcDbEntity
  8
AM_0
100
AcDbLine
 10
4463.138887092229
 20
-2181.962413528411
 30
0.0
 11
4463.138887092229
 21
-2155.159103528411
 31
0.0
  0
LINE
  5
38BC0
330
1F
100
AcDbEntity
  8
AM_0
100
AcDbLine
 10
4463.138887092229
 20
-2155.159103528411
 30
0.0
 11
4441.138887092229
 21
-2155.159103528411
 31
0.0
  0
LINE
  5
38BC1
330
1F
100
AcDbEntity
  8
AM_0
100
AcDbLine
 10
4441.138887092229
 20
-2155.159103528411
 30
0.0
 11
4441.138887092229
 21
-2180.015273528411
 31
0.0
  0
LINE
  5
38BCB
330
1F
100
AcDbEntity
  8
AM_3
100
AcDbLine
 10
4643.879640685486
 20
-2167.929643528412
 30
0.0
 11
4621.879640685487
 21
-2167.929643528411
 31
0.0
  0
LINE
  5
38BCD
330
1F
100
AcDbEntity
  8
AM_0
100
AcDbLine
 10
4621.879640685487
 20
-2315.929623528411
 30
0.0
 11
4643.879640685486
 21
-2315.929623528411
 31
0.0
  0
LINE
  5
38BCE
330
1F
100
AcDbEntity
  8
AM_0
100
AcDbLine
 10
4643.879640685486
 20
-2315.929623528411
 30
0.0
 11
4643.879640685486
 21
-2165.929643528412
 31
0.0
  0
LINE
  5
38BCF
330
1F
100
AcDbEntity
  8
AM_0
100
AcDbLine
 10
4643.879640685486
 20
-2165.929643528412
 30
0.0
 11
4621.879640685487
 21
-2165.929643528412
 31
0.0
  0
LINE
  5
38BD0
330
1F
100
AcDbEntity
  8
AM_0
100
AcDbLine
 10
4621.879640685487
 20
-2165.929643528412
 30
0.0
 11
4621.879640685487
 21
-2315.929623528411
 31
0.0
  0
LINE
  5
38BD4
330
1F
100
AcDbEntity
  8
AM_0
100
AcDbLine
 10
4643.879640685486
 20
-2090.919878985908
 30
0.0
 11
4621.879640685487
 21
-2090.919878985908
 31
0.0
  0
LINE
  5
38BD5
330
1F
100
AcDbEntity
  8
AM_0
100
AcDbLine
 10
4621.879640685487
 20
-2090.919878985908
 30
0.0
 11
4621.879640685487
 21
-2125.919878985909
 31
0.0
  0
LINE
  5
38BD6
330
1F
100
AcDbEntity
  8
AM_0
100
AcDbLine
 10
4621.879640685487
 20
-2125.919878985909
 30
0.0
 11
4643.879640685486
 21
-2125.919878985909
 31
0.0
  0
LINE
  5
38BD7
330
1F
100
AcDbEntity
  8
AM_0
100
AcDbLine
 10
4643.879640685486
 20
-2125.919878985909
 30
0.0
 11
4643.879640685486
 21
-2090.919878985908
 31
0.0
  0
LINE
  5
38BDD
330
1F
100
AcDbEntity
  8
AM_3
100
AcDbLine
 10
4621.879640685487
 20
-2123.919878985908
 30
0.0
 11
4643.879640685486
 21
-2123.919878985908
 31
0.0
  0
DIMENSION
  5
38CDC
330
1F
100
AcDbEntity
  8
AM_5
100
AcDbDimension
  2
*D27
 10
4637.297821482545
 20
-2099.415581052717
 30
0.0
 11
4660.325756256415
 21
-2086.959242167083
 31
0.0
 70
   163
  1
4-\U+22054×\U+22056.5サラ\P
 71
     5
 42
6.500000000000683
  3
SYS$3
100
AcDbDiametricDimension
 15
4641.461459888431
 25
-2094.424176919105
 35
0.0
 40
0.0
1001
ACAD
1000
DSTYLE
1002
{
1070
   172
1070
     1
1070
   342
1005
32629
1002
}
  0
CIRCLE
  5
38D5E
330
1F
100
AcDbEntity
  8
AM_0
100
AcDbCircle
 10
4452.138887092229
 20
-2105.149338985908
 30
0.0
 40
5.0
  0
CIRCLE
  5
38D5F
330
1F
100
AcDbEntity
  8
AM_0
100
AcDbCircle
 10
4445.638887092227
 20
-2086.149338985908
 30
0.0
 40
3.25
  0
CIRCLE
  5
38D60
330
1F
100
AcDbEntity
  8
AM_0
100
AcDbCircle
 10
4445.638887092227
 20
-2086.149338985908
 30
0.0
 40
2.0
  0
CIRCLE
  5
38D61
330
1F
100
AcDbEntity
  8
AM_0
100
AcDbCircle
 10
4458.638887092229
 20
-2086.149338985908
 30
0.0
 40
3.25
  0
CIRCLE
  5
38D62
330
1F
100
AcDbEntity
  8
AM_0
100
AcDbCircle
 10
4458.638887092229
 20
-2086.149338985908
 30
0.0
 40
2.0
  0
CIRCLE
  5
38D63
330
1F
100
AcDbEntity
  8
AM_0
100
AcDbCircle
 10
4452.138887092229
 20
-2105.149338985908
 30
0.0
 40
5.25
  0
LINE
  5
38D64
330
1F
100
AcDbEntity
  8
AM_0
100
AcDbLine
 10
4463.138887092229
 20
-2080.149338985908
 30
0.0
 11
4441.138887092229
 21
-2080.149338985908
 31
0.0
  0
LINE
  5
38D65
330
1F
100
AcDbEntity
  8
AM_0
100
AcDbLine
 10
4441.138887092229
 20
-2080.149338985908
 30
0.0
 11
4441.138887092229
 21
-2115.149338985908
 31
0.0
  0
LINE
  5
38D66
330
1F
100
AcDbEntity
  8
AM_0
100
AcDbLine
 10
4441.138887092229
 20
-2115.149338985908
 30
0.0
 11
4463.138887092229
 21
-2115.149338985908
 31
0.0
  0
LINE
  5
38D67
330
1F
100
AcDbEntity
  8
AM_3
100
AcDbLine
 10
4441.138887092229
 20
-2113.149338985909
 30
0.0
 11
4463.138887092229
 21
-2113.149338985909
 31
0.0
  0
LINE
  5
38D68
330
1F
100
AcDbEntity
  8
AM_0
100
AcDbLine
 10
4463.138887092229
 20
-2115.149338985908
 30
0.0
 11
4463.138887092229
 21
-2080.149338985908
 31
0.0
  0
DIMENSION
  5
38D69
330
1F
100
AcDbEntity
  8
AM_5
100
AcDbDimension
  2
*D29
 10
4471.138887092229
 20
-2105.149338985908
 30
0.0
 11
4468.538887092228
 21
-2110.149338985908
 31
0.0
 70
    32
 71
     5
 42
10.0
  3
SYS$0
100
AcDbAlignedDimension
 13
4463.138887092229
 23
-2115.149338985908
 33
0.0
 14
4460.138887092229
 24
-2105.149338985908
 34
0.0
 50
90.0
100
AcDbRotatedDimension
1001
ACAD_DSTYLE_DIMINSPECT
1070
   396
1000
100%
1070
   395
1000

1070
   394
1070
    33
1070
   393
1070
     0
  0
DIMENSION
  5
38D6A
330
1F
100
AcDbEntity
  8
AM_5
100
AcDbDimension
  2
*D30
 10
4479.138887092227
 20
-2086.149338985908
 30
0.0
 11
4476.53888709223
 21
-2100.649338985908
 31
0.0
 70
    32
 71
     5
 42
29.0
  3
SYS$0
100
AcDbAlignedDimension
 13
4463.138887092229
 23
-2115.149338985908
 33
0.0
 14
4464.888887092229
 24
-2086.149338985908
 34
0.0
 50
90.0
100
AcDbRotatedDimension
1001
ACAD_DSTYLE_DIMINSPECT
1070
   396
1000
100%
1070
   395
1000

1070
   394
1070
    33
1070
   393
1070
     0
  0
DIMENSION
  5
38D6B
330
1F
100
AcDbEntity
  8
AM_5
100
AcDbDimension
  2
*D31
 10
4487.138887092229
 20
-2080.149338985908
 30
0.0
 11
4484.53888709223
 21
-2097.649338985908
 31
0.0
 70
    32
 71
     5
 42
35.0
  3
SYS$0
100
AcDbAlignedDimension
 13
4463.138887092229
 23
-2115.149338985908
 33
0.0
 14
4463.138887092229
 24
-2080.149338985908
 34
0.0
 50
90.0
100
AcDbRotatedDimension
1001
ACAD_DSTYLE_DIMINSPECT
1070
   396
1000
100%
1070
   395
1000

1070
   394
1070
    33
1070
   393
1070
     0
  0
DIMENSION
  5
38D6C
330
1F
100
AcDbEntity
  8
AM_5
100
AcDbDimension
  2
*D32
 10
4458.638887092229
 20
-2072.149338985909
 30
0.0
 11
4452.138887092229
 21
-2069.549338985908
 31
0.0
 70
    32
 71
     5
 42
13.0
  3
SYS$0
100
AcDbAlignedDimension
 13
4445.638887092227
 23
-2079.899338985908
 33
0.0
 14
4458.638887092229
 24
-2079.899338985908
 34
0.0
100
AcDbRotatedDimension
1001
ACAD_DSTYLE_DIMINSPECT
1070
   396
1000
100%
1070
   395
1000

1070
   394
1070
    33
1070
   393
1070
     0
  0
LINE
  5
38D6D
330
1F
100
AcDbEntity
  8
AM_7
 48
0.5
100
AcDbLine
 10
4439.388887092229
 20
-2086.149338985908
 30
0.0
 11
4464.888887092229
 21
-2086.149338985908
 31
0.0
1001
GENIUS_GENODEF_13
1002
{
1000
HIER
1070
     0
1002
}
1002
{
1000
MANEDIT
1070
     0
1002
}
1002
{
1000
NOSEL
1070
     0
1002
}
1002
{
1000
BEHIND
1070
     0
1002
}
1002
{
1000
OTHER
1070
     0
1002
}
1002
{
1000
REACTOR
1002
}
1001
GENIUS_GENOBJ-N-CEN_13
1002
{
1000
OWNER
1000
GEN
1002
}
1001
GENIUS_GENCEN_19
1002
{
1040
3.0
1002
}
  0
LINE
  5
38D6E
330
1F
100
AcDbEntity
  8
AM_7
 48
0.5
100
AcDbLine
 10
4458.638887092229
 20
-2079.899338985908
 30
0.0
 11
4458.638887092229
 21
-2092.399338985909
 31
0.0
1001
GENIUS_GENODEF_13
1002
{
1000
HIER
1070
     0
1002
}
1002
{
1000
MANEDIT
1070
     0
1002
}
1002
{
1000
NOSEL
1070
     0
1002
}
1002
{
1000
BEHIND
1070
     0
1002
}
1002
{
1000
OTHER
1070
     0
1002
}
1002
{
1000
REACTOR
1002
}
1001
GENIUS_GENOBJ-N-CEN_13
1002
{
1000
OWNER
1000
GEN
1002
}
1001
GENIUS_GENCEN_19
1002
{
1040
3.0
1002
}
  0
LINE
  5
38D6F
330
1F
100
AcDbEntity
  8
AM_7
 48
0.5
100
AcDbLine
 10
4445.638887092227
 20
-2079.899338985908
 30
0.0
 11
4445.638887092227
 21
-2092.399338985909
 31
0.0
1001
GENIUS_GENODEF_13
1002
{
1000
HIER
1070
     0
1002
}
1002
{
1000
MANEDIT
1070
     0
1002
}
1002
{
1000
NOSEL
1070
     0
1002
}
1002
{
1000
BEHIND
1070
     0
1002
}
1002
{
1000
OTHER
1070
     0
1002
}
1002
{
1000
REACTOR
1002
}
1001
GENIUS_GENOBJ-N-CEN_13
1002
{
1000
OWNER
1000
GEN
1002
}
1001
GENIUS_GENCEN_19
1002
{
1040
3.0
1002
}
  0
LINE
  5
38D70
330
1F
100
AcDbEntity
  8
AM_7
 48
0.5
100
AcDbLine
 10
4452.138887092229
 20
-2077.149338985909
 30
0.0
 11
4452.138887092229
 21
-2118.149338985908
 31
0.0
1001
GENIUS_GENOBJ-N-CEN_13
1002
{
1000
OWNER
1000
GEN
1002
}
1001
GENIUS_GENODEF_13
1002
{
1000
HIER
1070
     0
1002
}
1002
{
1000
MANEDIT
1070
     0
1002
}
1002
{
1000
NOSEL
1070
     0
1002
}
1002
{
1000
BEHIND
1070
     0
1002
}
1002
{
1000
OTHER
1070
     0
1002
}
1002
{
1000
REACTOR
1002
}
1001
GENIUS_GENCEN_19
1002
{
1040
3.0
1002
}
  0
LINE
  5
38D71
330
1F
100
AcDbEntity
  8
AM_7
 48
0.5
100
AcDbLine
 10
4443.888887092229
 20
-2105.149338985908
 30
0.0
 11
4460.388887092229
 21
-2105.149338985908
 31
0.0
1001
GENIUS_GENODEF_13
1002
{
1000
HIER
1070
     0
1002
}
1002
{
1000
MANEDIT
1070
     0
1002
}
1002
{
1000
NOSEL
1070
     0
1002
}
1002
{
1000
BEHIND
1070
     0
1002
}
1002
{
1000
OTHER
1070
     0
1002
}
1002
{
1000
REACTOR
1002
}
1001
GENIUS_GENOBJ-N-CEN_13
1002
{
1000
OWNER
1000
GEN
1002
}
1001
GENIUS_GENCEN_19
1002
{
1040
3.0
1002
}
  0
DIMENSION
  5
38D72
330
1F
100
AcDbEntity
  8
AM_5
100
AcDbDimension
  2
*D33
 10
4463.138887092229
 20
-2064.149338985908
 30
0.0
 11
4452.138887092229
 21
-2061.549338985908
 31
0.0
 70
    32
 71
     5
 42
22.0
  3
SYS$0
100
AcDbAlignedDimension
 13
4441.138887092229
 23
-2080.149338985908
 33
0.0
 14
4463.138887092229
 24
-2080.149338985908
 34
0.0
100
AcDbRotatedDimension
1001
ACAD_DSTYLE_DIMINSPECT
1070
   396
1000
100%
1070
   395
1000

1070
   394
1070
    33
1070
   393
1070
     0
  0
DIMENSION
  5
38D73
330
1F
100
AcDbEntity
  8
AM_5
100
AcDbDimension
  2
*D28
 10
4456.557067889285
 20
-2088.645041052714
 30
0.0
 11
4479.585002663156
 21
-2076.188702167084
 31
0.0
 70
   163
  1
4-\U+22054×\U+22056.5サラ\P
 71
     5
 42
6.499999999998634
  3
SYS$3
100
AcDbDiametricDimension
 15
4460.720706295171
 25
-2083.653636919104
 35
0.0
 40
0.0
1001
ACAD
1000
DSTYLE
1002
{
1070
   172
1070
     1
1070
   342
1005
32629
1002
}
  0
DIMENSION
  5
38DF2
330
1F
100
AcDbEntity
  8
AM_5
100
AcDbDimension
  2
*D34
 10
4740.294756386743
 20
-2147.429643528411
 30
0.0
 11
4740.294756386743
 21
-2176.473643528411
 31
0.0
 70
   160
  1
ストローク<>
 71
     5
 42
18.0
  3
SYS$0
100
AcDbAlignedDimension
 13
4711.63839836956
 23
-2165.429643528411
 33
0.0
 14
4711.63839836956
 24
-2147.429643528411
 34
0.0
 50
90.0
100
AcDbRotatedDimension
1001
ACAD_DSTYLE_DIMINSPECT
1070
   396
1000
100%
1070
   395
1000

1070
   394
1070
    33
1070
   393
1070
     0
  0
LINE
  5
38FC5
330
1F
100
AcDbEntity
  8
AM_0
100
AcDbLine
 10
4305.047826521639
 20
-2003.982271409578
 30
0.0
 11
4415.047826521639
 21
-2003.982271409578
 31
0.0
  0
LINE
  5
38FC6
330
1F
100
AcDbEntity
  8
AM_0
100
AcDbLine
 10
4305.047826521639
 20
-2131.982271409579
 30
0.0
 11
4405.047826521643
 21
-2131.982271409579
 31
0.0
  0
LINE
  5
38FC7
330
1F
100
AcDbEntity
  8
AM_2
100
AcDbLine
 10
4325.04782652164
 20
-2027.982271409578
 30
0.0
 11
4405.047826521641
 21
-2027.982271409578
 31
0.0
  0
LINE
  5
38FC8
330
1F
100
AcDbEntity
  8
AM_2
100
AcDbLine
 10
4305.047826521639
 20
-2019.982271409578
 30
0.0
 11
4405.047826521641
 21
-2019.982271409578
 31
0.0
  0
LINE
  5
38FC9
330
1F
100
AcDbEntity
  8
AM_2
100
AcDbLine
 10
4305.047826521639
 20
-2011.982271409578
 30
0.0
 11
4405.047826521641
 21
-2011.982271409578
 31
0.0
  0
LINE
  5
38FCA
330
1F
100
AcDbEntity
  8
AM_2
100
AcDbLine
 10
4325.04782652164
 20
-2003.982271409578
 30
0.0
 11
4325.04782652164
 21
-2131.982271409579
 31
0.0
  0
MTEXT
  5
38FCB
330
1F
100
AcDbEntity
  8
AM_6
100
AcDbMText
 10
4315.047826521641
 20
-2047.982271409579
 30
0.0
 40
3.2
 41
20.0
 71
     5
 72
     5
  1
仕上げ
 73
     1
 44
1.0
1001
ACAD
1000
MTEXTBEGIN
1070
    73
1070
     1
1070
    44
1040
1.0
1070
    74
1070
     0
1000
MTEXTEND
  0
MTEXT
  5
38FCC
330
1F
100
AcDbEntity
  8
AM_6
100
AcDbMText
 10
4315.047826521641
 20
-2023.982271409579
 30
0.0
 40
3.2
 41
20.0
 71
     5
 72
     5
  1
材　質
 73
     1
 44
1.0
1001
ACAD
1000
MTEXTBEGIN
1070
    73
1070
     1
1070
    44
1040
1.0
1070
    74
1070
     0
1000
MTEXTEND
  0
MTEXT
  5
38FCD
330
1F
100
AcDbEntity
  8
AM_6
100
AcDbMText
 10
4315.047826521641
 20
-2007.982271409579
 30
0.0
 40
3.2
 41
20.0
 71
     5
 72
     5
  1
品　名
 73
     1
 44
1.0
1001
ACAD
1000
MTEXTBEGIN
1070
    73
1070
     1
1070
    44
1040
1.0
1070
    74
1070
     0
1000
MTEXTEND
  0
MTEXT
  5
38FCE
330
1F
100
AcDbEntity
  8
AM_6
100
AcDbMText
 10
4315.047826521641
 20
-2015.982271409578
 30
0.0
 40
3.2
 41
20.0
 71
     5
 72
     5
  1
品　番
 73
     1
 44
1.0
1001
ACAD
1000
MTEXTBEGIN
1070
    73
1070
     1
1070
    44
1040
1.0
1070
    74
1070
     0
1000
MTEXTEND
  0
MTEXT
  5
38FCF
330
1F
100
AcDbEntity
  8
AM_6
100
AcDbMText
 10
4325.04782652164
 20
-2023.982271409579
 30
0.0
 40
3.2
 41
90.0
 71
     4
 72
     5
  1
　本体：ステンレス
 73
     1
 44
1.0
1001
ACAD
1000
MTEXTBEGIN
1070
    73
1070
     1
1070
    44
1040
1.0
1070
    74
1070
     0
1000
MTEXTEND
  0
MTEXT
  5
38FD0
330
1F
100
AcDbEntity
  8
AM_6
100
AcDbMText
 10
4325.04782652164
 20
-2015.982271409578
 30
0.0
 40
3.2
 41
90.0
 71
     4
 72
     5
  1
　DE-105-1（大タイプ）、DE-105-2（小タイプ）
 73
     1
 44
1.0
1001
ACAD
1000
MTEXTBEGIN
1070
    73
1070
     1
1070
    44
1040
1.0
1070
    74
1070
     0
1000
MTEXTEND
  0
MTEXT
  5
38FD1
330
1F
100
AcDbEntity
  8
AM_6
100
AcDbMText
 10
4325.04782652164
 20
-2007.982271409579
 30
0.0
 40
3.2
 41
90.0
 71
     4
 72
     5
  1
　フラッシュボルト
 73
     1
 44
1.0
1001
ACAD
1000
MTEXTBEGIN
1070
    73
1070
     1
1070
    44
1040
1.0
1070
    74
1070
     0
1000
MTEXTEND
  0
LINE
  5
38FD2
330
1F
100
AcDbEntity
  8
AM_0
100
AcDbLine
 10
4405.047826521641
 20
-2003.982271409578
 30
0.0
 11
4405.047826521643
 21
-2131.982271409579
 31
0.0
  0
LINE
  5
38FD3
330
1F
100
AcDbEntity
  8
AM_2
100
AcDbLine
 10
4305.047826521639
 20
-2043.982271409578
 30
0.0
 11
4405.047826521641
 21
-2043.982271409578
 31
0.0
  0
LINE
  5
38FD4
330
1F
100
AcDbEntity
  8
AM_2
100
AcDbLine
 10
4325.04782652164
 20
-2051.982271409579
 30
0.0
 11
4405.047826521641
 21
-2051.982271409579
 31
0.0
  0
MTEXT
  5
38FD5
330
1F
100
AcDbEntity
  8
AM_6
100
AcDbMText
 10
4325.04782652164
 20
-2031.982271409578
 30
0.0
 40
3.2
 41
90.0
 71
     4
 72
     5
  1
　ロッド棒：ステンレス
 73
     1
 44
1.0
1001
ACAD
1000
MTEXTBEGIN
1070
    73
1070
     1
1070
    44
1040
1.0
1070
    74
1070
     0
1000
MTEXTEND
  0
MTEXT
  5
38FD6
330
1F
100
AcDbEntity
  8
AM_6
100
AcDbMText
 10
4325.04782652164
 20
-2047.982271409579
 30
0.0
 40
3.2
 41
90.0
 71
     4
 72
     5
  1
　本体：ヘアーライン
 73
     1
 44
1.0
1001
ACAD
1000
MTEXTBEGIN
1070
    73
1070
     1
1070
    44
1040
1.0
1070
    74
1070
     0
1000
MTEXTEND
  0
LINE
  5
38FD7
330
1F
100
AcDbEntity
  8
AM_2
100
AcDbLine
 10
4325.04782652164
 20
-2059.982271409579
 30
0.0
 11
4405.047826521641
 21
-2059.982271409579
 31
0.0
  0
LINE
  5
38FD8
330
1F
100
AcDbEntity
  8
AM_2
100
AcDbLine
 10
4305.047826521639
 20
-2067.982271409579
 30
0.0
 11
4405.047826521641
 21
-2067.982271409579
 31
0.0
  0
LINE
  5
38FD9
330
1F
100
AcDbEntity
  8
AM_2
100
AcDbLine
 10
4325.04782652164
 20
-2075.982271409579
 30
0.0
 11
4405.047826521641
 21
-2075.982271409579
 31
0.0
  0
MTEXT
  5
38FDA
330
1F
100
AcDbEntity
  8
AM_6
100
AcDbMText
 10
4315.047826521641
 20
-2071.982271409579
 30
0.0
 40
3.2
 41
20.0
 71
     5
 72
     5
  1
セットビス
 73
     1
 44
1.0
1001
ACAD
1000
MTEXTBEGIN
1070
    73
1070
     1
1070
    44
1040
1.0
1070
    74
1070
     0
1000
MTEXTEND
  0
MTEXT
  5
38FDB
330
1F
100
AcDbEntity
  8
AM_6
100
AcDbMText
 10
4334.047174202342
 20
-2079.982271409579
 30
0.0
 40
3.2
 41
90.0
 71
     4
 72
     5
  1
　呼び3.1×13 サラ木ネジ + SUS：２本
 73
     1
 44
1.0
1001
ACAD
1000
MTEXTBEGIN
1070
    73
1070
     1
1070
    44
1040
1.0
1070
    74
1070
     0
1000
MTEXTEND
  0
CIRCLE
  5
38FDC
330
1F
100
AcDbEntity
  8
AM_6
 48
0.5
100
AcDbCircle
 10
4371.90856988457
 20
-2080.223390739149
 30
0.0
 40
1.916990197049925
  0
LINE
  5
38FDD
330
1F
100
AcDbEntity
  8
AM_0
100
AcDbLine
 10
4305.047826521639
 20
-2003.982271409578
 30
0.0
 11
4305.047826521643
 21
-2131.982271409579
 31
0.0
  0
LINE
  5
38FDE
330
1F
100
AcDbEntity
  8
AM_2
100
AcDbLine
 10
4325.04782652164
 20
-2035.982271409578
 30
0.0
 11
4405.047826521641
 21
-2035.982271409579
 31
0.0
  0
MTEXT
  5
38FDF
330
1F
100
AcDbEntity
  8
AM_6
100
AcDbMText
 10
4325.04782652164
 20
-2039.982271409579
 30
0.0
 40
3.2
 41
90.0
 71
     4
 72
     5
  1
　受け：ステンレス
 73
     1
 44
1.0
1001
ACAD
1000
MTEXTBEGIN
1070
    73
1070
     1
1070
    44
1040
1.0
1070
    74
1070
     0
1000
MTEXTEND
  0
MTEXT
  5
38FE0
330
1F
100
AcDbEntity
  8
AM_6
100
AcDbMText
 10
4325.04782652164
 20
-2055.982271409579
 30
0.0
 40
3.2
 41
90.0
 71
     4
 72
     5
  1
　ロッド棒：生地
 73
     1
 44
1.0
1001
ACAD
1000
MTEXTBEGIN
1070
    73
1070
     1
1070
    44
1040
1.0
1070
    74
1070
     0
1000
MTEXTEND
  0
MTEXT
  5
38FE1
330
1F
100
AcDbEntity
  8
AM_6
100
AcDbMText
 10
4325.04782652164
 20
-2063.982271409579
 30
0.0
 40
3.2
 41
90.0
 71
     4
 72
     5
  1
　受け：電解研磨
 73
     1
 44
1.0
1001
ACAD
1000
MTEXTBEGIN
1070
    73
1070
     1
1070
    44
1040
1.0
1070
    74
1070
     0
1000
MTEXTEND
  0
MTEXT
  5
38FE2
330
1F
100
AcDbEntity
  8
AM_6
100
AcDbMText
 10
4325.04782652164
 20
-2071.982271409579
 30
0.0
 40
3.2
 41
90.0
 71
     4
 72
     5
  1
　DE-105-1
 73
     1
 44
1.0
1001
ACAD
1000
MTEXTBEGIN
1070
    73
1070
     1
1070
    44
1040
1.0
1070
    74
1070
     0
1000
MTEXTEND
  0
MTEXT
  5
38FE3
330
1F
100
AcDbEntity
  8
AM_6
100
AcDbMText
 10
4325.04782652164
 20
-2079.982271409579
 30
0.0
 40
3.2
 41
90.0
 71
     4
 72
     5
  1
　受け：
 73
     1
 44
1.0
1001
ACAD
1000
MTEXTBEGIN
1070
    73
1070
     1
1070
    44
1040
1.0
1070
    74
1070
     0
1000
MTEXTEND
  0
LINE
  5
38FE4
330
1F
100
AcDbEntity
  8
AM_2
100
AcDbLine
 10
4325.04782652164
 20
-2083.982271409579
 30
0.0
 11
4405.047826521641
 21
-2083.982271409579
 31
0.0
  0
MTEXT
  5
38FE5
330
1F
100
AcDbEntity
  8
AM_6
100
AcDbMText
 10
4325.04782652164
 20
-2087.982271409579
 30
0.0
 40
3.2
 41
90.0
 71
     4
 72
     5
  1
　本体：
 73
     1
 44
1.0
1001
ACAD
1000
MTEXTBEGIN
1070
    73
1070
     1
1070
    44
1040
1.0
1070
    74
1070
     0
1000
MTEXTEND
  0
MTEXT
  5
38FE6
330
1F
100
AcDbEntity
  8
AM_6
100
AcDbMText
 10
4334.047174202342
 20
-2087.982271409579
 30
0.0
 40
3.2
 41
90.0
 71
     4
 72
     5
  1
　呼び3.1×13 サラ木ネジ + SUS：４本
 73
     1
 44
1.0
1001
ACAD
1000
MTEXTBEGIN
1070
    73
1070
     1
1070
    44
1040
1.0
1070
    74
1070
     0
1000
MTEXTEND
  0
CIRCLE
  5
38FE7
330
1F
100
AcDbEntity
  8
AM_6
 48
0.5
100
AcDbCircle
 10
4371.90856988457
 20
-2088.223390739149
 30
0.0
 40
1.916990197049925
  0
MTEXT
  5
38FE8
330
1F
100
AcDbEntity
  8
AM_6
100
AcDbMText
 10
4334.047174202342
 20
-2095.982271409579
 30
0.0
 40
3.2
 41
90.0
 71
     4
 72
     5
  1
　呼び3.1×25 サラ木ネジ + SUS：２本
 73
     1
 44
1.0
1001
ACAD
1000
MTEXTBEGIN
1070
    73
1070
     1
1070
    44
1040
1.0
1070
    74
1070
     0
1000
MTEXTEND
  0
CIRCLE
  5
38FE9
330
1F
100
AcDbEntity
  8
AM_6
 48
0.5
100
AcDbCircle
 10
4371.90856988457
 20
-2096.223390739149
 30
0.0
 40
1.916990197049925
  0
LINE
  5
38FEA
330
1F
100
AcDbEntity
  8
AM_2
100
AcDbLine
 10
4325.04782652164
 20
-2091.982271409579
 30
0.0
 11
4405.047826521641
 21
-2091.982271409579
 31
0.0
  0
LINE
  5
38FEB
330
1F
100
AcDbEntity
  8
AM_2
100
AcDbLine
 10
4325.04782652164
 20
-2099.982271409579
 30
0.0
 11
4405.047826521641
 21
-2099.982271409579
 31
0.0
  0
LINE
  5
38FEC
330
1F
100
AcDbEntity
  8
AM_2
100
AcDbLine
 10
4325.04782652164
 20
-2107.982271409579
 30
0.0
 11
4405.047826521641
 21
-2107.982271409579
 31
0.0
  0
MTEXT
  5
38FED
330
1F
100
AcDbEntity
  8
AM_6
100
AcDbMText
 10
4325.04782652164
 20
-2103.982271409579
 30
0.0
 40
3.2
 41
90.0
 71
     4
 72
     5
  1
　DE-105-2
 73
     1
 44
1.0
1001
ACAD
1000
MTEXTBEGIN
1070
    73
1070
     1
1070
    44
1040
1.0
1070
    74
1070
     0
1000
MTEXTEND
  0
MTEXT
  5
38FEE
330
1F
100
AcDbEntity
  8
AM_6
100
AcDbMText
 10
4334.047174202342
 20
-2111.982271409579
 30
0.0
 40
3.2
 41
90.0
 71
     4
 72
     5
  1
　呼び3.1×13 サラ木ネジ + SUS：６本
 73
     1
 44
1.0
1001
ACAD
1000
MTEXTBEGIN
1070
    73
1070
     1
1070
    44
1040
1.0
1070
    74
1070
     0
1000
MTEXTEND
  0
CIRCLE
  5
38FEF
330
1F
100
AcDbEntity
  8
AM_6
 48
0.5
100
AcDbCircle
 10
4371.90856988457
 20
-2112.223390739149
 30
0.0
 40
1.916990197049925
  0
LINE
  5
38FF0
330
1F
100
AcDbEntity
  8
AM_2
100
AcDbLine
 10
4305.047826521639
 20
-2115.982271409579
 30
0.0
 11
4405.047826521641
 21
-2115.982271409579
 31
0.0
  0
MTEXT
  5
38FF1
330
1F
100
AcDbEntity
  8
AM_6
100
AcDbMText
 10
4315.047826521641
 20
-2119.982271409579
 30
0.0
 40
3.2
 41
20.0
 71
     5
 72
     5
  1
備　考
 73
     1
 44
1.0
1001
ACAD
1000
MTEXTBEGIN
1070
    73
1070
     1
1070
    44
1040
1.0
1070
    74
1070
     0
1000
MTEXTEND
  0
LINE
  5
38FF2
330
1F
100
AcDbEntity
  8
AM_2
100
AcDbLine
 10
4325.04782652164
 20
-2123.982271409579
 30
0.0
 11
4405.047826521643
 21
-2123.982271409579
 31
0.0
  0
MTEXT
  5
38FF3
330
1F
100
AcDbEntity
  8
AM_6
100
AcDbMText
 10
4325.04782652164
 20
-2119.982271409579
 30
0.0
 40
3.2
 41
90.0
 71
     4
 72
     5
  1
　受注生産
 73
     1
 44
1.0
1001
ACAD
1000
MTEXTBEGIN
1070
    73
1070
     1
1070
    44
1040
1.0
1070
    74
1070
     0
1000
MTEXTEND
  0
MTEXT
  5
38FF4
330
1F
100
AcDbEntity
  8
AM_6
100
AcDbMText
 10
4325.04782652164
 20
-2127.982271409579
 30
0.0
 40
3.2
 41
90.0
 71
     4
 72
     5
  1
　盈品在庫無し。生産ロット数・価格は別途ご相談ください。
 73
     1
 44
1.0
1001
ACAD
1000
MTEXTBEGIN
1070
    73
1070
     1
1070
    44
1040
1.0
1070
    74
1070
     0
1000
MTEXTEND
  0
POLYLINE
  5
3C3A7
330
1F
100
AcDbEntity
  8
AM_2
100
AcDb2dPolyline
 66
     1
 10
0.0
 20
0.0
 30
0.0
  0
VERTEX
  5
3C3A8
330
3C3A7
100
AcDbEntity
  8
AM_2
100
AcDbVertex
100
AcDb2dVertex
 10
4436.522127092233
 20
-2296.122300904464
 30
0.0
 42
-0.004094680173344
  0
VERTEX
  5
3C3A9
330
3C3A7
100
AcDbEntity
  8
AM_2
100
AcDbVertex
100
AcDb2dVertex
 10
4437.303297092229
 20
-2295.908403528411
 30
0.0
 42
-0.0043417449
  0
VERTEX
  5
3C3AA
330
3C3A7
100
AcDbEntity
  8
AM_2
100
AcDbVertex
100
AcDb2dVertex
 10
4438.25715709223
 20
-2295.664453528411
 30
0.0
 42
-0.0037047638
  0
VERTEX
  5
3C3AB
330
3C3A7
100
AcDbEntity
  8
AM_2
100
AcDbVertex
100
AcDb2dVertex
 10
4439.214847092229
 20
-2295.435873528411
 30
0.0
 42
-0.0030729437
  0
VERTEX
  5
3C3AC
330
3C3A7
100
AcDbEntity
  8
AM_2
100
AcDbVertex
100
AcDb2dVertex
 10
4440.175557092229
 20
-2295.220293528411
 30
0.0
 42
-0.00245379
  0
VERTEX
  5
3C3AD
330
3C3A7
100
AcDbEntity
  8
AM_2
100
AcDbVertex
100
AcDb2dVertex
 10
4441.138117092228
 20
-2295.015433528412
 30
0.0
  0
SEQEND
  5
3C3AE
330
3C3A7
100
AcDbEntity
  8
AM_2
  0
POLYLINE
  5
3C3E0
330
1F
100
AcDbEntity
  8
AM_2
100
AcDb2dPolyline
 66
     1
 10
0.0
 20
0.0
 30
0.0
  0
VERTEX
  5
3C3E1
330
3C3E0
100
AcDbEntity
  8
AM_2
100
AcDbVertex
100
AcDb2dVertex
 10
4436.522127092233
 20
-2181.120543116033
 30
0.0
 42
-0.0035358077074494
  0
VERTEX
  5
3C3E2
330
3C3E0
100
AcDbEntity
  8
AM_2
100
AcDbVertex
100
AcDb2dVertex
 10
4437.057207092229
 20
-2180.974333528411
 30
0.0
 42
-0.015844944
  0
VERTEX
  5
3C3E3
330
3C3E0
100
AcDbEntity
  8
AM_2
100
AcDbVertex
100
AcDb2dVertex
 10
4441.603997092228
 20
-2179.919993528411
 30
0.0
 42
-0.049773411
  0
VERTEX
  5
3C3E4
330
3C3E0
100
AcDbEntity
  8
AM_2
100
AcDbVertex
100
AcDb2dVertex
 10
4446.230527092228
 20
-2179.357103528412
 30
0.0
 42
-0.086730335
  0
VERTEX
  5
3C3E5
330
3C3E0
100
AcDbEntity
  8
AM_2
100
AcDbVertex
100
AcDb2dVertex
 10
4450.793797092229
 20
-2180.221063528412
 30
0.0
 42
0.0099763736
  0
VERTEX
  5
3C3E6
330
3C3E0
100
AcDbEntity
  8
AM_2
100
AcDbVertex
100
AcDb2dVertex
 10
4455.195597092229
 20
-2181.773253528411
 30
0.0
 42
0.075122084
  0
VERTEX
  5
3C3E7
330
3C3E0
100
AcDbEntity
  8
AM_2
100
AcDbVertex
100
AcDb2dVertex
 10
4459.793967092227
 20
-2182.469603528412
 30
0.0
 42
0.082780916
  0
VERTEX
  5
3C3E8
330
3C3E0
100
AcDbEntity
  8
AM_2
100
AcDbVertex
100
AcDb2dVertex
 10
4464.353807092229
 20
-2181.577593528412
 30
0.0
 42
0.021378359009064
  0
VERTEX
  5
3C3E9
330
3C3E0
100
AcDbEntity
  8
AM_2
100
AcDbVertex
100
AcDb2dVertex
 10
4467.755647092224
 20
-2180.145467849484
 30
0.0
 42
0.0114354057203455
  0
SEQEND
  5
3C3EA
330
3C3E0
100
AcDbEntity
  8
AM_2
  0
POLYLINE
  5
3C3EB
330
1F
100
AcDbEntity
  8
AM_2
100
AcDb2dPolyline
 66
     1
 10
0.0
 20
0.0
 30
0.0
  0
VERTEX
  5
3C3EC
330
3C3EB
100
AcDbEntity
  8
AM_2
100
AcDbVertex
100
AcDb2dVertex
 10
4436.522127092233
 20
-2186.120543116033
 30
0.0
 42
-0.0035358077074494
  0
VERTEX
  5
3C3ED
330
3C3EB
100
AcDbEntity
  8
AM_2
100
AcDbVertex
100
AcDb2dVertex
 10
4437.057207092229
 20
-2185.974333528411
 30
0.0
 42
-0.015844944
  0
VERTEX
  5
3C3EE
330
3C3EB
100
AcDbEntity
  8
AM_2
100
AcDbVertex
100
AcDb2dVertex
 10
4441.603997092228
 20
-2184.919993528412
 30
0.0
 42
-0.049773411
  0
VERTEX
  5
3C3EF
330
3C3EB
100
AcDbEntity
  8
AM_2
100
AcDbVertex
100
AcDb2dVertex
 10
4446.230527092228
 20
-2184.357103528411
 30
0.0
 42
-0.086730335
  0
VERTEX
  5
3C3F0
330
3C3EB
100
AcDbEntity
  8
AM_2
100
AcDbVertex
100
AcDb2dVertex
 10
4450.793797092229
 20
-2185.221063528411
 30
0.0
 42
0.0099763736
  0
VERTEX
  5
3C3F1
330
3C3EB
100
AcDbEntity
  8
AM_2
100
AcDbVertex
100
AcDb2dVertex
 10
4455.195597092229
 20
-2186.773253528411
 30
0.0
 42
0.075122084
  0
VERTEX
  5
3C3F2
330
3C3EB
100
AcDbEntity
  8
AM_2
100
AcDbVertex
100
AcDb2dVertex
 10
4459.793967092227
 20
-2187.469603528411
 30
0.0
 42
0.082780916
  0
VERTEX
  5
3C3F3
330
3C3EB
100
AcDbEntity
  8
AM_2
100
AcDbVertex
100
AcDb2dVertex
 10
4464.353807092229
 20
-2186.577593528411
 30
0.0
 42
0.021378359009064
  0
VERTEX
  5
3C3F4
330
3C3EB
100
AcDbEntity
  8
AM_2
100
AcDbVertex
100
AcDb2dVertex
 10
4467.755647092224
 20
-2185.145467849483
 30
0.0
 42
0.0114354057203455
  0
SEQEND
  5
3C3F5
330
3C3EB
100
AcDbEntity
  8
AM_2
  0
POLYLINE
  5
3C3F6
330
1F
100
AcDbEntity
  8
AM_2
100
AcDb2dPolyline
 66
     1
 10
0.0
 20
0.0
 30
0.0
  0
VERTEX
  5
3C3F7
330
3C3F6
100
AcDbEntity
  8
AM_2
100
AcDbVertex
100
AcDb2dVertex
 10
4436.522127092233
 20
-2301.120543116033
 30
0.0
 42
-0.0035358077074494
  0
VERTEX
  5
3C3F8
330
3C3F6
100
AcDbEntity
  8
AM_2
100
AcDbVertex
100
AcDb2dVertex
 10
4437.057207092229
 20
-2300.974333528411
 30
0.0
 42
-0.015844944
  0
VERTEX
  5
3C3F9
330
3C3F6
100
AcDbEntity
  8
AM_2
100
AcDbVertex
100
AcDb2dVertex
 10
4441.603997092228
 20
-2299.919993528412
 30
0.0
 42
-0.049773411
  0
VERTEX
  5
3C3FA
330
3C3F6
100
AcDbEntity
  8
AM_2
100
AcDbVertex
100
AcDb2dVertex
 10
4446.230527092228
 20
-2299.357103528411
 30
0.0
 42
-0.086730335
  0
VERTEX
  5
3C3FB
330
3C3F6
100
AcDbEntity
  8
AM_2
100
AcDbVertex
100
AcDb2dVertex
 10
4450.793797092229
 20
-2300.221063528411
 30
0.0
 42
0.0099763736
  0
VERTEX
  5
3C3FC
330
3C3F6
100
AcDbEntity
  8
AM_2
100
AcDbVertex
100
AcDb2dVertex
 10
4455.195597092229
 20
-2301.773253528411
 30
0.0
 42
0.075122084
  0
VERTEX
  5
3C3FD
330
3C3F6
100
AcDbEntity
  8
AM_2
100
AcDbVertex
100
AcDb2dVertex
 10
4459.793967092227
 20
-2302.469603528412
 30
0.0
 42
0.082780916
  0
VERTEX
  5
3C3FE
330
3C3F6
100
AcDbEntity
  8
AM_2
100
AcDbVertex
100
AcDb2dVertex
 10
4464.353807092229
 20
-2301.577593528412
 30
0.0
 42
0.021378359009064
  0
VERTEX
  5
3C3FF
330
3C3F6
100
AcDbEntity
  8
AM_2
100
AcDbVertex
100
AcDb2dVertex
 10
4467.755647092224
 20
-2300.145467849484
 30
0.0
 42
0.0114354057203455
  0
SEQEND
  5
3C400
330
3C3F6
100
AcDbEntity
  8
AM_2
  0
POLYLINE
  5
3C401
330
1F
100
AcDbEntity
  8
AM_2
100
AcDb2dPolyline
 66
     1
 10
0.0
 20
0.0
 30
0.0
  0
VERTEX
  5
3C402
330
3C401
100
AcDbEntity
  8
AM_2
100
AcDbVertex
100
AcDb2dVertex
 10
4441.138887092229
 20
-2295.015273528411
 30
0.0
 42
-0.02836887
  0
VERTEX
  5
3C403
330
3C401
100
AcDbEntity
  8
AM_2
100
AcDbVertex
100
AcDb2dVertex
 10
4444.773117092227
 20
-2294.425253528411
 30
0.0
 42
-0.072977357
  0
VERTEX
  5
3C404
330
3C401
100
AcDbEntity
  8
AM_2
100
AcDbVertex
100
AcDb2dVertex
 10
4448.440607092229
 20
-2294.569433528412
 30
0.0
 42
-0.039979841
  0
VERTEX
  5
3C405
330
3C401
100
AcDbEntity
  8
AM_2
100
AcDbVertex
100
AcDb2dVertex
 10
4451.960997092229
 20
-2295.638013528412
 30
0.0
 42
0.019449787
  0
VERTEX
  5
3C406
330
3C401
100
AcDbEntity
  8
AM_2
100
AcDbVertex
100
AcDb2dVertex
 10
4455.440647092228
 20
-2296.844343528411
 30
0.0
 42
0.0576423
  0
VERTEX
  5
3C407
330
3C401
100
AcDbEntity
  8
AM_2
100
AcDbVertex
100
AcDb2dVertex
 10
4459.064697092229
 20
-2297.457743528411
 30
0.0
 42
0.074934435
  0
VERTEX
  5
3C408
330
3C401
100
AcDbEntity
  8
AM_2
100
AcDbVertex
100
AcDb2dVertex
 10
4462.714177092229
 20
-2297.074733528411
 30
0.0
 42
0.040929241
  0
VERTEX
  5
3C409
330
3C401
100
AcDbEntity
  8
AM_2
100
AcDbVertex
100
AcDb2dVertex
 10
4466.184637092229
 20
-2295.852653528411
 30
0.0
 42
0.0042941033022475
  0
VERTEX
  5
3C40A
330
3C401
100
AcDbEntity
  8
AM_2
100
AcDbVertex
100
AcDb2dVertex
 10
4467.755647092224
 20
-2295.136709009144
 30
0.0
 42
0.0117993061506143
  0
SEQEND
  5
3C40B
330
3C401
100
AcDbEntity
  8
AM_2
  0
POLYLINE
  5
3C434
330
1F
100
AcDbEntity
  8
AM_2
100
AcDb2dPolyline
 66
     1
 10
0.0
 20
0.0
 30
0.0
  0
VERTEX
  5
3C435
330
3C434
100
AcDbEntity
  8
AM_2
100
AcDbVertex
100
AcDb2dVertex
 10
4520.473083816802
 20
-2300.804434584819
 30
0.0
 42
-0.0350990619103049
  0
VERTEX
  5
3C436
330
3C434
100
AcDbEntity
  8
AM_2
100
AcDbVertex
100
AcDb2dVertex
 10
4523.749903816798
 20
-2300.502863528411
 30
0.0
 42
-0.086730335
  0
VERTEX
  5
3C437
330
3C434
100
AcDbEntity
  8
AM_2
100
AcDbVertex
100
AcDb2dVertex
 10
4528.313173816797
 20
-2301.366813528412
 30
0.0
 42
0.0099763736
  0
VERTEX
  5
3C438
330
3C434
100
AcDbEntity
  8
AM_2
100
AcDbVertex
100
AcDb2dVertex
 10
4532.714973816798
 20
-2302.919003528411
 30
0.0
 42
0.075122084
  0
VERTEX
  5
3C439
330
3C434
100
AcDbEntity
  8
AM_2
100
AcDbVertex
100
AcDb2dVertex
 10
4537.313343816799
 20
-2303.615353528411
 30
0.0
 42
0.082780916
  0
VERTEX
  5
3C43A
330
3C434
100
AcDbEntity
  8
AM_2
100
AcDbVertex
100
AcDb2dVertex
 10
4541.873183816798
 20
-2302.723343528412
 30
0.0
 42
0.0042963960421199
  0
VERTEX
  5
3C43B
330
3C434
100
AcDbEntity
  8
AM_2
100
AcDbVertex
100
AcDb2dVertex
 10
4542.566583816795
 20
-2302.458929807606
 30
0.0
 42
0.013222456
  0
SEQEND
  5
3C43C
330
3C434
100
AcDbEntity
  8
AM_2
  0
POLYLINE
  5
3C43D
330
1F
100
AcDbEntity
  8
AM_2
100
AcDb2dPolyline
 66
     1
 10
0.0
 20
0.0
 30
0.0
  0
VERTEX
  5
3C43E
330
3C43D
100
AcDbEntity
  8
AM_2
100
AcDbVertex
100
AcDb2dVertex
 10
4520.473083816802
 20
-2295.804434584819
 30
0.0
 42
-0.0350990619103049
  0
VERTEX
  5
3C43F
330
3C43D
100
AcDbEntity
  8
AM_2
100
AcDbVertex
100
AcDb2dVertex
 10
4523.749903816798
 20
-2295.502863528411
 30
0.0
 42
-0.086730335
  0
VERTEX
  5
3C440
330
3C43D
100
AcDbEntity
  8
AM_2
100
AcDbVertex
100
AcDb2dVertex
 10
4528.313173816797
 20
-2296.366813528412
 30
0.0
 42
0.0099763736
  0
VERTEX
  5
3C441
330
3C43D
100
AcDbEntity
  8
AM_2
100
AcDbVertex
100
AcDb2dVertex
 10
4532.714973816798
 20
-2297.919003528412
 30
0.0
 42
0.075122084
  0
VERTEX
  5
3C442
330
3C43D
100
AcDbEntity
  8
AM_2
100
AcDbVertex
100
AcDb2dVertex
 10
4537.313343816799
 20
-2298.615353528411
 30
0.0
 42
0.082780916
  0
VERTEX
  5
3C443
330
3C43D
100
AcDbEntity
  8
AM_2
100
AcDbVertex
100
AcDb2dVertex
 10
4541.873183816798
 20
-2297.723343528412
 30
0.0
 42
0.0042963960421199
  0
VERTEX
  5
3C444
330
3C43D
100
AcDbEntity
  8
AM_2
100
AcDbVertex
100
AcDb2dVertex
 10
4542.566583816795
 20
-2297.458929807606
 30
0.0
 42
0.013222456
  0
SEQEND
  5
3C445
330
3C43D
100
AcDbEntity
  8
AM_2
  0
POLYLINE
  5
3C446
330
1F
100
AcDbEntity
  8
AM_2
100
AcDb2dPolyline
 66
     1
 10
0.0
 20
0.0
 30
0.0
  0
VERTEX
  5
3C447
330
3C446
100
AcDbEntity
  8
AM_2
100
AcDbVertex
100
AcDb2dVertex
 10
4520.473083816802
 20
-2185.804434584819
 30
0.0
 42
-0.0350990619103049
  0
VERTEX
  5
3C448
330
3C446
100
AcDbEntity
  8
AM_2
100
AcDbVertex
100
AcDb2dVertex
 10
4523.749903816798
 20
-2185.502863528411
 30
0.0
 42
-0.086730335
  0
VERTEX
  5
3C449
330
3C446
100
AcDbEntity
  8
AM_2
100
AcDbVertex
100
AcDb2dVertex
 10
4528.313173816797
 20
-2186.366813528412
 30
0.0
 42
0.0099763736
  0
VERTEX
  5
3C44A
330
3C446
100
AcDbEntity
  8
AM_2
100
AcDbVertex
100
AcDb2dVertex
 10
4532.714973816798
 20
-2187.919003528412
 30
0.0
 42
0.075122084
  0
VERTEX
  5
3C44B
330
3C446
100
AcDbEntity
  8
AM_2
100
AcDbVertex
100
AcDb2dVertex
 10
4537.313343816799
 20
-2188.615353528411
 30
0.0
 42
0.082780916
  0
VERTEX
  5
3C44C
330
3C446
100
AcDbEntity
  8
AM_2
100
AcDbVertex
100
AcDb2dVertex
 10
4541.873183816798
 20
-2187.723343528412
 30
0.0
 42
0.0042963960421199
  0
VERTEX
  5
3C44D
330
3C446
100
AcDbEntity
  8
AM_2
100
AcDbVertex
100
AcDb2dVertex
 10
4542.566583816795
 20
-2187.458929807606
 30
0.0
 42
0.013222456
  0
SEQEND
  5
3C44E
330
3C446
100
AcDbEntity
  8
AM_2
  0
POLYLINE
  5
3C44F
330
1F
100
AcDbEntity
  8
AM_2
100
AcDb2dPolyline
 66
     1
 10
0.0
 20
0.0
 30
0.0
  0
VERTEX
  5
3C450
330
3C44F
100
AcDbEntity
  8
AM_2
100
AcDbVertex
100
AcDb2dVertex
 10
4520.473083816802
 20
-2180.804434584819
 30
0.0
 42
-0.0350990619103049
  0
VERTEX
  5
3C451
330
3C44F
100
AcDbEntity
  8
AM_2
100
AcDbVertex
100
AcDb2dVertex
 10
4523.749903816798
 20
-2180.502863528412
 30
0.0
 42
-0.086730335
  0
VERTEX
  5
3C452
330
3C44F
100
AcDbEntity
  8
AM_2
100
AcDbVertex
100
AcDb2dVertex
 10
4528.313173816797
 20
-2181.366813528411
 30
0.0
 42
0.0099763736
  0
VERTEX
  5
3C453
330
3C44F
100
AcDbEntity
  8
AM_2
100
AcDbVertex
100
AcDb2dVertex
 10
4532.714973816798
 20
-2182.919003528411
 30
0.0
 42
0.075122084
  0
VERTEX
  5
3C454
330
3C44F
100
AcDbEntity
  8
AM_2
100
AcDbVertex
100
AcDb2dVertex
 10
4537.313343816799
 20
-2183.615353528411
 30
0.0
 42
0.082780916
  0
VERTEX
  5
3C455
330
3C44F
100
AcDbEntity
  8
AM_2
100
AcDbVertex
100
AcDb2dVertex
 10
4541.873183816798
 20
-2182.723343528412
 30
0.0
 42
0.0042963960421199
  0
VERTEX
  5
3C456
330
3C44F
100
AcDbEntity
  8
AM_2
100
AcDbVertex
100
AcDb2dVertex
 10
4542.566583816795
 20
-2182.458929807606
 30
0.0
 42
0.013222456
  0
SEQEND
  5
3C457
330
3C44F
100
AcDbEntity
  8
AM_2
  0
LINE
  5
3CEA0
330
1F
100
AcDbEntity
  8
size
100
AcDbLine
 10
4293.547826521641
 20
-1992.482271409578
 30
0.0
 11
4887.54782652164
 21
-1992.482271409579
 31
0.0
1001
GENIUS_GENREC_14
1002
{
1000
PYDIR
1011
4590.547826521642
1021
-1572.482271409578
1031
0.0
1002
}
1002
{
1000
PXDIR
1011
4293.547826521641
1021
-1992.482271409578
1031
0.0
1002
}
1002
{
1000
PORI
1011
4293.547826521641
1021
-1572.482271409578
1031
0.0
1002
}
1002
{
1000
PINS
1011
4442.04782652164
1021
-1782.482271409578
1031
0.0
1002
}
1002
{
1000
HVAL
1000
297
1002
}
1002
{
1000
H
1070
     2
1002
}
1002
{
1000
WVAL
1000
420
1002
}
1002
{
1000
W
1070
     2
1002
}
1002
{
1000
C
1070
     4
1002
}
1001
GENIUS_GENOBJ-N-REC_13
1002
{
1000
OWNER
1000
GEN
1002
}
1001
GENIUS_GENODEF_13
1002
{
1000
HIER
1070
     0
1002
}
1002
{
1000
MANEDIT
1070
     0
1002
}
1002
{
1000
NOSEL
1070
     0
1002
}
1002
{
1000
BEHIND
1070
     0
1002
}
1002
{
1000
OTHER
1070
     0
1002
}
1002
{
1000
REACTOR
1002
}
  0
LINE
  5
3CEA1
330
1F
100
AcDbEntity
  8
size
100
AcDbLine
 10
4293.547826521641
 20
-1992.482271409578
 30
0.0
 11
4293.547826521641
 21
-2412.482271409579
 31
0.0
1001
GENIUS_GENREC_14
1002
{
1000
PYDIR
1011
4590.547826521642
1021
-1992.482271409578
1031
0.0
1002
}
1002
{
1000
PXDIR
1011
4293.547826521641
1021
-2412.482271409579
1031
0.0
1002
}
1002
{
1000
PORI
1011
4293.547826521641
1021
-1992.482271409578
1031
0.0
1002
}
1002
{
1000
PINS
1011
4442.04782652164
1021
-2202.482271409579
1031
0.0
1002
}
1002
{
1000
HVAL
1000
297
1002
}
1002
{
1000
H
1070
     2
1002
}
1002
{
1000
WVAL
1000
420
1002
}
1002
{
1000
W
1070
     2
1002
}
1002
{
1000
C
1070
     4
1002
}
1001
GENIUS_GENOBJ-N-REC_13
1002
{
1000
OWNER
1000
GEN
1002
}
1001
GENIUS_GENODEF_13
1002
{
1000
HIER
1070
     0
1002
}
1002
{
1000
MANEDIT
1070
     0
1002
}
1002
{
1000
NOSEL
1070
     0
1002
}
1002
{
1000
BEHIND
1070
     0
1002
}
1002
{
1000
OTHER
1070
     0
1002
}
1002
{
1000
REACTOR
1002
}
  0
LINE
  5
3CFE9
330
1F
100
AcDbEntity
  8
size
100
AcDbLine
 10
4293.547826521641
 20
-2412.482271409579
 30
0.0
 11
4887.54782652164
 21
-2412.482271409579
 31
0.0
1001
GENIUS_GENREC_14
1002
{
1000
PYDIR
1011
4590.547826521642
1021
-1992.482271409578
1031
0.0
1002
}
1002
{
1000
PXDIR
1011
4293.547826521641
1021
-2412.482271409579
1031
0.0
1002
}
1002
{
1000
PORI
1011
4293.547826521641
1021
-1992.482271409578
1031
0.0
1002
}
1002
{
1000
PINS
1011
4442.04782652164
1021
-2202.482271409579
1031
0.0
1002
}
1002
{
1000
HVAL
1000
297
1002
}
1002
{
1000
H
1070
     2
1002
}
1002
{
1000
WVAL
1000
420
1002
}
1002
{
1000
W
1070
     2
1002
}
1002
{
1000
C
1070
     4
1002
}
1001
GENIUS_GENOBJ-N-REC_13
1002
{
1000
OWNER
1000
GEN
1002
}
1001
GENIUS_GENODEF_13
1002
{
1000
HIER
1070
     0
1002
}
1002
{
1000
MANEDIT
1070
     0
1002
}
1002
{
1000
NOSEL
1070
     0
1002
}
1002
{
1000
BEHIND
1070
     0
1002
}
1002
{
1000
OTHER
1070
     0
1002
}
1002
{
1000
REACTOR
1002
}
  0
LINE
  5
3CFEA
330
1F
100
AcDbEntity
  8
waku
100
AcDbLine
 10
4305.047826521639
 20
-2400.982271409579
 30
0.0
 11
4876.04782652164
 21
-2400.982271409579
 31
0.0
1001
GENIUS_GENREC_14
1002
{
1000
PYDIR
1011
4590.547826521642
1021
-1992.482271409578
1031
0.0
1002
}
1002
{
1000
PXDIR
1011
4293.547826521641
1021
-2412.482271409579
1031
0.0
1002
}
1002
{
1000
PORI
1011
4293.547826521641
1021
-1992.482271409578
1031
0.0
1002
}
1002
{
1000
PINS
1011
4442.04782652164
1021
-2202.482271409579
1031
0.0
1002
}
1002
{
1000
HVAL
1000
297
1002
}
1002
{
1000
H
1070
     2
1002
}
1002
{
1000
WVAL
1000
420
1002
}
1002
{
1000
W
1070
     2
1002
}
1002
{
1000
C
1070
     4
1002
}
1001
GENIUS_GENOBJ-N-REC_13
1002
{
1000
OWNER
1000
GEN
1002
}
1001
GENIUS_GENODEF_13
1002
{
1000
HIER
1070
     0
1002
}
1002
{
1000
MANEDIT
1070
     0
1002
}
1002
{
1000
NOSEL
1070
     0
1002
}
1002
{
1000
BEHIND
1070
     0
1002
}
1002
{
1000
OTHER
1070
     0
1002
}
1002
{
1000
REACTOR
1002
}
  0
LINE
  5
3CFEB
330
1F
100
AcDbEntity
  8
waku
100
AcDbLine
 10
4876.04782652164
 20
-2003.982271409578
 30
0.0
 11
4305.047826521639
 21
-2003.982271409578
 31
0.0
1001
GENIUS_GENREC_14
1002
{
1000
PYDIR
1011
4593.547826521642
1021
-1992.482271409578
1031
0.0
1002
}
1002
{
1000
PXDIR
1011
4296.547826521639
1021
-2412.482271409579
1031
0.0
1002
}
1002
{
1000
PORI
1011
4296.547826521639
1021
-1992.482271409578
1031
0.0
1002
}
1002
{
1000
PINS
1011
4445.047826521641
1021
-2202.482271409579
1031
0.0
1002
}
1002
{
1000
HVAL
1000
297
1002
}
1002
{
1000
H
1070
     2
1002
}
1002
{
1000
WVAL
1000
420
1002
}
1002
{
1000
W
1070
     2
1002
}
1002
{
1000
C
1070
     4
1002
}
1001
GENIUS_GENOBJ-N-REC_13
1002
{
1000
OWNER
1000
GEN
1002
}
1001
GENIUS_GENODEF_13
1002
{
1000
HIER
1070
     0
1002
}
1002
{
1000
MANEDIT
1070
     0
1002
}
1002
{
1000
NOSEL
1070
     0
1002
}
1002
{
1000
BEHIND
1070
     0
1002
}
1002
{
1000
OTHER
1070
     0
1002
}
1002
{
1000
REACTOR
1002
}
  0
LINE
  5
3CFEC
330
1F
100
AcDbEntity
  8
waku
100
AcDbLine
 10
4305.047826521639
 20
-2003.982271409578
 30
0.0
 11
4305.047826521639
 21
-2400.982271409579
 31
0.0
  0
LINE
  5
3CFED
330
1F
100
AcDbEntity
  8
size
100
AcDbLine
 10
4887.54782652164
 20
-2412.482271409579
 30
0.0
 11
4887.54782652164
 21
-1992.482271409578
 31
0.0
1001
GENIUS_GENREC_14
1002
{
1000
PYDIR
1011
4887.54782652164
1021
-1992.482271409578
1031
0.0
1002
}
1002
{
1000
PXDIR
1011
4590.547826521642
1021
-2412.482271409579
1031
0.0
1002
}
1002
{
1000
PORI
1011
4590.547826521642
1021
-1992.482271409578
1031
0.0
1002
}
1002
{
1000
PINS
1011
4739.04782652164
1021
-2202.482271409579
1031
0.0
1002
}
1002
{
1000
HVAL
1000
297
1002
}
1002
{
1000
H
1070
     2
1002
}
1002
{
1000
WVAL
1000
420
1002
}
1002
{
1000
W
1070
     2
1002
}
1002
{
1000
C
1070
     4
1002
}
1001
GENIUS_GENOBJ-N-REC_13
1002
{
1000
OWNER
1000
GEN
1002
}
1001
GENIUS_GENODEF_13
1002
{
1000
HIER
1070
     0
1002
}
1002
{
1000
MANEDIT
1070
     0
1002
}
1002
{
1000
NOSEL
1070
     0
1002
}
1002
{
1000
BEHIND
1070
     0
1002
}
1002
{
1000
OTHER
1070
     0
1002
}
1002
{
1000
REACTOR
1002
}
  0
LINE
  5
3CFEE
330
1F
100
AcDbEntity
  8
waku
100
AcDbLine
 10
4876.047826521642
 20
-2003.982271409578
 30
0.0
 11
4876.047826521642
 21
-2400.982271409579
 31
0.0
  0
ARC
  5
3CFF4
330
1F
100
AcDbEntity
  8
AM_0
100
AcDbCircle
 10
4796.45188342899
 20
-2312.79396199341
 30
0.0
 40
5.25
100
AcDbArc
 50
90.0
 51
270.0
  0
LINE
  5
3CFF5
330
1F
100
AcDbEntity
  8
AM_0
100
AcDbLine
 10
4779.20188342899
 20
-2302.54396199341
 30
0.0
 11
4819.20187342899
 21
-2302.54396199341
 31
0.0
  0
LINE
  5
3CFF6
330
1F
100
AcDbEntity
  8
AM_0
100
AcDbLine
 10
4779.20188342899
 20
-2323.04396199341
 30
0.0
 11
4819.20187342899
 21
-2323.04396199341
 31
0.0
  0
LINE
  5
3CFF7
330
1F
100
AcDbEntity
  8
AM_7
 48
0.5
100
AcDbLine
 10
4776.20188342899
 20
-2312.79396199341
 30
0.0
 11
4822.201873428991
 21
-2312.79396199341
 31
0.0
  0
CIRCLE
  5
3CFF8
330
1F
100
AcDbEntity
  8
AM_0
100
AcDbCircle
 10
4783.70188342899
 20
-2312.79396199341
 30
0.0
 40
3.25
  0
LINE
  5
3CFF9
330
1F
100
AcDbEntity
  8
AM_7
 48
0.5
100
AcDbLine
 10
4783.70188342899
 20
-2306.54432199341
 30
0.0
 11
4783.70188342899
 21
-2319.04362199341
 31
0.0
  0
CIRCLE
  5
3CFFA
330
1F
100
AcDbEntity
  8
AM_0
100
AcDbCircle
 10
4783.70188342899
 20
-2312.79396199341
 30
0.0
 40
2.0
  0
LINE
  5
3CFFB
330
1F
100
AcDbEntity
  8
AM_0
100
AcDbLine
 10
4779.20188342899
 20
-2302.54396199341
 30
0.0
 11
4779.20188342899
 21
-2323.04396199341
 31
0.0
  0
CIRCLE
  5
3CFFC
330
1F
100
AcDbEntity
  8
AM_0
100
AcDbCircle
 10
4814.701873428989
 20
-2312.79396199341
 30
0.0
 40
3.25
  0
LINE
  5
3CFFD
330
1F
100
AcDbEntity
  8
AM_7
 48
0.5
100
AcDbLine
 10
4814.701873428989
 20
-2306.54432199341
 30
0.0
 11
4814.701873428989
 21
-2319.04362199341
 31
0.0
  0
CIRCLE
  5
3CFFE
330
1F
100
AcDbEntity
  8
AM_0
100
AcDbCircle
 10
4814.701873428989
 20
-2312.79396199341
 30
0.0
 40
2.0
  0
LINE
  5
3CFFF
330
1F
100
AcDbEntity
  8
AM_0
100
AcDbLine
 10
4819.20187342899
 20
-2302.54396199341
 30
0.0
 11
4819.20187342899
 21
-2323.04396199341
 31
0.0
  0
ARC
  5
3D000
330
1F
100
AcDbEntity
  8
AM_0
100
AcDbCircle
 10
4801.951883428991
 20
-2312.79396199341
 30
0.0
 40
5.25
100
AcDbArc
 50
270.0
 51
90.0
  0
LINE
  5
3D001
330
1F
100
AcDbEntity
  8
AM_7
 48
0.5
100
AcDbLine
 10
4799.20188342899
 20
-2326.04396199341
 30
0.0
 11
4799.20188342899
 21
-2299.54396199341
 31
0.0
  0
LINE
  5
3D002
330
1F
100
AcDbEntity
  8
AM_0
100
AcDbLine
 10
4796.45188342899
 20
-2318.04396199341
 30
0.0
 11
4801.951883428991
 21
-2318.04396199341
 31
0.0
  0
LINE
  5
3D003
330
1F
100
AcDbEntity
  8
AM_0
100
AcDbLine
 10
4796.45188342899
 20
-2307.54396199341
 30
0.0
 11
4801.951883428991
 21
-2307.54396199341
 31
0.0
  0
LINE
  5
3D004
330
1F
100
AcDbEntity
  8
AM_0
100
AcDbLine
 10
4840.500378406916
 20
-2323.04396199341
 30
0.0
 11
4840.500378406916
 21
-2302.54396199341
 31
0.0
  0
LINE
  5
3D005
330
1F
100
AcDbEntity
  8
AM_0
100
AcDbLine
 10
4839.000378406915
 20
-2302.54396199341
 30
0.0
 11
4839.000378406915
 21
-2323.04396199341
 31
0.0
  0
LINE
  5
3D006
330
1F
100
AcDbEntity
  8
AM_0
100
AcDbLine
 10
4839.000378406915
 20
-2323.04396199341
 30
0.0
 11
4840.500378406916
 21
-2323.04396199341
 31
0.0
  0
LINE
  5
3D007
330
1F
100
AcDbEntity
  8
AM_0
100
AcDbLine
 10
4840.500378406916
 20
-2302.54396199341
 30
0.0
 11
4839.000378406915
 21
-2302.54396199341
 31
0.0
  0
DIMENSION
  5
3D008
330
1F
100
AcDbEntity
  8
AM_5
100
AcDbDimension
  2
*D36
 10
4814.701873428989
 20
-2286.54396199341
 30
0.0
 11
4799.20187842899
 21
-2283.94396199341
 31
0.0
 70
    32
 71
     5
 42
30.99999000000025
  3
SYS$0
100
AcDbAlignedDimension
 13
4783.70188342899
 23
-2306.54432199341
 33
0.0
 14
4814.701873428989
 24
-2306.54432199341
 34
0.0
100
AcDbRotatedDimension
1001
ACAD_DSTYLE_DIMINSPECT
1070
   396
1000
100%
1070
   395
1000

1070
   394
1070
    33
1070
   393
1070
     0
  0
DIMENSION
  5
3D009
330
1F
100
AcDbEntity
  8
AM_5
100
AcDbDimension
  2
*D37
 10
4819.20187342899
 20
-2278.54396199341
 30
0.0
 11
4799.20187842899
 21
-2275.94396199341
 31
0.0
 70
    32
 71
     5
 42
39.99999000000025
  3
SYS$0
100
AcDbAlignedDimension
 13
4779.20188342899
 23
-2302.54396199341
 33
0.0
 14
4819.20187342899
 24
-2302.54396199341
 34
0.0
100
AcDbRotatedDimension
1001
ACAD_DSTYLE_DIMINSPECT
1070
   396
1000
100%
1070
   395
1000

1070
   394
1070
    33
1070
   393
1070
     0
  0
DIMENSION
  5
3D00A
330
1F
100
AcDbEntity
  8
AM_5
100
AcDbDimension
  2
*D38
 10
4771.201883428989
 20
-2318.04396199341
 30
0.0
 11
4768.601883428991
 21
-2312.79396199341
 31
0.0
 70
    32
 71
     5
 42
10.5
  3
SYS$0
100
AcDbAlignedDimension
 13
4796.45188342899
 23
-2307.54396199341
 33
0.0
 14
4796.45188342899
 24
-2318.04396199341
 34
0.0
 50
90.0
100
AcDbRotatedDimension
1001
ACAD_DSTYLE_DIMINSPECT
1070
   396
1000
100%
1070
   395
1000

1070
   394
1070
    33
1070
   393
1070
     0
  0
DIMENSION
  5
3D00B
330
1F
100
AcDbEntity
  8
AM_5
100
AcDbDimension
  2
*D39
 10
4763.201883428989
 20
-2323.04396199341
 30
0.0
 11
4760.601883428989
 21
-2312.79396199341
 31
0.0
 70
    32
 71
     5
 42
20.5
  3
SYS$0
100
AcDbAlignedDimension
 13
4779.20188342899
 23
-2302.54396199341
 33
0.0
 14
4779.20188342899
 24
-2323.04396199341
 34
0.0
 50
90.0
100
AcDbRotatedDimension
1001
ACAD_DSTYLE_DIMINSPECT
1070
   396
1000
100%
1070
   395
1000

1070
   394
1070
    33
1070
   393
1070
     0
  0
DIMENSION
  5
3D00C
330
1F
100
AcDbEntity
  8
AM_5
100
AcDbDimension
  2
*D40
 10
4840.500378406916
 20
-2294.54396199341
 30
0.0
 11
4845.687045073582
 21
-2291.94396199341
 31
0.0
 70
    32
 71
     5
 42
1.5
  3
SYS$0
100
AcDbAlignedDimension
 13
4839.000378406915
 23
-2302.54396199341
 33
0.0
 14
4840.500378406916
 24
-2302.54396199341
 34
0.0
100
AcDbRotatedDimension
1001
ACAD_DSTYLE_DIMINSPECT
1070
   396
1000
100%
1070
   395
1000

1070
   394
1070
    33
1070
   393
1070
     0
  0
DIMENSION
  5
3D00D
330
1F
100
AcDbEntity
  8
AM_5
100
AcDbDimension
  2
*D41
 10
4807.201883428991
 20
-2294.54396199341
 30
0.0
 11
4799.20188342899
 21
-2291.94396199341
 31
0.0
 70
    32
 71
     5
 42
16.0
  3
SYS$0
100
AcDbAlignedDimension
 13
4791.20188342899
 23
-2312.79396199341
 33
0.0
 14
4807.201883428991
 24
-2312.79396199341
 34
0.0
100
AcDbRotatedDimension
1001
ACAD_DSTYLE_DIMINSPECT
1070
   396
1000
100%
1070
   395
1000

1070
   394
1070
    33
1070
   393
1070
     0
  0
TEXT
  5
3D00E
330
1F
100
AcDbEntity
  8
AM_6
100
AcDbText
 10
4650.812974181723
 20
-2351.756517068829
 30
0.0
 40
6.4
  1
DE-105-2
 41
0.6099999900000001
100
AcDbText
  0
LINE
  5
3D00F
330
1F
100
AcDbEntity
  8
AM_7
 48
0.5
100
AcDbLine
 10
4836.000378406917
 20
-2312.79396199341
 30
0.0
 11
4843.500378406917
 21
-2312.79396199341
 31
0.0
1001
GENIUS_GENODEF_13
1002
{
1000
HIER
1070
     0
1002
}
1002
{
1000
MANEDIT
1070
     0
1002
}
1002
{
1000
NOSEL
1070
     0
1002
}
1002
{
1000
BEHIND
1070
     0
1002
}
1002
{
1000
OTHER
1070
     0
1002
}
1002
{
1000
REACTOR
1002
}
1001
GENIUS_GENOBJ-N-CEN_13
1002
{
1000
OWNER
1000
GEN
1002
}
1001
GENIUS_GENCEN_19
1002
{
1040
3.0
1002
}
  0
DIMENSION
  5
3D010
330
1F
100
AcDbEntity
  8
AM_5
100
AcDbDimension
  2
*D35
 10
4785.779030758613
 20
-2315.293562064201
 30
0.0
 11
4759.297405096588
 21
-2298.633520577629
 31
0.0
 70
   163
  1
2-\U+22054×\U+22056.5サラ\P
 71
     5
 42
6.500000000002727
  3
SYS$3
100
AcDbDiametricDimension
 15
4781.624756099366
 25
-2310.294361922621
 35
0.0
 40
0.0
1001
ACAD
1000
DSTYLE
1002
{
1070
   172
1070
     1
1070
   342
1005
32629
1002
}
  0
TEXT
  5
3D011
330
1F
100
AcDbEntity
  8
AM_6
100
AcDbText
 10
4480.496545213505
 20
-2351.756517068829
 30
0.0
 40
6.4
  1
DE-105-1
 41
0.6099999900000001
100
AcDbText
  0
TEXT
  5
3D012
330
1F
100
AcDbEntity
  8
AM_6
100
AcDbText
 10
4787.053214183642
 20
-2351.756517068829
 30
0.0
 40
6.4
  1
受け（共通）
 41
0.6099999900000001
100
AcDbText
  0
LINE
  5
4D644
330
1F
100
AcDbEntity
  8
AM_7
 48
0.4
100
AcDbLine
 10
4725.63839836956
 20
-2170.929643528412
 30
0.0
 11
4725.63839836956
 21
-2162.929643528411
 31
0.0
1001
GENIUS_GENODEF_13
1002
{
1000
HIER
1070
     0
1002
}
1002
{
1000
MANEDIT
1070
     0
1002
}
1002
{
1000
NOSEL
1070
     0
1002
}
1002
{
1000
BEHIND
1070
     0
1002
}
1002
{
1000
OTHER
1070
     0
1002
}
1002
{
1000
REACTOR
1002
}
1001
GENIUS_GENOBJ-N-CEN_13
1002
{
1000
OWNER
1000
GEN
1002
}
1001
GENIUS_GENCEN_19
1002
{
1040
3.0
1002
}
  0
LINE
  5
4D645
330
1F
100
AcDbEntity
  8
AM_7
 48
0.4
100
AcDbLine
 10
4554.089843816798
 20
-2160.159103528411
 30
0.0
 11
4554.089843816798
 21
-2152.159103528411
 31
0.0
1001
GENIUS_GENODEF_13
1002
{
1000
HIER
1070
     0
1002
}
1002
{
1000
MANEDIT
1070
     0
1002
}
1002
{
1000
NOSEL
1070
     0
1002
}
1002
{
1000
BEHIND
1070
     0
1002
}
1002
{
1000
OTHER
1070
     0
1002
}
1002
{
1000
REACTOR
1002
}
1001
GENIUS_GENOBJ-N-CEN_13
1002
{
1000
OWNER
1000
GEN
1002
}
1001
GENIUS_GENCEN_19
1002
{
1040
3.0
1002
}
  0
LINE
  5
4D646
330
1F
100
AcDbEntity
  8
AM_7
 48
0.4
100
AcDbLine
 10
4522.089843816798
 20
-2196.663183528412
 30
0.0
 11
4530.089843816798
 21
-2196.663183528412
 31
0.0
1001
GENIUS_GENODEF_13
1002
{
1000
HIER
1070
     0
1002
}
1002
{
1000
MANEDIT
1070
     0
1002
}
1002
{
1000
NOSEL
1070
     0
1002
}
1002
{
1000
BEHIND
1070
     0
1002
}
1002
{
1000
OTHER
1070
     0
1002
}
1002
{
1000
REACTOR
1002
}
1001
GENIUS_GENOBJ-N-CEN_13
1002
{
1000
OWNER
1000
GEN
1002
}
1001
GENIUS_GENCEN_19
1002
{
1040
3.0
1002
}
  0
LINE
  5
4D647
330
1F
100
AcDbEntity
  8
AM_7
 48
0.4
100
AcDbLine
 10
4522.089843816798
 20
-2309.929623528411
 30
0.0
 11
4530.089843816798
 21
-2309.929623528411
 31
0.0
1001
GENIUS_GENOBJ-N-CEN_13
1002
{
1000
OWNER
1000
GEN
1002
}
1001
GENIUS_GENODEF_13
1002
{
1000
HIER
1070
     0
1002
}
1002
{
1000
MANEDIT
1070
     0
1002
}
1002
{
1000
NOSEL
1070
     0
1002
}
1002
{
1000
BEHIND
1070
     0
1002
}
1002
{
1000
OTHER
1070
     0
1002
}
1002
{
1000
REACTOR
1002
}
1001
GENIUS_GENCEN_19
1002
{
1040
3.0
1002
}
  0
LINE
  5
4D648
330
1F
100
AcDbEntity
  8
AM_7
 48
0.4
100
AcDbLine
 10
4693.63839836956
 20
-2309.929623528411
 30
0.0
 11
4701.638398369559
 21
-2309.929623528411
 31
0.0
1001
GENIUS_GENOBJ-N-CEN_13
1002
{
1000
OWNER
1000
GEN
1002
}
1001
GENIUS_GENODEF_13
1002
{
1000
HIER
1070
     0
1002
}
1002
{
1000
MANEDIT
1070
     0
1002
}
1002
{
1000
NOSEL
1070
     0
1002
}
1002
{
1000
BEHIND
1070
     0
1002
}
1002
{
1000
OTHER
1070
     0
1002
}
1002
{
1000
REACTOR
1002
}
1001
GENIUS_GENCEN_19
1002
{
1040
3.0
1002
}
  0
ENDSEC
  0
SECTION
  2
OBJECTS
  0
DICTIONARY
  5
C
330
0
100
AcDbDictionary
281
     1
  3
ACAD_2007HEADERVARS_RT
350
52836
  3
ACAD_BGPLOT_KEY
350
AB06
  3
ACAD_COLOR
350
A91D
  3
ACAD_GROUP
350
D
  3
ACAD_LAYOUT
350
1A
  3
ACAD_MATERIAL
350
A91C
  3
ACAD_MLINESTYLE
350
17
  3
ACAD_PLOTSETTINGS
350
19
  3
ACAD_PLOTSTYLENAME
350
E
  3
ACAD_TABLESTYLE
350
AAB9
  3
ACAD_VISUALSTYLE
350
B0F1
  3
AcAsAppObject
350
3DA1
  3
ACASGREF_MASTER
350
3DE9
  3
AcDbVariableDictionary
350
34
  3
AcmDictionary
350
47
  3
AD_GREF_MODULE
350
3DEA
  3
AD_MAPI_MODULE
350
3E06
  3
AMG
350
2B
  3
AMGSNAPSETTINGS
350
7D
  3
ASE_INDEX_DICTIONARY
350
B331
  3
DWGPROPS
350
52835
  3
MAPISURF_MODULE
350
3DEB
  0
DICTIONARY
  5
52718
330
8
100
AcDbDictionary
280
     1
281
     1
  0
DICTIONARY
  5
3F95
330
2
100
AcDbDictionary
280
     1
281
     1
  3
ACAD_LAYERFILTERS
360
3F9CB
  3
ACAD_LAYERSTATES
360
3F96
  3
ACLYDICTIONARY
360
3F9CA
  3
AMLAYER_GROUPCOLORS
360
AAB4
  0
DICTIONARY
  5
8A
330
1F
100
AcDbDictionary
280
     1
281
     1
  3
ACAD_SORTENTS
360
B1BA
  0
DICTIONARY
  5
52836
102
{ACAD_REACTORS
330
C
102
}
330
C
100
AcDbDictionary
281
     1
  3
DIMARCSYM
350
52837
  0
DICTIONARY
  5
AB06
102
{ACAD_REACTORS
330
C
102
}
330
C
100
AcDbDictionary
280
     1
281
     1
  0
DICTIONARY
  5
A91D
102
{ACAD_REACTORS
330
C
102
}
330
C
100
AcDbDictionary
281
     1
  0
DICTIONARY
  5
D
102
{ACAD_REACTORS
330
C
102
}
330
C
100
AcDbDictionary
281
     1
  0
DICTIONARY
  5
1A
102
{ACAD_REACTORS
330
C
102
}
330
C
100
AcDbDictionary
281
     1
  3
Model
350
22
  3
ﾚｲｱｳﾄ1
350
1E
  3
ﾚｲｱｳﾄ2
350
26
  0
DICTIONARY
  5
A91C
102
{ACAD_REACTORS
330
C
102
}
330
C
100
AcDbDictionary
281
     1
  3
ByBlock
350
B0EF
  3
ByLayer
350
B0EE
  3
Global
350
B0F0
  0
DICTIONARY
  5
17
102
{ACAD_REACTORS
330
C
102
}
330
C
100
AcDbDictionary
281
     1
  3
Standard
350
18
  0
DICTIONARY
  5
19
102
{ACAD_REACTORS
330
C
102
}
330
C
100
AcDbDictionary
281
     1
  0
ACDBDICTIONARYWDFLT
  5
E
102
{ACAD_REACTORS
330
C
102
}
330
C
100
AcDbDictionary
281
     1
  3
Normal
350
F
100
AcDbDictionaryWithDefault
340
F
  0
DICTIONARY
  5
AAB9
102
{ACAD_REACTORS
330
C
102
}
330
C
100
AcDbDictionary
281
     1
  3
Standard
350
AABA
  0
DICTIONARY
  5
B0F1
102
{ACAD_REACTORS
330
C
102
}
330
C
100
AcDbDictionary
281
     1
  3
2dWireframe
350
B0F7
  3
3D Hidden
350
B0F9
  3
3dWireframe
350
B0F8
  3
Basic
350
B0F6
  3
Brighten
350
B0FD
  3
ColorChange
350
B101
  3
Conceptual
350
B0FA
  3
Dim
350
B0FC
  3
Facepattern
350
B100
  3
Flat
350
B0F2
  3
FlatWithEdges
350
B0F3
  3
Gouraud
350
B0F4
  3
GouraudWithEdges
350
B0F5
  3
Linepattern
350
B0FF
  3
Realistic
350
B0FB
  3
Thicken
350
B0FE
  0
ACAD_PROXY_OBJECT
  5
3DA1
102
{ACAD_REACTORS
330
C
102
}
330
C
100
AcDbProxyObject
 90
      499
 91
      576
 95
   917527
 70
     0
 93
       10
310
407F
 94
        0
1001
ACAD
1000
AcRTDxfName
1000
ASAPP
  0
ACAD_PROXY_OBJECT
  5
3DE9
102
{ACAD_REACTORS
330
C
102
}
330
C
100
AcDbProxyObject
 90
      499
 91
      581
 95
   917527
 70
     0
 93
       34
310
010000407F
 94
        0
1001
ACAD
1000
AcRTDxfName
1000
ACASGREFMASTER
  0
DICTIONARY
  5
34
102
{ACAD_REACTORS
330
C
102
}
330
C
100
AcDbDictionary
281
     1
  3
CTABLESTYLE
350
AAF3
  3
DIMASSOC
350
A10C
  3
FIELDEVAL
350
AB07
  3
HPORIGIN
350
EB56
  3
INDEXCTL
350
35
  3
SORTENTS
350
194C
  0
DICTIONARY
  5
47
102
{ACAD_REACTORS
330
C
102
}
330
C
100
AcDbDictionary
281
     1
  3
AcmBOM
350
7E8
  3
AcmStdDictionary
350
4C
  3
AMDTSECTSYM_ARROWCOLOR
350
A929
  0
ACAD_PROXY_OBJECT
  5
3DEA
102
{ACAD_REACTORS
330
C
102
}
330
C
100
AcDbProxyObject
 90
      499
 91
      582
 95
   917527
 70
     0
 93
      114
310
00000043800000000000000000003F
 94
        0
1001
ACAD
1000
AcRTDxfName
1000
ACADGREFMODULE
  0
ACAD_PROXY_OBJECT
  5
3E06
102
{ACAD_REACTORS
330
C
102
}
330
C
100
AcDbProxyObject
 90
      499
 91
      594
 95
   917527
 70
     0
 93
       34
310
05000044FF
 94
        0
1001
ACAD
1000
AcRTDxfName
1000
MAPIADMODULE
  0
DICTIONARY
  5
2B
102
{ACAD_REACTORS
330
C
102
}
330
C
100
AcDbDictionary
281
     1
  0
DICTIONARY
  5
7D
102
{ACAD_REACTORS
330
C
102
}
330
C
100
AcDbDictionary
281
     1
  0
DICTIONARY
  5
B331
102
{ACAD_REACTORS
330
C
102
}
330
C
100
AcDbDictionary
281
     1
  3
ASEBlockHierarchyIndexRecord
350
B332
1001
DCO15
1040
1594111214.218
  0
XRECORD
  5
52835
102
{ACAD_REACTORS
330
C
102
}
330
C
100
AcDbXrecord
280
     1
  1
DWGPROPS COOKIE
  2

  3

  4

  6

  7

  8
Administrator
  9

300
AmdtFileType=84
301
=
302
=
303
=
304
=
305
=
306
=
307
=
308
=
309
=
 40
8.269514930555555
 41
2455567.561054317
 42
2456030.707530741
  1

 90
        1
  0
ACAD_PROXY_OBJECT
  5
3DEB
102
{ACAD_REACTORS
330
C
102
}
330
C
100
AcDbProxyObject
 90
      499
 91
      583
 95
   917527
 70
     0
 93
        8
310
0477
 94
        0
1001
ACAD
1000
AcRTDxfName
1000
AMDTMAPISURFMOUDULE
  0
DICTIONARY
  5
3F9CB
102
{ACAD_REACTORS
330
3F95
102
}
330
3F95
100
AcDbDictionary
281
     1
  0
DICTIONARY
  5
3F96
102
{ACAD_REACTORS
330
3F95
102
}
330
3F95
100
AcDbDictionary
281
     1
  3
20011210
350
3FB7
  0
DICTIONARY
  5
3F9CA
102
{ACAD_REACTORS
330
3F95
102
}
330
3F95
100
AcDbDictionary
281
     1
1001
ACAD
1000
<All
  0
DICTIONARY
  5
AAB4
102
{ACAD_REACTORS
330
3F95
102
}
330
3F95
100
AcDbDictionary
280
     1
281
     1
  0
SORTENTSTABLE
  5
B1BA
102
{ACAD_REACTORS
330
8A
102
}
330
8A
100
AcDbSortentsTable
330
1F
331
38D73
  5
38FBD
331
3CFF7
  5
3CFFD
331
38D6A
  5
38E2D
331
3CFFF
  5
3D005
331
2627E
  5
2627E
331
346B8
  5
3470A
331
3459B
  5
345BB
331
345DA
  5
345FB
331
3D007
  5
3D00D
331
38D66
  5
38E26
331
346C0
  5
3471B
331
345A3
  5
345C3
331
345E2
  5
34642
331
3C434
  5
346CA
331
34727
  5
36830
331
38FC6
  5
38FE6
331
345EA
  5
3468C
331
345AB
  5
345CB
331
346C8
  5
34730
331
346D0
  5
34738
331
38BBF
  5
346A8
331
345F2
  5
3469C
331
34691
  5
346D4
331
38FCE
  5
38FEE
331
345B3
  5
345D3
331
38FD6
  5
3907B
331
346FB
  5
36807
331
38DF2
  5
38FC0
331
34703
  5
36810
331
3D00A
  5
3D010
331
1EB3F
  5
1EB3F
331
346D8
  5
367F4
331
345BB
  5
345DB
331
345FA
  5
346A4
331
34699
  5
346E2
331
38FDE
  5
390DF
331
346A1
  5
346F1
331
345C3
  5
345E3
331
38BCF
  5
367F9
331
38BD7
  5
36824
331
346A9
  5
346F9
331
38FE6
  5
390E7
331
345CB
  5
345ED
331
346B1
  5
34701
331
38FEE
  5
390EF
331
345D3
  5
345F4
331
38D5F
  5
38E1F
331
3472B
  5
36833
331
38CDC
  5
38E1D
331
38D6B
  5
38E2E
331
3CFF8
  5
3CFFE
331
3D000
  5
3D006
331
2627F
  5
2627F
331
345DB
  5
34607
331
3459C
  5
345BC
331
346B9
  5
3470B
331
346C1
  5
3471C
331
34720
  5
36829
331
345A4
  5
345C4
331
345E3
  5
3464E
331
34682
  5
346CD
331
38D67
  5
38E2A
331
38FC7
  5
38FE7
331
346C9
  5
34731
331
345AC
  5
345CC
331
345EB
  5
3468E
331
38FCF
  5
38FEF
331
34692
  5
346D5
331
346D1
  5
3473D
331
345B4
  5
345D4
331
345F3
  5
3469E
331
38BC0
  5
346A9
331
3C43D
  5
346C9
331
38FD7
  5
390D8
331
346FC
  5
36808
331
34704
  5
36811
331
3D00B
  5
3D011
331
1EB40
  5
1EB40
331
345FB
  5
346A5
331
3469A
  5
346E6
331
345BC
  5
345DC
331
346D9
  5
367F5
331
38BD0
  5
367FA
331
34603
  5
346A6
331
346A2
  5
346F2
331
38FDF
  5
390E0
331
345C4
  5
345E4
331
3C3F6
  5
346C8
331
345CC
  5
345EE
331
346AA
  5
346FA
331
38FE7
  5
390E8
331
346B2
  5
34702
331
38FEF
  5
390F0
331
345D4
  5
345F6
331
3472C
  5
36834
331
3CFE9
  5
3CFF4
331
21FF0
  5
2215D
331
3CFF9
  5
3CFFF
331
38D6C
  5
38E31
331
3D001
  5
3D007
331
26280
  5
26280
331
38D60
  5
38E20
331
346BA
  5
3470C
331
3459D
  5
345BD
331
345DC
  5
3460C
331
34709
  5
36813
331
346C2
  5
3472A
331
345A5
  5
345C5
331
345E4
  5
3465A
331
34721
  5
3682A
331
38FC8
  5
38FE8
331
345EC
  5
3468F
331
345AD
  5
345CD
331
346CA
  5
34732
331
3C3A7
  5
346C7
331
346D2
  5
3473E
331
38BC1
  5
346AA
331
345B5
  5
345D5
331
345F4
  5
3469F
331
34693
  5
346D6
331
38FD0
  5
38FF0
331
3C446
  5
346C1
331
346FD
  5
36809
331
3D00C
  5
3D012
331
34705
  5
36812
331
1EB41
  5
1EB41
331
38FD8
  5
390D9
331
346DA
  5
367F6
331
345BD
  5
345DD
331
3469B
  5
346EB
331
38FE0
  5
390E1
331
346A3
  5
346F3
331
345C5
  5
345E5
331
346E2
  5
36802
331
346AB
  5
346FB
331
38FE8
  5
390E9
331
345CD
  5
345EF
331
346B3
  5
34703
331
3472D
  5
36835
331
3CFEA
  5
3CFF5
331
3473D
  5
3683E
331
21FF1
  5
2215E
331
38D6D
  5
38E55
331
3CFFA
  5
3D000
331
3D002
  5
3D008
331
26281
  5
26281
331
3470A
  5
36817
331
38D61
  5
38E21
331
345DD
  5
34612
331
3459E
  5
345BE
331
346BB
  5
3470E
331
38FF0
  5
390F1
331
345A6
  5
345C6
331
346C3
  5
3472B
331
34722
  5
3682B
331
38FC9
  5
38FE9
331
3468C
  5
346CF
331
346CB
  5
34733
331
345AE
  5
345CE
331
345ED
  5
34690
331
38FD1
  5
38FF1
331
34694
  5
346D7
331
346D3
  5
3664A
331
3C3E0
  5
346BA
331
345B6
  5
345D6
331
345F5
  5
346A0
331
346FE
  5
3680A
331
3D00D
  5
3D52A
331
34716
  5
36825
331
1EB3A
  5
1EB3A
331
3469C
  5
346EC
331
38FD9
  5
390DA
331
345BE
  5
345DE
331
3C44F
  5
346C0
331
345C6
  5
345E6
331
346A4
  5
346F4
331
38FE1
  5
390E2
331
38FE9
  5
390EA
331
345CE
  5
345F0
331
346AC
  5
346FC
331
346B4
  5
34704
331
345D6
  5
345F7
331
3472E
  5
36836
331
34736
  5
3683B
331
3CFEB
  5
3CFF6
331
21FF2
  5
22406
331
3CFFB
  5
3D001
331
38D6E
  5
38E57
331
3D003
  5
3D009
331
26282
  5
26282
331
38D62
  5
38E22
331
38FF1
  5
39185
331
3459F
  5
345BF
331
346BC
  5
34716
331
3470B
  5
36818
331
34723
  5
3682C
331
345A7
  5
345C7
331
346C4
  5
3472C
331
38FCA
  5
38FEA
331
345EE
  5
34691
331
3468D
  5
346D0
331
345AF
  5
345CF
331
346CC
  5
34734
331
346D4
  5
36654
331
345B7
  5
345D7
331
34695
  5
346D8
331
38FD2
  5
38FF2
331
346FF
  5
3680B
331
3D00E
  5
3D52B
331
1EB3B
  5
1EB3B
331
34717
  5
36826
331
38FDA
  5
390DB
331
3469D
  5
346ED
331
345BF
  5
345DF
331
214E3
  5
2154A
331
38BCB
  5
36801
331
346A5
  5
346F5
331
38FE2
  5
390E3
331
345C7
  5
345E7
331
3CEA0
  5
3CFED
331
346AD
  5
346FD
331
38FEA
  5
390EB
331
345CF
  5
345F1
331
3C401
  5
346CB
331
345D7
  5
345F8
331
346B5
  5
34705
331
3472F
  5
36837
331
3CFEC
  5
3CFF7
331
38D70
  5
38E5D
331
34737
  5
3683C
331
3D010
  5
3E527
331
3CFF4
  5
3CFFA
331
21FF3
  5
22408
331
38D6F
  5
38E59
331
3CFFC
  5
3D002
331
3D004
  5
3D00A
331
26283
  5
26283
331
38FF2
  5
391E6
331
3470C
  5
36819
331
38D63
  5
38E23
331
345DF
  5
3461E
331
3467E
  5
346CC
331
345A0
  5
345C0
331
346BD
  5
34717
331
346C5
  5
3472D
331
345A8
  5
345C8
331
345E7
  5
3467E
331
34724
  5
3682D
331
38FCB
  5
38FEB
331
3468E
  5
346D1
331
346CD
  5
34735
331
345B0
  5
345D0
331
345EF
  5
34692
331
38FD3
  5
38FF3
331
34696
  5
346D9
331
346D5
  5
36655
331
345F7
  5
346A1
331
346F8
  5
36804
331
34700
  5
3680D
331
3D00F
  5
3E526
331
34718
  5
36827
331
1EB3C
  5
1EB3C
331
345B8
  5
345D8
331
3469E
  5
346EE
331
38FDB
  5
390DC
331
345C0
  5
345E0
331
38BD4
  5
36820
331
345C8
  5
345E9
331
34607
  5
346A7
331
346A6
  5
346F6
331
38FE3
  5
390E4
331
346AE
  5
346FE
331
38FEB
  5
390EC
331
345D0
  5
345F2
331
3CEA1
  5
3CFEE
331
346B6
  5
34708
331
34728
  5
36831
331
34730
  5
36838
331
34738
  5
3683D
331
38D71
  5
38E5E
331
3CFED
  5
3CFF8
331
3CFF5
  5
3CFFB
331
3D011
  5
3E52A
331
38D68
  5
38E2B
331
3CFFD
  5
3D003
331
345D8
  5
345F9
331
3D005
  5
3D00B
331
38D64
  5
38E24
331
38FF3
  5
39269
331
346BE
  5
34718
331
345A1
  5
345C1
331
345E0
  5
3462A
331
3470D
  5
3681E
331
34725
  5
3682E
331
345E8
  5
34682
331
345A9
  5
345C9
331
346C6
  5
3472E
331
38BBD
  5
346AB
331
38FCC
  5
38FEC
331
3468F
  5
346D2
331
345B1
  5
345D1
331
346CE
  5
34736
331
346D6
  5
367F2
331
34697
  5
346DA
331
38FD4
  5
38FF4
331
346F9
  5
36805
331
34701
  5
3680E
331
3D008
  5
3D00E
331
34719
  5
36828
331
1EB3D
  5
1EB3D
331
345B9
  5
345D9
331
345F8
  5
346A2
331
2121D
  5
21225
331
38FDC
  5
390DD
331
3C3EB
  5
346B9
331
3469F
  5
346EF
331
345C1
  5
345E1
331
38BCD
  5
367F7
331
38BD5
  5
36821
331
38FE4
  5
390E5
331
346A7
  5
346F7
331
345C9
  5
345EA
331
346E6
  5
36803
331
38BDD
  5
36823
331
346AF
  5
346FF
331
38FEC
  5
390ED
331
346B7
  5
34709
331
34729
  5
36832
331
38D72
  5
38E61
331
3CFEE
  5
3CFF9
331
3CFF6
  5
3CFFC
331
3D012
  5
3E52B
331
38D69
  5
38E2C
331
2627D
  5
2627D
331
3CFFE
  5
3D004
331
345D9
  5
345FA
331
3D006
  5
3D00C
331
38FF4
  5
3926B
331
346BF
  5
3471A
331
345E1
  5
34636
331
3470E
  5
3681F
331
38D65
  5
38E25
331
345A2
  5
345C2
331
346C7
  5
3472F
331
34726
  5
3682F
331
345AA
  5
345CA
331
345E9
  5
34688
331
34688
  5
346CE
331
38FC5
  5
38FE5
331
38FCD
  5
38FED
331
34690
  5
346D3
331
345B2
  5
345D2
331
346CF
  5
34737
331
38FD5
  5
39023
331
346D7
  5
367F3
331
346FA
  5
36806
331
34702
  5
3680F
331
3D009
  5
3D00F
331
1EB3E
  5
1EB3E
331
345F9
  5
346A3
331
34698
  5
346DB
331
345BA
  5
345DA
331
38BCE
  5
367F8
331
346A0
  5
346F0
331
38FDD
  5
390DE
331
345C2
  5
345E2
331
38BD6
  5
36822
331
345CA
  5
345EB
331
346A8
  5
346F8
331
38FE5
  5
390E6
331
346B0
  5
34700
331
38FED
  5
390EE
331
345D2
  5
345F3
331
38D5E
  5
38E1E
  0
XRECORD
  5
52837
102
{ACAD_REACTORS
330
52836
102
}
330
52836
100
AcDbXrecord
280
     1
 70
     1
  0
LAYOUT
  5
22
102
{ACAD_XDICTIONARY
360
5283A
102
}
102
{ACAD_REACTORS
330
1A
102
}
330
1A
100
AcDbPlotSettings
  1

  2
Adobe PDF
  4
A4
  6

 40
3.174999952316283
 41
3.174999952316283
 42
3.175003051757812
 43
3.17498779296875
 44
209.9733276367186
 45
297.0318298339844
 46
0.0000000000000142
 47
1.364832920257498
 48
7017.194750291371
 49
-3860.982271409579
140
7437.194750291372
141
-3563.982271409579
142
1.0
143
1.458575536647462
 70
  3764
 72
     1
 73
     1
 74
     4
  7
monochrome.ctb
 75
     0
147
0.6856004196385343
148
-7017.194750291371
149
3860.982271409579
100
AcDbLayout
  1
Model
 70
     1
 71
     0
 10
0.0
 20
0.0
 11
12.0
 21
9.0
 12
0.0
 22
0.0
 32
0.0
 14
0.0
 24
0.0
 34
0.0
 15
0.0
 25
0.0
 35
0.0
146
0.0
 13
0.0
 23
0.0
 33
0.0
 16
1.0
 26
0.0
 36
0.0
 17
0.0
 27
1.0
 37
0.0
 76
     0
330
1F
331
B0EC
1001
ACAD_PSEXT
1000
Adobe PDF
1000
Adobe PDF Converter
1000
My Documents\*.pdf
1000

1070
     0
  0
LAYOUT
  5
1E
102
{ACAD_XDICTIONARY
360
52838
102
}
102
{ACAD_REACTORS
330
1A
102
}
330
1A
100
AcDbPlotSettings
  1

  2
\\ML370\XEROX
  4
A4
  6

 40
3.174999952316283
 41
3.174999952316283
 42
3.175003051757812
 43
3.17498779296875
 44
209.8674926757813
 45
296.6719970703125
 46
0.0
 47
0.0
 48
0.0
 49
0.0
140
0.0
141
0.0
142
1.0
143
1.0
 70
   688
 72
     1
 73
     1
 74
     5
  7
monochrome.ctb
 75
    16
147
1.0
148
0.0
149
0.0
100
AcDbLayout
  1
ﾚｲｱｳﾄ1
 70
     1
 71
     1
 10
-3.17498779296875
 20
-3.174999952316283
 11
293.4970092773438
 21
206.692492723465
 12
0.0
 22
0.0
 32
0.0
 14
1.000000000000000E+20
 24
1.000000000000000E+20
 34
1.000000000000000E+20
 15
-1.000000000000000E+20
 25
-1.000000000000000E+20
 35
-1.000000000000000E+20
146
0.0
 13
0.0
 23
0.0
 33
0.0
 16
1.0
 26
0.0
 36
0.0
 17
0.0
 27
1.0
 37
0.0
 76
     0
330
1B
  0
LAYOUT
  5
26
102
{ACAD_XDICTIONARY
360
5283C
102
}
102
{ACAD_REACTORS
330
1A
102
}
330
1A
100
AcDbPlotSettings
  1

  2
\\ML370\XEROX
  4

  6

 40
0.0
 41
0.0
 42
0.0
 43
0.0
 44
0.0
 45
0.0
 46
0.0
 47
0.0
 48
0.0
 49
0.0
140
0.0
141
0.0
142
1.0
143
1.0
 70
   688
 72
     0
 73
     0
 74
     5
  7
monochrome.ctb
 75
    16
147
1.0
148
0.0
149
0.0
100
AcDbLayout
  1
ﾚｲｱｳﾄ2
 70
     1
 71
     2
 10
0.0
 20
0.0
 11
12.0
 21
9.0
 12
0.0
 22
0.0
 32
0.0
 14
0.0
 24
0.0
 34
0.0
 15
0.0
 25
0.0
 35
0.0
146
0.0
 13
0.0
 23
0.0
 33
0.0
 16
1.0
 26
0.0
 36
0.0
 17
0.0
 27
1.0
 37
0.0
 76
     0
330
23
  0
MATERIAL
  5
B0EF
102
{ACAD_XDICTIONARY
360
527AE
102
}
102
{ACAD_REACTORS
330
A91C
102
}
330
A91C
100
AcDbMaterial
  1
ByBlock
  0
MATERIAL
  5
B0EE
102
{ACAD_XDICTIONARY
360
527AC
102
}
102
{ACAD_REACTORS
330
A91C
102
}
330
A91C
100
AcDbMaterial
  1
ByLayer
  0
MATERIAL
  5
B0F0
102
{ACAD_XDICTIONARY
360
527B0
102
}
102
{ACAD_REACTORS
330
A91C
102
}
330
A91C
100
AcDbMaterial
  1
Global
  0
MLINESTYLE
  5
18
102
{ACAD_REACTORS
330
17
102
}
330
17
100
AcDbMlineStyle
  2
STANDARD
 70
     0
  3

 62
   256
 51
90.0
 52
90.0
 71
     2
 49
0.5
 62
   256
  6
BYLAYER
 49
-0.5
 62
   256
  6
BYLAYER
  0
ACDBPLACEHOLDER
  5
F
102
{ACAD_REACTORS
330
E
102
}
330
E
  0
TABLESTYLE
  5
AABA
102
{ACAD_XDICTIONARY
360
5283E
102
}
102
{ACAD_REACTORS
330
AAB9
102
}
330
AAB9
100
AcDbTableStyle
  3
Standard
 70
     0
 71
     0
 40
1.5
 41
1.5
280
     0
281
     0
  7
STANDARD
140
4.5
170
     2
 62
     0
 63
     7
283
     0
274
    -2
284
     1
 64
     0
275
    -2
285
     1
 65
     0
276
    -2
286
     1
 66
     0
277
    -2
287
     1
 67
     0
278
    -2
288
     1
 68
     0
279
    -2
289
     1
 69
     0
  7
STANDARD
140
6.0
170
     5
 62
     0
 63
     7
283
     0
274
    -2
284
     1
 64
     0
275
    -2
285
     1
 65
     0
276
    -2
286
     1
 66
     0
277
    -2
287
     1
 67
     0
278
    -2
288
     1
 68
     0
279
    -2
289
     1
 69
     0
  7
STANDARD
140
4.5
170
     5
 62
     0
 63
     7
283
     0
274
    -2
284
     1
 64
     0
275
    -2
285
     1
 65
     0
276
    -2
286
     1
 66
     0
277
    -2
287
     1
 67
     0
278
    -2
288
     1
 68
     0
279
    -2
289
     1
 69
     0
  0
VISUALSTYLE
  5
B0F7
102
{ACAD_REACTORS
330
B0F1
102
}
330
B0F1
100
AcDbVisualStyle
  2
2dWireframe
 70
     4
 71
     0
 72
     2
 73
     0
 90
        0
 40
-0.6
 41
-30.0
 62
     5
 63
     7
 74
     1
 91
        4
 64
     7
 65
   257
 75
     1
175
     1
 42
1.0
 92
        0
 66
   257
 43
1.0
 76
     1
 77
     6
 78
     2
 67
     7
 79
     5
170
     0
171
     0
290
     0
174
     0
 93
        1
 44
0.0
173
     0
291
     0
 45
0.0
1001
ACAD
1000
AcDbSavedByObjectVersion
1070
     0
1000
AcDbSavedByObjectVersion
1070
     0
  0
VISUALSTYLE
  5
B0F9
102
{ACAD_REACTORS
330
B0F1
102
}
330
B0F1
100
AcDbVisualStyle
  2
3D Hidden
 70
     6
 71
     1
 72
     2
 73
     2
 90
        0
 40
-0.6
 41
-30.0
 62
     5
 63
     7
 74
     2
 91
        2
 64
     7
 65
   257
 75
     2
175
     1
 42
40.0
 92
        0
 66
   257
 43
1.0
 76
     1
 77
     6
 78
     2
 67
     7
 79
     3
170
     0
171
     0
290
     0
174
     0
 93
        1
 44
0.0
173
     0
291
     0
 45
0.0
1001
ACAD
1000
AcDbSavedByObjectVersion
1070
     0
1000
AcDbSavedByObjectVersion
1070
     0
  0
VISUALSTYLE
  5
B0F8
102
{ACAD_REACTORS
330
B0F1
102
}
330
B0F1
100
AcDbVisualStyle
  2
3dWireframe
 70
     5
 71
     0
 72
     2
 73
     0
 90
        0
 40
-0.6
 41
-30.0
 62
     5
 63
     7
 74
     1
 91
        4
 64
     7
 65
   257
 75
     1
175
     1
 42
1.0
 92
        0
 66
   257
 43
1.0
 76
     1
 77
     6
 78
     2
 67
     7
 79
     5
170
     0
171
     0
290
     0
174
     0
 93
        1
 44
0.0
173
     0
291
     0
 45
0.0
1001
ACAD
1000
AcDbSavedByObjectVersion
1070
     0
1000
AcDbSavedByObjectVersion
1070
     0
  0
VISUALSTYLE
  5
B0F6
102
{ACAD_REACTORS
330
B0F1
102
}
330
B0F1
100
AcDbVisualStyle
  2
Basic
 70
     7
 71
     1
 72
     0
 73
     1
 90
        0
 40
-0.6
 41
-30.0
 62
     5
 63
     7
 74
     0
 91
        4
 64
     7
 65
   257
 75
     1
175
     1
 42
1.0
 92
        8
 66
     7
 43
1.0
 76
     1
 77
     6
 78
     2
 67
     7
 79
     5
170
     0
171
     0
290
     0
174
     0
 93
        1
 44
0.0
173
     0
291
     1
 45
0.0
1001
ACAD
1000
AcDbSavedByObjectVersion
1070
     0
1000
AcDbSavedByObjectVersion
1070
     0
  0
VISUALSTYLE
  5
B0FD
102
{ACAD_REACTORS
330
B0F1
102
}
330
B0F1
100
AcDbVisualStyle
  2
Brighten
 70
    12
 71
     2
 72
     2
 73
     0
 90
        0
 40
-0.6
 41
-30.0
 62
     5
 63
     7
 74
     1
 91
        4
 64
     7
 65
   257
 75
     1
175
     1
 42
1.0
 92
        8
 66
     7
 43
1.0
 76
     1
 77
     6
 78
     2
 67
     7
 79
     5
170
     0
171
     0
290
     0
174
     0
 93
        1
 44
50.0
173
     0
291
     1
 45
0.0
1001
ACAD
1000
AcDbSavedByObjectVersion
1070
     0
1000
AcDbSavedByObjectVersion
1070
     0
  0
VISUALSTYLE
  5
B101
102
{ACAD_REACTORS
330
B0F1
102
}
330
B0F1
100
AcDbVisualStyle
  2
ColorChange
 70
    16
 71
     2
 72
     2
 73
     3
 90
        0
 40
-0.6
 41
-30.0
 62
     5
 63
     8
 74
     1
 91
        4
 64
     7
 65
   257
 75
     1
175
     1
 42
1.0
 92
        8
 66
     8
 43
1.0
 76
     1
 77
     6
 78
     2
 67
     7
 79
     5
170
     0
171
     0
290
     0
174
     0
 93
        1
 44
0.0
173
     0
291
     1
 45
0.0
1001
ACAD
1000
AcDbSavedByObjectVersion
1070
     0
1000
AcDbSavedByObjectVersion
1070
     0
  0
VISUALSTYLE
  5
B0FA
102
{ACAD_REACTORS
330
B0F1
102
}
330
B0F1
100
AcDbVisualStyle
  2
Conceptual
 70
     9
 71
     3
 72
     2
 73
     0
 90
        0
 40
-0.6
 41
-30.0
 62
     5
 63
     7
 74
     2
 91
        2
 64
     7
 65
   257
 75
     1
175
     1
 42
40.0
 92
        8
 66
     7
 43
1.0
 76
     1
 77
     6
 78
     2
 67
     7
 79
     3
170
     0
171
     0
290
     0
174
     0
 93
        1
 44
0.0
173
     0
291
     0
 45
0.0
1001
ACAD
1000
AcDbSavedByObjectVersion
1070
     0
1000
AcDbSavedByObjectVersion
1070
     0
  0
VISUALSTYLE
  5
B0FC
102
{ACAD_REACTORS
330
B0F1
102
}
330
B0F1
100
AcDbVisualStyle
  2
Dim
 70
    11
 71
     2
 72
     2
 73
     0
 90
        0
 40
-0.6
 41
-30.0
 62
     5
 63
     7
 74
     1
 91
        4
 64
     7
 65
   257
 75
     1
175
     1
 42
1.0
 92
        8
 66
     7
 43
1.0
 76
     1
 77
     6
 78
     2
 67
     7
 79
     5
170
     0
171
     0
290
     0
174
     0
 93
        1
 44
-50.0
173
     0
291
     1
 45
0.0
1001
ACAD
1000
AcDbSavedByObjectVersion
1070
     0
1000
AcDbSavedByObjectVersion
1070
     0
  0
VISUALSTYLE
  5
B100
102
{ACAD_REACTORS
330
B0F1
102
}
330
B0F1
100
AcDbVisualStyle
  2
Facepattern
 70
    15
 71
     2
 72
     2
 73
     0
 90
        0
 40
-0.6
 41
-30.0
 62
     5
 63
     7
 74
     1
 91
        4
 64
     7
 65
   257
 75
     1
175
     1
 42
1.0
 92
        8
 66
     7
 43
1.0
 76
     1
 77
     6
 78
     2
 67
     7
 79
     5
170
     0
171
     0
290
     0
174
     0
 93
        1
 44
0.0
173
     0
291
     1
 45
0.0
1001
ACAD
1000
AcDbSavedByObjectVersion
1070
     0
1000
AcDbSavedByObjectVersion
1070
     0
  0
VISUALSTYLE
  5
B0F2
102
{ACAD_REACTORS
330
B0F1
102
}
330
B0F1
100
AcDbVisualStyle
  2
Flat
 70
     0
 71
     2
 72
     1
 73
     1
 90
        2
 40
-0.6
 41
30.0
 62
     5
 63
     7
 74
     0
 91
        4
 64
     7
 65
   257
 75
     1
175
     1
 42
1.0
 92
        8
 66
     7
 43
1.0
 76
     1
 77
     6
 78
     2
 67
     7
 79
     5
170
     0
171
     0
290
     0
174
     0
 93
       13
 44
0.0
173
     0
291
     1
 45
0.0
1001
ACAD
1000
AcDbSavedByObjectVersion
1070
     0
1000
AcDbSavedByObjectVersion
1070
     0
  0
VISUALSTYLE
  5
B0F3
102
{ACAD_REACTORS
330
B0F1
102
}
330
B0F1
100
AcDbVisualStyle
  2
FlatWithEdges
 70
     1
 71
     2
 72
     1
 73
     1
 90
        2
 40
-0.6
 41
30.0
 62
     5
 63
     7
 74
     1
 91
        4
 64
     7
 65
   257
 75
     1
175
     1
 42
1.0
 92
        0
 66
   257
 43
1.0
 76
     1
 77
     6
 78
     2
 67
     7
 79
     5
170
     0
171
     0
290
     0
174
     0
 93
       13
 44
0.0
173
     0
291
     1
 45
0.0
1001
ACAD
1000
AcDbSavedByObjectVersion
1070
     0
1000
AcDbSavedByObjectVersion
1070
     0
  0
VISUALSTYLE
  5
B0F4
102
{ACAD_REACTORS
330
B0F1
102
}
330
B0F1
100
AcDbVisualStyle
  2
Gouraud
 70
     2
 71
     2
 72
     2
 73
     1
 90
        2
 40
-0.6
 41
30.0
 62
     5
 63
     7
 74
     0
 91
        4
 64
     7
 65
   257
 75
     1
175
     1
 42
1.0
 92
        0
 66
     7
 43
1.0
 76
     1
 77
     6
 78
     2
 67
     7
 79
     5
170
     0
171
     0
290
     0
174
     0
 93
       13
 44
0.0
173
     0
291
     1
 45
0.0
1001
ACAD
1000
AcDbSavedByObjectVersion
1070
     0
1000
AcDbSavedByObjectVersion
1070
     0
  0
VISUALSTYLE
  5
B0F5
102
{ACAD_REACTORS
330
B0F1
102
}
330
B0F1
100
AcDbVisualStyle
  2
GouraudWithEdges
 70
     3
 71
     2
 72
     2
 73
     1
 90
        2
 40
-0.6
 41
30.0
 62
     5
 63
     7
 74
     1
 91
        4
 64
     7
 65
   257
 75
     1
175
     1
 42
1.0
 92
        0
 66
   257
 43
1.0
 76
     1
 77
     6
 78
     2
 67
     7
 79
     5
170
     0
171
     0
290
     0
174
     0
 93
       13
 44
0.0
173
     0
291
     1
 45
0.0
1001
ACAD
1000
AcDbSavedByObjectVersion
1070
     0
1000
AcDbSavedByObjectVersion
1070
     0
  0
VISUALSTYLE
  5
B0FF
102
{ACAD_REACTORS
330
B0F1
102
}
330
B0F1
100
AcDbVisualStyle
  2
Linepattern
 70
    14
 71
     2
 72
     2
 73
     0
 90
        0
 40
-0.6
 41
-30.0
 62
     5
 63
     7
 74
     1
 91
        4
 64
     7
 65
   257
 75
     7
175
     7
 42
1.0
 92
        8
 66
     7
 43
1.0
 76
     1
 77
     6
 78
     2
 67
     7
 79
     5
170
     0
171
     0
290
     0
174
     0
 93
        1
 44
0.0
173
     0
291
     1
 45
0.0
1001
ACAD
1000
AcDbSavedByObjectVersion
1070
     0
1000
AcDbSavedByObjectVersion
1070
     0
  0
VISUALSTYLE
  5
B0FB
102
{ACAD_REACTORS
330
B0F1
102
}
330
B0F1
100
AcDbVisualStyle
  2
Realistic
 70
     8
 71
     2
 72
     2
 73
     0
 90
        0
 40
-0.6
 41
-30.0
 62
     5
 63
     7
 74
     1
 91
        0
 64
     7
 65
   257
 75
     1
175
     1
 42
1.0
 92
        8
 66
     8
 43
1.0
 76
     1
 77
     6
 78
     2
 67
     7
 79
     5
170
     0
171
     0
290
     0
174
     0
 93
       13
 44
0.0
173
     0
291
     0
 45
0.0
1001
ACAD
1000
AcDbSavedByObjectVersion
1070
     0
1000
AcDbSavedByObjectVersion
1070
     0
  0
VISUALSTYLE
  5
B0FE
102
{ACAD_REACTORS
330
B0F1
102
}
330
B0F1
100
AcDbVisualStyle
  2
Thicken
 70
    13
 71
     2
 72
     2
 73
     0
 90
        0
 40
-0.6
 41
-30.0
 62
     5
 63
     7
 74
     1
 91
        4
 64
     7
 65
   257
 75
     1
175
     1
 42
1.0
 92
       12
 66
     7
 43
1.0
 76
     1
 77
     6
 78
     2
 67
     7
 79
     5
170
     0
171
     0
290
     0
174
     0
 93
        1
 44
0.0
173
     0
291
     1
 45
0.0
1001
ACAD
1000
AcDbSavedByObjectVersion
1070
     0
1000
AcDbSavedByObjectVersion
1070
     0
  0
DICTIONARYVAR
  5
AAF3
102
{ACAD_REACTORS
330
34
102
}
330
34
100
DictionaryVariables
280
     0
  1
STANDARD
  0
DICTIONARYVAR
  5
A10C
102
{ACAD_REACTORS
330
34
102
}
330
34
100
DictionaryVariables
280
     0
  1
1
  0
DICTIONARYVAR
  5
AB07
102
{ACAD_REACTORS
330
34
102
}
330
34
100
DictionaryVariables
280
     0
  1
4
  0
DICTIONARYVAR
  5
EB56
102
{ACAD_REACTORS
330
34
102
}
330
34
100
DictionaryVariables
280
     0
  1
0.000000;0.000000
  0
DICTIONARYVAR
  5
35
102
{ACAD_REACTORS
330
34
102
}
330
34
100
DictionaryVariables
280
     0
  1
0
  0
DICTIONARYVAR
  5
194C
102
{ACAD_REACTORS
330
34
102
}
330
34
100
DictionaryVariables
280
     0
  1
127
  0
DICTIONARY
  5
7E8
102
{ACAD_REACTORS
330
47
102
}
330
47
100
AcDbDictionary
281
     1
  0
DICTIONARY
  5
4C
102
{ACAD_REACTORS
330
47
102
}
330
47
100
AcDbDictionary
281
     1
  0
XRECORD
  5
A929
102
{ACAD_REACTORS
330
47
102
}
330
47
100
AcDbXrecord
280
     1
 90
-1023410169
  0
XRECORD
  5
B332
102
{ACAD_REACTORS
330
B331
102
}
330
B331
100
AcDbXrecord
280
     1
  0
XRECORD
  5
3FB7
102
{ACAD_REACTORS
330
3F96
102
}
330
3F96
100
AcDbXrecord
280
     1
 91
        3
330
0
 90
        8
 62
     7
370
    40
331
16
  1
Color_7
330
0
 90
        0
 62
    14
370
    -3
331
16
  1
Color_14
330
0
 90
        8
 62
     7
370
    20
331
16
  1
Color_7
330
6D1
 90
        0
 62
     7
370
    -3
331
16
  1
Color_7
330
0
 90
        8
 62
     7
370
    50
331
16
  1
Color_7
330
0
 90
        8
 62
     2
370
    35
331
16
  1
Color_2
330
0
 90
        8
 62
     7
370
    -3
331
16
  1
Color_7
330
10
 90
        8
 62
     7
370
    -3
331
16
  1
Color_7
  0
DICTIONARY
  5
5283A
330
22
100
AcDbDictionary
280
     1
281
     1
  3
ACAD_XREC_ROUNDTRIP
360
5283B
  0
DICTIONARY
  5
52838
330
1E
100
AcDbDictionary
280
     1
281
     1
  3
ACAD_XREC_ROUNDTRIP
360
52839
  0
DICTIONARY
  5
5283C
330
26
100
AcDbDictionary
280
     1
281
     1
  3
ACAD_XREC_ROUNDTRIP
360
5283D
  0
DICTIONARY
  5
527AE
330
B0EF
100
AcDbDictionary
280
     1
281
     1
  3
ACAD_XREC_ROUNDTRIP
360
527AF
  0
DICTIONARY
  5
527AC
330
B0EE
100
AcDbDictionary
280
     1
281
     1
  3
ACAD_XREC_ROUNDTRIP
360
527AD
  0
DICTIONARY
  5
527B0
330
B0F0
100
AcDbDictionary
280
     1
281
     1
  3
ACAD_XREC_ROUNDTRIP
360
527B1
  0
DICTIONARY
  5
5283E
330
AABA
100
AcDbDictionary
280
     1
281
     1
  3
ACAD_XREC_ROUNDTRIP
360
5283F
  0
XRECORD
  5
5283B
102
{ACAD_REACTORS
330
5283A
102
}
330
5283A
100
AcDbXrecord
280
     1
102
SHADEPLOT
 70
     1
102
SHADEPLOTRESLEVEL
 70
     2
102
SHADEPLOTCUSTOMDPI
 70
   300
  0
XRECORD
  5
52839
102
{ACAD_REACTORS
330
52838
102
}
330
52838
100
AcDbXrecord
280
     1
102
SHADEPLOT
 70
     0
102
SHADEPLOTRESLEVEL
 70
     2
102
SHADEPLOTCUSTOMDPI
 70
   300
  0
XRECORD
  5
5283D
102
{ACAD_REACTORS
330
5283C
102
}
330
5283C
100
AcDbXrecord
280
     1
102
SHADEPLOT
 70
     0
102
SHADEPLOTRESLEVEL
 70
     2
102
SHADEPLOTCUSTOMDPI
 70
   300
  0
XRECORD
  5
527AF
102
{ACAD_REACTORS
330
527AE
102
}
330
527AE
100
AcDbXrecord
280
     1
102
MATERIAL
148
0.0
149
0.0
149
0.0
 93
        0
 94
       63
282
     0
 72
     1
 77
     1
171
     1
175
     1
179
     1
273
     0
  0
XRECORD
  5
527AD
102
{ACAD_REACTORS
330
527AC
102
}
330
527AC
100
AcDbXrecord
280
     1
102
MATERIAL
148
0.0
149
0.0
149
0.0
 93
        0
 94
       63
282
     0
 72
     1
 77
     1
171
     1
175
     1
179
     1
273
     0
  0
XRECORD
  5
527B1
102
{ACAD_REACTORS
330
527B0
102
}
330
527B0
100
AcDbXrecord
280
     1
102
MATERIAL
148
0.0
149
0.0
149
0.0
 93
        0
 94
       63
282
     0
 72
     1
 77
     1
171
     1
175
     1
179
     1
273
     0
  0
XRECORD
  5
5283F
102
{ACAD_REACTORS
330
5283E
102
}
330
5283E
100
AcDbXrecord
280
     1
102
ACAD_ROUNDTRIP_PRE2007_TABLESTYLE
 90
        4
 91
        0
  1

 92
        4
 93
        0
  2

 94
        4
 95
        0
  3

  0
ENDSEC
  0
EOF
