  0
SECTION
  2
HEADER
  9
$ACADVER
  1
AC1018
  9
$ACADMAINTVER
 70
   104
  9
$DWGCODEPAGE
  3
ANSI_932
  9
$LASTSAVEDBY
  1
Administrator
  9
$CUSTOMPROPERTYTAG
  1
AmdtFileType
  9
$CUSTOMPROPERTY
  1
84
  9
$INSBASE
 10
0.0
 20
0.0
 30
0.0
  9
$EXTMIN
 10
0.0
 20
0.0
 30
0.0
  9
$EXTMAX
 10
420.0
 20
297.0
 30
0.0
  9
$LIMMIN
 10
0.0
 20
0.0
  9
$LIMMAX
 10
420.0
 20
297.0
  9
$ORTHOMODE
 70
     0
  9
$REGENMODE
 70
     1
  9
$FILLMODE
 70
     1
  9
$QTEXTMODE
 70
     0
  9
$MIRRTEXT
 70
     0
  9
$LTSCALE
 40
1.0
  9
$ATTMODE
 70
     1
  9
$TEXTSIZE
 40
3.2
  9
$TRACEWID
 40
1.0
  9
$TEXTSTYLE
  7
STANDARD
  9
$CLAYER
  8
AM_0
  9
$CELTYPE
  6
ByLayer
  9
$CECOLOR
 62
   256
  9
$CELTSCALE
 40
10.0
  9
$DISPSILH
 70
     0
  9
$DIMSCALE
 40
1.0
  9
$DIMASZ
 40
1.0
  9
$DIMEXO
 40
1.0
  9
$DIMDLI
 40
10.0
  9
$DIMRND
 40
0.0
  9
$DIMDLE
 40
0.0
  9
$DIMEXE
 40
1.0
  9
$DIMTP
 40
0.1
  9
$DIMTM
 40
0.1
  9
$DIMTXT
 40
3.5
  9
$DIMCEN
 40
0.0
  9
$DIMTSZ
 40
0.0
  9
$DIMTOL
 70
     0
  9
$DIMLIM
 70
     0
  9
$DIMTIH
 70
     0
  9
$DIMTOH
 70
     0
  9
$DIMSE1
 70
     0
  9
$DIMSE2
 70
     0
  9
$DIMTAD
 70
     1
  9
$DIMZIN
 70
     8
  9
$DIMBLK
  1

  9
$DIMASO
 70
     1
  9
$DIMSHO
 70
     1
  9
$DIMPOST
  1

  9
$DIMAPOST
  1
"
  9
$DIMALT
 70
     0
  9
$DIMALTD
 70
     2
  9
$DIMALTF
 40
0.0393701
  9
$DIMLFAC
 40
1.0
  9
$DIMTOFL
 70
     1
  9
$DIMTVP
 40
0.0
  9
$DIMTIX
 70
     0
  9
$DIMSOXD
 70
     0
  9
$DIMSAH
 70
     0
  9
$DIMBLK1
  1

  9
$DIMBLK2
  1

  9
$DIMSTYLE
  2
SYS
  9
$DIMCLRD
 70
   256
  9
$DIMCLRE
 70
   256
  9
$DIMCLRT
 70
     7
  9
$DIMTFAC
 40
0.71
  9
$DIMGAP
 40
1.5
  9
$DIMJUST
 70
     0
  9
$DIMSD1
 70
     0
  9
$DIMSD2
 70
     0
  9
$DIMTOLJ
 70
     0
  9
$DIMTZIN
 70
     8
  9
$DIMALTZ
 70
     0
  9
$DIMALTTZ
 70
     0
  9
$DIMUPT
 70
     0
  9
$DIMDEC
 70
     2
  9
$DIMTDEC
 70
     2
  9
$DIMALTU
 70
     2
  9
$DIMALTTD
 70
     2
  9
$DIMTXSTY
  7
STANDARD
  9
$DIMAUNIT
 70
     0
  9
$DIMADEC
 70
     0
  9
$DIMALTRND
 40
0.0
  9
$DIMAZIN
 70
     2
  9
$DIMDSEP
 70
    46
  9
$DIMATFIT
 70
     3
  9
$DIMFRAC
 70
     0
  9
$DIMLDRBLK
  1

  9
$DIMLUNIT
 70
     2
  9
$DIMLWD
 70
    -1
  9
$DIMLWE
 70
    -1
  9
$DIMTMOVE
 70
     0
  9
$LUNITS
 70
     2
  9
$LUPREC
 70
     2
  9
$SKETCHINC
 40
1.0
  9
$FILLETRAD
 40
1.0
  9
$AUNITS
 70
     0
  9
$AUPREC
 70
     0
  9
$MENU
  1
.
  9
$ELEVATION
 40
0.0
  9
$PELEVATION
 40
0.0
  9
$THICKNESS
 40
0.0
  9
$LIMCHECK
 70
     0
  9
$CHAMFERA
 40
0.0
  9
$CHAMFERB
 40
0.0
  9
$CHAMFERC
 40
20.0
  9
$CHAMFERD
 40
0.0
  9
$SKPOLY
 70
     0
  9
$TDCREATE
 40
2454123.447246817
  9
$TDUCREATE
 40
2454123.072246817
  9
$TDUPDATE
 40
2455847.485529143
  9
$TDUUPDATE
 40
2455847.110529143
  9
$TDINDWG
 40
0.7004540972
  9
$TDUSRTIMER
 40
0.7004540972
  9
$USRTIMER
 70
     1
  9
$ANGBASE
 50
0.0
  9
$ANGDIR
 70
     0
  9
$PDMODE
 70
     0
  9
$PDSIZE
 40
-3.0
  9
$PLINEWID
 40
0.0
  9
$SPLFRAME
 70
     0
  9
$SPLINETYPE
 70
     6
  9
$SPLINESEGS
 70
     8
  9
$HANDSEED
  5
D503
  9
$SURFTAB1
 70
     6
  9
$SURFTAB2
 70
     6
  9
$SURFTYPE
 70
     6
  9
$SURFU
 70
     6
  9
$SURFV
 70
     6
  9
$UCSBASE
  2

  9
$UCSNAME
  2

  9
$UCSORG
 10
0.0
 20
0.0
 30
0.0
  9
$UCSXDIR
 10
1.0
 20
0.0
 30
0.0
  9
$UCSYDIR
 10
0.0
 20
1.0
 30
0.0
  9
$UCSORTHOREF
  2

  9
$UCSORTHOVIEW
 70
     0
  9
$UCSORGTOP
 10
0.0
 20
0.0
 30
0.0
  9
$UCSORGBOTTOM
 10
0.0
 20
0.0
 30
0.0
  9
$UCSORGLEFT
 10
0.0
 20
0.0
 30
0.0
  9
$UCSORGRIGHT
 10
0.0
 20
0.0
 30
0.0
  9
$UCSORGFRONT
 10
0.0
 20
0.0
 30
0.0
  9
$UCSORGBACK
 10
0.0
 20
0.0
 30
0.0
  9
$PUCSBASE
  2

  9
$PUCSNAME
  2

  9
$PUCSORG
 10
0.0
 20
0.0
 30
0.0
  9
$PUCSXDIR
 10
1.0
 20
0.0
 30
0.0
  9
$PUCSYDIR
 10
0.0
 20
1.0
 30
0.0
  9
$PUCSORTHOREF
  2

  9
$PUCSORTHOVIEW
 70
     0
  9
$PUCSORGTOP
 10
0.0
 20
0.0
 30
0.0
  9
$PUCSORGBOTTOM
 10
0.0
 20
0.0
 30
0.0
  9
$PUCSORGLEFT
 10
0.0
 20
0.0
 30
0.0
  9
$PUCSORGRIGHT
 10
0.0
 20
0.0
 30
0.0
  9
$PUCSORGFRONT
 10
0.0
 20
0.0
 30
0.0
  9
$PUCSORGBACK
 10
0.0
 20
0.0
 30
0.0
  9
$USERI1
 70
     0
  9
$USERI2
 70
     0
  9
$USERI3
 70
     0
  9
$USERI4
 70
     0
  9
$USERI5
 70
     0
  9
$USERR1
 40
0.0
  9
$USERR2
 40
0.0
  9
$USERR3
 40
0.0
  9
$USERR4
 40
0.0
  9
$USERR5
 40
0.0
  9
$WORLDVIEW
 70
     1
  9
$SHADEDGE
 70
     3
  9
$SHADEDIF
 70
    70
  9
$TILEMODE
 70
     1
  9
$MAXACTVP
 70
    64
  9
$PINSBASE
 10
0.0
 20
0.0
 30
0.0
  9
$PLIMCHECK
 70
     0
  9
$PEXTMIN
 10
1.000000000000000E+20
 20
1.000000000000000E+20
 30
1.000000000000000E+20
  9
$PEXTMAX
 10
-1.000000000000000E+20
 20
-1.000000000000000E+20
 30
-1.000000000000000E+20
  9
$PLIMMIN
 10
-3.17498779296875
 20
-3.174999952316284
  9
$PLIMMAX
 10
293.4970092773438
 20
206.692492723465
  9
$UNITMODE
 70
     0
  9
$VISRETAIN
 70
     1
  9
$PLINEGEN
 70
     0
  9
$PSLTSCALE
 70
     1
  9
$TREEDEPTH
 70
  3020
  9
$CMLSTYLE
  2
Standard
  9
$CMLJUST
 70
     0
  9
$CMLSCALE
 40
20.0
  9
$PROXYGRAPHICS
 70
     1
  9
$MEASUREMENT
 70
     1
  9
$CELWEIGHT
370
    -1
  9
$ENDCAPS
280
     0
  9
$JOINSTYLE
280
     0
  9
$LWDISPLAY
290
     1
  9
$INSUNITS
 70
     4
  9
$HYPERLINKBASE
  1

  9
$STYLESHEET
  1
monochrome.ctb
  9
$XEDIT
290
     1
  9
$CEPSNTYPE
380
     0
  9
$PSTYLEMODE
290
     1
  9
$FINGERPRINTGUID
  2
{85A85AB9-09C0-4C05-9FB8-B4F7807E4A17}
  9
$VERSIONGUID
  2
{9B2CC240-9030-445A-A2A7-2F8E2BB64EE5}
  9
$EXTNAMES
290
     1
  9
$PSVPSCALE
 40
0.0
  9
$OLESTARTUP
290
     0
  9
$SORTENTS
280
    96
  9
$INDEXCTL
280
     0
  9
$HIDETEXT
280
     0
  9
$XCLIPFRAME
290
     0
  9
$HALOGAP
280
     0
  9
$OBSCOLOR
 70
   257
  9
$OBSLTYPE
280
     0
  9
$INTERSECTIONDISPLAY
280
     0
  9
$INTERSECTIONCOLOR
 70
   257
  9
$DIMASSOC
280
     1
  9
$PROJECTNAME
  1

  0
ENDSEC
  0
SECTION
  2
CLASSES
  0
CLASS
  1
ACDBDICTIONARYWDFLT
  2
AcDbDictionaryWithDefault
  3
ObjectDBX Classes
 90
        0
 91
        1
280
     0
281
     0
  0
CLASS
  1
ACDBPLACEHOLDER
  2
AcDbPlaceHolder
  3
ObjectDBX Classes
 90
        0
 91
        1
280
     0
281
     0
  0
CLASS
  1
LAYOUT
  2
AcDbLayout
  3
ObjectDBX Classes
 90
        0
 91
        3
280
     0
281
     0
  0
CLASS
  1
AMGSETTINGSOBJ
  2
AmgSettingsObj
  3
"AcadM|Product Description: AutoCAD Mechanical|Company: Autodesk, Inc."
 90
     1024
 91
        2
280
     0
281
     0
  0
CLASS
  1
ACME_DOCUMENT
  2
AcMeDbDoc
  3
AcMeServices
 90
     1024
 91
        2
280
     0
281
     0
  0
CLASS
  1
ACMESCOPE
  2
AcMeScope
  3
AcMeServices
 90
     1024
 91
        1
280
     0
281
     0
  0
CLASS
  1
ACMECOMMANDHISTORY
  2
AcMeCommandHistory
  3
AcMeServices
 90
     1024
 91
        1
280
     0
281
     0
  0
CLASS
  1
DICTIONARYVAR
  2
AcDbDictionaryVar
  3
ObjectDBX Classes
 90
        0
 91
        9
280
     0
281
     0
  0
CLASS
  1
ACIMSYSVARMAN
  2
AcImSysVarManager
  3
AcMeServices
 90
     1024
 91
        5
280
     0
281
     0
  0
CLASS
  1
ACIMREALSYSVAR
  2
AcImRealSysVar
  3
AcMeServices
 90
     1024
 91
        6
280
     0
281
     0
  0
CLASS
  1
ACIMINTSYSVAR
  2
AcImIntSysVar
  3
AcMeServices
 90
     1024
 91
      153
280
     0
281
     0
  0
CLASS
  1
ACMEDRAWINGMAN
  2
AcMeDrawingMan
  3
AcMeServices
 90
     1024
 91
        1
280
     0
281
     0
  0
CLASS
  1
ACMEVIEW
  2
AcMeView
  3
AcMeServices
 90
     1024
 91
        1
280
     0
281
     0
  0
CLASS
  1
ACDBENTITYCACHE
  2
AcMeEntityCache
  3
AcMeServices
 90
     1024
 91
        1
280
     0
281
     0
  0
CLASS
  1
GSMANAGER
  2
AcMeGSManager
  3
AcMeServices
 90
     1024
 91
        1
280
     0
281
     0
  0
CLASS
  1
AMDTINTERNALREACTOR
  2
AmdtInternalReactor
  3
AcMeServices
 90
     1024
 91
        2
280
     0
281
     0
  0
CLASS
  1
ACMESTATEMGR
  2
AcMeStateMgr
  3
AcMeServices
 90
     1024
 91
        1
280
     0
281
     0
  0
CLASS
  1
ACGREFMASTER
  2
AcGrefMaster
  3
AcAttribServices
 90
     1024
 91
        1
280
     0
281
     0
  0
CLASS
  1
ACME_DATABASE
  2
AcMeDbDatabase
  3
AcMeServices
 90
     1024
 91
        1
280
     0
281
     0
  0
CLASS
  1
ACRFINSADJUSTERMGR
  2
AcRfInsAdjusterMgr
  3
AcMeServices
 90
     1024
 91
        1
280
     0
281
     0
  0
CLASS
  1
ACGREFACADMASTER
  2
AcGrefacadMaster
  3
AcGrefServices
 90
     1024
 91
        1
280
     0
281
     0
  0
CLASS
  1
AMIMASTER
  2
AmiMaster
  3
AmiServices
 90
     1024
 91
        1
280
     0
281
     0
  0
CLASS
  1
ACMDATADICTIONARY
  2
AcmDataDictionary
  3
"AcmSymBB|Product Description: AutoCAD Mechanical|Company: Autodesk, Inc."
 90
     1024
 91
        1
280
     0
281
     0
  0
CLASS
  1
ACMDATAENTRYBLOCK
  2
AcmDataEntryBlock
  3
AcmSymBB|Product Description: AutoCAD Mechanical|Company: Autodesk, Inc.
 90
     1024
 91
        0
280
     0
281
     0
  0
CLASS
  1
ACIMSTRSYSVAR
  2
AcImStrSysVar
  3
AcMeServices
 90
     1024
 91
        5
280
     0
281
     0
  0
CLASS
  1
ACMSTANDARDISO
  2
AcmStandardISO
  3
"Amdt_StdImp|Product Description: AutoCAD Mechanical|Company: Autodesk, Inc."
 90
     1024
 91
        2
280
     0
281
     0
  0
CLASS
  1
AMGOBJPROPCFG
  2
AmgObjPropCfg
  3
"AmgLay|Product Description: AutoCAD Mechanical|Company: Autodesk, Inc."
 90
     1025
 91
        1
280
     0
281
     0
  0
CLASS
  1
AMDTEDGESTANDARDISO
  2
AmdtEdgeStdISO
  3
"Amdt_StdImp|Product Description: AutoCAD Mechanical|Company: Autodesk, Inc."
 90
     1024
 91
        1
280
     0
281
     0
  0
CLASS
  1
ACMSURFSTANDARDISO
  2
AcmSurfTextStdISO
  3
"Amdt_StdImp|Product Description: AutoCAD Mechanical|Company: Autodesk, Inc."
 90
     1024
 91
        1
280
     0
281
     0
  0
CLASS
  1
ACMFCFSTANDARDISO
  2
AcmFCFStdISO
  3
"Amdt_StdImp|Product Description: AutoCAD Mechanical|Company: Autodesk, Inc."
 90
     1024
 91
        2
280
     0
281
     0
  0
CLASS
  1
ACMWELDSTANDARDISO
  2
AcmWeldingStdISO
  3
"Amdt_StdImp|Product Description: AutoCAD Mechanical|Company: Autodesk, Inc."
 90
     1024
 91
        2
280
     0
281
     0
  0
CLASS
  1
ACMIDSTANDARDISO
  2
AcmIdStdISO
  3
"Amdt_StdImp|Product Description: AutoCAD Mechanical|Company: Autodesk, Inc."
 90
     1024
 91
        2
280
     0
281
     0
  0
CLASS
  1
ACMDATUMSTANDARDISO
  2
AcmDatumStdISO
  3
"Amdt_StdImp|Product Description: AutoCAD Mechanical|Company: Autodesk, Inc."
 90
     1024
 91
        2
280
     0
281
     0
  0
CLASS
  1
ACMBOMSTANDARDISO
  2
AcmBOMStdISO
  3
"Amdt_StdImp|Product Description: AutoCAD Mechanical|Company: Autodesk, Inc."
 90
     1024
 91
        2
280
     0
281
     0
  0
CLASS
  1
ACMDETAILSTANDARDISO
  2
AmdtDetailSymStdISO
  3
"Amdt_StdImp|Product Description: AutoCAD Mechanical|Company: Autodesk, Inc."
 90
     1024
 91
        2
280
     0
281
     0
  0
CLASS
  1
ACMSECTIONSTANDARDISO
  2
AmdtSectionSymStdISO
  3
"Amdt_StdImp|Product Description: AutoCAD Mechanical|Company: Autodesk, Inc."
 90
     1024
 91
        1
280
     0
281
     0
  0
CLASS
  1
ACMCENTERLINESTANDARDISO
  2
AmdtCenterLineStdISO
  3
"Amdt_StdImp|Product Description: AutoCAD Mechanical|Company: Autodesk, Inc."
 90
     1024
 91
        2
280
     0
281
     0
  0
CLASS
  1
ACAMGLAYSTD
  2
AcAmgLayStd
  3
"AmgLay|Product Description: AutoCAD Mechanical|Company: Autodesk, Inc."
 90
     1024
 91
        2
280
     0
281
     0
  0
CLASS
  1
ACAMGDIMSTD
  2
AcAmgDimStd
  3
"AmgDim|Product Description: AutoCAD Mechanical|Company: Autodesk, Inc."
 90
     1024
 91
        2
280
     0
281
     0
  0
CLASS
  1
ACAMGTITLESTD
  2
AcAmgTitleStd
  3
"AmgTitle|Product Description: AutoCAD Mechanical|Company: Autodesk, Inc."
 90
     4095
 91
        2
280
     0
281
     0
  0
CLASS
  1
ACAMGFILTERDAT
  2
AcAmgFilterDat
  3
"AcadM|Product Description: AutoCAD Mechanical|Company: Autodesk, Inc."
 90
     1024
 91
        0
280
     0
281
     0
  0
CLASS
  1
LAYER_INDEX
  2
AcDbLayerIndex
  3
ObjectDBX Classes
 90
        0
 91
        0
280
     0
281
     0
  0
CLASS
  1
IDBUFFER
  2
AcDbIdBuffer
  3
ObjectDBX Classes
 90
        0
 91
        0
280
     0
281
     0
  0
CLASS
  1
PLOTSETTINGS
  2
AcDbPlotSettings
  3
ObjectDBX Classes
 90
        0
 91
        8
280
     0
281
     0
  0
CLASS
  1
AMDTFORMULAUPDATEDISPATCHER
  2
AmdtFormulaUpdateDispatcher
  3
AcMeServices
 90
     1024
 91
        0
280
     0
281
     0
  0
CLASS
  1
ACMSTANDARDANSI
  2
AcmStandardANSI
  3
"Amdt_StdImp|Product Description: AutoCAD Mechanical|Company: Autodesk, Inc."
 90
     1024
 91
        0
280
     0
281
     0
  0
CLASS
  1
ACMSURFSTANDARDANSI
  2
AcmSurfTextStdANSI
  3
"Amdt_StdImp|Product Description: AutoCAD Mechanical|Company: Autodesk, Inc."
 90
     1024
 91
        0
280
     0
281
     0
  0
CLASS
  1
ACMFCFSTANDARDANSI
  2
AcmFCFStdANSI
  3
"Amdt_StdImp|Product Description: AutoCAD Mechanical|Company: Autodesk, Inc."
 90
     1024
 91
        0
280
     0
281
     0
  0
CLASS
  1
ACMWELDSTANDARDANSI
  2
AcmWeldingStdANSI
  3
"Amdt_StdImp|Product Description: AutoCAD Mechanical|Company: Autodesk, Inc."
 90
     1024
 91
        0
280
     0
281
     0
  0
CLASS
  1
ACMIDSTANDARDANSI
  2
AcmIdStdANSI
  3
"Amdt_StdImp|Product Description: AutoCAD Mechanical|Company: Autodesk, Inc."
 90
     1024
 91
        0
280
     0
281
     0
  0
CLASS
  1
ACMDATUMSTANDARDANSI
  2
AcmDatumStdANSI
  3
"Amdt_StdImp|Product Description: AutoCAD Mechanical|Company: Autodesk, Inc."
 90
     1024
 91
        0
280
     0
281
     0
  0
CLASS
  1
ACMBOMSTANDARDANSI
  2
AcmBOMStdANSI
  3
"Amdt_StdImp|Product Description: AutoCAD Mechanical|Company: Autodesk, Inc."
 90
     1024
 91
        0
280
     0
281
     0
  0
CLASS
  1
ACMDETAILSTANDARDANSI
  2
AmdtDetailSymStdANSI
  3
"Amdt_StdImp|Product Description: AutoCAD Mechanical|Company: Autodesk, Inc."
 90
     1024
 91
        0
280
     0
281
     0
  0
CLASS
  1
ACMSECTIONSTANDARDANSI
  2
AmdtSectionSymStdANSI
  3
"Amdt_StdImp|Product Description: AutoCAD Mechanical|Company: Autodesk, Inc."
 90
     1024
 91
        0
280
     0
281
     0
  0
CLASS
  1
ACMCENTERLINESTANDARDANSI
  2
AmdtCenterLineStdANSI
  3
"Amdt_StdImp|Product Description: AutoCAD Mechanical|Company: Autodesk, Inc."
 90
     1024
 91
        0
280
     0
281
     0
  0
CLASS
  1
ACMBOM
  2
AcmBom
  3
"AcmSymBB|Product Description: AutoCAD Mechanical|Company: Autodesk, Inc."
 90
     1024
 91
        0
280
     0
281
     0
  0
CLASS
  1
ACMDATAENTRYPART
  2
AcmDataEntryPart
  3
AcmSymBB|Product Description: AutoCAD Mechanical|Company: Autodesk, Inc.
 90
     1024
 91
        0
280
     0
281
     0
  0
CLASS
  1
ACMPARTREF
  2
AcmPartRef
  3
"AcmSymBB|Product Description: AutoCAD Mechanical|Company: Autodesk, Inc."
 90
     4095
 91
        0
280
     0
281
     1
  0
CLASS
  1
ACDBCIRCARCRES
  2
AcDbCircArcRes
  3
AcGrefServices
 90
     1024
 91
        0
280
     0
281
     0
  0
CLASS
  1
ACMBOMROW
  2
AcmBomRow
  3
"AcmSymBB|Product Description: AutoCAD Mechanical|Company: Autodesk, Inc."
 90
     1024
 91
        0
280
     0
281
     0
  0
CLASS
  1
ACMBALLOON
  2
AcmBalloon
  3
"AcmSymBB|Product Description: AutoCAD Mechanical|Company: Autodesk, Inc."
 90
     4095
 91
        0
280
     0
281
     1
  0
CLASS
  1
AMDTNOTE
  2
AmdtNote
  3
"AcmSymBB|Product Description: AutoCAD Mechanical|Company: Autodesk, Inc."
 90
     4095
 91
        0
280
     0
281
     1
  0
CLASS
  1
STDPART2D
  2
AmgStdPart
  3
AmgStdPart|Product Description: AutoCAD Mechanical|Company: Autodesk, Inc.
 90
     4095
 91
        0
280
     0
281
     1
  0
CLASS
  1
ACDBSTDPARTRES_LINE
  2
AcDbStdPartRes_Line
  3
AmgStdPart|Product Description: AutoCAD Mechanical|Company: Autodesk, Inc.
 90
     1024
 91
        0
280
     0
281
     0
  0
CLASS
  1
ACMDATAENTRY
  2
AcmDataEntry
  3
AcmSymBB|Product Description: AutoCAD Mechanical|Company: Autodesk, Inc.
 90
     1024
 91
        0
280
     0
281
     0
  0
CLASS
  1
ACDBOPPOLYLINERES
  2
AcDbOpPolylineRes
  3
AcGrefServices
 90
     1024
 91
        0
280
     0
281
     0
  0
CLASS
  1
ACMPARTLIST
  2
AcmPartList
  3
"AcmSymBB|Product Description: AutoCAD Mechanical|Company: Autodesk, Inc."
 90
     4095
 91
        0
280
     0
281
     1
  0
CLASS
  1
ACDBLINERES
  2
AcDbLineRes
  3
AcGrefServices
 90
     1024
 91
        0
280
     0
281
     0
  0
CLASS
  1
ACRFINSADJ
  2
AcRfInsAdjuster
  3
AcMeServices
 90
     1024
 91
        0
280
     0
281
     0
  0
CLASS
  1
AM_DRAWING_MGR
  2
AcDmDwgMgr
  3
AcMechDwgViewMgmt
 90
     1024
 91
        1
280
     0
281
     0
  0
CLASS
  1
AM_DWG_DOCUMENT
  2
AcDmDwgDocument
  3
AcMechDwgViewMgmt
 90
     1024
 91
        1
280
     0
281
     0
  0
CLASS
  1
AM_DWG_SHEET
  2
AcDmSheet
  3
AcMechDwgViewMgmt
 90
     1024
 91
        2
280
     0
281
     0
  0
CLASS
  1
AM_VIEWDIMPARMAP
  2
AcDmViewDimParMap
  3
AcMechDwgViewMgmt
 90
     1024
 91
        2
280
     0
281
     0
  0
CLASS
  1
AM_DWGMGR_NAME
  2
AcDmDwgMgrName
  3
AcMechDwgViewMgmt
 90
     1024
 91
        1
280
     0
281
     0
  0
CLASS
  1
AMDTMENUSTATEMGR
  2
AmdtMenuStateMgr
  3
McadcomServices
 90
     1024
 91
        1
280
     0
281
     0
  0
CLASS
  1
AMDTMCOMMENUSTATE
  2
AmdtMcomMenuState
  3
McadcomServices
 90
     1024
 91
        1
280
     0
281
     0
  0
CLASS
  1
ASAPP
  2
AcAsAppObject
  3
AutoSurfServices
 90
        0
 91
        2
280
     0
281
     0
  0
CLASS
  1
IM_STATIC_MAN
  2
AcImStaticVarManager
  3
AcMeServices
 90
     1024
 91
        0
280
     0
281
     0
  0
CLASS
  1
ACIMDBLSTATICVAR
  2
AcImDblStaticVar
  3
AcMeServices
 90
     1024
 91
        0
280
     0
281
     0
  0
CLASS
  1
ACIMSTRSTATICVAR
  2
AcImStrStaticVar
  3
AcMeServices
 90
     1024
 91
        0
280
     0
281
     0
  0
CLASS
  1
ACIMINTSTATICVAR
  2
AcImIntStaticVar
  3
AcMeServices
 90
     1024
 91
        0
280
     0
281
     0
  0
CLASS
  1
ACASGREFMASTER
  2
AcAsGrefMaster
  3
AutoSurfResolverServices
 90
        0
 91
        2
280
     0
281
     0
  0
CLASS
  1
ACADGREFMODULE
  2
AcAdGrefModule
  3
AdGrefServices
 90
        0
 91
        2
280
     0
281
     0
  0
CLASS
  1
AMDTMAPISURFMOUDULE
  2
AmdtMApiSurfModule
  3
MApiSurfServices
 90
        0
 91
        2
280
     0
281
     0
  0
CLASS
  1
MAPIAMMOUDLE
  2
MApiAmModule
  3
MApiAmServices
 90
     1024
 91
        1
280
     0
281
     0
  0
CLASS
  1
AMDTADMENUSTATE
  2
AmdtAdMenuState
  3
DesignerServices
 90
     1024
 91
        1
280
     0
281
     0
  0
CLASS
  1
ADAPPL
  2
AcAdAppl
  3
DesignerServices
 90
     1024
 91
        1
280
     0
281
     0
  0
CLASS
  1
DEPMGR
  2
AcAdDepMgr
  3
DesignerServices
 90
     1024
 91
        1
280
     0
281
     0
  0
CLASS
  1
PARAMMGR
  2
AcAdParamMgr
  3
DesignerServices
 90
     1024
 91
        1
280
     0
281
     0
  0
CLASS
  1
PARAMSCOPE
  2
AcAdParamScope
  3
DesignerServices
 90
     1024
 91
        1
280
     0
281
     0
  0
CLASS
  1
NAMEDAPPL
  2
AcAdNamedAppl
  3
DesignerServices
 90
     1024
 91
        1
280
     0
281
     0
  0
CLASS
  1
ADHNTMPLT
  2
AdHoleNoteTemplateMgr
  3
DesignerServices
 90
     1024
 91
        0
280
     0
281
     0
  0
CLASS
  1
AM_HNTEMPLATE_MGR_NAME
  2
AdHoleNoteTemplateMgrName
  3
DesignerServices
 90
     1024
 91
        0
280
     0
281
     0
  0
CLASS
  1
AMDTDMMENUSTATE
  2
AmdtDmMenuState
  3
AcMechDwgViewMgmt
 90
     1024
 91
        1
280
     0
281
     0
  0
CLASS
  1
MAPIADMODULE
  2
MApiAdModule
  3
MApiAdServices
 90
        0
 91
        2
280
     0
281
     0
  0
CLASS
  1
AMDTAMMENUSTATE
  2
AmdtAmMenuState
  3
DesignerAssemblies
 90
     1024
 91
        1
280
     0
281
     0
  0
CLASS
  1
ACAMPROJECT
  2
AcAmProject
  3
DesignerAssemblies
 90
     1024
 91
        1
280
     0
281
     0
  0
CLASS
  1
ACAMGRCOMPDEF
  2
AcAmGrCompDef
  3
DesignerAssemblies
 90
     1024
 91
        1
280
     0
281
     0
  0
CLASS
  1
ACCMCONTEXT
  2
AcCmContext
  3
DesignerAssemblies
 90
     1024
 91
        1
280
     0
281
     0
  0
CLASS
  1
ACAMCOMPDEF
  2
AcAmCompDef
  3
DesignerAssemblies
 90
     1024
 91
        1
280
     0
281
     0
  0
CLASS
  1
ACAMCOMPDEFMGR
  2
AcAmCompDefMgr
  3
DesignerAssemblies
 90
     1024
 91
        1
280
     0
281
     0
  0
CLASS
  1
AMCONTEXTMGR
  2
AcAmContextMgr
  3
DesignerAssemblies
 90
     1024
 91
        1
280
     0
281
     0
  0
CLASS
  1
ACAMCONTEXTMODELER
  2
AcAmContextModeler
  3
DesignerAssemblies
 90
     1024
 91
        1
280
     0
281
     0
  0
CLASS
  1
CATALOGSTATE
  2
AcAmCatalogState
  3
DesignerAssemblies
 90
     1024
 91
        1
280
     0
281
     0
  0
CLASS
  1
ACAMGRCOMPDEFSET
  2
AcAmGrCompDefSet
  3
DesignerAssemblies
 90
     1024
 91
        1
280
     0
281
     0
  0
CLASS
  1
AMDTBROWSERDBTAB
  2
AmdtBrowserDbTab
  3
McadcomServices
 90
     1024
 91
        1
280
     0
281
     0
  0
CLASS
  1
CBROWSERAPPOBJECT
  2
CBrowserAppObject
  3
McadcomServices
 90
     1024
 91
        3
280
     0
281
     0
  0
CLASS
  1
DM_PLACEHOLDER
  2
AcDmSelsetPlaceholder
  3
AcMechDwgViewMgmt
 90
     1024
 91
        1
280
     0
281
     0
  0
CLASS
  1
ACMPICKOBJ
  2
AcmPickEnt
  3
"AcmSymBB|Product Description: AutoCAD Mechanical|Company: Autodesk, Inc."
 90
     1024
 91
        0
280
     0
281
     1
  0
CLASS
  1
ACMNOTESTANDARDISO
  2
AmdtNoteStdISO
  3
"Amdt_StdImp|Product Description: AutoCAD Mechanical|Company: Autodesk, Inc."
 90
     1024
 91
        2
280
     0
281
     0
  0
CLASS
  1
ACMNOTESTANDARDANSI
  2
AmdtNoteStdANSI
  3
"Amdt_StdImp|Product Description: AutoCAD Mechanical|Company: Autodesk, Inc."
 90
     1024
 91
        0
280
     0
281
     0
  0
CLASS
  1
ACMTHREADLINESTANDARDISO
  2
AmdtThreadLineStdISO
  3
"Amdt_StdImp|Product Description: AutoCAD Mechanical|Company: Autodesk, Inc."
 90
     1024
 91
        2
280
     0
281
     0
  0
CLASS
  1
ACMTHREADLINESTANDARDANSI
  2
AmdtThreadLineStdANSI
  3
"Amdt_StdImp|Product Description: AutoCAD Mechanical|Company: Autodesk, Inc."
 90
     1024
 91
        0
280
     0
281
     0
  0
CLASS
  1
TABLESTYLE
  2
AcDbTableStyle
  3
ObjectDBX Classes
 90
     4095
 91
        1
280
     0
281
     0
  0
CLASS
  1
AMDTNOTETEMPLATEDB
  2
AmdtNoteTemplateDB
  3
AcmSymBB|Product Description: AutoCAD Mechanical|Company: Autodesk, Inc.
 90
     1024
 91
       10
280
     0
281
     0
  0
CLASS
  1
ACAMGHOLECHARTSTDANSI
  2
AcAmgHoleChartStdANSI
  3
AmgDim|Product Description: AutoCAD Mechanical|Company: Autodesk, Inc.
 90
     1024
 91
        0
280
     0
281
     0
  0
CLASS
  1
SORTENTSTABLE
  2
AcDbSortentsTable
  3
ObjectDBX Classes
 90
        0
 91
        1
280
     0
281
     0
  0
CLASS
  1
MATERIAL
  2
AcDbMaterial
  3
ObjectDBX Classes
 90
     1153
 91
        3
280
     0
281
     0
  0
CLASS
  1
VISUALSTYLE
  2
AcDbVisualStyle
  3
ObjectDBX Classes
 90
     4095
 91
       16
280
     0
281
     0
  0
CLASS
  1
ACRFATTGENMGR
  2
AcRfAttGeneralMgr
  3
AcAttribServices
 90
     1024
 91
        0
280
     0
281
     0
  0
CLASS
  1
ACRFOBJATTMGR
  2
AcRfObjAttGroupMgr
  3
AcAttribServices
 90
     1024
 91
        0
280
     0
281
     0
  0
CLASS
  1
ACRFMCADAPIATTHOLDER
  2
AcRfMCADAPIAttHolder
  3
AcAttribServices
 90
     1024
 91
        0
280
     0
281
     0
  0
CLASS
  1
AMDTSYSATTR
  2
AmdtSystemAttribute
  3
AcAttribServices
 90
     1024
 91
        0
280
     0
281
     0
  0
CLASS
  1
ACMTAPERSTANDARDISO
  2
AcmTaperStdISO
  3
"Amdt_StdImp|Product Description: AutoCAD Mechanical|Company: Autodesk, Inc."
 90
     1024
 91
        2
280
     0
281
     0
  0
CLASS
  1
ACMTAPERSTANDARDANSI
  2
AcmTaperStdANSI
  3
"Amdt_StdImp|Product Description: AutoCAD Mechanical|Company: Autodesk, Inc."
 90
     1024
 91
        0
280
     0
281
     0
  0
CLASS
  1
CAMSSTRUCTBTNSTATE
  2
StructBtnState
  3
DesignerAssemblies
 90
     1024
 91
        1
280
     0
281
     0
  0
CLASS
  1
AMDTEDGESTANDARDISO13715
  2
AmdtEdgeStdISO13715
  3
"Amdt_StdImp|Product Description: AutoCAD Mechanical|Company: Autodesk, Inc."
 90
     1024
 91
        1
280
     0
281
     0
  0
CLASS
  1
ACAMGHOLECHARTSTDISO
  2
AcAmgHoleChartStdISO
  3
AmgDim|Product Description: AutoCAD Mechanical|Company: Autodesk, Inc.
 90
     1024
 91
        1
280
     0
281
     0
  0
CLASS
  1
SCALE
  2
AcDbScale
  3
ObjectDBX Classes
 90
     1153
 91
       33
280
     0
281
     0
  0
CLASS
  1
MLEADERSTYLE
  2
AcDbMLeaderStyle
  3
ACDB_MLEADERSTYLE_CLASS
 90
     4095
 91
        1
280
     0
281
     0
  0
CLASS
  1
ACMSURFSTANDARDISO2002
  2
AcmSurfTextStdISO2002
  3
"Amdt_StdImp|Product Description: AutoCAD Mechanical|Company: Autodesk, Inc."
 90
     1024
 91
        1
280
     0
281
     0
  0
CLASS
  1
ACMSECTIONSTANDARDISO2001
  2
AmdtSectionSymStdISO2001
  3
"Amdt_StdImp|Product Description: AutoCAD Mechanical|Company: Autodesk, Inc."
 90
     1024
 91
        1
280
     0
281
     0
  0
CLASS
  1
ACMANOOTATIONVIEWSTANDARDISO
  2
AmdtAnViewStdISO
  3
"Amdt_StdImp|Product Description: AutoCAD Mechanical|Company: Autodesk, Inc."
 90
     1024
 91
        2
280
     0
281
     0
  0
CLASS
  1
CELLSTYLEMAP
  2
AcDbCellStyleMap
  3
ObjectDBX Classes
 90
     1152
 91
        2
280
     0
281
     0
  0
ENDSEC
  0
SECTION
  2
TABLES
  0
TABLE
  2
VPORT
  5
8
102
{ACAD_XDICTIONARY
360
D034
102
}
330
0
100
AcDbSymbolTable
 70
     1
  0
VPORT
  5
B43F
330
8
100
AcDbSymbolTableRecord
100
AcDbViewportTableRecord
  2
*Active
 70
     0
 10
0.0
 20
0.0
 11
1.0
 21
1.0
 12
209.9839816944645
 22
148.4886727696569
 13
0.0
 23
0.0
 14
2.5
 24
2.5
 15
10.0
 25
10.0
 16
0.0
 26
0.0
 36
1.0
 17
0.0
 27
0.0
 37
0.0
 40
299.0497983398711
 41
1.624476987447698
 42
50.0
 43
-1370.695619172058
 44
-1370.695619172058
 50
0.0
 51
0.0
 71
    16
 72
   100
 73
     1
 74
     3
 75
     0
 76
     0
 77
     0
 78
     0
281
     0
 65
     0
110
0.0
120
0.0
130
0.0
111
1.0
121
0.0
131
0.0
112
0.0
122
1.0
132
0.0
 79
     0
146
0.0
  0
ENDTAB
  0
TABLE
  2
LTYPE
  5
5
330
0
100
AcDbSymbolTable
 70
    27
  0
LTYPE
  5
14
330
5
100
AcDbSymbolTableRecord
100
AcDbLinetypeTableRecord
  2
ByBlock
 70
     0
  3

 72
    65
 73
     0
 40
0.0
  0
LTYPE
  5
15
330
5
100
AcDbSymbolTableRecord
100
AcDbLinetypeTableRecord
  2
ByLayer
 70
     0
  3

 72
    65
 73
     0
 40
0.0
  0
LTYPE
  5
16
330
5
100
AcDbSymbolTableRecord
100
AcDbLinetypeTableRecord
  2
Continuous
 70
     0
  3
Solid line
 72
    65
 73
     0
 40
0.0
  0
LTYPE
  5
4F
330
5
100
AcDbSymbolTableRecord
100
AcDbLinetypeTableRecord
  2
AM_ISO02W050
 70
     0
  3
__ __ __ __ __ __ __ __ __ __ __ __ __ __ __
 72
    65
 73
     2
 40
7.5
 49
6.0
 74
     0
 49
-1.5
 74
     0
  0
LTYPE
  5
52
330
5
100
AcDbSymbolTableRecord
100
AcDbLinetypeTableRecord
  2
Amconstr
 70
     0
  3
_______________________
 72
    65
 73
     2
 40
9999.0
 49
9999.0
 74
     0
 49
0.0
 74
     0
  0
LTYPE
  5
64
330
5
100
AcDbSymbolTableRecord
100
AcDbLinetypeTableRecord
  2
ACISOWELD
 70
     0
  3
_ _ _ _ _
 72
    65
 73
     2
 40
2.0
 49
2.0
 74
     0
 49
-1.0
 74
     0
  0
LTYPE
  5
65
330
5
100
AcDbSymbolTableRecord
100
AcDbLinetypeTableRecord
  2
ACISOTGB
 70
     0
  3
__ . . __ . .
 72
    65
 73
     6
 40
9.0
 49
4.0
 74
     0
 49
-1.0
 74
     0
 49
1.0
 74
     0
 49
-1.0
 74
     0
 49
1.0
 74
     0
 49
-1.0
 74
     0
  0
LTYPE
  5
66
330
5
100
AcDbSymbolTableRecord
100
AcDbLinetypeTableRecord
  2
ACISOTGL
 70
     0
  3
_ _ _ _ _
 72
    65
 73
     2
 40
3.0
 49
2.0
 74
     0
 49
-1.0
 74
     0
  0
LTYPE
  5
69
330
5
100
AcDbSymbolTableRecord
100
AcDbLinetypeTableRecord
  2
CENTER
 70
     0
  3
__ . __
 72
    65
 73
     4
 40
7.0
 49
4.0
 74
     0
 49
-1.0
 74
     0
 49
1.0
 74
     0
 49
-1.0
 74
     0
  0
LTYPE
  5
A6E
330
5
100
AcDbSymbolTableRecord
100
AcDbLinetypeTableRecord
  2
PHANTOM2
 70
     0
  3
Phantom (.5x) ___ _ _ ___ _ _ ___ _ _ ___ _ _
 72
    65
 73
     6
 40
31.75
 49
15.875
 74
     0
 49
-3.174999999999999
 74
     0
 49
3.174999999999999
 74
     0
 49
-3.174999999999999
 74
     0
 49
3.174999999999999
 74
     0
 49
-3.174999999999999
 74
     0
  0
LTYPE
  5
4DED
330
5
100
AcDbSymbolTableRecord
100
AcDbLinetypeTableRecord
  2
中線
 70
     0
  3
___________________
 72
    65
 73
     2
 40
2.0
 49
1.0
 74
     0
 49
1.0
 74
     0
  0
LTYPE
  5
4DF6
330
5
100
AcDbSymbolTableRecord
100
AcDbLinetypeTableRecord
  2
細線
 70
     0
  3
___________________
 72
    65
 73
     2
 40
2.0
 49
1.0
 74
     0
 49
1.0
 74
     0
  0
LTYPE
  5
4DF7
330
5
100
AcDbSymbolTableRecord
100
AcDbLinetypeTableRecord
  2
太線
 70
     0
  3
___________________
 72
    65
 73
     2
 40
2.0
 49
1.0
 74
     0
 49
1.0
 74
     0
  0
LTYPE
  5
4EA7
330
5
100
AcDbSymbolTableRecord
100
AcDbLinetypeTableRecord
  2
文字
 70
     0
  3
_________________
 72
    65
 73
     2
 40
2.0
 49
1.0
 74
     0
 49
1.0
 74
     0
  0
LTYPE
  5
4EA9
330
5
100
AcDbSymbolTableRecord
100
AcDbLinetypeTableRecord
  2
寸法線
 70
     0
  3
________________
 72
    65
 73
     2
 40
2.0
 49
1.0
 74
     0
 49
1.0
 74
     0
  0
LTYPE
  5
4F12
330
5
100
AcDbSymbolTableRecord
100
AcDbLinetypeTableRecord
  2
ハッチング
 70
     0
  3
_________________
 72
    65
 73
     2
 40
2.0
 49
1.0
 74
     0
 49
1.0
 74
     0
  0
LTYPE
  5
5180
330
5
100
AcDbSymbolTableRecord
100
AcDbLinetypeTableRecord
  2
陰線1
 70
     0
  3
__ __ __ __
 72
    65
 73
     2
 40
4.0
 49
2.2
 74
     0
 49
-1.8
 74
     0
  0
LTYPE
  5
5182
330
5
100
AcDbSymbolTableRecord
100
AcDbLinetypeTableRecord
  2
切断線
 70
     0
  3
/\/-/\/-/\/-/\/-/\/-/\/
 72
    65
 73
     2
 40
11.0001
 49
0.0001
 74
     4
 75
   135
340
56
 46
0.04
 50
0.0
 44
0.0
 45
0.0
 49
-11.0
 74
     0
  0
LTYPE
  5
5183
330
5
100
AcDbSymbolTableRecord
100
AcDbLinetypeTableRecord
  2
想像線1
 70
     0
  3
__ __ __ _____ __ __ ____
 72
    65
 73
     6
 40
14.5
 49
6.0
 74
     0
 49
-1.5
 74
     0
 49
2.0
 74
     0
 49
-1.5
 74
     0
 49
2.0
 74
     0
 49
-1.5
 74
     0
  0
LTYPE
  5
5185
330
5
100
AcDbSymbolTableRecord
100
AcDbLinetypeTableRecord
  2
中心線1
 70
     0
  3
___ _ ___ _ ___
 72
    65
 73
     4
 40
18.0
 49
12.0
 74
     0
 49
-2.0
 74
     0
 49
2.0
 74
     0
 49
-2.0
 74
     0
  0
LTYPE
  5
5188
330
5
100
AcDbSymbolTableRecord
100
AcDbLinetypeTableRecord
  2
補助線
 70
     0
  3
______________
 72
    65
 73
     2
 40
2.0
 49
1.0
 74
     0
 49
1.0
 74
     0
  0
LTYPE
  5
6427
330
5
100
AcDbSymbolTableRecord
100
AcDbLinetypeTableRecord
  2
HIDDEN
 70
     0
  3
Hidden __ __ __ __ __ __ __ __ __ __ __ __ __ _
 72
    65
 73
     2
 40
0.375
 49
0.25
 74
     0
 49
-0.125
 74
     0
  0
LTYPE
  5
AF65
330
5
100
AcDbSymbolTableRecord
100
AcDbLinetypeTableRecord
  2
ACANSTGB
 70
     0
  3
__ . . __ . .
 72
    65
 73
     6
 40
0.35433070866
 49
0.15748031496
 74
     0
 49
-0.03937007874
 74
     0
 49
0.03937007874
 74
     0
 49
-0.03937007874
 74
     0
 49
0.03937007874
 74
     0
 49
-0.03937007874
 74
     0
  0
LTYPE
  5
AF66
330
5
100
AcDbSymbolTableRecord
100
AcDbLinetypeTableRecord
  2
ACANSTGL
 70
     0
  3
_ _ _ _ _
 72
    65
 73
     2
 40
0.11811023622
 49
0.07874015748
 74
     0
 49
-0.03937007874
 74
     0
  0
LTYPE
  5
D0D7
330
5
100
AcDbSymbolTableRecord
100
AcDbLinetypeTableRecord
  2
AM_ISO08W050
 70
     0
  3
____ . ____ . ____ . ____ . ____ . ____ . ____
 72
    65
 73
     4
 40
18.0
 49
12.0
 74
     0
 49
-1.5
 74
     0
 49
3.0
 74
     0
 49
-1.5
 74
     0
  0
LTYPE
  5
D0D8
330
5
100
AcDbSymbolTableRecord
100
AcDbLinetypeTableRecord
  2
AM_ISO09W050
 70
     0
  3
_____ . . _____ . . _____ . . ____ .. ____
 72
    65
 73
     6
 40
22.5
 49
12.0
 74
     0
 49
-1.5
 74
     0
 49
3.0
 74
     0
 49
-1.5
 74
     0
 49
3.0
 74
     0
 49
-1.5
 74
     0
  0
LTYPE
  5
D0D9
330
5
100
AcDbSymbolTableRecord
100
AcDbLinetypeTableRecord
  2
AM_ISO08W050x2
 70
     0
  3
__ . __ . __ . __ . __ . __
 72
    65
 73
     4
 40
9.0
 49
6.0
 74
     0
 49
-0.75
 74
     0
 49
1.5
 74
     0
 49
-0.75
 74
     0
  0
LTYPE
  5
D0DA
330
5
100
AcDbSymbolTableRecord
100
AcDbLinetypeTableRecord
  2
AM_ISO02W050x2
 70
     0
  3
 _ _ _ _ _ _ _ _ _ _ _ _
 72
    65
 73
     2
 40
3.75
 49
3.0
 74
     0
 49
-0.75
 74
     0
  0
LTYPE
  5
D0DD
330
5
100
AcDbSymbolTableRecord
100
AcDbLinetypeTableRecord
  2
Amzigzag
 70
     0
  3
/\/-/\/-/\/-/\/-/\/-/\/
 72
    65
 73
     2
 40
11.0001
 49
0.0001
 74
     4
 75
   136
340
D0DC
 46
0.04
 50
0.0
 44
0.0
 45
0.0
 49
-11.0
 74
     0
  0
ENDTAB
  0
TABLE
  2
LAYER
  5
2
102
{ACAD_XDICTIONARY
360
3F95
102
}
330
0
100
AcDbSymbolTable
 70
    10
  0
LAYER
  5
10
102
{ACAD_XDICTIONARY
360
D33C
102
}
330
2
100
AcDbSymbolTableRecord
100
AcDbLayerTableRecord
  2
0
 70
     0
 62
     7
  6
Continuous
370
    -3
390
F
  0
LAYER
  5
6D1
330
2
100
AcDbSymbolTableRecord
100
AcDbLayerTableRecord
  2
Defpoints
 70
     0
 62
     7
  6
Continuous
290
     0
370
    -3
390
F
  0
LAYER
  5
5F85
102
{ACAD_XDICTIONARY
360
D33E
102
}
330
2
100
AcDbSymbolTableRecord
100
AcDbLayerTableRecord
  2
AM_0
 70
     0
 62
     7
  6
中線
370
    30
390
F
  0
LAYER
  5
AC9F
102
{ACAD_XDICTIONARY
360
D340
102
}
330
2
100
AcDbSymbolTableRecord
100
AcDbLayerTableRecord
  2
size
 70
     0
 62
     5
  6
Continuous
290
     0
370
    30
390
F
  0
LAYER
  5
ACA0
102
{ACAD_XDICTIONARY
360
D342
102
}
330
2
100
AcDbSymbolTableRecord
100
AcDbLayerTableRecord
  2
waku
 70
     0
 62
     7
  6
Continuous
370
    40
390
F
  0
LAYER
  5
ACA1
102
{ACAD_XDICTIONARY
360
D344
102
}
330
2
100
AcDbSymbolTableRecord
100
AcDbLayerTableRecord
  2
AM_6
 70
     0
 62
     2
  6
文字
370
    13
390
F
  0
LAYER
  5
AD68
102
{ACAD_XDICTIONARY
360
D346
102
}
330
2
100
AcDbSymbolTableRecord
100
AcDbLayerTableRecord
  2
AM_5
 70
     0
 62
     3
  6
寸法線
370
    13
390
F
1001
AcAecLayerStandard
1000

1000

  0
LAYER
  5
C134
102
{ACAD_XDICTIONARY
360
D348
102
}
330
2
100
AcDbSymbolTableRecord
100
AcDbLayerTableRecord
  2
0部品2
 70
     0
 62
   163
  6
細線
370
    30
390
F
1001
AcAecLayerStandard
1000

1000

  0
LAYER
  5
D1E0
102
{ACAD_XDICTIONARY
360
D1E1
102
}
330
2
100
AcDbSymbolTableRecord
100
AcDbLayerTableRecord
  2
AM_2
 70
     0
 62
     1
  6
細線
370
    13
390
F
1001
AcAecLayerStandard
1000

1000

  0
LAYER
  5
D203
102
{ACAD_XDICTIONARY
360
D34B
102
}
330
2
100
AcDbSymbolTableRecord
100
AcDbLayerTableRecord
  2
AM_CL
 70
     0
 62
     1
  6
Amconstr
370
    25
390
F
1001
AcAecLayerStandard
1000

1000

  0
ENDTAB
  0
TABLE
  2
STYLE
  5
3
330
0
100
AcDbSymbolTable
 70
     8
  0
STYLE
  5
11
330
3
100
AcDbSymbolTableRecord
100
AcDbTextStyleTableRecord
  2
STANDARD
 70
     0
 40
0.0
 41
0.7
 50
0.0
 71
     0
 42
3.2
  3
romans.shx
  4
extfont.shx
  0
STYLE
  5
56
330
3
100
AcDbSymbolTableRecord
100
AcDbTextStyleTableRecord
  2

 70
     1
 40
0.0
 41
1.0
 50
0.0
 71
     0
 42
2.5
  3
ltypeshp.shx
  4

  0
STYLE
  5
58
330
3
100
AcDbSymbolTableRecord
100
AcDbTextStyleTableRecord
  2
ACISOTS
 70
     0
 40
1.0
 41
1.0
 50
0.0
 71
     0
 42
2.5
  3
isocp.shx
  4
extfont.shx
  0
STYLE
  5
63
330
3
100
AcDbSymbolTableRecord
100
AcDbTextStyleTableRecord
  2
ACISOGDT
 70
     0
 40
0.0
 41
1.0
 50
0.0
 71
     0
 42
2.5
  3
amgdt.shx
  4

  0
STYLE
  5
A74
330
3
100
AcDbSymbolTableRecord
100
AcDbTextStyleTableRecord
  2
DIM
 70
     0
 40
0.0
 41
1.0
 50
0.0
 71
     0
 42
2.5
  3
monotxt.shx
  4
extfont.shx
  0
STYLE
  5
AF67
330
3
100
AcDbSymbolTableRecord
100
AcDbTextStyleTableRecord
  2
ACANSTS
 70
     0
 40
1.0
 41
1.0
 50
0.0
 71
     0
 42
3.2
  3
romans.shx
  4
extfont.shx
  0
STYLE
  5
AF68
330
3
100
AcDbSymbolTableRecord
100
AcDbTextStyleTableRecord
  2
ACANSGDT
 70
     0
 40
0.0
 41
1.0
 50
0.0
 71
     0
 42
3.2
  3
AMGDT
  4

  0
STYLE
  5
D0DC
330
3
100
AcDbSymbolTableRecord
100
AcDbTextStyleTableRecord
  2

 70
     1
 40
0.0
 41
1.0
 50
0.0
 71
     0
 42
3.2
  3
genltshp.shx
  4

  0
ENDTAB
  0
TABLE
  2
VIEW
  5
6
330
0
100
AcDbSymbolTable
 70
     6
  0
VIEW
  5
AE1
330
6
100
AcDbSymbolTableRecord
100
AcDbViewTableRecord
  2
AM_VIEW1
 70
     0
 40
149.3945509586276
 10
105.0
 20
222.3027245206862
 41
210.0
 11
0.0
 21
0.0
 31
1.0
 12
0.0
 22
0.0
 32
0.0
 42
50.0
 43
-1370.695619172058
 44
-1370.695619172058
 50
0.0
 71
    16
281
     0
 72
     0
  0
VIEW
  5
AE2
330
6
100
AcDbSymbolTableRecord
100
AcDbViewTableRecord
  2
AM_VIEW2
 70
     0
 40
149.3945509586276
 10
315.0
 20
222.3027245206862
 41
210.0
 11
0.0
 21
0.0
 31
1.0
 12
0.0
 22
0.0
 32
0.0
 42
50.0
 43
-1370.695619172058
 44
-1370.695619172058
 50
0.0
 71
    16
281
     0
 72
     0
  0
VIEW
  5
AE3
330
6
100
AcDbSymbolTableRecord
100
AcDbViewTableRecord
  2
AM_VIEW3
 70
     0
 40
149.3945509586276
 10
105.0
 20
74.69727547931383
 41
210.0
 11
0.0
 21
0.0
 31
1.0
 12
0.0
 22
0.0
 32
0.0
 42
50.0
 43
-1370.695619172058
 44
-1370.695619172058
 50
0.0
 71
    16
281
     0
 72
     0
  0
VIEW
  5
AE4
330
6
100
AcDbSymbolTableRecord
100
AcDbViewTableRecord
  2
AM_VIEW4
 70
     0
 40
149.3945509586276
 10
315.0
 20
74.69727547931383
 41
210.0
 11
0.0
 21
0.0
 31
1.0
 12
0.0
 22
0.0
 32
0.0
 42
50.0
 43
-1370.695619172058
 44
-1370.695619172058
 50
0.0
 71
    16
281
     0
 72
     0
  0
VIEW
  5
AE5
330
6
100
AcDbSymbolTableRecord
100
AcDbViewTableRecord
  2
AM_VIEW5
 70
     0
 40
149.3945509586276
 10
210.0
 20
148.5
 41
210.0
 11
0.0
 21
0.0
 31
1.0
 12
0.0
 22
0.0
 32
0.0
 42
50.0
 43
-1370.695619172058
 44
-1370.695619172058
 50
0.0
 71
    16
281
     0
 72
     0
  0
VIEW
  5
AE6
330
6
100
AcDbSymbolTableRecord
100
AcDbViewTableRecord
  2
AM_VIEW6
 70
     0
 40
298.7861140262362
 10
210.0
 20
148.5
 41
419.9958
 11
0.0
 21
0.0
 31
1.0
 12
0.0
 22
0.0
 32
0.0
 42
50.0
 43
-1370.695619172058
 44
-1370.695619172058
 50
0.0
 71
    16
281
     0
 72
     0
  0
ENDTAB
  0
TABLE
  2
UCS
  5
7
330
0
100
AcDbSymbolTable
 70
     0
  0
ENDTAB
  0
TABLE
  2
APPID
  5
9
330
0
100
AcDbSymbolTable
 70
    56
  0
APPID
  5
12
330
9
100
AcDbSymbolTableRecord
100
AcDbRegAppTableRecord
  2
ACAD
 70
     0
  0
APPID
  5
30
330
9
100
AcDbSymbolTableRecord
100
AcDbRegAppTableRecord
  2
MCAD_NO_VIS
 70
     0
  0
APPID
  5
31
330
9
100
AcDbSymbolTableRecord
100
AcDbRegAppTableRecord
  2
ACAD_TEMP_GRAPHIC
 70
     0
  0
APPID
  5
44
330
9
100
AcDbSymbolTableRecord
100
AcDbRegAppTableRecord
  2
ACATTRIBSERVICES
 70
     0
  0
APPID
  5
7A1
330
9
100
AcDbSymbolTableRecord
100
AcDbRegAppTableRecord
  2
GENIUS_GENDIMSH_14
 70
     0
  0
APPID
  5
A49
330
9
100
AcDbSymbolTableRecord
100
AcDbRegAppTableRecord
  2
GENIUS_GENREC_14
 70
     0
  0
APPID
  5
A4A
330
9
100
AcDbSymbolTableRecord
100
AcDbRegAppTableRecord
  2
GENIUS_GENOBJ-N-REC_13
 70
     0
  0
APPID
  5
A4B
330
9
100
AcDbSymbolTableRecord
100
AcDbRegAppTableRecord
  2
GENIUS_GENODEF_13
 70
     0
  0
APPID
  5
A4C
330
9
100
AcDbSymbolTableRecord
100
AcDbRegAppTableRecord
  2
DCO15
 70
     0
  0
APPID
  5
ADC
330
9
100
AcDbSymbolTableRecord
100
AcDbRegAppTableRecord
  2
GENIUS_GENOLIS_13
 70
     0
  0
APPID
  5
ADD
330
9
100
AcDbSymbolTableRecord
100
AcDbRegAppTableRecord
  2
GENIUS_GENOENT_13
 70
     0
  0
APPID
  5
ADE
330
9
100
AcDbSymbolTableRecord
100
AcDbRegAppTableRecord
  2
GENIUS_GENOBJ-N-TIT_13
 70
     0
  0
APPID
  5
ADF
330
9
100
AcDbSymbolTableRecord
100
AcDbRegAppTableRecord
  2
GENIUS_GENTITLE_13
 70
     0
  0
APPID
  5
AE0
330
9
100
AcDbSymbolTableRecord
100
AcDbRegAppTableRecord
  2
GENIUS_GENOREF_13
 70
     0
  0
APPID
  5
AE7
330
9
100
AcDbSymbolTableRecord
100
AcDbRegAppTableRecord
  2
GENIUS_GENSCREG_15
 70
     0
  0
APPID
  5
AE8
330
9
100
AcDbSymbolTableRecord
100
AcDbRegAppTableRecord
  2
GENIUS_GENOBJ-N-SDF_13
 70
     0
  0
APPID
  5
FAF
330
9
100
AcDbSymbolTableRecord
100
AcDbRegAppTableRecord
  2
GENIUS_GENBLLY_14
 70
     0
  0
APPID
  5
FB0
330
9
100
AcDbSymbolTableRecord
100
AcDbRegAppTableRecord
  2
GENIUS_GENTRA_14
 70
     0
  0
APPID
  5
1285
330
9
100
AcDbSymbolTableRecord
100
AcDbRegAppTableRecord
  2
GENIUS_GENDTOL_13
 70
     0
  0
APPID
  5
142D
330
9
100
AcDbSymbolTableRecord
100
AcDbRegAppTableRecord
  2
GENIUS_GENOBJ-N-CEN_13
 70
     0
  0
APPID
  5
1AB5
330
9
100
AcDbSymbolTableRecord
100
AcDbRegAppTableRecord
  2
GENIUS_GENOBJ-N-CRS_13
 70
     0
  0
APPID
  5
1B36
330
9
100
AcDbSymbolTableRecord
100
AcDbRegAppTableRecord
  2
GENIUS_GENOBJ-N-HTC_13
 70
     0
  0
APPID
  5
1B37
330
9
100
AcDbSymbolTableRecord
100
AcDbRegAppTableRecord
  2
GENIUS_GENHATCH_13
 70
     0
  0
APPID
  5
216D
330
9
100
AcDbSymbolTableRecord
100
AcDbRegAppTableRecord
  2
GENIUS_GENOBJ-N-FIL_13
 70
     0
  0
APPID
  5
2356
330
9
100
AcDbSymbolTableRecord
100
AcDbRegAppTableRecord
  2
GEVID990412420
 70
     0
  0
APPID
  5
2357
330
9
100
AcDbSymbolTableRecord
100
AcDbRegAppTableRecord
  2
GEVDC
 70
     0
  0
APPID
  5
2358
330
9
100
AcDbSymbolTableRecord
100
AcDbRegAppTableRecord
  2
GEVCON
 70
     0
  0
APPID
  5
235B
330
9
100
AcDbSymbolTableRecord
100
AcDbRegAppTableRecord
  2
GEVRADREF
 70
     0
  0
APPID
  5
2360
330
9
100
AcDbSymbolTableRecord
100
AcDbRegAppTableRecord
  2
GENIUS_GENBH_13
 70
     0
  0
APPID
  5
2362
330
9
100
AcDbSymbolTableRecord
100
AcDbRegAppTableRecord
  2
GENIUS_GENOBJ-NBEHI-BHF_13
 70
     0
  0
APPID
  5
2364
330
9
100
AcDbSymbolTableRecord
100
AcDbRegAppTableRecord
  2
GENIUS_GENOBJ-NBEHI-BHB_13
 70
     0
  0
APPID
  5
2379
330
9
100
AcDbSymbolTableRecord
100
AcDbRegAppTableRecord
  2
GENIUS_GENOBJ-F-SCPASSM_13
 70
     0
  0
APPID
  5
3D74
330
9
100
AcDbSymbolTableRecord
100
AcDbRegAppTableRecord
  2
GENIUS_GENDIM_13
 70
     0
  0
APPID
  5
3D76
330
9
100
AcDbSymbolTableRecord
100
AcDbRegAppTableRecord
  2
GENIUS_GE3DTOL_13
 70
     0
  0
APPID
  5
3D9C
330
9
100
AcDbSymbolTableRecord
100
AcDbRegAppTableRecord
  2
AD_DRAW
 70
     0
  0
APPID
  5
3DE8
330
9
100
AcDbSymbolTableRecord
100
AcDbRegAppTableRecord
  2
ASURF_PCURVE_APPNAME
 70
     0
  0
APPID
  5
3DED
330
9
100
AcDbSymbolTableRecord
100
AcDbRegAppTableRecord
  2
AMG_3D2D_5.0
 70
     0
  0
APPID
  5
3E1B
330
9
100
AcDbSymbolTableRecord
100
AcDbRegAppTableRecord
  2
DESIGNERASSEMBLIES
 70
     0
  0
APPID
  5
3E20
330
9
100
AcDbSymbolTableRecord
100
AcDbRegAppTableRecord
  2
ACADM_DIM_EDIT
 70
     0
  0
APPID
  5
3E21
330
9
100
AcDbSymbolTableRecord
100
AcDbRegAppTableRecord
  2
AMDT_DM_ADJ
 70
     0
  0
APPID
  5
4143
330
9
100
AcDbSymbolTableRecord
100
AcDbRegAppTableRecord
  2
GENIUS_GENFIL_13
 70
     0
  0
APPID
  5
4144
330
9
100
AcDbSymbolTableRecord
100
AcDbRegAppTableRecord
  2
GENIUS_GENOBJ-N-CHA_13
 70
     0
  0
APPID
  5
4E17
330
9
100
AcDbSymbolTableRecord
100
AcDbRegAppTableRecord
  2
GEVID1008153417
 70
     0
  0
APPID
  5
4E58
330
9
100
AcDbSymbolTableRecord
100
AcDbRegAppTableRecord
  2
GEVID1008153418
 70
     0
  0
APPID
  5
4E5E
330
9
100
AcDbSymbolTableRecord
100
AcDbRegAppTableRecord
  2
GEVID1008153419
 70
     0
  0
APPID
  5
4E64
330
9
100
AcDbSymbolTableRecord
100
AcDbRegAppTableRecord
  2
GEVID1008153420
 70
     0
  0
APPID
  5
4E75
330
9
100
AcDbSymbolTableRecord
100
AcDbRegAppTableRecord
  2
GEVID1008153421
 70
     0
  0
APPID
  5
4EB7
330
9
100
AcDbSymbolTableRecord
100
AcDbRegAppTableRecord
  2
GENIUS_AMGTXT_16
 70
     0
  0
APPID
  5
7645
330
9
100
AcDbSymbolTableRecord
100
AcDbRegAppTableRecord
  2
GENIUS_GENOBJ-N-DIM_13
 70
     0
  0
APPID
  5
AAD0
330
9
100
AcDbSymbolTableRecord
100
AcDbRegAppTableRecord
  2
ACAD_DSTYLE_DIMARC_LENGTH_SYMBOL
 70
     0
  0
APPID
  5
AAD1
330
9
100
AcDbSymbolTableRecord
100
AcDbRegAppTableRecord
  2
ACAD_DSTYLE_DIMJOGGED_JOGANGLE_SYMBOL
 70
     0
  0
APPID
  5
AAFD
330
9
100
AcDbSymbolTableRecord
100
AcDbRegAppTableRecord
  2
ACAD_PSEXT
 70
     0
  0
APPID
  5
AD61
330
9
100
AcDbSymbolTableRecord
100
AcDbRegAppTableRecord
  2
AcAecLayerStandard
 70
     0
  0
APPID
  5
B71F
330
9
100
AcDbSymbolTableRecord
100
AcDbRegAppTableRecord
  2
GENIUS_GENCEN_19
 70
     0
  0
APPID
  5
D15F
330
9
100
AcDbSymbolTableRecord
100
AcDbRegAppTableRecord
  2
ACAD_MLEADERVER
 70
     0
  0
APPID
  5
D2D0
330
9
100
AcDbSymbolTableRecord
100
AcDbRegAppTableRecord
  2
ACAD_DSTYLE_DIMINSPECT
 70
     0
  0
ENDTAB
  0
TABLE
  2
DIMSTYLE
  5
A
330
0
100
AcDbSymbolTable
 70
    23
100
AcDbDimStyleTable
 71
     1
340
2515
  0
DIMSTYLE
105
A76
330
A
100
AcDbSymbolTableRecord
100
AcDbDimStyleTableRecord
  2
STANDARD
 70
     0
 41
3.0
 42
1.0
 43
7.0
 44
2.0
 73
     0
 74
     0
 77
     1
140
2.799999999999999
141
0.0
143
0.0394
147
0.7
171
     4
172
     1
173
     1
176
     3
177
     3
178
     2
271
     3
272
     3
273
     8
274
     4
289
     0
340
A74
341
A66
343
A66
344
A66
  0
DIMSTYLE
105
2515
330
A
100
AcDbSymbolTableRecord
100
AcDbDimStyleTableRecord
  2
SYS
 70
     0
  4
"
 41
1.0
 42
1.0
 43
10.0
 44
1.0
 47
0.1
 48
0.1
 73
     0
 74
     0
 77
     1
 78
     8
 79
     2
140
3.5
141
0.0
143
0.0393701
146
0.71
147
1.5
172
     1
176
   256
177
   256
178
     7
271
     2
272
     2
283
     0
284
     8
340
11
371
    -1
372
    -1
1001
ACAD_DSTYLE_DIMJOGGED_JOGANGLE_SYMBOL
1070
   384
1040
0.7853981633974483
1001
ACAD_DSTYLE_DIMARC_LENGTH_SYMBOL
1070
   379
1070
     1
  0
DIMSTYLE
105
2516
102
{ACAD_REACTORS
330
CE3D
102
}
330
A
100
AcDbSymbolTableRecord
100
AcDbDimStyleTableRecord
  2
SYS$3
 70
     0
  4
"
 41
2.0
 42
1.0
 43
10.0
 44
1.0
 47
0.1
 48
0.1
 73
     0
 77
     1
 78
     8
 79
     2
140
3.5
141
0.0
143
0.0393701
146
0.71
147
1.5
176
   256
177
   256
178
     2
271
     2
272
     2
283
     0
284
     8
288
     1
340
11
342
A66
371
    -1
372
    -1
1001
ACAD_DSTYLE_DIMJOGGED_JOGANGLE_SYMBOL
1070
   384
1040
0.7853981633974483
1001
ACAD_DSTYLE_DIMARC_LENGTH_SYMBOL
1070
   379
1070
     1
  0
DIMSTYLE
105
2517
330
A
100
AcDbSymbolTableRecord
100
AcDbDimStyleTableRecord
  2
SYS$4
 70
     0
  4
"
 41
2.0
 42
1.0
 43
10.0
 44
1.0
 47
0.1
 48
0.1
 73
     0
 77
     1
 78
     8
 79
     2
140
3.5
141
0.0
143
0.0393701
146
0.71
147
1.5
173
     1
176
   256
177
   256
178
     2
271
     2
272
     2
283
     0
284
     8
288
     1
340
11
344
A66
371
    -1
372
    -1
1001
ACAD_DSTYLE_DIMJOGGED_JOGANGLE_SYMBOL
1070
   384
1040
0.7853981633974483
1001
ACAD_DSTYLE_DIMARC_LENGTH_SYMBOL
1070
   379
1070
     1
  0
DIMSTYLE
105
2518
330
A
100
AcDbSymbolTableRecord
100
AcDbDimStyleTableRecord
  2
SYS$6
 70
     0
  4
"
 41
2.0
 42
1.0
 43
10.0
 44
1.0
 47
0.1
 48
0.1
 73
     0
 74
     0
 78
     8
 79
     2
140
3.5
141
0.0
143
0.0393701
146
0.71
147
1.5
172
     1
176
   256
177
   256
178
     2
271
     2
272
     2
283
     0
284
     8
340
11
341
A66
371
    -1
372
    -1
1001
ACAD_DSTYLE_DIMJOGGED_JOGANGLE_SYMBOL
1070
   384
1040
0.7853981633974483
1001
ACAD_DSTYLE_DIMARC_LENGTH_SYMBOL
1070
   379
1070
     1
  0
DIMSTYLE
105
2519
330
A
100
AcDbSymbolTableRecord
100
AcDbDimStyleTableRecord
  2
SYS$7
 70
     0
  4
"
 41
2.0
 42
1.0
 43
10.0
 44
1.0
 47
0.1
 48
0.1
 73
     0
 74
     0
 77
     1
 78
     8
 79
     2
140
5.0
141
0.0
143
0.0393701
146
0.71
147
1.5
172
     1
176
   256
177
   256
178
     2
271
     2
272
     2
283
     0
284
     8
340
11
341
A66
342
A66
371
    -1
372
    -1
1001
ACAD_DSTYLE_DIMJOGGED_JOGANGLE_SYMBOL
1070
   384
1040
0.7853981633974483
1001
ACAD_DSTYLE_DIMARC_LENGTH_SYMBOL
1070
   379
1070
     1
  0
DIMSTYLE
105
251A
330
A
100
AcDbSymbolTableRecord
100
AcDbDimStyleTableRecord
  2
SYS$SF
 70
     0
  4
"
 41
2.5
 42
1.0
 43
10.0
 44
1.0
 47
0.1
 48
0.1
 73
     0
 74
     0
 75
     1
 76
     1
 77
     1
 78
     8
 79
     2
140
3.5
141
0.0
143
0.0393701
146
0.71
147
1.5
172
     1
176
   256
177
   256
178
     2
271
     2
272
     3
283
     0
284
     8
340
11
341
6C4
342
6C4
371
    -1
372
    -1
1001
ACAD_DSTYLE_DIMJOGGED_JOGANGLE_SYMBOL
1070
   384
1040
0.7853981633974483
1001
ACAD_DSTYLE_DIMARC_LENGTH_SYMBOL
1070
   379
1070
     1
  0
DIMSTYLE
105
251B
330
A
100
AcDbSymbolTableRecord
100
AcDbDimStyleTableRecord
  2
SYS$SH
 70
     0
  4
"
 41
2.5
 42
1.0
 43
10.0
 44
1.0
 47
0.1
 48
0.1
 73
     0
 74
     0
 75
     1
 76
     1
 77
     1
 78
     8
 79
     2
140
3.5
141
0.0
143
0.0393701
144
2.0
146
0.71
147
1.5
172
     1
173
     1
176
   256
177
   256
178
     2
271
     2
272
     3
283
     0
284
     8
340
11
341
6C4
343
72
344
6C4
371
    -1
372
    -1
1001
ACAD_DSTYLE_DIMJOGGED_JOGANGLE_SYMBOL
1070
   384
1040
0.7853981633974483
1001
ACAD_DSTYLE_DIMARC_LENGTH_SYMBOL
1070
   379
1070
     1
  0
DIMSTYLE
105
2A59
330
A
100
AcDbSymbolTableRecord
100
AcDbDimStyleTableRecord
  2
SYS$2
 70
     0
  4
"
 41
1.0
 42
1.0
 43
10.0
 44
1.0
 47
0.1
 48
0.1
 73
     0
 74
     0
 77
     1
 78
     8
 79
     2
140
3.5
141
0.0
143
0.0393701
146
0.71
147
1.5
172
     1
176
   256
177
   256
178
     2
271
     2
272
     2
283
     0
284
     8
340
11
342
6C4
371
    -1
372
    -1
1001
ACAD_DSTYLE_DIMJOGGED_JOGANGLE_SYMBOL
1070
   384
1040
0.7853981633974483
1001
ACAD_DSTYLE_DIMARC_LENGTH_SYMBOL
1070
   379
1070
     1
  0
DIMSTYLE
105
2AAB
102
{ACAD_REACTORS
330
C5DC
330
C5F2
330
C611
330
C64F
330
C665
330
C67B
330
C6CA
330
C6E9
330
C6FF
330
C715
330
C72B
330
C741
330
C786
330
C79C
330
C7B2
330
C7C8
330
C7DE
330
C7F4
102
}
330
A
100
AcDbSymbolTableRecord
100
AcDbDimStyleTableRecord
  2
SYS$0
 70
     0
  4
"
 41
1.0
 42
1.0
 43
10.0
 44
1.0
 47
0.1
 48
0.1
 73
     0
 74
     0
 77
     1
 78
     8
 79
     2
140
3.200000000000001
141
0.0
143
0.0393701
146
0.71
147
1.5
172
     1
176
   256
177
   256
178
     2
271
     2
272
     2
283
     0
284
     8
340
11
341
A66
342
6C4
371
    -1
372
    -1
1001
ACAD_DSTYLE_DIMJOGGED_JOGANGLE_SYMBOL
1070
   384
1040
0.7853981633974483
1001
ACAD_DSTYLE_DIMARC_LENGTH_SYMBOL
1070
   379
1070
     1
  0
DIMSTYLE
105
AF6A
330
A
100
AcDbSymbolTableRecord
100
AcDbDimStyleTableRecord
  2
AM_ANSI
 70
     0
  4
mm
 41
0.1
 42
0.05
 43
0.5
 44
0.1
 47
0.1
 48
0.1
 78
     7
 79
     2
140
0.12
141
0.0
146
0.71
147
0.06
176
   256
177
   256
178
     2
274
     4
284
     7
340
11
371
    -1
372
    -1
1001
ACAD_DSTYLE_DIMJOGGED_JOGANGLE_SYMBOL
1070
   384
1040
0.7853981633974483
1001
ACAD_DSTYLE_DIMARC_LENGTH_SYMBOL
1070
   379
1070
     1
  0
DIMSTYLE
105
AF6B
330
A
100
AcDbSymbolTableRecord
100
AcDbDimStyleTableRecord
  2
AM_ANSI$3
 70
     0
  4
mm
 41
0.1
 42
0.05
 43
0.5
 44
0.1
 47
0.1
 48
0.1
 78
     7
 79
     2
140
0.12
141
0.0
146
0.71
147
0.06
176
   256
177
   256
178
     2
274
     4
284
     7
288
     1
289
     0
340
11
371
    -1
372
    -1
1001
ACAD_DSTYLE_DIMJOGGED_JOGANGLE_SYMBOL
1070
   384
1040
0.7853981633974483
1001
ACAD_DSTYLE_DIMARC_LENGTH_SYMBOL
1070
   379
1070
     1
  0
DIMSTYLE
105
AF6C
330
A
100
AcDbSymbolTableRecord
100
AcDbDimStyleTableRecord
  2
AM_ANSI$4
 70
     0
  4
mm
 41
0.1
 42
0.05
 43
0.5
 44
0.1
 47
0.1
 48
0.1
 78
     7
 79
     2
140
0.12
141
0.0
146
0.71
147
0.06
176
   256
177
   256
178
     2
274
     4
284
     7
288
     1
289
     0
340
11
371
    -1
372
    -1
1001
ACAD_DSTYLE_DIMJOGGED_JOGANGLE_SYMBOL
1070
   384
1040
0.7853981633974483
1001
ACAD_DSTYLE_DIMARC_LENGTH_SYMBOL
1070
   379
1070
     1
  0
DIMSTYLE
105
AF6D
330
A
100
AcDbSymbolTableRecord
100
AcDbDimStyleTableRecord
  2
AM_ANSI$7
 70
     0
  4
mm
 41
0.1
 42
0.05
 43
0.5
 44
0.1
 47
0.1
 48
0.1
 78
     7
 79
     2
140
0.24
141
0.0
146
0.71
147
0.06
176
   256
177
   256
178
     2
274
     4
284
     7
340
11
371
    -1
372
    -1
1001
ACAD_DSTYLE_DIMJOGGED_JOGANGLE_SYMBOL
1070
   384
1040
0.7853981633974483
1001
ACAD_DSTYLE_DIMARC_LENGTH_SYMBOL
1070
   379
1070
     1
  0
DIMSTYLE
105
AF6E
330
A
100
AcDbSymbolTableRecord
100
AcDbDimStyleTableRecord
  2
AM_ANSI$SF
 70
     0
  4
mm
 41
0.1
 42
0.05
 43
0.5
 44
0.1
 47
0.1
 48
0.1
 75
     1
 76
     1
 78
     7
 79
     2
140
0.12
141
0.0
146
0.71
147
0.06
176
   256
177
   256
178
     2
274
     4
284
     7
340
11
371
    -1
372
    -1
1001
ACAD_DSTYLE_DIMJOGGED_JOGANGLE_SYMBOL
1070
   384
1040
0.7853981633974483
1001
ACAD_DSTYLE_DIMARC_LENGTH_SYMBOL
1070
   379
1070
     1
  0
DIMSTYLE
105
AF6F
330
A
100
AcDbSymbolTableRecord
100
AcDbDimStyleTableRecord
  2
AM_ANSI$SH
 70
     0
  4
mm
 41
0.1
 42
0.05
 43
0.5
 44
0.1
 47
0.1
 48
0.1
 75
     1
 76
     1
 78
     7
 79
     2
140
0.12
141
0.0
146
0.71
147
0.06
173
     1
176
   256
177
   256
178
     2
274
     4
284
     7
340
11
343
72
371
    -1
372
    -1
1001
ACAD_DSTYLE_DIMJOGGED_JOGANGLE_SYMBOL
1070
   384
1040
0.7853981633974483
1001
ACAD_DSTYLE_DIMARC_LENGTH_SYMBOL
1070
   379
1070
     1
  0
DIMSTYLE
105
D0F3
330
A
100
AcDbSymbolTableRecord
100
AcDbDimStyleTableRecord
  2
AM_ISO
 70
     0
  4
"
 41
2.5
 42
1.0
 43
10.0
 44
1.0
 47
0.1
 48
0.1
 73
     0
 74
     0
 77
     1
 78
     8
 79
     2
140
3.5
141
0.0
143
0.0393701
146
0.71
147
1.5
172
     1
176
   256
177
   256
178
     2
271
     2
272
     3
274
     4
283
     0
284
     8
340
11
371
    -1
372
    -1
1001
ACAD_DSTYLE_DIMARC_LENGTH_SYMBOL
1070
   379
1070
     1
  0
DIMSTYLE
105
D0F4
330
A
100
AcDbSymbolTableRecord
100
AcDbDimStyleTableRecord
  2
AM_ISO$3
 70
     0
  4
"
 41
2.5
 42
1.0
 43
10.0
 44
1.0
 47
0.1
 48
0.1
 73
     0
 77
     1
 78
     8
 79
     2
140
3.5
141
0.0
143
0.0393701
146
0.71
147
1.5
176
   256
177
   256
178
     2
271
     2
272
     3
274
     4
283
     0
284
     8
288
     1
289
     0
340
11
371
    -1
372
    -1
1001
ACAD_DSTYLE_DIMARC_LENGTH_SYMBOL
1070
   379
1070
     1
  0
DIMSTYLE
105
D0F5
330
A
100
AcDbSymbolTableRecord
100
AcDbDimStyleTableRecord
  2
AM_ISO$4
 70
     0
  4
"
 41
2.5
 42
1.0
 43
10.0
 44
1.0
 47
0.1
 48
0.1
 73
     0
 77
     1
 78
     8
 79
     2
140
3.5
141
0.0
143
0.0393701
146
0.71
147
1.5
176
   256
177
   256
178
     2
271
     2
272
     3
274
     4
283
     0
284
     8
288
     1
289
     0
340
11
371
    -1
372
    -1
1001
ACAD_DSTYLE_DIMARC_LENGTH_SYMBOL
1070
   379
1070
     1
  0
DIMSTYLE
105
D0F6
330
A
100
AcDbSymbolTableRecord
100
AcDbDimStyleTableRecord
  2
AM_ISO$6
 70
     0
  4
"
 41
2.5
 42
1.0
 43
10.0
 44
1.0
 47
0.1
 48
0.1
 73
     0
 74
     0
 78
     8
 79
     2
140
3.5
141
0.0
143
0.0393701
146
0.71
147
1.5
172
     1
176
   256
177
   256
178
     2
271
     2
272
     3
274
     4
283
     0
284
     8
340
11
371
    -1
372
    -1
1001
ACAD_DSTYLE_DIMARC_LENGTH_SYMBOL
1070
   379
1070
     1
  0
DIMSTYLE
105
D0F7
330
A
100
AcDbSymbolTableRecord
100
AcDbDimStyleTableRecord
  2
AM_ISO$7
 70
     0
  4
"
 41
2.5
 42
1.0
 43
10.0
 44
1.0
 47
0.1
 48
0.1
 73
     0
 74
     0
 77
     1
 78
     8
 79
     2
140
5.0
141
0.0
143
0.0393701
146
0.71
147
1.5
172
     1
176
   256
177
   256
178
     2
271
     2
272
     3
274
     4
283
     0
284
     8
340
11
371
    -1
372
    -1
1001
ACAD_DSTYLE_DIMARC_LENGTH_SYMBOL
1070
   379
1070
     1
  0
DIMSTYLE
105
D0F8
330
A
100
AcDbSymbolTableRecord
100
AcDbDimStyleTableRecord
  2
AM_ISO$SF
 70
     0
  4
"
 41
2.5
 42
1.0
 43
10.0
 44
1.0
 47
0.1
 48
0.1
 73
     0
 74
     0
 75
     1
 76
     1
 77
     1
 78
     8
 79
     2
140
3.5
141
0.0
143
0.0393701
146
0.71
147
1.5
172
     1
176
   256
177
   256
178
     2
271
     2
272
     3
274
     4
283
     0
284
     8
340
11
371
    -1
372
    -1
1001
ACAD_DSTYLE_DIMARC_LENGTH_SYMBOL
1070
   379
1070
     1
  0
DIMSTYLE
105
D0F9
330
A
100
AcDbSymbolTableRecord
100
AcDbDimStyleTableRecord
  2
AM_ISO$SH
 70
     0
  4
"
 41
2.5
 42
1.0
 43
10.0
 44
1.0
 47
0.1
 48
0.1
 73
     0
 74
     0
 75
     1
 76
     1
 77
     1
 78
     8
 79
     2
140
3.5
141
0.0
143
0.0393701
144
2.0
146
0.71
147
1.5
172
     1
173
     1
176
   256
177
   256
178
     2
271
     2
272
     3
274
     4
283
     0
284
     8
340
11
343
72
371
    -1
372
    -1
1001
ACAD_DSTYLE_DIMARC_LENGTH_SYMBOL
1070
   379
1070
     1
  0
ENDTAB
  0
TABLE
  2
BLOCK_RECORD
  5
1
330
0
100
AcDbSymbolTable
 70
    24
  0
BLOCK_RECORD
  5
1F
102
{ACAD_XDICTIONARY
360
8A
102
}
330
1
100
AcDbSymbolTableRecord
100
AcDbBlockTableRecord
  2
*Model_Space
340
22
  0
BLOCK_RECORD
  5
1B
330
1
100
AcDbSymbolTableRecord
100
AcDbBlockTableRecord
  2
*Paper_Space
340
1E
  0
BLOCK_RECORD
  5
23
330
1
100
AcDbSymbolTableRecord
100
AcDbBlockTableRecord
  2
*Paper_Space0
340
26
  0
BLOCK_RECORD
  5
72
330
1
100
AcDbSymbolTableRecord
100
AcDbBlockTableRecord
  2
GENAXEH
340
0
  0
BLOCK_RECORD
  5
6C4
330
1
100
AcDbSymbolTableRecord
100
AcDbBlockTableRecord
  2
_Dot
340
0
102
{BLKREFS
331
CD59
331
CD5A
331
D20A
331
D20B
331
D213
331
D214
331
D21C
331
D21D
331
D228
331
D229
331
D231
331
D232
331
D23D
331
D23E
331
D246
331
D247
331
D24F
331
D250
331
D258
331
D259
331
D261
331
D262
331
D26A
331
D26B
331
D273
331
D274
331
D27D
331
D27E
331
D286
331
D287
331
D28F
331
D290
331
D298
331
D299
331
D2A1
331
D2A2
331
D449
331
D452
102
}
  0
BLOCK_RECORD
  5
A66
330
1
100
AcDbSymbolTableRecord
100
AcDbBlockTableRecord
  2
_OPEN30
340
0
102
{BLKREFS
331
CF37
102
}
  0
BLOCK_RECORD
  5
C5DD
330
1
100
AcDbSymbolTableRecord
100
AcDbBlockTableRecord
  2
*D4
340
0
  0
BLOCK_RECORD
  5
C5F3
330
1
100
AcDbSymbolTableRecord
100
AcDbBlockTableRecord
  2
*D5
340
0
  0
BLOCK_RECORD
  5
C612
330
1
100
AcDbSymbolTableRecord
100
AcDbBlockTableRecord
  2
*D6
340
0
  0
BLOCK_RECORD
  5
C650
330
1
100
AcDbSymbolTableRecord
100
AcDbBlockTableRecord
  2
*D7
340
0
  0
BLOCK_RECORD
  5
C666
330
1
100
AcDbSymbolTableRecord
100
AcDbBlockTableRecord
  2
*D8
340
0
  0
BLOCK_RECORD
  5
C67C
330
1
100
AcDbSymbolTableRecord
100
AcDbBlockTableRecord
  2
*D9
340
0
  0
BLOCK_RECORD
  5
C6CB
330
1
100
AcDbSymbolTableRecord
100
AcDbBlockTableRecord
  2
*D10
340
0
  0
BLOCK_RECORD
  5
C6EA
330
1
100
AcDbSymbolTableRecord
100
AcDbBlockTableRecord
  2
*D11
340
0
  0
BLOCK_RECORD
  5
C700
330
1
100
AcDbSymbolTableRecord
100
AcDbBlockTableRecord
  2
*D12
340
0
  0
BLOCK_RECORD
  5
C716
330
1
100
AcDbSymbolTableRecord
100
AcDbBlockTableRecord
  2
*D13
340
0
  0
BLOCK_RECORD
  5
C72C
330
1
100
AcDbSymbolTableRecord
100
AcDbBlockTableRecord
  2
*D14
340
0
  0
BLOCK_RECORD
  5
C742
330
1
100
AcDbSymbolTableRecord
100
AcDbBlockTableRecord
  2
*D15
340
0
  0
BLOCK_RECORD
  5
C787
330
1
100
AcDbSymbolTableRecord
100
AcDbBlockTableRecord
  2
*D16
340
0
  0
BLOCK_RECORD
  5
C79D
330
1
100
AcDbSymbolTableRecord
100
AcDbBlockTableRecord
  2
*D17
340
0
  0
BLOCK_RECORD
  5
C7B3
330
1
100
AcDbSymbolTableRecord
100
AcDbBlockTableRecord
  2
*D18
340
0
  0
BLOCK_RECORD
  5
C7C9
330
1
100
AcDbSymbolTableRecord
100
AcDbBlockTableRecord
  2
*D19
340
0
  0
BLOCK_RECORD
  5
C7DF
330
1
100
AcDbSymbolTableRecord
100
AcDbBlockTableRecord
  2
*D20
340
0
  0
BLOCK_RECORD
  5
C7F5
330
1
100
AcDbSymbolTableRecord
100
AcDbBlockTableRecord
  2
*D21
340
0
  0
BLOCK_RECORD
  5
CE3E
330
1
100
AcDbSymbolTableRecord
100
AcDbBlockTableRecord
  2
*D22
340
0
  0
ENDTAB
  0
ENDSEC
  0
SECTION
  2
BLOCKS
  0
BLOCK
  5
20
330
1F
100
AcDbEntity
  8
0
100
AcDbBlockBegin
  2
*Model_Space
 70
     0
 10
0.0
 20
0.0
 30
0.0
  3
*Model_Space
  1

  0
ENDBLK
  5
21
330
1F
100
AcDbEntity
  8
0
100
AcDbBlockEnd
  0
BLOCK
  5
1C
330
1B
100
AcDbEntity
 67
     1
  8
0
100
AcDbBlockBegin
  2
*Paper_Space
 70
     0
 10
0.0
 20
0.0
 30
0.0
  3
*Paper_Space
  1

  0
ENDBLK
  5
1D
330
1B
100
AcDbEntity
 67
     1
  8
0
100
AcDbBlockEnd
  0
BLOCK
  5
24
330
23
100
AcDbEntity
 67
     1
  8
0
100
AcDbBlockBegin
  2
*Paper_Space0
 70
     0
 10
0.0
 20
0.0
 30
0.0
  3
*Paper_Space0
  1

  0
ENDBLK
  5
25
330
23
100
AcDbEntity
 67
     1
  8
0
100
AcDbBlockEnd
  0
BLOCK
  5
74
330
72
100
AcDbEntity
  8
0
100
AcDbBlockBegin
  2
GENAXEH
 70
     0
 10
0.0
 20
0.0
 30
0.0
  3
GENAXEH
  1

  0
LINE
  5
73
330
72
100
AcDbEntity
  8
0
100
AcDbLine
 10
-1.0
 20
0.0
 30
0.0
 11
1.0
 21
0.0
 31
0.0
  0
ENDBLK
  5
75
330
72
100
AcDbEntity
  8
0
100
AcDbBlockEnd
  0
BLOCK
  5
6C7
330
6C4
100
AcDbEntity
  8
0
100
AcDbBlockBegin
  2
_Dot
 70
     0
 10
0.0
 20
0.0
 30
0.0
  3
_Dot
  1

  0
LWPOLYLINE
  5
6C5
330
6C4
100
AcDbEntity
  8
0
  6
ByBlock
 62
     0
100
AcDbPolyline
 90
        2
 70
     1
 43
0.5
 10
-0.25
 20
0.0
 42
1.0
 10
0.25
 20
0.0
 42
1.0
  0
LINE
  5
6C6
330
6C4
100
AcDbEntity
  8
0
  6
ByBlock
 62
     0
370
    -2
100
AcDbLine
 10
-0.5
 20
0.0
 30
0.0
 11
-1.0
 21
0.0
 31
0.0
  0
ENDBLK
  5
6C8
330
6C4
100
AcDbEntity
  8
0
100
AcDbBlockEnd
  0
BLOCK
  5
A6A
330
A66
100
AcDbEntity
  8
0
100
AcDbBlockBegin
  2
_OPEN30
 70
     0
 10
0.0
 20
0.0
 30
0.0
  3
_OPEN30
  1

  0
LINE
  5
A67
330
A66
100
AcDbEntity
  8
0
  6
ByBlock
 62
     0
100
AcDbLine
 10
-1.0
 20
0.26794919
 30
0.0
 11
0.0
 21
0.0
 31
0.0
  0
LINE
  5
A68
330
A66
100
AcDbEntity
  8
0
  6
ByBlock
 62
     0
100
AcDbLine
 10
0.0
 20
0.0
 30
0.0
 11
-1.0
 21
-0.26794919
 31
0.0
  0
LINE
  5
A69
330
A66
100
AcDbEntity
  8
0
  6
ByBlock
 62
     0
100
AcDbLine
 10
0.0
 20
0.0
 30
0.0
 11
-1.0
 21
0.0
 31
0.0
  0
ENDBLK
  5
A6B
330
A66
100
AcDbEntity
  8
0
100
AcDbBlockEnd
  0
BLOCK
  5
C5E7
330
C5DD
100
AcDbEntity
  8
0
 48
10.0
100
AcDbBlockBegin
  2
*D4
 70
     1
 10
0.0
 20
0.0
 30
0.0
  3
*D4
  1

  0
LINE
  5
D243
330
C5DD
100
AcDbEntity
  8
AM_5
100
AcDbLine
 10
232.9321876981659
 20
178.6758419467304
 30
0.0
 11
220.9321876981659
 21
178.6758419467304
 31
0.0
  0
LINE
  5
D244
330
C5DD
100
AcDbEntity
  8
AM_5
100
AcDbLine
 10
240.6821876981659
 20
163.6758419467304
 30
0.0
 11
220.9321876981659
 21
163.6758419467304
 31
0.0
  0
LINE
  5
D245
330
C5DD
100
AcDbEntity
  8
AM_5
100
AcDbLine
 10
221.9321876981659
 20
177.6758419467304
 30
0.0
 11
221.9321876981659
 21
164.6758419467304
 31
0.0
  0
INSERT
  5
D246
330
C5DD
100
AcDbEntity
  8
AM_5
100
AcDbBlockReference
  2
_Dot
 10
221.9321876981659
 20
178.6758419467304
 30
0.0
 50
90.0
  0
INSERT
  5
D247
330
C5DD
100
AcDbEntity
  8
AM_5
100
AcDbBlockReference
  2
_Dot
 10
221.9321876981659
 20
163.6758419467304
 30
0.0
 50
270.0
  0
MTEXT
  5
D248
330
C5DD
100
AcDbEntity
  8
AM_5
 62
     2
100
AcDbMText
 10
218.8321876981659
 20
171.1758419467304
 30
0.0
 40
3.200000000000001
 41
0.0
 71
     5
 72
     1
  1
15
 11
0.0000000000000001
 21
1.0
 31
0.0
 73
     1
 44
1.0
  0
POINT
  5
D249
330
C5DD
100
AcDbEntity
  8
Defpoints
 62
     0
100
AcDbPoint
 10
233.9321876981659
 20
178.6758419467304
 30
0.0
  0
POINT
  5
D24A
330
C5DD
100
AcDbEntity
  8
Defpoints
 62
     0
100
AcDbPoint
 10
241.6821876981659
 20
163.6758419467304
 30
0.0
  0
POINT
  5
D24B
330
C5DD
100
AcDbEntity
  8
Defpoints
 62
     0
100
AcDbPoint
 10
221.9321876981659
 20
163.6758419467304
 30
0.0
  0
ENDBLK
  5
C5E8
330
C5DD
100
AcDbEntity
  8
0
 48
10.0
100
AcDbBlockEnd
  0
BLOCK
  5
C5FD
330
C5F3
100
AcDbEntity
  8
0
 48
10.0
100
AcDbBlockBegin
  2
*D5
 70
     1
 10
0.0
 20
0.0
 30
0.0
  3
*D5
  1

  0
LINE
  5
D24C
330
C5F3
100
AcDbEntity
  8
AM_5
100
AcDbLine
 10
240.6821876981659
 20
163.6758419467304
 30
0.0
 11
220.9321876981659
 21
163.6758419467304
 31
0.0
  0
LINE
  5
D24D
330
C5F3
100
AcDbEntity
  8
AM_5
100
AcDbLine
 10
243.1821876981659
 20
143.6758419467304
 30
0.0
 11
220.9321876981659
 21
143.6758419467304
 31
0.0
  0
LINE
  5
D24E
330
C5F3
100
AcDbEntity
  8
AM_5
100
AcDbLine
 10
221.9321876981659
 20
162.6758419467304
 30
0.0
 11
221.9321876981659
 21
144.6758419467304
 31
0.0
  0
INSERT
  5
D24F
330
C5F3
100
AcDbEntity
  8
AM_5
100
AcDbBlockReference
  2
_Dot
 10
221.9321876981659
 20
163.6758419467304
 30
0.0
 50
90.0
  0
INSERT
  5
D250
330
C5F3
100
AcDbEntity
  8
AM_5
100
AcDbBlockReference
  2
_Dot
 10
221.9321876981659
 20
143.6758419467304
 30
0.0
 50
270.0
  0
MTEXT
  5
D251
330
C5F3
100
AcDbEntity
  8
AM_5
 62
     2
100
AcDbMText
 10
218.8321876981659
 20
153.6758419467304
 30
0.0
 40
3.200000000000001
 41
0.0
 71
     5
 72
     1
  1
20
 11
0.0000000000000001
 21
1.0
 31
0.0
 73
     1
 44
1.0
  0
POINT
  5
D252
330
C5F3
100
AcDbEntity
  8
Defpoints
 62
     0
100
AcDbPoint
 10
241.6821876981659
 20
163.6758419467304
 30
0.0
  0
POINT
  5
D253
330
C5F3
100
AcDbEntity
  8
Defpoints
 62
     0
100
AcDbPoint
 10
244.1821876981659
 20
143.6758419467304
 30
0.0
  0
POINT
  5
D254
330
C5F3
100
AcDbEntity
  8
Defpoints
 62
     0
100
AcDbPoint
 10
221.9321876981659
 20
143.6758419467304
 30
0.0
  0
ENDBLK
  5
C5FE
330
C5F3
100
AcDbEntity
  8
0
 48
10.0
100
AcDbBlockEnd
  0
BLOCK
  5
C61C
330
C612
100
AcDbEntity
  8
0
 48
10.0
100
AcDbBlockBegin
  2
*D6
 70
     1
 10
0.0
 20
0.0
 30
0.0
  3
*D6
  1

  0
LINE
  5
D255
330
C612
100
AcDbEntity
  8
AM_5
100
AcDbLine
 10
243.1821876981659
 20
143.6758419467304
 30
0.0
 11
220.932187698166
 21
143.6758419467304
 31
0.0
  0
LINE
  5
D256
330
C612
100
AcDbEntity
  8
AM_5
100
AcDbLine
 10
240.6821876981659
 20
103.6758419467304
 30
0.0
 11
220.932187698166
 21
103.6758419467304
 31
0.0
  0
LINE
  5
D257
330
C612
100
AcDbEntity
  8
AM_5
100
AcDbLine
 10
221.932187698166
 20
142.6758419467304
 30
0.0
 11
221.932187698166
 21
104.6758419467304
 31
0.0
  0
INSERT
  5
D258
330
C612
100
AcDbEntity
  8
AM_5
100
AcDbBlockReference
  2
_Dot
 10
221.932187698166
 20
143.6758419467304
 30
0.0
 50
90.0
  0
INSERT
  5
D259
330
C612
100
AcDbEntity
  8
AM_5
100
AcDbBlockReference
  2
_Dot
 10
221.932187698166
 20
103.6758419467304
 30
0.0
 50
270.0
  0
MTEXT
  5
D25A
330
C612
100
AcDbEntity
  8
AM_5
 62
     2
100
AcDbMText
 10
218.8321876981659
 20
122.0655506517583
 30
0.0
 40
3.200000000000001
 41
0.0
 71
     5
 72
     1
  1
40
 11
0.0000000000000001
 21
1.0
 31
0.0
 73
     1
 44
1.0
  0
POINT
  5
D25B
330
C612
100
AcDbEntity
  8
Defpoints
 62
     0
100
AcDbPoint
 10
244.1821876981659
 20
143.6758419467304
 30
0.0
  0
POINT
  5
D25C
330
C612
100
AcDbEntity
  8
Defpoints
 62
     0
100
AcDbPoint
 10
241.6821876981659
 20
103.6758419467304
 30
0.0
  0
POINT
  5
D25D
330
C612
100
AcDbEntity
  8
Defpoints
 62
     0
100
AcDbPoint
 10
221.932187698166
 20
103.6758419467304
 30
0.0
  0
ENDBLK
  5
C61D
330
C612
100
AcDbEntity
  8
0
 48
10.0
100
AcDbBlockEnd
  0
BLOCK
  5
C65A
330
C650
100
AcDbEntity
  8
0
 48
10.0
100
AcDbBlockBegin
  2
*D7
 70
     1
 10
0.0
 20
0.0
 30
0.0
  3
*D7
  1

  0
LINE
  5
D25E
330
C650
100
AcDbEntity
  8
AM_5
100
AcDbLine
 10
240.6821876981659
 20
103.6758419467304
 30
0.0
 11
220.932187698166
 21
103.6758419467304
 31
0.0
  0
LINE
  5
D25F
330
C650
100
AcDbEntity
  8
AM_5
100
AcDbLine
 10
243.1821876981659
 20
63.67584194673042
 30
0.0
 11
220.9321876981659
 21
63.67584194673043
 31
0.0
  0
LINE
  5
D260
330
C650
100
AcDbEntity
  8
AM_5
100
AcDbLine
 10
221.932187698166
 20
102.6758419467304
 30
0.0
 11
221.932187698166
 21
64.67584194673044
 31
0.0
  0
INSERT
  5
D261
330
C650
100
AcDbEntity
  8
AM_5
100
AcDbBlockReference
  2
_Dot
 10
221.932187698166
 20
103.6758419467304
 30
0.0
 50
90.0
  0
INSERT
  5
D262
330
C650
100
AcDbEntity
  8
AM_5
100
AcDbBlockReference
  2
_Dot
 10
221.9321876981659
 20
63.67584194673043
 30
0.0
 50
270.0
  0
MTEXT
  5
D263
330
C650
100
AcDbEntity
  8
AM_5
 62
     2
100
AcDbMText
 10
218.8321876981659
 20
83.67584194673048
 30
0.0
 40
3.200000000000001
 41
0.0
 71
     5
 72
     1
  1
40
 11
0.0000000000000001
 21
1.0
 31
0.0
 73
     1
 44
1.0
  0
POINT
  5
D264
330
C650
100
AcDbEntity
  8
Defpoints
 62
     0
100
AcDbPoint
 10
241.6821876981659
 20
103.6758419467304
 30
0.0
  0
POINT
  5
D265
330
C650
100
AcDbEntity
  8
Defpoints
 62
     0
100
AcDbPoint
 10
244.1821876981659
 20
63.67584194673042
 30
0.0
  0
POINT
  5
D266
330
C650
100
AcDbEntity
  8
Defpoints
 62
     0
100
AcDbPoint
 10
221.9321876981659
 20
63.67584194673043
 30
0.0
  0
ENDBLK
  5
C65B
330
C650
100
AcDbEntity
  8
0
 48
10.0
100
AcDbBlockEnd
  0
BLOCK
  5
C670
330
C666
100
AcDbEntity
  8
0
 48
10.0
100
AcDbBlockBegin
  2
*D8
 70
     1
 10
0.0
 20
0.0
 30
0.0
  3
*D8
  1

  0
LINE
  5
D267
330
C666
100
AcDbEntity
  8
AM_5
100
AcDbLine
 10
243.1821876981659
 20
63.67584194673042
 30
0.0
 11
220.9321876981659
 21
63.67584194673043
 31
0.0
  0
LINE
  5
D268
330
C666
100
AcDbEntity
  8
AM_5
100
AcDbLine
 10
240.6821876981659
 20
43.67584194673042
 30
0.0
 11
220.9321876981659
 21
43.67584194673043
 31
0.0
  0
LINE
  5
D269
330
C666
100
AcDbEntity
  8
AM_5
100
AcDbLine
 10
221.9321876981659
 20
62.67584194673044
 30
0.0
 11
221.9321876981659
 21
44.67584194673043
 31
0.0
  0
INSERT
  5
D26A
330
C666
100
AcDbEntity
  8
AM_5
100
AcDbBlockReference
  2
_Dot
 10
221.9321876981659
 20
63.67584194673043
 30
0.0
 50
90.0
  0
INSERT
  5
D26B
330
C666
100
AcDbEntity
  8
AM_5
100
AcDbBlockReference
  2
_Dot
 10
221.9321876981659
 20
43.67584194673043
 30
0.0
 50
270.0
  0
MTEXT
  5
D26C
330
C666
100
AcDbEntity
  8
AM_5
 62
     2
100
AcDbMText
 10
218.8321876981659
 20
53.67584194673046
 30
0.0
 40
3.200000000000001
 41
0.0
 71
     5
 72
     1
  1
20
 11
0.0000000000000001
 21
1.0
 31
0.0
 73
     1
 44
1.0
  0
POINT
  5
D26D
330
C666
100
AcDbEntity
  8
Defpoints
 62
     0
100
AcDbPoint
 10
244.1821876981659
 20
63.67584194673042
 30
0.0
  0
POINT
  5
D26E
330
C666
100
AcDbEntity
  8
Defpoints
 62
     0
100
AcDbPoint
 10
241.6821876981659
 20
43.67584194673042
 30
0.0
  0
POINT
  5
D26F
330
C666
100
AcDbEntity
  8
Defpoints
 62
     0
100
AcDbPoint
 10
221.9321876981659
 20
43.67584194673043
 30
0.0
  0
ENDBLK
  5
C671
330
C666
100
AcDbEntity
  8
0
 48
10.0
100
AcDbBlockEnd
  0
BLOCK
  5
C686
330
C67C
100
AcDbEntity
  8
0
 48
10.0
100
AcDbBlockBegin
  2
*D9
 70
     1
 10
0.0
 20
0.0
 30
0.0
  3
*D9
  1

  0
LINE
  5
D270
330
C67C
100
AcDbEntity
  8
AM_5
100
AcDbLine
 10
240.6821876981659
 20
43.67584194673042
 30
0.0
 11
220.9321876981659
 21
43.67584194673043
 31
0.0
  0
LINE
  5
D271
330
C67C
100
AcDbEntity
  8
AM_5
100
AcDbLine
 10
232.9321876981658
 20
28.67584194673043
 30
0.0
 11
220.9321876981659
 21
28.67584194673043
 31
0.0
  0
LINE
  5
D272
330
C67C
100
AcDbEntity
  8
AM_5
100
AcDbLine
 10
221.9321876981659
 20
42.67584194673044
 30
0.0
 11
221.9321876981659
 21
29.67584194673043
 31
0.0
  0
INSERT
  5
D273
330
C67C
100
AcDbEntity
  8
AM_5
100
AcDbBlockReference
  2
_Dot
 10
221.9321876981659
 20
43.67584194673043
 30
0.0
 50
90.0
  0
INSERT
  5
D274
330
C67C
100
AcDbEntity
  8
AM_5
100
AcDbBlockReference
  2
_Dot
 10
221.9321876981659
 20
28.67584194673043
 30
0.0
 50
270.0
  0
MTEXT
  5
D275
330
C67C
100
AcDbEntity
  8
AM_5
 62
     2
100
AcDbMText
 10
218.8321876981659
 20
36.17584194673046
 30
0.0
 40
3.200000000000001
 41
0.0
 71
     5
 72
     1
  1
15
 11
0.0000000000000001
 21
1.0
 31
0.0
 73
     1
 44
1.0
  0
POINT
  5
D276
330
C67C
100
AcDbEntity
  8
Defpoints
 62
     0
100
AcDbPoint
 10
241.6821876981659
 20
43.67584194673042
 30
0.0
  0
POINT
  5
D277
330
C67C
100
AcDbEntity
  8
Defpoints
 62
     0
100
AcDbPoint
 10
233.9321876981658
 20
28.67584194673043
 30
0.0
  0
POINT
  5
D278
330
C67C
100
AcDbEntity
  8
Defpoints
 62
     0
100
AcDbPoint
 10
221.9321876981659
 20
28.67584194673043
 30
0.0
  0
ENDBLK
  5
C687
330
C67C
100
AcDbEntity
  8
0
 48
10.0
100
AcDbBlockEnd
  0
BLOCK
  5
C6D5
330
C6CB
100
AcDbEntity
  8
0
 48
10.0
100
AcDbBlockBegin
  2
*D10
 70
     1
 10
0.0
 20
0.0
 30
0.0
  3
*D10
  1

  0
LINE
  5
D23A
330
C6CB
100
AcDbEntity
  8
AM_5
100
AcDbLine
 10
232.9321876981659
 20
178.6758419467304
 30
0.0
 11
210.932187698166
 21
178.6758419467304
 31
0.0
  0
LINE
  5
D23B
330
C6CB
100
AcDbEntity
  8
AM_5
100
AcDbLine
 10
232.9321876981658
 20
28.67584194673043
 30
0.0
 11
210.9321876981659
 21
28.67584194673044
 31
0.0
  0
LINE
  5
D23C
330
C6CB
100
AcDbEntity
  8
AM_5
100
AcDbLine
 10
211.9321876981659
 20
177.6758419467304
 30
0.0
 11
211.9321876981659
 21
29.67584194673044
 31
0.0
  0
INSERT
  5
D23D
330
C6CB
100
AcDbEntity
  8
AM_5
100
AcDbBlockReference
  2
_Dot
 10
211.9321876981659
 20
178.6758419467304
 30
0.0
 50
90.0
  0
INSERT
  5
D23E
330
C6CB
100
AcDbEntity
  8
AM_5
100
AcDbBlockReference
  2
_Dot
 10
211.9321876981659
 20
28.67584194673044
 30
0.0
 50
270.0
  0
MTEXT
  5
D23F
330
C6CB
100
AcDbEntity
  8
AM_5
 62
     2
100
AcDbMText
 10
208.8321876981659
 20
103.6758419467304
 30
0.0
 40
3.200000000000001
 41
0.0
 71
     5
 72
     1
  1
150
 11
0.0000000000000001
 21
1.0
 31
0.0
 73
     1
 44
1.0
  0
POINT
  5
D240
330
C6CB
100
AcDbEntity
  8
Defpoints
 62
     0
100
AcDbPoint
 10
233.9321876981659
 20
178.6758419467304
 30
0.0
  0
POINT
  5
D241
330
C6CB
100
AcDbEntity
  8
Defpoints
 62
     0
100
AcDbPoint
 10
233.9321876981658
 20
28.67584194673043
 30
0.0
  0
POINT
  5
D242
330
C6CB
100
AcDbEntity
  8
Defpoints
 62
     0
100
AcDbPoint
 10
211.9321876981659
 20
28.67584194673044
 30
0.0
  0
ENDBLK
  5
C6D6
330
C6CB
100
AcDbEntity
  8
0
 48
10.0
100
AcDbBlockEnd
  0
BLOCK
  5
C6F4
330
C6EA
100
AcDbEntity
  8
0
 48
10.0
100
AcDbBlockBegin
  2
*D11
 70
     1
 10
0.0
 20
0.0
 30
0.0
  3
*D11
  1

  0
LINE
  5
D29E
330
C6EA
100
AcDbEntity
  8
AM_5
100
AcDbLine
 10
181.5433680599058
 20
178.6758419467304
 30
0.0
 11
193.5433680599058
 21
178.6758419467304
 31
0.0
  0
LINE
  5
D29F
330
C6EA
100
AcDbEntity
  8
AM_5
100
AcDbLine
 10
175.8433680599057
 20
127.6758419467304
 30
0.0
 11
193.5433680599058
 21
127.6758419467304
 31
0.0
  0
LINE
  5
D2A0
330
C6EA
100
AcDbEntity
  8
AM_5
100
AcDbLine
 10
192.5433680599058
 20
177.6758419467304
 30
0.0
 11
192.5433680599058
 21
128.6758419467304
 31
0.0
  0
INSERT
  5
D2A1
330
C6EA
100
AcDbEntity
  8
AM_5
100
AcDbBlockReference
  2
_Dot
 10
192.5433680599058
 20
178.6758419467304
 30
0.0
 50
90.0
  0
INSERT
  5
D2A2
330
C6EA
100
AcDbEntity
  8
AM_5
100
AcDbBlockReference
  2
_Dot
 10
192.5433680599058
 20
127.6758419467304
 30
0.0
 50
270.0
  0
MTEXT
  5
D2A3
330
C6EA
100
AcDbEntity
  8
AM_5
 62
     2
100
AcDbMText
 10
189.4433680599057
 20
153.1758419467305
 30
0.0
 40
3.200000000000001
 41
0.0
 71
     5
 72
     1
  1
51
 11
0.0000000000000001
 21
1.0
 31
0.0
 73
     1
 44
1.0
  0
POINT
  5
D2A4
330
C6EA
100
AcDbEntity
  8
Defpoints
 62
     0
100
AcDbPoint
 10
180.5433680599058
 20
178.6758419467304
 30
0.0
  0
POINT
  5
D2A5
330
C6EA
100
AcDbEntity
  8
Defpoints
 62
     0
100
AcDbPoint
 10
174.8433680599057
 20
127.6758419467304
 30
0.0
  0
POINT
  5
D2A6
330
C6EA
100
AcDbEntity
  8
Defpoints
 62
     0
100
AcDbPoint
 10
192.5433680599058
 20
127.6758419467304
 30
0.0
  0
ENDBLK
  5
C6F5
330
C6EA
100
AcDbEntity
  8
0
 48
10.0
100
AcDbBlockEnd
  0
BLOCK
  5
C70A
330
C700
100
AcDbEntity
  8
0
 48
10.0
100
AcDbBlockBegin
  2
*D12
 70
     1
 10
0.0
 20
0.0
 30
0.0
  3
*D12
  1

  0
LINE
  5
D28C
330
C700
100
AcDbEntity
  8
AM_5
100
AcDbLine
 10
175.8433680599057
 20
127.6758419467304
 30
0.0
 11
193.5433680599058
 21
127.6758419467304
 31
0.0
  0
LINE
  5
D28D
330
C700
100
AcDbEntity
  8
AM_5
100
AcDbLine
 10
167.8433680599057
 20
111.6758419467304
 30
0.0
 11
193.5433680599058
 21
111.6758419467304
 31
0.0
  0
LINE
  5
D28E
330
C700
100
AcDbEntity
  8
AM_5
100
AcDbLine
 10
192.5433680599058
 20
126.6758419467304
 30
0.0
 11
192.5433680599058
 21
112.6758419467304
 31
0.0
  0
INSERT
  5
D28F
330
C700
100
AcDbEntity
  8
AM_5
100
AcDbBlockReference
  2
_Dot
 10
192.5433680599058
 20
127.6758419467304
 30
0.0
 50
90.0
  0
INSERT
  5
D290
330
C700
100
AcDbEntity
  8
AM_5
100
AcDbBlockReference
  2
_Dot
 10
192.5433680599058
 20
111.6758419467304
 30
0.0
 50
270.0
  0
MTEXT
  5
D291
330
C700
100
AcDbEntity
  8
AM_5
 62
     2
100
AcDbMText
 10
189.4433680599057
 20
119.6758419467305
 30
0.0
 40
3.200000000000001
 41
0.0
 71
     5
 72
     1
  1
16
 11
0.0000000000000001
 21
1.0
 31
0.0
 73
     1
 44
1.0
  0
POINT
  5
D292
330
C700
100
AcDbEntity
  8
Defpoints
 62
     0
100
AcDbPoint
 10
174.8433680599057
 20
127.6758419467304
 30
0.0
  0
POINT
  5
D293
330
C700
100
AcDbEntity
  8
Defpoints
 62
     0
100
AcDbPoint
 10
166.8433680599057
 20
111.6758419467304
 30
0.0
  0
POINT
  5
D294
330
C700
100
AcDbEntity
  8
Defpoints
 62
     0
100
AcDbPoint
 10
192.5433680599058
 20
111.6758419467304
 30
0.0
  0
ENDBLK
  5
C70B
330
C700
100
AcDbEntity
  8
0
 48
10.0
100
AcDbBlockEnd
  0
BLOCK
  5
C720
330
C716
100
AcDbEntity
  8
0
 48
10.0
100
AcDbBlockBegin
  2
*D13
 70
     1
 10
0.0
 20
0.0
 30
0.0
  3
*D13
  1

  0
LINE
  5
D295
330
C716
100
AcDbEntity
  8
AM_5
100
AcDbLine
 10
167.8433680599057
 20
111.6758419467304
 30
0.0
 11
193.5433680599058
 21
111.6758419467304
 31
0.0
  0
LINE
  5
D296
330
C716
100
AcDbEntity
  8
AM_5
100
AcDbLine
 10
175.8433680599057
 20
95.67584194673043
 30
0.0
 11
193.5433680599058
 21
95.67584194673043
 31
0.0
  0
LINE
  5
D297
330
C716
100
AcDbEntity
  8
AM_5
100
AcDbLine
 10
192.5433680599058
 20
110.6758419467304
 30
0.0
 11
192.5433680599058
 21
96.67584194673043
 31
0.0
  0
INSERT
  5
D298
330
C716
100
AcDbEntity
  8
AM_5
100
AcDbBlockReference
  2
_Dot
 10
192.5433680599058
 20
111.6758419467304
 30
0.0
 50
90.0
  0
INSERT
  5
D299
330
C716
100
AcDbEntity
  8
AM_5
100
AcDbBlockReference
  2
_Dot
 10
192.5433680599058
 20
95.67584194673043
 30
0.0
 50
270.0
  0
MTEXT
  5
D29A
330
C716
100
AcDbEntity
  8
AM_5
 62
     2
100
AcDbMText
 10
189.4433680599057
 20
103.6758419467304
 30
0.0
 40
3.200000000000001
 41
0.0
 71
     5
 72
     1
  1
16
 11
0.0000000000000001
 21
1.0
 31
0.0
 73
     1
 44
1.0
  0
POINT
  5
D29B
330
C716
100
AcDbEntity
  8
Defpoints
 62
     0
100
AcDbPoint
 10
166.8433680599057
 20
111.6758419467304
 30
0.0
  0
POINT
  5
D29C
330
C716
100
AcDbEntity
  8
Defpoints
 62
     0
100
AcDbPoint
 10
174.8433680599057
 20
95.67584194673043
 30
0.0
  0
POINT
  5
D29D
330
C716
100
AcDbEntity
  8
Defpoints
 62
     0
100
AcDbPoint
 10
192.5433680599058
 20
95.67584194673043
 30
0.0
  0
ENDBLK
  5
C721
330
C716
100
AcDbEntity
  8
0
 48
10.0
100
AcDbBlockEnd
  0
BLOCK
  5
C736
330
C72C
100
AcDbEntity
  8
0
 48
10.0
100
AcDbBlockBegin
  2
*D14
 70
     1
 10
0.0
 20
0.0
 30
0.0
  3
*D14
  1

  0
LINE
  5
D27A
330
C72C
100
AcDbEntity
  8
AM_5
100
AcDbLine
 10
175.8433680599057
 20
95.67584194673043
 30
0.0
 11
193.5433680599058
 21
95.67584194673043
 31
0.0
  0
LINE
  5
D27B
330
C72C
100
AcDbEntity
  8
AM_5
100
AcDbLine
 10
167.8433680599057
 20
79.67584194673043
 30
0.0
 11
193.5433680599058
 21
79.67584194673043
 31
0.0
  0
LINE
  5
D27C
330
C72C
100
AcDbEntity
  8
AM_5
100
AcDbLine
 10
192.5433680599058
 20
94.67584194673042
 30
0.0
 11
192.5433680599058
 21
80.67584194673043
 31
0.0
  0
INSERT
  5
D27D
330
C72C
100
AcDbEntity
  8
AM_5
100
AcDbBlockReference
  2
_Dot
 10
192.5433680599058
 20
95.67584194673043
 30
0.0
 50
90.0
  0
INSERT
  5
D27E
330
C72C
100
AcDbEntity
  8
AM_5
100
AcDbBlockReference
  2
_Dot
 10
192.5433680599058
 20
79.67584194673043
 30
0.0
 50
270.0
  0
MTEXT
  5
D27F
330
C72C
100
AcDbEntity
  8
AM_5
 62
     2
100
AcDbMText
 10
189.4433680599058
 20
87.67584194673046
 30
0.0
 40
3.200000000000001
 41
0.0
 71
     5
 72
     1
  1
16
 11
0.0000000000000001
 21
1.0
 31
0.0
 73
     1
 44
1.0
  0
POINT
  5
D280
330
C72C
100
AcDbEntity
  8
Defpoints
 62
     0
100
AcDbPoint
 10
174.8433680599057
 20
95.67584194673043
 30
0.0
  0
POINT
  5
D281
330
C72C
100
AcDbEntity
  8
Defpoints
 62
     0
100
AcDbPoint
 10
166.8433680599057
 20
79.67584194673043
 30
0.0
  0
POINT
  5
D282
330
C72C
100
AcDbEntity
  8
Defpoints
 62
     0
100
AcDbPoint
 10
192.5433680599058
 20
79.67584194673043
 30
0.0
  0
ENDBLK
  5
C737
330
C72C
100
AcDbEntity
  8
0
 48
10.0
100
AcDbBlockEnd
  0
BLOCK
  5
C74C
330
C742
100
AcDbEntity
  8
0
 48
10.0
100
AcDbBlockBegin
  2
*D15
 70
     1
 10
0.0
 20
0.0
 30
0.0
  3
*D15
  1

  0
LINE
  5
D283
330
C742
100
AcDbEntity
  8
AM_5
100
AcDbLine
 10
167.8433680599057
 20
79.67584194673043
 30
0.0
 11
193.5433680599058
 21
79.67584194673043
 31
0.0
  0
LINE
  5
D284
330
C742
100
AcDbEntity
  8
AM_5
100
AcDbLine
 10
181.5433680599058
 20
28.67584194673043
 30
0.0
 11
193.5433680599058
 21
28.67584194673043
 31
0.0
  0
LINE
  5
D285
330
C742
100
AcDbEntity
  8
AM_5
100
AcDbLine
 10
192.5433680599058
 20
78.67584194673042
 30
0.0
 11
192.5433680599058
 21
29.67584194673042
 31
0.0
  0
INSERT
  5
D286
330
C742
100
AcDbEntity
  8
AM_5
100
AcDbBlockReference
  2
_Dot
 10
192.5433680599058
 20
79.67584194673043
 30
0.0
 50
90.0
  0
INSERT
  5
D287
330
C742
100
AcDbEntity
  8
AM_5
100
AcDbBlockReference
  2
_Dot
 10
192.5433680599058
 20
28.67584194673043
 30
0.0
 50
270.0
  0
MTEXT
  5
D288
330
C742
100
AcDbEntity
  8
AM_5
 62
     2
100
AcDbMText
 10
189.4433680599058
 20
54.17584194673046
 30
0.0
 40
3.200000000000001
 41
0.0
 71
     5
 72
     1
  1
51
 11
0.0000000000000001
 21
1.0
 31
0.0
 73
     1
 44
1.0
  0
POINT
  5
D289
330
C742
100
AcDbEntity
  8
Defpoints
 62
     0
100
AcDbPoint
 10
166.8433680599057
 20
79.67584194673043
 30
0.0
  0
POINT
  5
D28A
330
C742
100
AcDbEntity
  8
Defpoints
 62
     0
100
AcDbPoint
 10
180.5433680599058
 20
28.67584194673043
 30
0.0
  0
POINT
  5
D28B
330
C742
100
AcDbEntity
  8
Defpoints
 62
     0
100
AcDbPoint
 10
192.5433680599058
 20
28.67584194673043
 30
0.0
  0
ENDBLK
  5
C74D
330
C742
100
AcDbEntity
  8
0
 48
10.0
100
AcDbBlockEnd
  0
BLOCK
  5
C791
330
C787
100
AcDbEntity
  8
0
 48
10.0
100
AcDbBlockBegin
  2
*D16
 70
     1
 10
0.0
 20
0.0
 30
0.0
  3
*D16
  1

  0
LINE
  5
D225
330
C787
100
AcDbEntity
  8
AM_5
100
AcDbLine
 10
233.9321876981659
 20
253.0818120265097
 30
0.0
 11
233.9321876981659
 21
275.0818120265098
 31
0.0
  0
LINE
  5
D226
330
C787
100
AcDbEntity
  8
AM_5
100
AcDbLine
 10
288.9321876981659
 20
251.0818120265099
 30
0.0
 11
288.9321876981659
 21
275.0818120265098
 31
0.0
  0
LINE
  5
D227
330
C787
100
AcDbEntity
  8
AM_5
100
AcDbLine
 10
234.9321876981659
 20
274.0818120265097
 30
0.0
 11
287.9321876981659
 21
274.0818120265097
 31
0.0
  0
INSERT
  5
D228
330
C787
100
AcDbEntity
  8
AM_5
100
AcDbBlockReference
  2
_Dot
 10
233.9321876981659
 20
274.0818120265097
 30
0.0
 50
180.0
  0
INSERT
  5
D229
330
C787
100
AcDbEntity
  8
AM_5
100
AcDbBlockReference
  2
_Dot
 10
288.9321876981659
 20
274.0818120265097
 30
0.0
  0
MTEXT
  5
D22A
330
C787
100
AcDbEntity
  8
AM_5
 62
     2
100
AcDbMText
 10
261.4321876981659
 20
277.1818120265097
 30
0.0
 40
3.200000000000001
 41
0.0
 71
     5
 72
     1
  1
55
 73
     1
 44
1.0
  0
POINT
  5
D22B
330
C787
100
AcDbEntity
  8
Defpoints
 62
     0
100
AcDbPoint
 10
233.9321876981659
 20
252.0818120265097
 30
0.0
  0
POINT
  5
D22C
330
C787
100
AcDbEntity
  8
Defpoints
 62
     0
100
AcDbPoint
 10
288.9321876981659
 20
250.0818120265098
 30
0.0
  0
POINT
  5
D22D
330
C787
100
AcDbEntity
  8
Defpoints
 62
     0
100
AcDbPoint
 10
288.9321876981659
 20
274.0818120265097
 30
0.0
  0
ENDBLK
  5
C792
330
C787
100
AcDbEntity
  8
0
 48
10.0
100
AcDbBlockEnd
  0
BLOCK
  5
C7A7
330
C79D
100
AcDbEntity
  8
0
 48
10.0
100
AcDbBlockBegin
  2
*D17
 70
     1
 10
0.0
 20
0.0
 30
0.0
  3
*D17
  1

  0
LINE
  5
D207
330
C79D
100
AcDbEntity
  8
AM_5
100
AcDbLine
 10
287.9321876981659
 20
252.0818120265097
 30
0.0
 11
311.9321876981659
 21
252.0818120265097
 31
0.0
  0
LINE
  5
D208
330
C79D
100
AcDbEntity
  8
AM_5
100
AcDbLine
 10
289.9321876981659
 20
203.5818120265099
 30
0.0
 11
311.9321876981659
 21
203.5818120265099
 31
0.0
  0
LINE
  5
D209
330
C79D
100
AcDbEntity
  8
AM_5
100
AcDbLine
 10
310.9321876981659
 20
251.0818120265097
 30
0.0
 11
310.9321876981659
 21
204.5818120265098
 31
0.0
  0
INSERT
  5
D20A
330
C79D
100
AcDbEntity
  8
AM_5
100
AcDbBlockReference
  2
_Dot
 10
310.9321876981659
 20
252.0818120265097
 30
0.0
 50
90.0
  0
INSERT
  5
D20B
330
C79D
100
AcDbEntity
  8
AM_5
100
AcDbBlockReference
  2
_Dot
 10
310.9321876981659
 20
203.5818120265099
 30
0.0
 50
270.0
  0
MTEXT
  5
D20C
330
C79D
100
AcDbEntity
  8
AM_5
 62
     2
100
AcDbMText
 10
307.8321876981659
 20
227.8318120265098
 30
0.0
 40
3.200000000000001
 41
0.0
 71
     5
 72
     1
  1
48.5
 11
0.0000000000000001
 21
1.0
 31
0.0
 73
     1
 44
1.0
  0
POINT
  5
D20D
330
C79D
100
AcDbEntity
  8
Defpoints
 62
     0
100
AcDbPoint
 10
286.9321876981659
 20
252.0818120265097
 30
0.0
  0
POINT
  5
D20E
330
C79D
100
AcDbEntity
  8
Defpoints
 62
     0
100
AcDbPoint
 10
288.9321876981659
 20
203.5818120265099
 30
0.0
  0
POINT
  5
D20F
330
C79D
100
AcDbEntity
  8
Defpoints
 62
     0
100
AcDbPoint
 10
310.9321876981659
 20
203.5818120265099
 30
0.0
  0
ENDBLK
  5
C7A8
330
C79D
100
AcDbEntity
  8
0
 48
10.0
100
AcDbBlockEnd
  0
BLOCK
  5
C7BD
330
C7B3
100
AcDbEntity
  8
0
 48
10.0
100
AcDbBlockBegin
  2
*D18
 70
     1
 10
0.0
 20
0.0
 30
0.0
  3
*D18
  1

  0
LINE
  5
D210
330
C7B3
100
AcDbEntity
  8
AM_5
100
AcDbLine
 10
287.9321876981659
 20
252.0818120265098
 30
0.0
 11
301.9321876981659
 21
252.0818120265098
 31
0.0
  0
LINE
  5
D211
330
C7B3
100
AcDbEntity
  8
AM_5
100
AcDbLine
 10
292.932187698166
 20
221.7818124763263
 30
0.0
 11
301.9321876981659
 21
221.7818124763263
 31
0.0
  0
LINE
  5
D212
330
C7B3
100
AcDbEntity
  8
AM_5
100
AcDbLine
 10
300.9321876981659
 20
251.0818120265099
 30
0.0
 11
300.9321876981659
 21
222.7818124763263
 31
0.0
  0
INSERT
  5
D213
330
C7B3
100
AcDbEntity
  8
AM_5
100
AcDbBlockReference
  2
_Dot
 10
300.9321876981659
 20
252.0818120265098
 30
0.0
 50
90.0
  0
INSERT
  5
D214
330
C7B3
100
AcDbEntity
  8
AM_5
100
AcDbBlockReference
  2
_Dot
 10
300.9321876981659
 20
221.7818124763263
 30
0.0
 50
270.0
  0
MTEXT
  5
D215
330
C7B3
100
AcDbEntity
  8
AM_5
 62
     2
100
AcDbMText
 10
297.8321876981659
 20
236.9318122514181
 30
0.0
 40
3.200000000000001
 41
0.0
 71
     5
 72
     1
  1
30.3
 11
0.0000000000000001
 21
1.0
 31
0.0
 73
     1
 44
1.0
  0
POINT
  5
D216
330
C7B3
100
AcDbEntity
  8
Defpoints
 62
     0
100
AcDbPoint
 10
286.9321876981659
 20
252.0818120265098
 30
0.0
  0
POINT
  5
D217
330
C7B3
100
AcDbEntity
  8
Defpoints
 62
     0
100
AcDbPoint
 10
291.9321876981659
 20
221.7818124763263
 30
0.0
  0
POINT
  5
D218
330
C7B3
100
AcDbEntity
  8
Defpoints
 62
     0
100
AcDbPoint
 10
300.9321876981659
 20
221.7818124763263
 30
0.0
  0
ENDBLK
  5
C7BE
330
C7B3
100
AcDbEntity
  8
0
 48
10.0
100
AcDbBlockEnd
  0
BLOCK
  5
C7D3
330
C7C9
100
AcDbEntity
  8
0
 48
10.0
100
AcDbBlockBegin
  2
*D19
 70
     1
 10
0.0
 20
0.0
 30
0.0
  3
*D19
  1

  0
LINE
  5
D219
330
C7C9
100
AcDbEntity
  8
AM_5
100
AcDbLine
 10
292.932187698166
 20
221.7818124763263
 30
0.0
 11
301.9321876981659
 21
221.7818124763263
 31
0.0
  0
LINE
  5
D21A
330
C7C9
100
AcDbEntity
  8
AM_5
100
AcDbLine
 10
292.932187698166
 20
213.7818124763263
 30
0.0
 11
301.9321876981659
 21
213.7818124763263
 31
0.0
  0
LINE
  5
D21B
330
C7C9
100
AcDbEntity
  8
AM_5
100
AcDbLine
 10
300.9321876981659
 20
220.7818124763263
 30
0.0
 11
300.9321876981659
 21
214.7818124763263
 31
0.0
  0
INSERT
  5
D21C
330
C7C9
100
AcDbEntity
  8
AM_5
100
AcDbBlockReference
  2
_Dot
 10
300.9321876981659
 20
221.7818124763263
 30
0.0
 50
90.0
  0
INSERT
  5
D21D
330
C7C9
100
AcDbEntity
  8
AM_5
100
AcDbBlockReference
  2
_Dot
 10
300.9321876981659
 20
213.7818124763263
 30
0.0
 50
270.0
  0
MTEXT
  5
D21E
330
C7C9
100
AcDbEntity
  8
AM_5
 62
     2
100
AcDbMText
 10
297.8321876981659
 20
217.7818124763263
 30
0.0
 40
3.200000000000001
 41
0.0
 71
     5
 72
     1
  1
8
 11
0.0000000000000001
 21
1.0
 31
0.0
 73
     1
 44
1.0
  0
POINT
  5
D21F
330
C7C9
100
AcDbEntity
  8
Defpoints
 62
     0
100
AcDbPoint
 10
291.9321876981659
 20
221.7818124763263
 30
0.0
  0
POINT
  5
D220
330
C7C9
100
AcDbEntity
  8
Defpoints
 62
     0
100
AcDbPoint
 10
291.9321876981659
 20
213.7818124763263
 30
0.0
  0
POINT
  5
D221
330
C7C9
100
AcDbEntity
  8
Defpoints
 62
     0
100
AcDbPoint
 10
300.9321876981659
 20
213.7818124763263
 30
0.0
  0
ENDBLK
  5
C7D4
330
C7C9
100
AcDbEntity
  8
0
 48
10.0
100
AcDbBlockEnd
  0
BLOCK
  5
C7E9
330
C7DF
100
AcDbEntity
  8
0
 48
10.0
100
AcDbBlockBegin
  2
*D20
 70
     1
 10
0.0
 20
0.0
 30
0.0
  3
*D20
  1

  0
LINE
  5
D22E
330
C7DF
100
AcDbEntity
  8
AM_5
100
AcDbLine
 10
288.9321876981659
 20
251.0818120265099
 30
0.0
 11
288.9321876981659
 21
265.0818120265097
 31
0.0
  0
LINE
  5
D22F
330
C7DF
100
AcDbEntity
  8
AM_5
100
AcDbLine
 10
248.9321876981659
 20
256.0818120265097
 30
0.0
 11
248.9321876981659
 21
265.0818120265097
 31
0.0
  0
LINE
  5
D230
330
C7DF
100
AcDbEntity
  8
AM_5
100
AcDbLine
 10
287.9321876981659
 20
264.0818120265097
 30
0.0
 11
249.9321876981659
 21
264.0818120265097
 31
0.0
  0
INSERT
  5
D231
330
C7DF
100
AcDbEntity
  8
AM_5
100
AcDbBlockReference
  2
_Dot
 10
288.9321876981659
 20
264.0818120265097
 30
0.0
  0
INSERT
  5
D232
330
C7DF
100
AcDbEntity
  8
AM_5
100
AcDbBlockReference
  2
_Dot
 10
248.9321876981659
 20
264.0818120265097
 30
0.0
 50
180.0
  0
MTEXT
  5
D233
330
C7DF
100
AcDbEntity
  8
AM_5
 62
     2
100
AcDbMText
 10
268.9321876981659
 20
267.1818120265097
 30
0.0
 40
3.200000000000001
 41
0.0
 71
     5
 72
     1
  1
40
 73
     1
 44
1.0
  0
POINT
  5
D234
330
C7DF
100
AcDbEntity
  8
Defpoints
 62
     0
100
AcDbPoint
 10
288.9321876981659
 20
250.0818120265098
 30
0.0
  0
POINT
  5
D235
330
C7DF
100
AcDbEntity
  8
Defpoints
 62
     0
100
AcDbPoint
 10
248.9321876981659
 20
255.0818120265097
 30
0.0
  0
POINT
  5
D236
330
C7DF
100
AcDbEntity
  8
Defpoints
 62
     0
100
AcDbPoint
 10
248.9321876981659
 20
264.0818120265097
 30
0.0
  0
ENDBLK
  5
C7EA
330
C7DF
100
AcDbEntity
  8
0
 48
10.0
100
AcDbBlockEnd
  0
BLOCK
  5
C801
330
C7F5
100
AcDbEntity
  8
0
 48
10.0
100
AcDbBlockBegin
  2
*D21
 70
     1
 10
0.0
 20
0.0
 30
0.0
  3
*D21
  1

  0
LINE
  5
CD54
330
C7F5
100
AcDbEntity
  8
AM_5
100
AcDbLine
 10
232.9321876981659
 20
247.0818120265099
 30
0.0
 11
224.9321876981659
 21
247.0818120265099
 31
0.0
  0
LINE
  5
CD55
330
C7F5
100
AcDbEntity
  8
AM_5
100
AcDbLine
 10
232.9321876981659
 20
252.0818120265097
 30
0.0
 11
224.9321876981659
 21
252.0818120265097
 31
0.0
  0
LINE
  5
CD56
330
C7F5
100
AcDbEntity
  8
AM_5
100
AcDbLine
 10
225.9321876981659
 20
246.0818120265098
 30
0.0
 11
225.9321876981659
 21
245.0818120265099
 31
0.0
  0
LINE
  5
CD57
330
C7F5
100
AcDbEntity
  8
AM_5
100
AcDbLine
 10
225.9321876981659
 20
253.0818120265097
 30
0.0
 11
225.9321876981659
 21
254.0818120265097
 31
0.0
  0
LINE
  5
CD58
330
C7F5
100
AcDbEntity
  8
AM_5
100
AcDbLine
 10
225.9321876981659
 20
247.0818120265099
 30
0.0
 11
225.9321876981659
 21
252.0818120265097
 31
0.0
  0
INSERT
  5
CD59
330
C7F5
100
AcDbEntity
  8
AM_5
100
AcDbBlockReference
  2
_Dot
 10
225.9321876981659
 20
247.0818120265099
 30
0.0
 50
90.0
  0
INSERT
  5
CD5A
330
C7F5
100
AcDbEntity
  8
AM_5
100
AcDbBlockReference
  2
_Dot
 10
225.9321876981659
 20
252.0818120265097
 30
0.0
 50
270.0
  0
MTEXT
  5
CD5B
330
C7F5
100
AcDbEntity
  8
AM_5
 62
     2
100
AcDbMText
 10
222.8321876981659
 20
249.5818120265099
 30
0.0
 40
3.200000000000001
 41
0.0
 71
     5
 72
     1
  1
5
 11
0.0000000000000001
 21
1.0
 31
0.0
 73
     1
 44
1.0
  0
POINT
  5
CD5C
330
C7F5
100
AcDbEntity
  8
Defpoints
 62
     0
100
AcDbPoint
 10
233.9321876981659
 20
247.0818120265099
 30
0.0
  0
POINT
  5
CD5D
330
C7F5
100
AcDbEntity
  8
Defpoints
 62
     0
100
AcDbPoint
 10
233.9321876981659
 20
252.0818120265097
 30
0.0
  0
POINT
  5
CD5E
330
C7F5
100
AcDbEntity
  8
Defpoints
 62
     0
100
AcDbPoint
 10
225.9321876981659
 20
252.0818120265097
 30
0.0
  0
ENDBLK
  5
C802
330
C7F5
100
AcDbEntity
  8
0
 48
10.0
100
AcDbBlockEnd
  0
BLOCK
  5
CE45
330
CE3E
100
AcDbEntity
  8
0
 48
10.0
100
AcDbBlockBegin
  2
*D22
 70
     1
 10
0.0
 20
0.0
 30
0.0
  3
*D22
  1

  0
LINE
  5
CF34
330
CE3E
100
AcDbEntity
  8
AM_5
 48
10.0
100
AcDbLine
 10
297.9392826887224
 20
187.8666873502283
 30
0.0
 11
263.9826160220558
 21
187.8666873502283
 31
0.0
  0
LINE
  5
CF35
330
CE3E
100
AcDbEntity
  8
AM_5
 48
10.0
100
AcDbLine
 10
263.9826160220558
 20
187.8666873502283
 30
0.0
 11
253.1874552485701
 21
167.8563046335743
 31
0.0
  0
MTEXT
  5
CF36
102
{ACAD_XDICTIONARY
360
D4FF
102
}
330
CE3E
100
AcDbEntity
  8
AM_5
 62
     2
 48
10.0
100
AcDbMText
 10
281.7109493553891
 20
191.1166873502282
 30
0.0
 40
3.5
 41
0.0
 71
     5
 72
     1
  1
3-\U+22055.5×9.5スロット
 73
     1
 44
1.0
  0
INSERT
  5
CF37
330
CE3E
100
AcDbEntity
  8
AM_5
 48
10.0
100
AcDbBlockReference
  2
_OPEN30
 10
252.2378689115578
 20
166.096109818061
 30
0.0
 41
2.0
 42
2.0
 43
2.0
 50
241.6541158939004
  0
POINT
  5
CF38
330
CE3E
100
AcDbEntity
  8
Defpoints
 62
     0
 48
10.0
100
AcDbPoint
 10
252.2378689115578
 20
166.096109818061
 30
0.0
  0
POINT
  5
CF39
330
CE3E
100
AcDbEntity
  8
Defpoints
 62
     0
 48
10.0
100
AcDbPoint
 10
249.626506484774
 20
161.2555740753996
 30
0.0
  0
ENDBLK
  5
CE46
330
CE3E
100
AcDbEntity
  8
0
 48
10.0
100
AcDbBlockEnd
  0
ENDSEC
  0
SECTION
  2
ENTITIES
  0
LINE
  5
B089
330
1F
100
AcDbEntity
  8
AM_2
100
AcDbLine
 10
31.50000000000003
 20
288.5
 30
0.0
 11
31.49999999999998
 21
208.5
 31
0.0
  0
LINE
  5
B08A
330
1F
100
AcDbEntity
  8
AM_2
100
AcDbLine
 10
11.50000000000002
 20
280.5
 30
0.0
 11
121.5
 21
280.5
 31
0.0
  0
LINE
  5
B08B
330
1F
100
AcDbEntity
  8
AM_2
100
AcDbLine
 10
11.50000000000002
 20
272.5
 30
0.0
 11
121.5
 21
272.5
 31
0.0
  0
LINE
  5
B08C
330
1F
100
AcDbEntity
  8
AM_2
100
AcDbLine
 10
11.50000000000002
 20
264.5
 30
0.0
 11
121.5
 21
264.5
 31
0.0
  0
LINE
  5
B08D
330
1F
100
AcDbEntity
  8
AM_2
100
AcDbLine
 10
11.50000000000002
 20
256.5
 30
0.0
 11
121.5
 21
256.5
 31
0.0
  0
LINE
  5
B090
330
1F
100
AcDbEntity
  8
AM_0
100
AcDbLine
 10
11.49999999999998
 20
208.5
 30
0.0
 11
121.5
 21
208.5
 31
0.0
  0
LINE
  5
B094
330
1F
100
AcDbEntity
  8
AM_0
100
AcDbLine
 10
11.50000000000002
 20
288.5
 30
0.0
 11
11.49999999999997
 21
208.5
 31
0.0
  0
LINE
  5
B095
330
1F
100
AcDbEntity
  8
AM_0
100
AcDbLine
 10
11.50000000000002
 20
288.5
 30
0.0
 11
121.5
 21
288.5
 31
0.0
  0
LINE
  5
B096
330
1F
100
AcDbEntity
  8
AM_0
100
AcDbLine
 10
121.5
 20
288.5
 30
0.0
 11
121.5
 21
208.5
 31
0.0
  0
LINE
  5
B097
330
1F
100
AcDbEntity
  8
AM_2
100
AcDbLine
 10
11.50000000000002
 20
248.5
 30
0.0
 11
121.5
 21
248.5
 31
0.0
  0
LINE
  5
B098
330
1F
100
AcDbEntity
  8
AM_2
100
AcDbLine
 10
11.50000000000001
 20
224.5
 30
0.0
 11
121.5
 21
224.5
 31
0.0
  0
TEXT
  5
B150
330
1F
100
AcDbEntity
  8
AM_6
100
AcDbText
 10
17.15700000000003
 20
282.9
 30
0.0
 40
3.2
  1
品　名
 41
0.85537027
100
AcDbText
  0
TEXT
  5
B151
330
1F
100
AcDbEntity
  8
AM_6
100
AcDbText
 10
17.15700000000003
 20
274.9
 30
0.0
 40
3.2
  1
品　番
 41
0.85537027
100
AcDbText
  0
TEXT
  5
B154
330
1F
100
AcDbEntity
  8
AM_6
100
AcDbText
 10
17.15700000000003
 20
266.9
 30
0.0
 40
3.2
  1
材　質
 41
0.85537027
100
AcDbText
  0
TEXT
  5
B155
330
1F
100
AcDbEntity
  8
AM_6
100
AcDbText
 10
17.15700000000003
 20
258.9
 30
0.0
 40
3.2
  1
仕上げ
 41
0.85537027
100
AcDbText
  0
TEXT
  5
B158
330
1F
100
AcDbEntity
  8
AM_6
100
AcDbText
 10
13.95700000000002
 20
242.9
 30
0.0
 40
3.2
  1
セットビス
 41
0.84892707
100
AcDbText
  0
TEXT
  5
B15A
330
1F
100
AcDbEntity
  8
AM_6
100
AcDbText
 10
18.75700000000001
 20
218.9
 30
0.0
 40
3.2
  1
備考
 41
0.8643907499999999
100
AcDbText
  0
TEXT
  5
B15C
330
1F
100
AcDbEntity
  8
AM_6
100
AcDbText
 10
15.55700000000004
 20
250.9
 30
0.0
 40
3.2
  1
左右勝手
 41
0.8512700499999999
100
AcDbText
  0
TEXT
  5
B42C
330
1F
100
AcDbEntity
  8
AM_6
 60
     1
100
AcDbText
 10
408.4999999999999
 20
8.5
 30
0.0
 40
2.5
  1
!GENTITLE-INSERT
100
AcDbText
  0
TEXT
  5
B42D
330
1F
100
AcDbEntity
  8
AM_6
 60
     1
100
AcDbText
 10
0.0
 20
0.0
 30
0.0
 40
2.5
  1
!GENTITLE-LL
100
AcDbText
  0
TEXT
  5
B42E
330
1F
100
AcDbEntity
  8
AM_6
 60
     1
100
AcDbText
 10
420.0
 20
297.0
 30
0.0
 40
2.5
  1
!GENTITLE-RU
100
AcDbText
  0
TEXT
  5
B42F
330
1F
100
AcDbEntity
  8
AM_6
 60
     1
100
AcDbText
 10
420.0
 20
297.0
 30
0.0
 40
2.5
  1
!GENTITLE-MAX
100
AcDbText
  0
LINE
  5
B432
330
1F
100
AcDbEntity
  8
size
100
AcDbLine
 10
0.0
 20
0.0
 30
0.0
 11
420.0
 21
0.0
 31
0.0
1001
GENIUS_GENREC_14
1002
{
1000
PYDIR
1011
0.0000000000000178
1021
297.0
1031
0.0
1002
}
1002
{
1000
PXDIR
1011
420.0
1021
0.0
1031
0.0
1002
}
1002
{
1000
PORI
1011
0.0
1021
0.0
1031
0.0
1002
}
1002
{
1000
PINS
1011
210.0
1021
148.4999999999999
1031
0.0
1002
}
1002
{
1000
HVAL
1000
297
1002
}
1002
{
1000
H
1070
     2
1002
}
1002
{
1000
WVAL
1000
420
1002
}
1002
{
1000
W
1070
     2
1002
}
1002
{
1000
C
1070
     4
1002
}
1001
GENIUS_GENOBJ-N-REC_13
1002
{
1000
OWNER
1000
GEN
1002
}
1001
GENIUS_GENODEF_13
1002
{
1000
HIER
1070
     0
1002
}
1002
{
1000
MANEDIT
1070
     0
1002
}
1002
{
1000
NOSEL
1070
     0
1002
}
1002
{
1000
BEHIND
1070
     0
1002
}
1002
{
1000
OTHER
1070
     0
1002
}
1002
{
1000
REACTOR
1002
}
  0
LINE
  5
B433
330
1F
100
AcDbEntity
  8
size
100
AcDbLine
 10
420.0
 20
0.0
 30
0.0
 11
420.0
 21
297.0
 31
0.0
1001
GENIUS_GENREC_14
1002
{
1000
PYDIR
1011
0.0000000000000178
1021
297.0
1031
0.0
1002
}
1002
{
1000
PXDIR
1011
420.0
1021
0.0
1031
0.0
1002
}
1002
{
1000
PORI
1011
0.0
1021
0.0
1031
0.0
1002
}
1002
{
1000
PINS
1011
210.0
1021
148.4999999999999
1031
0.0
1002
}
1002
{
1000
HVAL
1000
297
1002
}
1002
{
1000
H
1070
     2
1002
}
1002
{
1000
WVAL
1000
420
1002
}
1002
{
1000
W
1070
     2
1002
}
1002
{
1000
C
1070
     4
1002
}
1001
GENIUS_GENOBJ-N-REC_13
1002
{
1000
OWNER
1000
GEN
1002
}
1001
GENIUS_GENODEF_13
1002
{
1000
HIER
1070
     0
1002
}
1002
{
1000
MANEDIT
1070
     0
1002
}
1002
{
1000
NOSEL
1070
     0
1002
}
1002
{
1000
BEHIND
1070
     0
1002
}
1002
{
1000
OTHER
1070
     0
1002
}
1002
{
1000
REACTOR
1002
}
  0
LINE
  5
B434
330
1F
100
AcDbEntity
  8
size
100
AcDbLine
 10
420.0
 20
297.0
 30
0.0
 11
0.0000000000000275
 21
297.0
 31
0.0
1001
GENIUS_GENREC_14
1002
{
1000
PYDIR
1011
0.0000000000000178
1021
297.0
1031
0.0
1002
}
1002
{
1000
PXDIR
1011
420.0
1021
0.0
1031
0.0
1002
}
1002
{
1000
PORI
1011
0.0
1021
0.0
1031
0.0
1002
}
1002
{
1000
PINS
1011
210.0
1021
148.4999999999999
1031
0.0
1002
}
1002
{
1000
HVAL
1000
297
1002
}
1002
{
1000
H
1070
     2
1002
}
1002
{
1000
WVAL
1000
420
1002
}
1002
{
1000
W
1070
     2
1002
}
1002
{
1000
C
1070
     4
1002
}
1001
GENIUS_GENOBJ-N-REC_13
1002
{
1000
OWNER
1000
GEN
1002
}
1001
GENIUS_GENODEF_13
1002
{
1000
HIER
1070
     0
1002
}
1002
{
1000
MANEDIT
1070
     0
1002
}
1002
{
1000
NOSEL
1070
     0
1002
}
1002
{
1000
BEHIND
1070
     0
1002
}
1002
{
1000
OTHER
1070
     0
1002
}
1002
{
1000
REACTOR
1002
}
  0
LINE
  5
B435
330
1F
100
AcDbEntity
  8
size
100
AcDbLine
 10
0.0000000000000275
 20
297.0
 30
0.0
 11
0.0
 21
0.0
 31
0.0
1001
GENIUS_GENREC_14
1002
{
1000
PYDIR
1011
0.0000000000000178
1021
297.0
1031
0.0
1002
}
1002
{
1000
PXDIR
1011
420.0
1021
0.0
1031
0.0
1002
}
1002
{
1000
PORI
1011
0.0
1021
0.0
1031
0.0
1002
}
1002
{
1000
PINS
1011
210.0
1021
148.4999999999999
1031
0.0
1002
}
1002
{
1000
HVAL
1000
297
1002
}
1002
{
1000
H
1070
     2
1002
}
1002
{
1000
WVAL
1000
420
1002
}
1002
{
1000
W
1070
     2
1002
}
1002
{
1000
C
1070
     4
1002
}
1001
GENIUS_GENOBJ-N-REC_13
1002
{
1000
OWNER
1000
GEN
1002
}
1001
GENIUS_GENODEF_13
1002
{
1000
HIER
1070
     0
1002
}
1002
{
1000
MANEDIT
1070
     0
1002
}
1002
{
1000
NOSEL
1070
     0
1002
}
1002
{
1000
BEHIND
1070
     0
1002
}
1002
{
1000
OTHER
1070
     0
1002
}
1002
{
1000
REACTOR
1002
}
  0
LINE
  5
B436
330
1F
100
AcDbEntity
  8
waku
100
AcDbLine
 10
408.4999999999999
 20
8.5
 30
0.0
 11
408.4999999999999
 21
288.5
 31
0.0
1001
GENIUS_GENREC_14
1002
{
1000
PYDIR
1011
0.0000000000000178
1021
297.0
1031
0.0
1002
}
1002
{
1000
PXDIR
1011
420.0
1021
0.0
1031
0.0
1002
}
1002
{
1000
PORI
1011
0.0
1021
0.0
1031
0.0
1002
}
1002
{
1000
PINS
1011
210.0
1021
148.4999999999999
1031
0.0
1002
}
1002
{
1000
HVAL
1000
297
1002
}
1002
{
1000
H
1070
     2
1002
}
1002
{
1000
WVAL
1000
420
1002
}
1002
{
1000
W
1070
     2
1002
}
1002
{
1000
C
1070
     4
1002
}
1001
GENIUS_GENOBJ-N-REC_13
1002
{
1000
OWNER
1000
GEN
1002
}
1001
GENIUS_GENODEF_13
1002
{
1000
HIER
1070
     0
1002
}
1002
{
1000
MANEDIT
1070
     0
1002
}
1002
{
1000
NOSEL
1070
     0
1002
}
1002
{
1000
BEHIND
1070
     0
1002
}
1002
{
1000
OTHER
1070
     0
1002
}
1002
{
1000
REACTOR
1002
}
  0
LINE
  5
B437
330
1F
100
AcDbEntity
  8
waku
100
AcDbLine
 10
11.50000000000002
 20
288.5
 30
0.0
 11
11.5
 21
8.5
 31
0.0
1001
GENIUS_GENREC_14
1002
{
1000
PYDIR
1011
0.0000000000000178
1021
297.0
1031
0.0
1002
}
1002
{
1000
PXDIR
1011
420.0
1021
0.0
1031
0.0
1002
}
1002
{
1000
PORI
1011
0.0
1021
0.0
1031
0.0
1002
}
1002
{
1000
PINS
1011
210.0
1021
148.4999999999999
1031
0.0
1002
}
1002
{
1000
HVAL
1000
297
1002
}
1002
{
1000
H
1070
     2
1002
}
1002
{
1000
WVAL
1000
420
1002
}
1002
{
1000
W
1070
     2
1002
}
1002
{
1000
C
1070
     4
1002
}
1001
GENIUS_GENOBJ-N-REC_13
1002
{
1000
OWNER
1000
GEN
1002
}
1001
GENIUS_GENODEF_13
1002
{
1000
HIER
1070
     0
1002
}
1002
{
1000
MANEDIT
1070
     0
1002
}
1002
{
1000
NOSEL
1070
     0
1002
}
1002
{
1000
BEHIND
1070
     0
1002
}
1002
{
1000
OTHER
1070
     0
1002
}
1002
{
1000
REACTOR
1002
}
  0
LINE
  5
B438
330
1F
100
AcDbEntity
  8
waku
100
AcDbLine
 10
408.4999999999999
 20
288.5
 30
0.0
 11
11.50000000000002
 21
288.5
 31
0.0
1001
GENIUS_GENREC_14
1002
{
1000
PYDIR
1011
0.0000000000000178
1021
297.0
1031
0.0
1002
}
1002
{
1000
PXDIR
1011
420.0
1021
0.0
1031
0.0
1002
}
1002
{
1000
PORI
1011
0.0
1021
0.0
1031
0.0
1002
}
1002
{
1000
PINS
1011
210.0
1021
148.4999999999999
1031
0.0
1002
}
1002
{
1000
HVAL
1000
297
1002
}
1002
{
1000
H
1070
     2
1002
}
1002
{
1000
WVAL
1000
420
1002
}
1002
{
1000
W
1070
     2
1002
}
1002
{
1000
C
1070
     4
1002
}
1001
GENIUS_GENOBJ-N-REC_13
1002
{
1000
OWNER
1000
GEN
1002
}
1001
GENIUS_GENODEF_13
1002
{
1000
HIER
1070
     0
1002
}
1002
{
1000
MANEDIT
1070
     0
1002
}
1002
{
1000
NOSEL
1070
     0
1002
}
1002
{
1000
BEHIND
1070
     0
1002
}
1002
{
1000
OTHER
1070
     0
1002
}
1002
{
1000
REACTOR
1002
}
  0
TEXT
  5
B439
330
1F
100
AcDbEntity
  8
AM_6
 60
     1
100
AcDbText
 10
0.0
 20
0.0
 30
0.0
 40
2.5
  1
!GENTITLE-LL
100
AcDbText
  0
TEXT
  5
B43A
330
1F
100
AcDbEntity
  8
AM_6
 60
     1
100
AcDbText
 10
408.4999999999999
 20
288.5
 30
0.0
 40
2.5
  1
!GENTITLE-RU
100
AcDbText
  0
TEXT
  5
B43B
330
1F
100
AcDbEntity
  8
AM_6
 60
     1
100
AcDbText
 10
420.0
 20
297.0
 30
0.0
 40
2.5
  1
!GENTITLE-MAX
100
AcDbText
  0
TEXT
  5
B43C
330
1F
100
AcDbEntity
  8
AM_6
 60
     1
100
AcDbText
 10
408.4999999999999
 20
8.5
 30
0.0
 40
2.5
  1
!GENTITLE-INSERT
100
AcDbText
  0
LINE
  5
B43D
330
1F
100
AcDbEntity
  8
waku
100
AcDbLine
 10
11.5
 20
8.5
 30
0.0
 11
408.4999999999999
 21
8.5
 31
0.0
  0
LINE
  5
C346
330
1F
100
AcDbEntity
  8
0部品2
  6
中心線1
 48
0.5
370
    13
100
AcDbLine
 10
291.9321876981659
 20
213.7818124763263
 30
0.0
 11
280.9321876981659
 21
213.7818124763263
 31
0.0
  0
LINE
  5
C347
330
1F
100
AcDbEntity
  8
0部品2
  6
中心線1
 48
0.5
370
    13
100
AcDbLine
 10
291.9321876981659
 20
221.7818124763263
 30
0.0
 11
280.9321876981659
 21
221.7818124763263
 31
0.0
  0
LINE
  5
C348
330
1F
100
AcDbEntity
  8
0部品2
100
AcDbLine
 10
288.9321876981659
 20
246.0818120265098
 30
0.0
 11
288.9321876981659
 21
203.5818120265099
 31
0.0
  0
ARC
  5
C349
330
1F
100
AcDbEntity
  8
0部品2
100
AcDbCircle
 10
282.9321876981659
 20
246.0818120265098
 30
0.0
 40
6.0
100
AcDbArc
 50
0.0
 51
90.0
1001
GENIUS_GENODEF_13
1002
{
1000
HIER
1070
     0
1002
}
1002
{
1000
MANEDIT
1070
     0
1002
}
1002
{
1000
NOSEL
1070
     0
1002
}
1002
{
1000
BEHIND
1070
     0
1002
}
1002
{
1000
OTHER
1070
     0
1002
}
1002
{
1000
REACTOR
1002
}
1001
GENIUS_GENOBJ-N-FIL_13
1002
{
1000
OWNER
1000
GEN
1002
}
  0
LINE
  5
C34A
330
1F
100
AcDbEntity
  8
0部品2
100
AcDbLine
 10
283.9321876981659
 20
246.0818120265098
 30
0.0
 11
283.932187698166
 21
203.5818120265097
 31
0.0
  0
LINE
  5
C353
330
1F
100
AcDbEntity
  8
0部品2
100
AcDbLine
 10
288.9321876981659
 20
178.6758419467304
 30
0.0
 11
288.9321876981659
 21
28.67584194673043
 31
0.0
  0
LINE
  5
C354
330
1F
100
AcDbEntity
  8
0部品2
100
AcDbLine
 10
288.9321876981659
 20
28.67584194673043
 30
0.0
 11
233.9321876981658
 21
28.67584194673043
 31
0.0
  0
LINE
  5
C355
330
1F
100
AcDbEntity
  8
0部品2
100
AcDbLine
 10
233.9321876981659
 20
178.6758419467304
 30
0.0
 11
288.932187698166
 21
178.6758419467304
 31
0.0
  0
LINE
  5
C356
330
1F
100
AcDbEntity
  8
0部品2
100
AcDbLine
 10
180.5433680599058
 20
178.6758419467304
 30
0.0
 11
180.5433680599058
 21
28.67584194673043
 31
0.0
  0
LINE
  5
C357
330
1F
100
AcDbEntity
  8
0部品2
100
AcDbLine
 10
180.5433680599058
 20
28.67584194673043
 30
0.0
 11
132.0433680599058
 21
28.67584194673043
 31
0.0
  0
LINE
  5
C358
330
1F
100
AcDbEntity
  8
0部品2
100
AcDbLine
 10
132.0433680599058
 20
28.67584194673043
 30
0.0
 11
132.0433680599058
 21
178.6758419467304
 31
0.0
  0
LINE
  5
C359
330
1F
100
AcDbEntity
  8
0部品2
100
AcDbLine
 10
132.0433680599058
 20
178.6758419467304
 30
0.0
 11
180.5433680599058
 21
178.6758419467304
 31
0.0
  0
LINE
  5
C35A
330
1F
100
AcDbEntity
  8
0部品2
100
AcDbLine
 10
283.9321876981659
 20
178.6758419467304
 30
0.0
 11
283.9321876981659
 21
28.67584194673043
 31
0.0
  0
LINE
  5
C35B
330
1F
100
AcDbEntity
  8
0部品2
100
AcDbLine
 10
137.0433680599058
 20
178.6758419467304
 30
0.0
 11
137.0433680599058
 21
28.67584194673043
 31
0.0
  0
CIRCLE
  5
C35C
330
1F
100
AcDbEntity
  8
0部品2
  6
細線
 48
0.3
370
    13
100
AcDbCircle
 10
170.3433680599057
 20
127.6758419467304
 30
0.0
 40
2.5
  0
CIRCLE
  5
C35D
330
1F
100
AcDbEntity
  8
0部品2
100
AcDbCircle
 10
170.3433680599057
 20
127.6758419467304
 30
0.0
 40
2.1
  0
CIRCLE
  5
C360
330
1F
100
AcDbEntity
  8
0部品2
  6
細線
 48
0.3
370
    13
100
AcDbCircle
 10
162.3433680599057
 20
111.6758419467304
 30
0.0
 40
2.5
  0
CIRCLE
  5
C361
330
1F
100
AcDbEntity
  8
0部品2
100
AcDbCircle
 10
162.3433680599057
 20
111.6758419467304
 30
0.0
 40
2.1
  0
CIRCLE
  5
C364
330
1F
100
AcDbEntity
  8
0部品2
  6
細線
 48
0.3
370
    13
100
AcDbCircle
 10
170.3433680599057
 20
95.67584194673043
 30
0.0
 40
2.5
  0
CIRCLE
  5
C365
330
1F
100
AcDbEntity
  8
0部品2
100
AcDbCircle
 10
170.3433680599057
 20
95.67584194673043
 30
0.0
 40
2.1
  0
CIRCLE
  5
C368
330
1F
100
AcDbEntity
  8
0部品2
  6
細線
 48
0.3
370
    13
100
AcDbCircle
 10
162.3433680599057
 20
79.67584194673043
 30
0.0
 40
2.5
  0
CIRCLE
  5
C369
330
1F
100
AcDbEntity
  8
0部品2
100
AcDbCircle
 10
162.3433680599057
 20
79.67584194673043
 30
0.0
 40
2.1
  0
LINE
  5
C36A
330
1F
100
AcDbEntity
  8
0部品2
  6
中心線1
 48
0.5
370
    13
100
AcDbLine
 10
162.3433680599057
 20
84.17584194673043
 30
0.0
 11
162.3433680599057
 21
75.17584194673043
 31
0.0
1001
GENIUS_GENOBJ-N-CEN_13
1002
{
1000
OWNER
1000
GEN
1002
}
1001
GENIUS_GENODEF_13
1002
{
1000
HIER
1070
     0
1002
}
1002
{
1000
MANEDIT
1070
     0
1002
}
1002
{
1000
NOSEL
1070
     0
1002
}
1002
{
1000
BEHIND
1070
     0
1002
}
1002
{
1000
OTHER
1070
     0
1002
}
1002
{
1000
REACTOR
1002
}
1001
GENIUS_GENCEN_19
1002
{
1040
4.0
1002
}
  0
LINE
  5
C36B
330
1F
100
AcDbEntity
  8
0部品2
  6
中心線1
 48
0.5
370
    13
100
AcDbLine
 10
166.8433680599057
 20
79.67584194673043
 30
0.0
 11
157.8433680599057
 21
79.67584194673043
 31
0.0
1001
GENIUS_GENODEF_13
1002
{
1000
HIER
1070
     0
1002
}
1002
{
1000
MANEDIT
1070
     0
1002
}
1002
{
1000
NOSEL
1070
     0
1002
}
1002
{
1000
BEHIND
1070
     0
1002
}
1002
{
1000
OTHER
1070
     0
1002
}
1002
{
1000
REACTOR
1002
}
1001
GENIUS_GENOBJ-N-CEN_13
1002
{
1000
OWNER
1000
GEN
1002
}
1001
GENIUS_GENCEN_19
1002
{
1040
4.0
1002
}
  0
LINE
  5
C36C
330
1F
100
AcDbEntity
  8
0部品2
  6
中心線1
 48
0.5
370
    13
100
AcDbLine
 10
291.9321876981659
 20
127.6758419467304
 30
0.0
 11
280.9321876981659
 21
127.6758419467304
 31
0.0
  0
LINE
  5
C371
330
1F
100
AcDbEntity
  8
0部品2
  6
中心線1
 48
0.5
370
    13
100
AcDbLine
 10
291.9321876981659
 20
111.6758419467304
 30
0.0
 11
280.9321876981659
 21
111.6758419467304
 31
0.0
  0
LINE
  5
C376
330
1F
100
AcDbEntity
  8
0部品2
  6
中心線1
 48
0.5
370
    13
100
AcDbLine
 10
291.9321876981659
 20
95.67584194673043
 30
0.0
 11
280.9321876981659
 21
95.67584194673043
 31
0.0
  0
LINE
  5
C37B
330
1F
100
AcDbEntity
  8
0部品2
  6
中心線1
 48
0.5
370
    13
100
AcDbLine
 10
291.9321876981659
 20
79.67584194673043
 30
0.0
 11
280.9321876981659
 21
79.67584194673043
 31
0.0
  0
LINE
  5
C382
330
1F
100
AcDbEntity
  8
0部品2
  6
中心線1
 48
0.5
370
    13
100
AcDbLine
 10
140.0433680599058
 20
163.6758419467304
 30
0.0
 11
129.0433680599058
 21
163.6758419467304
 31
0.0
1001
GENIUS_GENOBJ-N-CEN_13
1002
{
1000
OWNER
1000
GEN
1002
}
1001
GENIUS_GENODEF_13
1002
{
1000
HIER
1070
     0
1002
}
1002
{
1000
MANEDIT
1070
     0
1002
}
1002
{
1000
NOSEL
1070
     0
1002
}
1002
{
1000
BEHIND
1070
     0
1002
}
1002
{
1000
OTHER
1070
     0
1002
}
1002
{
1000
REACTOR
1002
}
1001
GENIUS_GENCEN_19
1002
{
1040
4.0
1002
}
  0
LINE
  5
C38B
330
1F
100
AcDbEntity
  8
0部品2
100
AcDbLine
 10
288.9321876981659
 20
203.5818120265099
 30
0.0
 11
283.932187698166
 21
203.5818120265097
 31
0.0
  0
LINE
  5
C38C
330
1F
100
AcDbEntity
  8
0部品2
100
AcDbLine
 10
233.9321876981659
 20
252.0818120265097
 30
0.0
 11
282.9321876981659
 21
252.0818120265097
 31
0.0
  0
LINE
  5
C38D
330
1F
100
AcDbEntity
  8
0部品2
100
AcDbLine
 10
282.9321876981659
 20
247.0818120265097
 30
0.0
 11
233.9321876981659
 21
247.0818120265099
 31
0.0
  0
ARC
  5
C38E
330
1F
100
AcDbEntity
  8
0部品2
100
AcDbCircle
 10
282.9321876981659
 20
246.0818120265098
 30
0.0
 40
1.0
100
AcDbArc
 50
0.0
 51
90.0
1001
GENIUS_GENOBJ-N-FIL_13
1002
{
1000
OWNER
1000
GEN
1002
}
1001
GENIUS_GENODEF_13
1002
{
1000
HIER
1070
     0
1002
}
1002
{
1000
MANEDIT
1070
     0
1002
}
1002
{
1000
NOSEL
1070
     0
1002
}
1002
{
1000
BEHIND
1070
     0
1002
}
1002
{
1000
OTHER
1070
     0
1002
}
1002
{
1000
REACTOR
1002
}
  0
LINE
  5
C393
330
1F
100
AcDbEntity
  8
0部品2
  6
中心線1
 48
0.5
370
    13
100
AcDbLine
 10
248.9321876981659
 20
255.0818120265097
 30
0.0
 11
248.9321876981659
 21
244.0818120265098
 31
0.0
1001
GENIUS_GENOBJ-N-CEN_13
1002
{
1000
OWNER
1000
GEN
1002
}
1001
GENIUS_GENODEF_13
1002
{
1000
HIER
1070
     0
1002
}
1002
{
1000
MANEDIT
1070
     0
1002
}
1002
{
1000
NOSEL
1070
     0
1002
}
1002
{
1000
BEHIND
1070
     0
1002
}
1002
{
1000
OTHER
1070
     0
1002
}
1002
{
1000
REACTOR
1002
}
1001
GENIUS_GENCEN_19
1002
{
1040
4.0
1002
}
  0
LINE
  5
C396
330
1F
100
AcDbEntity
  8
0部品2
  6
中心線1
 48
0.5
370
    13
100
AcDbLine
 10
140.0433680599058
 20
103.6758419467304
 30
0.0
 11
129.0433680599058
 21
103.6758419467304
 31
0.0
1001
GENIUS_GENOBJ-N-CEN_13
1002
{
1000
OWNER
1000
GEN
1002
}
1001
GENIUS_GENODEF_13
1002
{
1000
HIER
1070
     0
1002
}
1002
{
1000
MANEDIT
1070
     0
1002
}
1002
{
1000
NOSEL
1070
     0
1002
}
1002
{
1000
BEHIND
1070
     0
1002
}
1002
{
1000
OTHER
1070
     0
1002
}
1002
{
1000
REACTOR
1002
}
1001
GENIUS_GENCEN_19
1002
{
1040
4.0
1002
}
  0
LINE
  5
C399
330
1F
100
AcDbEntity
  8
0部品2
  6
中心線1
 48
0.5
370
    13
100
AcDbLine
 10
140.0433680599058
 20
43.67584194673042
 30
0.0
 11
129.0433680599058
 21
43.67584194673042
 31
0.0
1001
GENIUS_GENOBJ-N-CEN_13
1002
{
1000
OWNER
1000
GEN
1002
}
1001
GENIUS_GENODEF_13
1002
{
1000
HIER
1070
     0
1002
}
1002
{
1000
MANEDIT
1070
     0
1002
}
1002
{
1000
NOSEL
1070
     0
1002
}
1002
{
1000
BEHIND
1070
     0
1002
}
1002
{
1000
OTHER
1070
     0
1002
}
1002
{
1000
REACTOR
1002
}
1001
GENIUS_GENCEN_19
1002
{
1040
4.0
1002
}
  0
LINE
  5
C3A1
330
1F
100
AcDbEntity
  8
0部品2
100
AcDbLine
 10
233.9321876981659
 20
252.0818120265097
 30
0.0
 11
233.9321876981659
 21
247.0818120265099
 31
0.0
  0
LINE
  5
C3A6
330
1F
100
AcDbEntity
  8
0部品2
100
AcDbLine
 10
233.9321876981659
 20
178.6758419467304
 30
0.0
 11
233.9321876981658
 21
28.67584194673043
 31
0.0
  0
LINE
  5
C3A7
330
1F
100
AcDbEntity
  8
0部品2
  6
中心線1
 48
0.5
370
    13
100
AcDbLine
 10
256.1821876981659
 20
43.67584194673042
 30
0.0
 11
241.6821876981659
 21
43.67584194673042
 31
0.0
1001
GENIUS_GENOBJ-N-CEN_13
1002
{
1000
OWNER
1000
GEN
1002
}
1001
GENIUS_GENODEF_13
1002
{
1000
HIER
1070
     0
1002
}
1002
{
1000
MANEDIT
1070
     0
1002
}
1002
{
1000
NOSEL
1070
     0
1002
}
1002
{
1000
BEHIND
1070
     0
1002
}
1002
{
1000
OTHER
1070
     0
1002
}
1002
{
1000
REACTOR
1002
}
1001
GENIUS_GENCEN_19
1002
{
1040
4.0
1002
}
  0
LINE
  5
C3A8
330
1F
100
AcDbEntity
  8
0部品2
  6
中心線1
 48
0.5
370
    13
100
AcDbLine
 10
248.9321876981659
 20
48.92584194673043
 30
0.0
 11
248.9321876981659
 21
38.42584194673043
 31
0.0
1001
GENIUS_GENOBJ-N-CEN_13
1002
{
1000
OWNER
1000
GEN
1002
}
1001
GENIUS_GENODEF_13
1002
{
1000
HIER
1070
     0
1002
}
1002
{
1000
MANEDIT
1070
     0
1002
}
1002
{
1000
NOSEL
1070
     0
1002
}
1002
{
1000
BEHIND
1070
     0
1002
}
1002
{
1000
OTHER
1070
     0
1002
}
1002
{
1000
REACTOR
1002
}
1001
GENIUS_GENCEN_19
1002
{
1040
4.0
1002
}
  0
ARC
  5
C3AD
330
1F
100
AcDbEntity
  8
0部品2
100
AcDbCircle
 10
250.9321876981659
 20
43.67584194673042
 30
0.0
 40
2.75
100
AcDbArc
 50
270.0
 51
90.0
  0
ARC
  5
C3AE
330
1F
100
AcDbEntity
  8
0部品2
100
AcDbCircle
 10
246.9321876981659
 20
43.67584194673042
 30
0.0
 40
2.75
100
AcDbArc
 50
90.0
 51
270.0
  0
LINE
  5
C3AF
330
1F
100
AcDbEntity
  8
0部品2
100
AcDbLine
 10
250.9321876981659
 20
46.42584194673043
 30
0.0
 11
246.9321876981659
 21
46.42584194673043
 31
0.0
  0
LINE
  5
C3B0
330
1F
100
AcDbEntity
  8
0部品2
100
AcDbLine
 10
250.9321876981659
 20
40.92584194673043
 30
0.0
 11
246.9321876981659
 21
40.92584194673043
 31
0.0
  0
LINE
  5
C3B1
330
1F
100
AcDbEntity
  8
0部品2
  6
中心線1
 48
0.5
370
    13
100
AcDbLine
 10
256.9321876981659
 20
163.6758419467304
 30
0.0
 11
241.6821876981659
 21
163.6758419467304
 31
0.0
1001
GENIUS_GENOBJ-N-CEN_13
1002
{
1000
OWNER
1000
GEN
1002
}
1001
GENIUS_GENODEF_13
1002
{
1000
HIER
1070
     0
1002
}
1002
{
1000
MANEDIT
1070
     0
1002
}
1002
{
1000
NOSEL
1070
     0
1002
}
1002
{
1000
BEHIND
1070
     0
1002
}
1002
{
1000
OTHER
1070
     0
1002
}
1002
{
1000
REACTOR
1002
}
1001
GENIUS_GENCEN_19
1002
{
1040
4.0
1002
}
  0
LINE
  5
C3B2
330
1F
100
AcDbEntity
  8
0部品2
  6
中心線1
 48
0.5
370
    13
100
AcDbLine
 10
248.9321876981659
 20
168.9258419467304
 30
0.0
 11
248.9321876981659
 21
158.4258419467304
 31
0.0
1001
GENIUS_GENOBJ-N-CEN_13
1002
{
1000
OWNER
1000
GEN
1002
}
1001
GENIUS_GENODEF_13
1002
{
1000
HIER
1070
     0
1002
}
1002
{
1000
MANEDIT
1070
     0
1002
}
1002
{
1000
NOSEL
1070
     0
1002
}
1002
{
1000
BEHIND
1070
     0
1002
}
1002
{
1000
OTHER
1070
     0
1002
}
1002
{
1000
REACTOR
1002
}
1001
GENIUS_GENCEN_19
1002
{
1040
4.0
1002
}
  0
ARC
  5
C3B5
330
1F
100
AcDbEntity
  8
0部品2
100
AcDbCircle
 10
250.9321876981659
 20
163.6758419467304
 30
0.0
 40
2.75
100
AcDbArc
 50
270.0
 51
90.0
  0
ARC
  5
C3B6
330
1F
100
AcDbEntity
  8
0部品2
100
AcDbCircle
 10
246.9321876981659
 20
163.6758419467304
 30
0.0
 40
2.75
100
AcDbArc
 50
90.0
 51
270.0
  0
LINE
  5
C3B7
330
1F
100
AcDbEntity
  8
0部品2
100
AcDbLine
 10
250.9321876981659
 20
166.4258419467304
 30
0.0
 11
246.9321876981659
 21
166.4258419467304
 31
0.0
  0
LINE
  5
C3B8
330
1F
100
AcDbEntity
  8
0部品2
100
AcDbLine
 10
250.9321876981659
 20
160.9258419467304
 30
0.0
 11
246.9321876981659
 21
160.9258419467304
 31
0.0
  0
ARC
  5
C3BE
330
1F
100
AcDbEntity
  8
0部品2
100
AcDbCircle
 10
250.9321876981659
 20
103.6758419467304
 30
0.0
 40
2.75
100
AcDbArc
 50
270.0
 51
90.0
  0
ARC
  5
C3BF
330
1F
100
AcDbEntity
  8
0部品2
100
AcDbCircle
 10
246.9321876981659
 20
103.6758419467304
 30
0.0
 40
2.75
100
AcDbArc
 50
90.0
 51
270.0
  0
LINE
  5
C3C0
330
1F
100
AcDbEntity
  8
0部品2
100
AcDbLine
 10
250.9321876981659
 20
106.4258419467304
 30
0.0
 11
246.9321876981659
 21
106.4258419467304
 31
0.0
  0
LINE
  5
C3C1
330
1F
100
AcDbEntity
  8
0部品2
100
AcDbLine
 10
250.9321876981659
 20
100.9258419467304
 30
0.0
 11
246.9321876981659
 21
100.9258419467304
 31
0.0
  0
CIRCLE
  5
C3C2
330
1F
100
AcDbEntity
  8
0部品2
100
AcDbCircle
 10
248.9321876981659
 20
63.67584194673042
 30
0.0
 40
2.75
  0
CIRCLE
  5
C3C5
330
1F
100
AcDbEntity
  8
0部品2
100
AcDbCircle
 10
248.9321876981659
 20
143.6758419467304
 30
0.0
 40
2.75
  0
LINE
  5
C3C6
330
1F
100
AcDbEntity
  8
0部品2
  6
中心線1
 48
0.5
370
    13
100
AcDbLine
 10
253.6821876981659
 20
143.6758419467304
 30
0.0
 11
244.1821876981659
 21
143.6758419467304
 31
0.0
1001
GENIUS_GENOBJ-N-CEN_13
1002
{
1000
OWNER
1000
GEN
1002
}
1001
GENIUS_GENODEF_13
1002
{
1000
HIER
1070
     0
1002
}
1002
{
1000
MANEDIT
1070
     0
1002
}
1002
{
1000
NOSEL
1070
     0
1002
}
1002
{
1000
BEHIND
1070
     0
1002
}
1002
{
1000
OTHER
1070
     0
1002
}
1002
{
1000
REACTOR
1002
}
1001
GENIUS_GENCEN_19
1002
{
1040
4.0
1002
}
  0
LINE
  5
C3C7
330
1F
100
AcDbEntity
  8
0部品2
  6
中心線1
 48
0.5
370
    13
100
AcDbLine
 10
248.9321876981659
 20
148.4258419467304
 30
0.0
 11
248.9321876981659
 21
138.9258419467304
 31
0.0
1001
GENIUS_GENOBJ-N-CEN_13
1002
{
1000
OWNER
1000
GEN
1002
}
1001
GENIUS_GENODEF_13
1002
{
1000
HIER
1070
     0
1002
}
1002
{
1000
MANEDIT
1070
     0
1002
}
1002
{
1000
NOSEL
1070
     0
1002
}
1002
{
1000
BEHIND
1070
     0
1002
}
1002
{
1000
OTHER
1070
     0
1002
}
1002
{
1000
REACTOR
1002
}
1001
GENIUS_GENCEN_19
1002
{
1040
4.0
1002
}
  0
LINE
  5
C3CD
330
1F
100
AcDbEntity
  8
0部品2
  6
中心線1
 48
0.5
370
    13
100
AcDbLine
 10
140.0433680599058
 20
143.6758419467304
 30
0.0
 11
129.0433680599058
 21
143.6758419467304
 31
0.0
1001
GENIUS_GENOBJ-N-CEN_13
1002
{
1000
OWNER
1000
GEN
1002
}
1001
GENIUS_GENODEF_13
1002
{
1000
HIER
1070
     0
1002
}
1002
{
1000
MANEDIT
1070
     0
1002
}
1002
{
1000
NOSEL
1070
     0
1002
}
1002
{
1000
BEHIND
1070
     0
1002
}
1002
{
1000
OTHER
1070
     0
1002
}
1002
{
1000
REACTOR
1002
}
1001
GENIUS_GENCEN_19
1002
{
1040
4.0
1002
}
  0
LINE
  5
C3D0
330
1F
100
AcDbEntity
  8
0部品2
  6
中心線1
 48
0.5
370
    13
100
AcDbLine
 10
140.0433680599058
 20
63.67584194673042
 30
0.0
 11
129.0433680599058
 21
63.67584194673042
 31
0.0
1001
GENIUS_GENOBJ-N-CEN_13
1002
{
1000
OWNER
1000
GEN
1002
}
1001
GENIUS_GENODEF_13
1002
{
1000
HIER
1070
     0
1002
}
1002
{
1000
MANEDIT
1070
     0
1002
}
1002
{
1000
NOSEL
1070
     0
1002
}
1002
{
1000
BEHIND
1070
     0
1002
}
1002
{
1000
OTHER
1070
     0
1002
}
1002
{
1000
REACTOR
1002
}
1001
GENIUS_GENCEN_19
1002
{
1040
4.0
1002
}
  0
MTEXT
  5
C3DC
330
1F
100
AcDbEntity
  8
0部品2
100
AcDbMText
 10
263.3873583559287
 20
107.9361432015297
 30
0.0
 40
9.0
 41
8.0
 71
     3
 72
     5
  1
L
 73
     1
 44
1.0
  0
LINE
  5
C5B6
330
1F
100
AcDbEntity
  8
0部品2
  6
中心線1
 48
0.5
370
    13
100
AcDbLine
 10
253.6821876981659
 20
63.67584194673042
 30
0.0
 11
244.1821876981659
 21
63.67584194673042
 31
0.0
1001
GENIUS_GENOBJ-N-CEN_13
1002
{
1000
OWNER
1000
GEN
1002
}
1001
GENIUS_GENODEF_13
1002
{
1000
HIER
1070
     0
1002
}
1002
{
1000
MANEDIT
1070
     0
1002
}
1002
{
1000
NOSEL
1070
     0
1002
}
1002
{
1000
BEHIND
1070
     0
1002
}
1002
{
1000
OTHER
1070
     0
1002
}
1002
{
1000
REACTOR
1002
}
1001
GENIUS_GENCEN_19
1002
{
1040
4.0
1002
}
  0
LINE
  5
C5B7
330
1F
100
AcDbEntity
  8
0部品2
  6
中心線1
 48
0.5
370
    13
100
AcDbLine
 10
248.9321876981659
 20
68.42584194673043
 30
0.0
 11
248.9321876981659
 21
58.92584194673043
 31
0.0
1001
GENIUS_GENOBJ-N-CEN_13
1002
{
1000
OWNER
1000
GEN
1002
}
1001
GENIUS_GENODEF_13
1002
{
1000
HIER
1070
     0
1002
}
1002
{
1000
MANEDIT
1070
     0
1002
}
1002
{
1000
NOSEL
1070
     0
1002
}
1002
{
1000
BEHIND
1070
     0
1002
}
1002
{
1000
OTHER
1070
     0
1002
}
1002
{
1000
REACTOR
1002
}
1001
GENIUS_GENCEN_19
1002
{
1040
4.0
1002
}
  0
LINE
  5
C5B8
330
1F
100
AcDbEntity
  8
0部品2
  6
中心線1
 48
0.5
370
    13
100
AcDbLine
 10
170.3433680599057
 20
100.1758419467304
 30
0.0
 11
170.3433680599057
 21
91.17584194673042
 31
0.0
1001
GENIUS_GENOBJ-N-CEN_13
1002
{
1000
OWNER
1000
GEN
1002
}
1001
GENIUS_GENODEF_13
1002
{
1000
HIER
1070
     0
1002
}
1002
{
1000
MANEDIT
1070
     0
1002
}
1002
{
1000
NOSEL
1070
     0
1002
}
1002
{
1000
BEHIND
1070
     0
1002
}
1002
{
1000
OTHER
1070
     0
1002
}
1002
{
1000
REACTOR
1002
}
1001
GENIUS_GENCEN_19
1002
{
1040
4.0
1002
}
  0
LINE
  5
C5B9
330
1F
100
AcDbEntity
  8
0部品2
  6
中心線1
 48
0.5
370
    13
100
AcDbLine
 10
174.8433680599057
 20
95.67584194673043
 30
0.0
 11
165.8433680599057
 21
95.67584194673043
 31
0.0
1001
GENIUS_GENODEF_13
1002
{
1000
HIER
1070
     0
1002
}
1002
{
1000
MANEDIT
1070
     0
1002
}
1002
{
1000
NOSEL
1070
     0
1002
}
1002
{
1000
BEHIND
1070
     0
1002
}
1002
{
1000
OTHER
1070
     0
1002
}
1002
{
1000
REACTOR
1002
}
1001
GENIUS_GENOBJ-N-CEN_13
1002
{
1000
OWNER
1000
GEN
1002
}
1001
GENIUS_GENCEN_19
1002
{
1040
4.0
1002
}
  0
LINE
  5
C5BA
330
1F
100
AcDbEntity
  8
0部品2
  6
中心線1
 48
0.5
370
    13
100
AcDbLine
 10
162.3433680599057
 20
116.1758419467304
 30
0.0
 11
162.3433680599057
 21
107.1758419467304
 31
0.0
1001
GENIUS_GENOBJ-N-CEN_13
1002
{
1000
OWNER
1000
GEN
1002
}
1001
GENIUS_GENODEF_13
1002
{
1000
HIER
1070
     0
1002
}
1002
{
1000
MANEDIT
1070
     0
1002
}
1002
{
1000
NOSEL
1070
     0
1002
}
1002
{
1000
BEHIND
1070
     0
1002
}
1002
{
1000
OTHER
1070
     0
1002
}
1002
{
1000
REACTOR
1002
}
1001
GENIUS_GENCEN_19
1002
{
1040
4.0
1002
}
  0
LINE
  5
C5BB
330
1F
100
AcDbEntity
  8
0部品2
  6
中心線1
 48
0.5
370
    13
100
AcDbLine
 10
166.8433680599057
 20
111.6758419467304
 30
0.0
 11
157.8433680599057
 21
111.6758419467304
 31
0.0
1001
GENIUS_GENODEF_13
1002
{
1000
HIER
1070
     0
1002
}
1002
{
1000
MANEDIT
1070
     0
1002
}
1002
{
1000
NOSEL
1070
     0
1002
}
1002
{
1000
BEHIND
1070
     0
1002
}
1002
{
1000
OTHER
1070
     0
1002
}
1002
{
1000
REACTOR
1002
}
1001
GENIUS_GENOBJ-N-CEN_13
1002
{
1000
OWNER
1000
GEN
1002
}
1001
GENIUS_GENCEN_19
1002
{
1040
4.0
1002
}
  0
LINE
  5
C5BC
330
1F
100
AcDbEntity
  8
0部品2
  6
中心線1
 48
0.5
370
    13
100
AcDbLine
 10
170.3433680599057
 20
132.1758419467304
 30
0.0
 11
170.3433680599057
 21
123.1758419467304
 31
0.0
1001
GENIUS_GENOBJ-N-CEN_13
1002
{
1000
OWNER
1000
GEN
1002
}
1001
GENIUS_GENODEF_13
1002
{
1000
HIER
1070
     0
1002
}
1002
{
1000
MANEDIT
1070
     0
1002
}
1002
{
1000
NOSEL
1070
     0
1002
}
1002
{
1000
BEHIND
1070
     0
1002
}
1002
{
1000
OTHER
1070
     0
1002
}
1002
{
1000
REACTOR
1002
}
1001
GENIUS_GENCEN_19
1002
{
1040
4.0
1002
}
  0
LINE
  5
C5BD
330
1F
100
AcDbEntity
  8
0部品2
  6
中心線1
 48
0.5
370
    13
100
AcDbLine
 10
174.8433680599057
 20
127.6758419467304
 30
0.0
 11
165.8433680599057
 21
127.6758419467304
 31
0.0
1001
GENIUS_GENODEF_13
1002
{
1000
HIER
1070
     0
1002
}
1002
{
1000
MANEDIT
1070
     0
1002
}
1002
{
1000
NOSEL
1070
     0
1002
}
1002
{
1000
BEHIND
1070
     0
1002
}
1002
{
1000
OTHER
1070
     0
1002
}
1002
{
1000
REACTOR
1002
}
1001
GENIUS_GENOBJ-N-CEN_13
1002
{
1000
OWNER
1000
GEN
1002
}
1001
GENIUS_GENCEN_19
1002
{
1040
4.0
1002
}
  0
MTEXT
  5
C5CC
330
1F
100
AcDbEntity
  8
AM_6
 48
10.0
100
AcDbMText
 10
31.50000000000003
 20
284.5
 30
0.0
 40
3.2
 41
90.0
 71
     4
 72
     5
  1
　丁番取付アングル
 73
     1
 44
1.0
  0
MTEXT
  5
C5CD
330
1F
100
AcDbEntity
  8
AM_6
 48
10.0
100
AcDbMText
 10
31.50000000000003
 20
276.5
 30
0.0
 40
3.2
 41
90.0
 71
     4
 72
     5
  1
　DB-607A
 73
     1
 44
1.0
  0
MTEXT
  5
C5CE
330
1F
100
AcDbEntity
  8
AM_6
 48
10.0
100
AcDbMText
 10
31.50000000000002
 20
268.5
 30
0.0
 40
3.2
 41
90.0
 71
     4
 72
     5
  1
　スチール
 73
     1
 44
1.0
  0
MTEXT
  5
C5CF
330
1F
100
AcDbEntity
  8
AM_6
 48
10.0
100
AcDbMText
 10
31.50000000000002
 20
260.5
 30
0.0
 40
3.2
 41
90.0
 71
     4
 72
     5
  1
　有色クロメート
 73
     1
 44
1.0
  0
MTEXT
  5
C5D0
330
1F
100
AcDbEntity
  8
AM_6
 48
10.0
100
AcDbMText
 10
31.50000000000002
 20
252.5
 30
0.0
 40
3.2
 41
90.0
 71
     4
 72
     5
  1
　左勝手
 73
     1
 44
1.0
  0
MTEXT
  5
C5D1
330
1F
100
AcDbEntity
  8
AM_6
 48
10.0
100
AcDbMText
 10
31.50000000000002
 20
244.5
 30
0.0
 40
3.2
 41
90.0
 71
     4
 72
     5
  1
　M5×12 サラ小ネジ    SUS：8本（丁番取付用）
 73
     1
 44
1.0
  0
MTEXT
  5
C5D2
330
1F
100
AcDbEntity
  8
AM_6
 48
10.0
100
AcDbMText
 10
31.5
 20
212.5
 30
0.0
 40
3.2
 41
90.0
 71
     4
 72
     5
  1
　※位置決め用のビスは、必ず現場にて施工してください。
 73
     1
 44
1.0
  0
LINE
  5
C5D8
330
1F
100
AcDbEntity
  8
AM_6
 48
10.0
100
AcDbLine
 10
62.37439474477298
 20
244.4075161798265
 30
0.0
 11
64.37439474477298
 21
244.4075161798265
 31
0.0
  0
LINE
  5
C5D9
330
1F
100
AcDbEntity
  8
AM_6
 48
10.0
100
AcDbLine
 10
63.37439474477299
 20
243.4075161798265
 30
0.0
 11
63.37439474477299
 21
245.4075161798265
 31
0.0
  0
CIRCLE
  5
C5DA
330
1F
100
AcDbEntity
  8
AM_6
 48
10.0
100
AcDbCircle
 10
63.37439474477299
 20
244.4075161798265
 30
0.0
 40
1.75
  0
DIMENSION
  5
C5DC
330
1F
100
AcDbEntity
  8
AM_5
100
AcDbDimension
  2
*D4
 10
221.9321876981659
 20
163.6758419467304
 30
0.0
 11
221.9321876981659
 21
171.1758419467304
 31
0.0
 70
   160
 71
     5
 42
15.0
  3
SYS$0
100
AcDbAlignedDimension
 13
233.9321876981659
 23
178.6758419467304
 33
0.0
 14
241.6821876981659
 24
163.6758419467304
 34
0.0
 50
90.0
100
AcDbRotatedDimension
  0
DIMENSION
  5
C5F2
330
1F
100
AcDbEntity
  8
AM_5
100
AcDbDimension
  2
*D5
 10
221.9321876981659
 20
143.6758419467304
 30
0.0
 11
221.9321876981659
 21
153.6758419467304
 31
0.0
 70
   160
 71
     5
 42
20.0
  3
SYS$0
100
AcDbAlignedDimension
 13
241.6821876981659
 23
163.6758419467304
 33
0.0
 14
244.1821876981659
 24
143.6758419467304
 34
0.0
 50
90.0
100
AcDbRotatedDimension
  0
DIMENSION
  5
C611
330
1F
100
AcDbEntity
  8
AM_5
100
AcDbDimension
  2
*D6
 10
221.932187698166
 20
103.6758419467304
 30
0.0
 11
221.9321876981659
 21
122.0655506517583
 31
0.0
 70
   160
 71
     5
 42
40.00000000000001
  3
SYS$0
100
AcDbAlignedDimension
 13
244.1821876981659
 23
143.6758419467304
 33
0.0
 14
241.6821876981659
 24
103.6758419467304
 34
0.0
 50
90.0
100
AcDbRotatedDimension
  0
LINE
  5
C642
330
1F
100
AcDbEntity
  8
0部品2
  6
中心線1
 48
0.5
370
    13
100
AcDbLine
 10
256.1821876981659
 20
103.6758419467304
 30
0.0
 11
241.6821876981659
 21
103.6758419467304
 31
0.0
1001
GENIUS_GENOBJ-N-CEN_13
1002
{
1000
OWNER
1000
GEN
1002
}
1001
GENIUS_GENODEF_13
1002
{
1000
HIER
1070
     0
1002
}
1002
{
1000
MANEDIT
1070
     0
1002
}
1002
{
1000
NOSEL
1070
     0
1002
}
1002
{
1000
BEHIND
1070
     0
1002
}
1002
{
1000
OTHER
1070
     0
1002
}
1002
{
1000
REACTOR
1002
}
1001
GENIUS_GENCEN_19
1002
{
1040
4.0
1002
}
  0
LINE
  5
C643
330
1F
100
AcDbEntity
  8
0部品2
  6
中心線1
 48
0.5
370
    13
100
AcDbLine
 10
248.9321876981659
 20
108.9258419467304
 30
0.0
 11
248.9321876981659
 21
98.42584194673042
 31
0.0
1001
GENIUS_GENOBJ-N-CEN_13
1002
{
1000
OWNER
1000
GEN
1002
}
1001
GENIUS_GENODEF_13
1002
{
1000
HIER
1070
     0
1002
}
1002
{
1000
MANEDIT
1070
     0
1002
}
1002
{
1000
NOSEL
1070
     0
1002
}
1002
{
1000
BEHIND
1070
     0
1002
}
1002
{
1000
OTHER
1070
     0
1002
}
1002
{
1000
REACTOR
1002
}
1001
GENIUS_GENCEN_19
1002
{
1040
4.0
1002
}
  0
DIMENSION
  5
C64F
330
1F
100
AcDbEntity
  8
AM_5
100
AcDbDimension
  2
*D7
 10
221.9321876981659
 20
63.67584194673043
 30
0.0
 11
221.9321876981659
 21
83.67584194673048
 31
0.0
 70
   160
 71
     5
 42
39.99999999999999
  3
SYS$0
100
AcDbAlignedDimension
 13
241.6821876981659
 23
103.6758419467304
 33
0.0
 14
244.1821876981659
 24
63.67584194673042
 34
0.0
 50
90.0
100
AcDbRotatedDimension
  0
DIMENSION
  5
C665
330
1F
100
AcDbEntity
  8
AM_5
100
AcDbDimension
  2
*D8
 10
221.9321876981659
 20
43.67584194673043
 30
0.0
 11
221.9321876981659
 21
53.67584194673046
 31
0.0
 70
   160
 71
     5
 42
20.0
  3
SYS$0
100
AcDbAlignedDimension
 13
244.1821876981659
 23
63.67584194673042
 33
0.0
 14
241.6821876981659
 24
43.67584194673042
 34
0.0
 50
90.0
100
AcDbRotatedDimension
  0
DIMENSION
  5
C67B
330
1F
100
AcDbEntity
  8
AM_5
100
AcDbDimension
  2
*D9
 10
221.9321876981659
 20
28.67584194673043
 30
0.0
 11
221.9321876981659
 21
36.17584194673046
 31
0.0
 70
   160
 71
     5
 42
15.0
  3
SYS$0
100
AcDbAlignedDimension
 13
241.6821876981659
 23
43.67584194673042
 33
0.0
 14
233.9321876981658
 24
28.67584194673043
 34
0.0
 50
90.0
100
AcDbRotatedDimension
  0
DIMENSION
  5
C6CA
330
1F
100
AcDbEntity
  8
AM_5
100
AcDbDimension
  2
*D10
 10
211.9321876981659
 20
28.67584194673044
 30
0.0
 11
211.9321876981659
 21
103.6758419467304
 31
0.0
 70
   160
 71
     5
 42
150.0
  3
SYS$0
100
AcDbAlignedDimension
 13
233.9321876981659
 23
178.6758419467304
 33
0.0
 14
233.9321876981658
 24
28.67584194673043
 34
0.0
 50
90.0
100
AcDbRotatedDimension
  0
DIMENSION
  5
C6E9
330
1F
100
AcDbEntity
  8
AM_5
100
AcDbDimension
  2
*D11
 10
192.5433680599058
 20
127.6758419467304
 30
0.0
 11
192.5433680599057
 21
153.1758419467305
 31
0.0
 70
   160
 71
     5
 42
50.99999999999998
  3
SYS$0
100
AcDbAlignedDimension
 13
180.5433680599058
 23
178.6758419467304
 33
0.0
 14
174.8433680599057
 24
127.6758419467304
 34
0.0
 50
90.0
100
AcDbRotatedDimension
  0
DIMENSION
  5
C6FF
330
1F
100
AcDbEntity
  8
AM_5
100
AcDbDimension
  2
*D12
 10
192.5433680599058
 20
111.6758419467304
 30
0.0
 11
192.5433680599057
 21
119.6758419467305
 31
0.0
 70
   160
 71
     5
 42
16.0
  3
SYS$0
100
AcDbAlignedDimension
 13
174.8433680599057
 23
127.6758419467304
 33
0.0
 14
166.8433680599057
 24
111.6758419467304
 34
0.0
 50
90.0
100
AcDbRotatedDimension
  0
DIMENSION
  5
C715
330
1F
100
AcDbEntity
  8
AM_5
100
AcDbDimension
  2
*D13
 10
192.5433680599058
 20
95.67584194673043
 30
0.0
 11
192.5433680599057
 21
103.6758419467304
 31
0.0
 70
   160
 71
     5
 42
16.0
  3
SYS$0
100
AcDbAlignedDimension
 13
166.8433680599057
 23
111.6758419467304
 33
0.0
 14
174.8433680599057
 24
95.67584194673043
 34
0.0
 50
90.0
100
AcDbRotatedDimension
  0
DIMENSION
  5
C72B
330
1F
100
AcDbEntity
  8
AM_5
100
AcDbDimension
  2
*D14
 10
192.5433680599058
 20
79.67584194673043
 30
0.0
 11
192.5433680599058
 21
87.67584194673046
 31
0.0
 70
   160
 71
     5
 42
16.0
  3
SYS$0
100
AcDbAlignedDimension
 13
174.8433680599057
 23
95.67584194673043
 33
0.0
 14
166.8433680599057
 24
79.67584194673043
 34
0.0
 50
90.0
100
AcDbRotatedDimension
  0
DIMENSION
  5
C741
330
1F
100
AcDbEntity
  8
AM_5
100
AcDbDimension
  2
*D15
 10
192.5433680599058
 20
28.67584194673043
 30
0.0
 11
192.5433680599058
 21
54.17584194673046
 31
0.0
 70
   160
 71
     5
 42
51.0
  3
SYS$0
100
AcDbAlignedDimension
 13
166.8433680599057
 23
79.67584194673043
 33
0.0
 14
180.5433680599058
 24
28.67584194673043
 34
0.0
 50
90.0
100
AcDbRotatedDimension
  0
DIMENSION
  5
C786
330
1F
100
AcDbEntity
  8
AM_5
100
AcDbDimension
  2
*D16
 10
288.9321876981659
 20
274.0818120265097
 30
0.0
 11
261.4321876981659
 21
274.0818120265097
 31
0.0
 70
   160
 71
     5
 42
55.0
  3
SYS$0
100
AcDbAlignedDimension
 13
233.9321876981659
 23
252.0818120265097
 33
0.0
 14
288.9321876981659
 24
250.0818120265098
 34
0.0
100
AcDbRotatedDimension
  0
DIMENSION
  5
C79C
330
1F
100
AcDbEntity
  8
AM_5
100
AcDbDimension
  2
*D17
 10
310.9321876981659
 20
203.5818120265099
 30
0.0
 11
310.9321876981659
 21
227.8318120265098
 31
0.0
 70
   160
 71
     5
 42
48.49999999999988
  3
SYS$0
100
AcDbAlignedDimension
 13
286.9321876981659
 23
252.0818120265097
 33
0.0
 14
288.9321876981659
 24
203.5818120265099
 34
0.0
 50
90.0
100
AcDbRotatedDimension
  0
DIMENSION
  5
C7B2
330
1F
100
AcDbEntity
  8
AM_5
100
AcDbDimension
  2
*D18
 10
300.9321876981659
 20
221.7818124763263
 30
0.0
 11
300.9321876981659
 21
236.9318122514181
 31
0.0
 70
   160
 71
     5
 42
30.29999955018354
  3
SYS$0
100
AcDbAlignedDimension
 13
286.9321876981659
 23
252.0818120265098
 33
0.0
 14
291.9321876981659
 24
221.7818124763263
 34
0.0
 50
90.0
100
AcDbRotatedDimension
  0
DIMENSION
  5
C7C8
330
1F
100
AcDbEntity
  8
AM_5
100
AcDbDimension
  2
*D19
 10
300.9321876981659
 20
213.7818124763263
 30
0.0
 11
300.9321876981659
 21
217.7818124763263
 31
0.0
 70
   160
 71
     5
 42
8.0
  3
SYS$0
100
AcDbAlignedDimension
 13
291.9321876981659
 23
221.7818124763263
 33
0.0
 14
291.9321876981659
 24
213.7818124763263
 34
0.0
 50
90.0
100
AcDbRotatedDimension
  0
DIMENSION
  5
C7DE
330
1F
100
AcDbEntity
  8
AM_5
100
AcDbDimension
  2
*D20
 10
248.9321876981659
 20
264.0818120265097
 30
0.0
 11
268.9321876981659
 21
264.0818120265097
 31
0.0
 70
   160
 71
     5
 42
40.0
  3
SYS$0
100
AcDbAlignedDimension
 13
288.9321876981659
 23
250.0818120265098
 33
0.0
 14
248.9321876981659
 24
255.0818120265097
 34
0.0
100
AcDbRotatedDimension
  0
DIMENSION
  5
C7F4
330
1F
100
AcDbEntity
  8
AM_5
100
AcDbDimension
  2
*D21
 10
225.9321876981659
 20
252.0818120265097
 30
0.0
 11
225.9321876981659
 21
249.5818120265099
 31
0.0
 70
   160
 71
     5
 42
4.999999999999886
  3
SYS$0
100
AcDbAlignedDimension
 13
233.9321876981659
 23
247.0818120265099
 33
0.0
 14
233.9321876981659
 24
252.0818120265097
 34
0.0
 50
89.99999999999991
100
AcDbRotatedDimension
  0
DIMENSION
  5
CE3D
330
1F
100
AcDbEntity
  8
AM_5
 48
10.0
100
AcDbDimension
  2
*D22
 10
249.626506484774
 20
161.2555740753996
 30
0.0
 11
281.7109493553891
 21
187.8666873502282
 31
0.0
 70
   163
  1
3-<>×9.5スロット
 71
     5
 42
5.500000000000113
  3
SYS$3
100
AcDbDiametricDimension
 15
252.2378689115578
 25
166.096109818061
 35
0.0
 40
0.0
  0
LINE
  5
D2A7
330
1F
100
AcDbEntity
  8
AM_2
100
AcDbLine
 10
31.50000000000002
 20
240.5
 30
0.0
 11
121.5
 21
240.5
 31
0.0
  0
MTEXT
  5
D2A8
330
1F
100
AcDbEntity
  8
AM_6
 48
10.0
100
AcDbMText
 10
31.5
 20
236.5
 30
0.0
 40
3.2
 41
90.0
 71
     4
 72
     5
  1
　M5×20 ナベ小ネジ    SUS：3本（位置調整用）
 73
     1
 44
1.0
  0
LINE
  5
D2A9
330
1F
100
AcDbEntity
  8
AM_6
 48
10.0
100
AcDbLine
 10
62.37439474477297
 20
236.4075161798265
 30
0.0
 11
64.37439474477297
 21
236.4075161798265
 31
0.0
  0
LINE
  5
D2AA
330
1F
100
AcDbEntity
  8
AM_6
 48
10.0
100
AcDbLine
 10
63.37439474477297
 20
235.4075161798265
 30
0.0
 11
63.37439474477297
 21
237.4075161798265
 31
0.0
  0
CIRCLE
  5
D2AB
330
1F
100
AcDbEntity
  8
AM_6
 48
10.0
100
AcDbCircle
 10
63.37439474477297
 20
236.4075161798265
 30
0.0
 40
1.75
  0
LINE
  5
D2AC
330
1F
100
AcDbEntity
  8
AM_2
100
AcDbLine
 10
31.50000000000002
 20
232.5
 30
0.0
 11
121.5
 21
232.5
 31
0.0
  0
MTEXT
  5
D2AD
330
1F
100
AcDbEntity
  8
AM_6
 48
10.0
100
AcDbMText
 10
31.5
 20
228.5
 30
0.0
 40
3.2
 41
90.0
 71
     4
 72
     5
  1
　M5×25 ナベテクス    SUS：2本（位置決め用）
 73
     1
 44
1.0
  0
LINE
  5
D2AE
330
1F
100
AcDbEntity
  8
AM_6
 48
10.0
100
AcDbLine
 10
62.37439474477297
 20
228.4075161798265
 30
0.0
 11
64.37439474477297
 21
228.4075161798265
 31
0.0
  0
LINE
  5
D2AF
330
1F
100
AcDbEntity
  8
AM_6
 48
10.0
100
AcDbLine
 10
63.37439474477297
 20
227.4075161798265
 30
0.0
 11
63.37439474477297
 21
229.4075161798265
 31
0.0
  0
CIRCLE
  5
D2B0
330
1F
100
AcDbEntity
  8
AM_6
 48
10.0
100
AcDbCircle
 10
63.37439474477297
 20
228.4075161798265
 30
0.0
 40
1.75
  0
MTEXT
  5
D3A2
330
1F
100
AcDbEntity
  8
AM_6
 48
10.0
100
AcDbMText
 10
31.5
 20
220.5
 30
0.0
 40
3.2
 41
90.0
 71
     4
 72
     5
  1
　※丁番はDH-607をご使用ください。（セット品番：DH-607A）
 73
     1
 44
1.0
  0
LINE
  5
D3A3
330
1F
100
AcDbEntity
  8
AM_2
100
AcDbLine
 10
31.5
 20
216.5
 30
0.0
 11
121.5
 21
216.5
 31
0.0
  0
LINE
  5
D443
330
1F
100
AcDbEntity
  8
AM_5
 48
10.0
100
AcDbLine
 10
283.4283809307374
 20
181.1452085423688
 30
0.0
 11
269.2117142640707
 21
181.1452085423689
 31
0.0
  0
LINE
  5
D444
330
1F
100
AcDbEntity
  8
AM_5
 48
10.0
100
AcDbLine
 10
269.2117142640707
 20
181.1452085423689
 30
0.0
 11
250.7171347066293
 21
146.9737904267674
 31
0.0
  0
MTEXT
  5
D446
102
{ACAD_XDICTIONARY
360
D501
102
}
330
1F
100
AcDbEntity
  8
AM_5
 62
     2
 48
10.0
100
AcDbMText
 10
277.070047597404
 20
184.3952085423689
 30
0.0
 40
3.5
 41
0.0
 71
     5
 72
     1
  1
2-\U+22055.5
 73
     1
 44
1.0
  0
LINE
  5
D447
330
1F
100
AcDbEntity
  8
AM_5
 48
10.0
100
AcDbLine
 10
247.6232265586264
 20
141.2573463947033
 30
0.0
 11
250.2411488377057
 21
146.0943374987576
 31
0.0
  0
INSERT
  5
D449
330
1F
100
AcDbEntity
  8
AM_5
 48
10.0
100
AcDbBlockReference
  2
_Dot
 10
250.2411488377057
 20
146.0943374987576
 30
0.0
 50
241.5764407194154
  0
LWPOLYLINE
  5
D44A
330
1F
100
AcDbEntity
  8
AM_5
100
AcDbPolyline
 90
        2
 70
     1
 43
0.5
 10
247.5042300913955
 20
141.0374831627009
 42
1.0
 10
247.7422230258573
 20
141.4772096267058
 42
1.0
  0
LINE
  5
D44C
330
1F
100
AcDbEntity
  8
AM_5
 48
10.0
100
AcDbLine
 10
107.7704615128924
 20
127.8656019009354
 30
0.0
 11
127.552128179559
 21
127.8656019009354
 31
0.0
  0
LINE
  5
D44D
330
1F
100
AcDbEntity
  8
AM_5
 48
10.0
100
AcDbLine
 10
127.552128179559
 20
127.8656019009354
 30
0.0
 11
159.1701158440557
 21
113.1524835331022
 31
0.0
  0
MTEXT
  5
D44F
330
1F
100
AcDbEntity
  8
AM_5
 62
     2
 48
10.0
100
AcDbMText
 10
116.9112948462257
 20
131.1156019009354
 30
0.0
 40
3.5
 41
0.0
 71
     5
 72
     1
  1
4-M5タップ
 73
     1
 44
1.0
  0
LINE
  5
D450
330
1F
100
AcDbEntity
  8
AM_5
 48
10.0
100
AcDbLine
 10
164.6099767855128
 20
110.6210979564647
 30
0.0
 11
160.0767593342985
 21
112.7305859369959
 31
0.0
  0
INSERT
  5
D452
330
1F
100
AcDbEntity
  8
AM_5
 48
10.0
100
AcDbBlockReference
  2
_Dot
 10
160.0767593342985
 20
112.7305859369959
 30
0.0
 50
335.0455512485481
  0
LWPOLYLINE
  5
D453
330
1F
100
AcDbEntity
  8
AM_5
100
AcDbPolyline
 90
        2
 70
     1
 43
0.5
 10
164.8366376580735
 20
110.5156235574381
 42
1.0
 10
164.383315912952
 20
110.7265723554912
 42
1.0
  0
ENDSEC
  0
SECTION
  2
OBJECTS
  0
DICTIONARY
  5
C
330
0
100
AcDbDictionary
281
     1
  3
ACAD_2007HEADERVARS_RT
350
D4F6
  3
ACAD_BGPLOT_KEY
350
AB06
  3
ACAD_COLOR
350
A91D
  3
ACAD_GROUP
350
D
  3
ACAD_LAYOUT
350
1A
  3
ACAD_MATERIAL
350
A91C
  3
ACAD_MLEADERSTYLE
350
D15D
  3
ACAD_MLINESTYLE
350
17
  3
ACAD_PLOTSETTINGS
350
19
  3
ACAD_PLOTSTYLENAME
350
E
  3
ACAD_SCALELIST
350
D13B
  3
ACAD_TABLESTYLE
350
AAB9
  3
ACAD_VISUALSTYLE
350
B444
  3
AcAsAppObject
350
3DA1
  3
ACASGREF_MASTER
350
3DE9
  3
ACDB_RECOMPOSE_DATA
350
D358
  3
AcDbVariableDictionary
350
34
  3
AcmDictionary
350
47
  3
AD_GREF_MODULE
350
3DEA
  3
AD_MAPI_MODULE
350
3E06
  3
AMG
350
2B
  3
AMGSNAPSETTINGS
350
7D
  3
ASE_INDEX_DICTIONARY
350
9F48
  3
MAPISURF_MODULE
350
3DEB
  0
DICTIONARY
  5
D034
330
8
100
AcDbDictionary
280
     1
281
     1
  0
DICTIONARY
  5
3F95
330
2
100
AcDbDictionary
280
     1
281
     1
  3
ACAD_LAYERFILTERS
360
D4A6
  3
ACAD_LAYERSTATES
360
3F96
  3
ACLYDICTIONARY
360
D4A5
  3
AMLAYER_GROUPCOLORS
360
AAB4
  0
DICTIONARY
  5
D33C
330
10
100
AcDbDictionary
280
     1
281
     1
  3
ADSK_XREC_LAYER_RECONCILED
360
D33D
  0
DICTIONARY
  5
D33E
330
5F85
100
AcDbDictionary
280
     1
281
     1
  3
ADSK_XREC_LAYER_RECONCILED
360
D33F
  0
DICTIONARY
  5
D340
330
AC9F
100
AcDbDictionary
280
     1
281
     1
  3
ADSK_XREC_LAYER_RECONCILED
360
D341
  0
DICTIONARY
  5
D342
330
ACA0
100
AcDbDictionary
280
     1
281
     1
  3
ADSK_XREC_LAYER_RECONCILED
360
D343
  0
DICTIONARY
  5
D344
330
ACA1
100
AcDbDictionary
280
     1
281
     1
  3
ADSK_XREC_LAYER_RECONCILED
360
D345
  0
DICTIONARY
  5
D346
330
AD68
100
AcDbDictionary
280
     1
281
     1
  3
ADSK_XREC_LAYER_RECONCILED
360
D347
  0
DICTIONARY
  5
D348
330
C134
100
AcDbDictionary
280
     1
281
     1
  3
ADSK_XREC_LAYER_RECONCILED
360
D349
  0
DICTIONARY
  5
D1E1
330
D1E0
100
AcDbDictionary
280
     1
281
     1
  3
ADSK_XREC_LAYER_RECONCILED
360
D34A
  0
DICTIONARY
  5
D34B
330
D203
100
AcDbDictionary
280
     1
281
     1
  3
ADSK_XREC_LAYER_RECONCILED
360
D34C
  0
DICTIONARY
  5
8A
330
1F
100
AcDbDictionary
280
     1
281
     1
  3
ACAD_SORTENTS
360
B431
  0
DICTIONARY
  5
D4FF
330
CF36
100
AcDbDictionary
280
     1
281
     1
  3
ACAD_MTEXT_2008_RT
360
D500
  0
DICTIONARY
  5
D501
330
D446
100
AcDbDictionary
280
     1
281
     1
  3
ACAD_MTEXT_2008_RT
360
D502
  0
DICTIONARY
  5
D4F6
102
{ACAD_REACTORS
330
C
102
}
330
C
100
AcDbDictionary
281
     1
  3
DIMARCSYM
350
D4F7
  0
DICTIONARY
  5
AB06
102
{ACAD_REACTORS
330
C
102
}
330
C
100
AcDbDictionary
280
     1
281
     1
  0
DICTIONARY
  5
A91D
102
{ACAD_REACTORS
330
C
102
}
330
C
100
AcDbDictionary
281
     1
  0
DICTIONARY
  5
D
102
{ACAD_REACTORS
330
C
102
}
330
C
100
AcDbDictionary
281
     1
  0
DICTIONARY
  5
1A
102
{ACAD_REACTORS
330
C
102
}
330
C
100
AcDbDictionary
281
     1
  3
Model
350
22
  3
ﾚｲｱｳﾄ1
350
1E
  3
ﾚｲｱｳﾄ2
350
26
  0
DICTIONARY
  5
A91C
102
{ACAD_REACTORS
330
C
102
}
330
C
100
AcDbDictionary
281
     1
  3
ByBlock
350
B442
  3
ByLayer
350
B441
  3
Global
350
B443
  0
DICTIONARY
  5
D15D
102
{ACAD_REACTORS
330
C
102
}
330
C
100
AcDbDictionary
281
     1
  3
Standard
350
D15E
  0
DICTIONARY
  5
17
102
{ACAD_REACTORS
330
C
102
}
330
C
100
AcDbDictionary
281
     1
  3
Standard
350
18
  0
DICTIONARY
  5
19
102
{ACAD_REACTORS
330
C
102
}
330
C
100
AcDbDictionary
281
     1
  3
01 A3フィット
350
AAFE
  3
02 A3
350
AAFF
  3
03 A2フィット
350
AB00
  3
04 A2
350
AB01
  3
05 A1フィット
350
AB04
  3
06 A1
350
AB05
  3
06 A4フィット
350
AB02
  3
07 A4
350
AB03
  0
ACDBDICTIONARYWDFLT
  5
E
102
{ACAD_REACTORS
330
C
102
}
330
C
100
AcDbDictionary
281
     1
  3
Normal
350
F
100
AcDbDictionaryWithDefault
340
F
  0
DICTIONARY
  5
D13B
102
{ACAD_REACTORS
330
C
102
}
330
C
100
AcDbDictionary
281
     1
  3
A0
350
D13C
  3
A1
350
D13D
  3
A2
350
D13E
  3
A3
350
D13F
  3
A4
350
D140
  3
A5
350
D141
  3
A6
350
D142
  3
A7
350
D143
  3
A8
350
D144
  3
A9
350
D145
  3
B0
350
D146
  3
B1
350
D147
  3
B2
350
D148
  3
B3
350
D149
  3
B4
350
D14A
  3
B5
350
D14B
  3
B6
350
D14C
  3
B7
350
D14D
  3
B8
350
D14E
  3
B9
350
D14F
  3
C0
350
D150
  3
C1
350
D151
  3
C2
350
D152
  3
C3
350
D153
  3
C4
350
D154
  3
C5
350
D155
  3
C6
350
D156
  3
C7
350
D157
  3
C8
350
D158
  3
C9
350
D159
  3
D0
350
D15A
  3
D1
350
D15B
  3
D2
350
D15C
  0
DICTIONARY
  5
AAB9
102
{ACAD_REACTORS
330
C
102
}
330
C
100
AcDbDictionary
281
     1
  3
Standard
350
AABA
  0
DICTIONARY
  5
B444
102
{ACAD_REACTORS
330
C
102
}
330
C
100
AcDbDictionary
281
     1
  3
2dWireframe
350
B44A
  3
3D Hidden
350
B44C
  3
3dWireframe
350
B44B
  3
Basic
350
B449
  3
Brighten
350
B450
  3
ColorChange
350
B454
  3
Conceptual
350
B44D
  3
Dim
350
B44F
  3
Facepattern
350
B453
  3
Flat
350
B445
  3
FlatWithEdges
350
B446
  3
Gouraud
350
B447
  3
GouraudWithEdges
350
B448
  3
Linepattern
350
B452
  3
Realistic
350
B44E
  3
Thicken
350
B451
  0
ACAD_PROXY_OBJECT
  5
3DA1
102
{ACAD_REACTORS
330
C
102
}
330
C
100
AcDbProxyObject
 90
      499
 91
      576
 95
   983063
 70
     0
 93
       10
310
404C
 94
        0
1001
ACAD
1000
AcRTDxfName
1000
ASAPP
1000
AcRTDxfName
1000
ASAPP
  0
ACAD_PROXY_OBJECT
  5
3DE9
102
{ACAD_REACTORS
330
C
102
}
330
C
100
AcDbProxyObject
 90
      499
 91
      581
 95
   983063
 70
     0
 93
       34
310
010000404C
 94
        0
1001
ACAD
1000
AcRTDxfName
1000
ACASGREFMASTER
1000
AcRTDxfName
1000
ACASGREFMASTER
  0
XRECORD
  5
D358
102
{ACAD_REACTORS
330
C
102
}
330
C
100
AcDbXrecord
280
     1
 90
        1
330
AABA
  0
DICTIONARY
  5
34
102
{ACAD_REACTORS
330
C
102
}
330
C
100
AcDbDictionary
281
     1
  3
CANNOSCALE
350
D35B
  3
CMLEADERSTYLE
350
D359
  3
CTABLESTYLE
350
AAF3
  3
DIMASSOC
350
A10C
  3
FIELDEVAL
350
AB07
  3
INDEXCTL
350
35
  3
LIGHTINGUNITS
350
D35C
  3
MSLTSCALE
350
D35A
  3
SORTENTS
350
194C
  0
DICTIONARY
  5
47
102
{ACAD_REACTORS
330
C
102
}
330
C
100
AcDbDictionary
281
     1
  3
AcmBOM
350
7E8
  3
AcmStdDictionary
350
4C
  3
AMDTSECTSYM_ARROWCOLOR
350
A929
  0
ACAD_PROXY_OBJECT
  5
3DEA
102
{ACAD_REACTORS
330
C
102
}
330
C
100
AcDbProxyObject
 90
      499
 91
      582
 95
   983063
 70
     0
 93
      114
310
00000043800000000000000000000C
 94
        0
1001
ACAD
1000
AcRTDxfName
1000
ACADGREFMODULE
1000
AcRTDxfName
1000
ACADGREFMODULE
  0
ACAD_PROXY_OBJECT
  5
3E06
102
{ACAD_REACTORS
330
C
102
}
330
C
100
AcDbProxyObject
 90
      499
 91
      594
 95
   983063
 70
     0
 93
       34
310
05000044CC
 94
        0
1001
ACAD
1000
AcRTDxfName
1000
MAPIADMODULE
1000
AcRTDxfName
1000
MAPIADMODULE
  0
DICTIONARY
  5
2B
102
{ACAD_REACTORS
330
C
102
}
330
C
100
AcDbDictionary
281
     1
  0
DICTIONARY
  5
7D
102
{ACAD_REACTORS
330
C
102
}
330
C
100
AcDbDictionary
281
     1
  0
DICTIONARY
  5
9F48
102
{ACAD_REACTORS
330
C
102
}
330
C
100
AcDbDictionary
281
     1
  3
ASEBlockHierarchyIndexRecord
350
9F49
1001
DCO15
1040
1425739953.442
  0
ACAD_PROXY_OBJECT
  5
3DEB
102
{ACAD_REACTORS
330
C
102
}
330
C
100
AcDbProxyObject
 90
      499
 91
      583
 95
   983063
 70
     0
 93
        8
310
047A
 94
        0
1001
ACAD
1000
AcRTDxfName
1000
AMDTMAPISURFMOUDULE
1000
AcRTDxfName
1000
AMDTMAPISURFMOUDULE
  0
DICTIONARY
  5
D4A6
102
{ACAD_REACTORS
330
3F95
102
}
330
3F95
100
AcDbDictionary
281
     1
  0
DICTIONARY
  5
3F96
102
{ACAD_REACTORS
330
3F95
102
}
330
3F95
100
AcDbDictionary
281
     1
  3
20011210
350
3FB7
  0
DICTIONARY
  5
D4A5
102
{ACAD_REACTORS
330
3F95
102
}
330
3F95
100
AcDbDictionary
281
     1
1001
ACAD
1000
<All
  0
DICTIONARY
  5
AAB4
102
{ACAD_REACTORS
330
3F95
102
}
330
3F95
100
AcDbDictionary
280
     1
281
     1
  0
XRECORD
  5
D33D
102
{ACAD_REACTORS
330
D33C
102
}
330
D33C
100
AcDbXrecord
280
     1
290
     1
  0
XRECORD
  5
D33F
102
{ACAD_REACTORS
330
D33E
102
}
330
D33E
100
AcDbXrecord
280
     1
290
     1
  0
XRECORD
  5
D341
102
{ACAD_REACTORS
330
D340
102
}
330
D340
100
AcDbXrecord
280
     1
290
     1
  0
XRECORD
  5
D343
102
{ACAD_REACTORS
330
D342
102
}
330
D342
100
AcDbXrecord
280
     1
290
     1
  0
XRECORD
  5
D345
102
{ACAD_REACTORS
330
D344
102
}
330
D344
100
AcDbXrecord
280
     1
290
     1
  0
XRECORD
  5
D347
102
{ACAD_REACTORS
330
D346
102
}
330
D346
100
AcDbXrecord
280
     1
290
     1
  0
XRECORD
  5
D349
102
{ACAD_REACTORS
330
D348
102
}
330
D348
100
AcDbXrecord
280
     1
290
     1
  0
XRECORD
  5
D34A
102
{ACAD_REACTORS
330
D1E1
102
}
330
D1E1
100
AcDbXrecord
280
     1
290
     1
  0
XRECORD
  5
D34C
102
{ACAD_REACTORS
330
D34B
102
}
330
D34B
100
AcDbXrecord
280
     1
290
     1
  0
SORTENTSTABLE
  5
B431
102
{ACAD_REACTORS
330
8A
102
}
330
8A
100
AcDbSortentsTable
330
1F
331
CE3D
  5
D3A3
331
C7DE
  5
C7DE
331
D2AC
  5
D44E
331
D449
  5
D448
331
C3B8
  5
C3C2
331
C3C0
  5
C3D0
331
C34A
  5
C34A
331
B433
  5
B433
331
C5CF
  5
C5D8
331
B08C
  5
B08C
331
B43B
  5
B43B
331
C35A
  5
C35A
331
B094
  5
B094
331
C3D0
  5
C5BD
331
C6E9
  5
C6E9
331
C399
  5
C3A1
331
C36A
  5
C36B
331
B154
  5
B154
331
C3A1
  5
C3A2
331
D3A3
  5
D454
331
C5B8
  5
C5CF
331
B15C
  5
B15C
331
C3B1
  5
C3B6
331
C6CA
  5
C6CA
331
D2AD
  5
D44F
331
B42C
  5
B42C
331
D44A
  5
D447
331
C5D0
  5
C5D9
331
C3C1
  5
C3DC
331
B434
  5
B434
331
C382
  5
C38B
331
D452
  5
D3A2
331
C353
  5
C353
331
B43C
  5
B43C
331
B08D
  5
B08D
331
C5D8
  5
C62A
331
C35B
  5
C35B
331
B095
  5
B095
331
C64F
  5
C64F
331
C741
  5
C741
331
C7C8
  5
C7C8
331
C36B
  5
C36C
331
B155
  5
B155
331
C5B9
  5
C5D0
331
C3B2
  5
C3B7
331
C67B
  5
C67B
331
D2AE
  5
D450
331
B42D
  5
B42D
331
C37B
  5
C37C
331
C5D1
  5
C5DA
331
B435
  5
B435
331
C3C2
  5
C5B4
331
D453
  5
D2AF
331
C5D9
  5
C62B
331
C38B
  5
C38C
331
C354
  5
C354
331
B43D
  5
B43D
331
C35C
  5
C35C
331
B096
  5
B096
331
C393
  5
C394
331
C364
  5
C364
331
C36C
  5
C36D
331
C5BA
  5
C5D1
331
D2A7
  5
D449
331
C611
  5
C62F
331
C72B
  5
C72B
331
D2AF
  5
D451
331
B42E
  5
B42E
331
D44C
  5
CE3D
331
C5D2
  5
C5DC
331
B436
  5
B436
331
C5DA
  5
C62C
331
C355
  5
C355
331
C38C
  5
C38D
331
C35D
  5
C35D
331
B097
  5
B097
331
C7B2
  5
C7B2
331
C365
  5
C365
331
C5F2
  5
C62E
331
C5BB
  5
C5D2
331
D2A8
  5
D44A
331
D2B0
  5
D452
331
C346
  5
C346
331
B42F
  5
B42F
331
D44D
  5
D2A7
331
B437
  5
B437
331
C642
  5
C642
331
C38D
  5
C38E
331
C356
  5
C356
331
B090
  5
B090
331
B098
  5
B098
331
B150
  5
B150
331
C3DC
  5
C5CC
331
B158
  5
B158
331
C5BC
  5
C5D3
331
C376
  5
C377
331
C3AD
  5
C3AE
331
C3B5
  5
C3BC
331
C715
  5
C715
331
C79C
  5
C79C
331
D2A9
  5
D44B
331
D446
  5
D445
331
C347
  5
C347
331
C5CC
  5
C5D5
331
C3C5
  5
C5B5
331
B438
  5
B438
331
B089
  5
B089
331
C643
  5
C643
331
C5DC
  5
C62D
331
C3CD
  5
C5BA
331
C38E
  5
C38F
331
C357
  5
C357
331
C396
  5
C397
331
B151
  5
B151
331
C3A6
  5
C3A7
331
C5BD
  5
C5D4
331
C3AE
  5
C3B0
331
C3B6
  5
C3BE
331
C7F4
  5
C7F4
331
D2AA
  5
D44C
331
D447
  5
D446
331
C5CD
  5
C5D6
331
C3BE
  5
C3CE
331
D44F
  5
D2AA
331
C348
  5
C348
331
B439
  5
B439
331
B08A
  5
B08A
331
C3C6
  5
C5B6
331
C358
  5
C358
331
C6FF
  5
C6FF
331
C360
  5
C360
331
C368
  5
C368
331
C5B6
  5
C5CD
331
C3A7
  5
C3A8
331
B15A
  5
B15A
331
C3AF
  5
C3B2
331
C3B7
  5
C3C0
331
C786
  5
C786
331
D2AB
  5
D44D
331
C5CE
  5
C5D7
331
C349
  5
C349
331
D450
  5
D2AB
331
B432
  5
B432
331
C3BF
  5
C3CF
331
C3C7
  5
C5B7
331
B43A
  5
B43A
331
B08B
  5
B08B
331
C359
  5
C359
331
C361
  5
C361
331
D3A2
  5
D453
331
C369
  5
C36A
331
C665
  5
C665
331
C5B7
  5
C5CE
331
C3A8
  5
C3A9
331
C371
  5
C372
331
C3B0
  5
C3B4
  0
XRECORD
  5
D500
102
{ACAD_REACTORS
330
D4FF
102
}
330
D4FF
100
AcDbXrecord
280
     1
 40
346.0
  1
3-\U+22055.5×9.5スロット
  0
XRECORD
  5
D502
102
{ACAD_REACTORS
330
D501
102
}
330
D501
100
AcDbXrecord
280
     1
 40
4154.0
  1
2-\U+22055.5
  0
XRECORD
  5
D4F7
102
{ACAD_REACTORS
330
D4F6
102
}
330
D4F6
100
AcDbXrecord
280
     1
 70
     1
  0
LAYOUT
  5
22
102
{ACAD_REACTORS
330
1A
102
}
330
1A
100
AcDbPlotSettings
  1

  2
Adobe PDF
  4
A3
  6
AM_VIEW1
 40
3.174999952316284
 41
3.174999952316284
 42
3.17498779296875
 43
3.17498779296875
 44
297.0318298339844
 45
420.1583251953125
 46
-3.159078955650329
 47
-3.095831274986267
 48
214.3704939521119
 49
367.5855324241176
140
275.6727856380065
141
407.629191407817
142
1.0
143
1.0
 70
  3764
 72
     1
 73
     1
 74
     2
  7
monochrome.ctb
 75
    16
147
1.0
 76
     0
 77
     2
 78
   200
148
0.0
149
0.0
100
AcDbLayout
  1
Model
 70
     1
 71
     0
 10
0.0
 20
0.0
 11
12.0
 21
9.0
 12
0.0
 22
0.0
 32
0.0
 14
0.0
 24
0.0
 34
0.0
 15
0.0
 25
0.0
 35
0.0
146
0.0
 13
0.0
 23
0.0
 33
0.0
 16
1.0
 26
0.0
 36
0.0
 17
0.0
 27
1.0
 37
0.0
 76
     0
330
1F
331
B43F
1001
ACAD_PSEXT
1000
Adobe PDF
1000
Adobe PDF Converter
1000
My Documents\*.pdf
1000

1070
     0
  0
LAYOUT
  5
1E
102
{ACAD_REACTORS
330
1A
102
}
330
1A
100
AcDbPlotSettings
  1

  2
\\ML370\XEROX
  4
A4
  6

 40
3.174999952316284
 41
3.174999952316284
 42
3.175003051757812
 43
3.17498779296875
 44
209.8674926757813
 45
296.6719970703125
 46
0.0
 47
0.0
 48
0.0
 49
0.0
140
0.0
141
0.0
142
1.0
143
1.0
 70
   688
 72
     1
 73
     1
 74
     5
  7
monochrome.ctb
 75
    16
147
1.0
 76
     0
 77
     2
 78
   300
148
0.0
149
0.0
100
AcDbLayout
  1
ﾚｲｱｳﾄ1
 70
     1
 71
     1
 10
-3.17498779296875
 20
-3.174999952316284
 11
293.4970092773438
 21
206.692492723465
 12
0.0
 22
0.0
 32
0.0
 14
1.000000000000000E+20
 24
1.000000000000000E+20
 34
1.000000000000000E+20
 15
-1.000000000000000E+20
 25
-1.000000000000000E+20
 35
-1.000000000000000E+20
146
0.0
 13
0.0
 23
0.0
 33
0.0
 16
1.0
 26
0.0
 36
0.0
 17
0.0
 27
1.0
 37
0.0
 76
     0
330
1B
  0
LAYOUT
  5
26
102
{ACAD_REACTORS
330
1A
102
}
330
1A
100
AcDbPlotSettings
  1

  2
\\ML370\XEROX
  4

  6

 40
0.0
 41
0.0
 42
0.0
 43
0.0
 44
0.0
 45
0.0
 46
0.0
 47
0.0
 48
0.0
 49
0.0
140
0.0
141
0.0
142
1.0
143
1.0
 70
   688
 72
     0
 73
     0
 74
     5
  7
monochrome.ctb
 75
    16
147
1.0
 76
     0
 77
     2
 78
   300
148
0.0
149
0.0
100
AcDbLayout
  1
ﾚｲｱｳﾄ2
 70
     1
 71
     2
 10
0.0
 20
0.0
 11
12.0
 21
9.0
 12
0.0
 22
0.0
 32
0.0
 14
0.0
 24
0.0
 34
0.0
 15
0.0
 25
0.0
 35
0.0
146
0.0
 13
0.0
 23
0.0
 33
0.0
 16
1.0
 26
0.0
 36
0.0
 17
0.0
 27
1.0
 37
0.0
 76
     0
330
23
  0
MATERIAL
  5
B442
102
{ACAD_XDICTIONARY
360
D4FB
102
}
102
{ACAD_REACTORS
330
A91C
102
}
330
A91C
100
AcDbMaterial
  1
ByBlock
 73
     1
 78
     1
172
     1
176
     1
270
     1
274
     1
  0
MATERIAL
  5
B441
102
{ACAD_XDICTIONARY
360
D4F9
102
}
102
{ACAD_REACTORS
330
A91C
102
}
330
A91C
100
AcDbMaterial
  1
ByLayer
 73
     1
 78
     1
172
     1
176
     1
270
     1
274
     1
  0
MATERIAL
  5
B443
102
{ACAD_XDICTIONARY
360
D4FD
102
}
102
{ACAD_REACTORS
330
A91C
102
}
330
A91C
100
AcDbMaterial
  1
Global
 73
     1
 78
     1
172
     1
176
     1
270
     1
274
     1
  0
MLEADERSTYLE
  5
D15E
102
{ACAD_REACTORS
330
D15D
102
}
330
D15D
100
AcDbMLeaderStyle
170
     2
171
     1
172
     0
 90
        2
 40
0.0
 41
0.0
173
     1
 91
-1056964608
340
14
 92
       -2
290
     1
 42
2.0
291
     1
 43
0.36
  3
Standard
 44
4.0
300

342
11
174
     1
178
     6
175
     1
176
     0
 93
-1056964608
 45
4.0
292
     0
297
     0
 46
4.0
 94
-1056964608
 47
1.0
 49
1.0
140
1.0
293
     1
141
0.0
294
     1
177
     0
142
1.0
295
     0
296
     0
143
0.125
1001
ACAD_MLEADERVER
1070
     2
  0
MLINESTYLE
  5
18
102
{ACAD_REACTORS
330
17
102
}
330
17
100
AcDbMlineStyle
  2
STANDARD
 70
     0
  3

 62
   256
 51
90.0
 52
90.0
 71
     2
 49
0.5
 62
   256
  6
BYLAYER
 49
-0.5
 62
   256
  6
BYLAYER
  0
PLOTSETTINGS
  5
AAFE
102
{ACAD_REACTORS
330
19
102
}
330
19
100
AcDbPlotSettings
  1
01 A3フィット
  2
FX DocuWide 2050/2051
  4
A3
  6
AM_VIEW1
 40
3.174999952316284
 41
3.174999952316284
 42
3.17498779296875
 43
3.17498779296875
 44
296.989501953125
 45
419.9889831542968
 46
0.0
 47
1.295841228961961
 48
214.3704939521119
 49
367.5855324241176
140
275.6727856380065
141
407.629191407817
142
1.0
143
1.445089120606129
 70
  3764
 72
     1
 73
     1
 74
     2
  7
monochrome.ctb
 75
     0
147
0.6919988433519999
 76
     0
 77
     2
 78
   200
148
0.0
149
0.0
1001
ACAD_PSEXT
1000
FX DocuWide 2050/2051
1000
FX DocuWide 2050/2051
1000
IP_192.200.15.252
1000

1070
     0
  0
PLOTSETTINGS
  5
AAFF
102
{ACAD_REACTORS
330
19
102
}
330
19
100
AcDbPlotSettings
  1
02 A3
  2
FX DocuWide 2050/2051
  4
A3
  6
AM_VIEW1
 40
3.174999952316284
 41
3.174999952316284
 42
3.17498779296875
 43
3.17498779296875
 44
296.989501953125
 45
419.9889831542968
 46
-64.68024289608002
 47
-90.18050229549407
 48
214.3704939521119
 49
367.5855324241176
140
275.6727856380065
141
407.629191407817
142
1.0
143
1.0
 70
  3764
 72
     1
 73
     1
 74
     2
  7
monochrome.ctb
 75
    16
147
1.0
 76
     0
 77
     2
 78
   200
148
0.0
149
0.0
1001
ACAD_PSEXT
1000
FX DocuWide 2050/2051
1000
FX DocuWide 2050/2051
1000
IP_192.200.15.252
1000

1070
     0
  0
PLOTSETTINGS
  5
AB00
102
{ACAD_REACTORS
330
19
102
}
330
19
100
AcDbPlotSettings
  1
03 A2フィット
  2
FX DocuWide 2050/2051
  4
User66
  6
AM_VIEW1
 40
3.174999952316284
 41
3.174999952316284
 42
3.17498779296875
 43
3.17498779296875
 44
419.9889831542968
 45
593.97900390625
 46
0.0
 47
1.312647041252716
 48
214.3704939521119
 49
367.5855324241176
140
275.6727856380065
141
407.629191407817
142
1.0
143
1.015378155013403
 70
  3764
 72
     1
 73
     1
 74
     2
  7
monochrome.ctb
 75
     0
147
0.9848547509738377
 76
     0
 77
     2
 78
   200
148
0.0
149
0.0
1001
ACAD_PSEXT
1000
FX DocuWide 2050/2051
1000
FX DocuWide 2050/2051
1000
IP_192.200.15.252
1000

1070
     0
  0
PLOTSETTINGS
  5
AB01
102
{ACAD_REACTORS
330
19
102
}
330
19
100
AcDbPlotSettings
  1
04 A2
  2
FX DocuWide 2050/2051
  4
User66
  6
AM_VIEW1
 40
3.174999952316284
 41
3.174999952316284
 42
3.17498779296875
 43
3.17498779296875
 44
419.9889831542968
 45
593.97900390625
 46
-3.180502295494079
 47
-3.185491919517517
 48
214.3704939521119
 49
367.5855324241176
140
275.6727856380065
141
407.629191407817
142
1.0
143
1.0
 70
  3764
 72
     1
 73
     1
 74
     2
  7
monochrome.ctb
 75
    16
147
1.0
 76
     0
 77
     2
 78
   200
148
0.0
149
0.0
1001
ACAD_PSEXT
1000
FX DocuWide 2050/2051
1000
FX DocuWide 2050/2051
1000
IP_192.200.15.252
1000

1070
     0
  0
PLOTSETTINGS
  5
AB04
102
{ACAD_REACTORS
330
19
102
}
330
19
100
AcDbPlotSettings
  1
05 A1フィット
  2
FX DocuWide 2050/2051
  4
User139
  6
AM_VIEW1
 40
3.174999952316284
 41
3.174999952316284
 42
3.17498779296875
 43
3.17498779296875
 44
593.97900390625
 45
840.9939575195313
 46
0.0
 47
1.784323459012171
 48
214.3704939521119
 49
367.5855324241176
140
275.6727856380065
141
407.629191407817
142
1.0
143
0.7147366594384652
 70
  3764
 72
     1
 73
     1
 74
     2
  7
monochrome.ctb
 75
     0
147
1.399116705145154
 76
     0
 77
     2
 78
   200
148
0.0
149
0.0
1001
ACAD_PSEXT
1000
FX DocuWide 2050/2051
1000
FX DocuWide 2050/2051
1000
IP_192.200.15.252
1000

1070
     0
  0
PLOTSETTINGS
  5
AB05
102
{ACAD_REACTORS
330
19
102
}
330
19
100
AcDbPlotSettings
  1
06 A1
  2
FX DocuWide 2050/2051
  4
User139
  6
AM_VIEW1
 40
3.174999952316284
 41
3.174999952316284
 42
3.17498779296875
 43
3.17498779296875
 44
593.97900390625
 45
840.9939575195313
 46
83.81450808048247
 47
120.3219848871231
 48
214.3704939521119
 49
367.5855324241176
140
275.6727856380065
141
407.629191407817
142
1.0
143
1.0
 70
  3764
 72
     1
 73
     1
 74
     2
  7
monochrome.ctb
 75
    16
147
1.0
 76
     0
 77
     2
 78
   200
148
0.0
149
0.0
1001
ACAD_PSEXT
1000
FX DocuWide 2050/2051
1000
FX DocuWide 2050/2051
1000
IP_192.200.15.252
1000

1070
     0
  0
PLOTSETTINGS
  5
AB02
102
{ACAD_REACTORS
330
19
102
}
330
19
100
AcDbPlotSettings
  1
06 A4フィット
  2
FX DocuWide 2050/2051
  4
A4
  6
AM_VIEW1
 40
3.174999952316284
 41
3.174999952316284
 42
3.175003051757812
 43
3.17498779296875
 44
209.9944915771484
 45
296.989501953125
 46
0.0
 47
1.314011612960285
 48
214.3704939521119
 49
367.5855324241176
140
275.6727856380065
141
407.629191407817
142
1.0
143
2.06241771109504
 70
  3764
 72
     1
 73
     1
 74
     2
  7
monochrome.ctb
 75
     0
147
0.4848678299358913
 76
     0
 77
     2
 78
   200
148
0.0
149
0.0
1001
ACAD_PSEXT
1000
FX DocuWide 2050/2051
1000
FX DocuWide 2050/2051
1000
IP_192.200.15.252
1000

1070
     0
  0
PLOTSETTINGS
  5
AB03
102
{ACAD_REACTORS
330
19
102
}
330
19
100
AcDbPlotSettings
  1
07 A4
  2
FX DocuWide 2050/2051
  4
A4
  6
AM_VIEW1
 40
3.174999952316284
 41
3.174999952316284
 42
3.175003051757812
 43
3.17498779296875
 44
209.9944915771484
 45
296.989501953125
 46
-108.1777557134628
 47
-151.68024289608
 48
214.3704939521119
 49
367.5855324241176
140
275.6727856380065
141
407.629191407817
142
1.0
143
1.0
 70
  3764
 72
     1
 73
     1
 74
     2
  7
monochrome.ctb
 75
    16
147
1.0
 76
     0
 77
     2
 78
   200
148
0.0
149
0.0
1001
ACAD_PSEXT
1000
FX DocuWide 2050/2051
1000
FX DocuWide 2050/2051
1000
IP_192.200.15.252
1000

1070
     0
  0
ACDBPLACEHOLDER
  5
F
102
{ACAD_REACTORS
330
E
102
}
330
E
  0
SCALE
  5
D13C
102
{ACAD_REACTORS
330
D13B
102
}
330
D13B
100
AcDbScale
 70
     0
300
1:1
140
1.0
141
1.0
290
     1
  0
SCALE
  5
D13D
102
{ACAD_REACTORS
330
D13B
102
}
330
D13B
100
AcDbScale
 70
     0
300
1:2
140
1.0
141
2.0
290
     0
  0
SCALE
  5
D13E
102
{ACAD_REACTORS
330
D13B
102
}
330
D13B
100
AcDbScale
 70
     0
300
1:4
140
1.0
141
4.0
290
     0
  0
SCALE
  5
D13F
102
{ACAD_REACTORS
330
D13B
102
}
330
D13B
100
AcDbScale
 70
     0
300
1:5
140
1.0
141
5.0
290
     0
  0
SCALE
  5
D140
102
{ACAD_REACTORS
330
D13B
102
}
330
D13B
100
AcDbScale
 70
     0
300
1:8
140
1.0
141
8.0
290
     0
  0
SCALE
  5
D141
102
{ACAD_REACTORS
330
D13B
102
}
330
D13B
100
AcDbScale
 70
     0
300
1:10
140
1.0
141
10.0
290
     0
  0
SCALE
  5
D142
102
{ACAD_REACTORS
330
D13B
102
}
330
D13B
100
AcDbScale
 70
     0
300
1:16
140
1.0
141
16.0
290
     0
  0
SCALE
  5
D143
102
{ACAD_REACTORS
330
D13B
102
}
330
D13B
100
AcDbScale
 70
     0
300
1:20
140
1.0
141
20.0
290
     0
  0
SCALE
  5
D144
102
{ACAD_REACTORS
330
D13B
102
}
330
D13B
100
AcDbScale
 70
     0
300
1:30
140
1.0
141
30.0
290
     0
  0
SCALE
  5
D145
102
{ACAD_REACTORS
330
D13B
102
}
330
D13B
100
AcDbScale
 70
     0
300
1:40
140
1.0
141
40.0
290
     0
  0
SCALE
  5
D146
102
{ACAD_REACTORS
330
D13B
102
}
330
D13B
100
AcDbScale
 70
     0
300
1:50
140
1.0
141
50.0
290
     0
  0
SCALE
  5
D147
102
{ACAD_REACTORS
330
D13B
102
}
330
D13B
100
AcDbScale
 70
     0
300
1:100
140
1.0
141
100.0
290
     0
  0
SCALE
  5
D148
102
{ACAD_REACTORS
330
D13B
102
}
330
D13B
100
AcDbScale
 70
     0
300
2:1
140
2.0
141
1.0
290
     0
  0
SCALE
  5
D149
102
{ACAD_REACTORS
330
D13B
102
}
330
D13B
100
AcDbScale
 70
     0
300
4:1
140
4.0
141
1.0
290
     0
  0
SCALE
  5
D14A
102
{ACAD_REACTORS
330
D13B
102
}
330
D13B
100
AcDbScale
 70
     0
300
8:1
140
8.0
141
1.0
290
     0
  0
SCALE
  5
D14B
102
{ACAD_REACTORS
330
D13B
102
}
330
D13B
100
AcDbScale
 70
     0
300
10:1
140
10.0
141
1.0
290
     0
  0
SCALE
  5
D14C
102
{ACAD_REACTORS
330
D13B
102
}
330
D13B
100
AcDbScale
 70
     0
300
100:1
140
100.0
141
1.0
290
     0
  0
SCALE
  5
D14D
102
{ACAD_REACTORS
330
D13B
102
}
330
D13B
100
AcDbScale
 70
     0
300
1/128" = 1'-0"
140
0.0078125
141
12.0
290
     0
  0
SCALE
  5
D14E
102
{ACAD_REACTORS
330
D13B
102
}
330
D13B
100
AcDbScale
 70
     0
300
1/64" = 1'-0"
140
0.015625
141
12.0
290
     0
  0
SCALE
  5
D14F
102
{ACAD_REACTORS
330
D13B
102
}
330
D13B
100
AcDbScale
 70
     0
300
1/32" = 1'-0"
140
0.03125
141
12.0
290
     0
  0
SCALE
  5
D150
102
{ACAD_REACTORS
330
D13B
102
}
330
D13B
100
AcDbScale
 70
     0
300
1/16" = 1'-0"
140
0.0625
141
12.0
290
     0
  0
SCALE
  5
D151
102
{ACAD_REACTORS
330
D13B
102
}
330
D13B
100
AcDbScale
 70
     0
300
3/32" = 1'-0"
140
0.09375
141
12.0
290
     0
  0
SCALE
  5
D152
102
{ACAD_REACTORS
330
D13B
102
}
330
D13B
100
AcDbScale
 70
     0
300
1/8" = 1'-0"
140
0.125
141
12.0
290
     0
  0
SCALE
  5
D153
102
{ACAD_REACTORS
330
D13B
102
}
330
D13B
100
AcDbScale
 70
     0
300
3/16" = 1'-0"
140
0.1875
141
12.0
290
     0
  0
SCALE
  5
D154
102
{ACAD_REACTORS
330
D13B
102
}
330
D13B
100
AcDbScale
 70
     0
300
1/4" = 1'-0"
140
0.25
141
12.0
290
     0
  0
SCALE
  5
D155
102
{ACAD_REACTORS
330
D13B
102
}
330
D13B
100
AcDbScale
 70
     0
300
3/8" = 1'-0"
140
0.375
141
12.0
290
     0
  0
SCALE
  5
D156
102
{ACAD_REACTORS
330
D13B
102
}
330
D13B
100
AcDbScale
 70
     0
300
1/2" = 1'-0"
140
0.5
141
12.0
290
     0
  0
SCALE
  5
D157
102
{ACAD_REACTORS
330
D13B
102
}
330
D13B
100
AcDbScale
 70
     0
300
3/4" = 1'-0"
140
0.75
141
12.0
290
     0
  0
SCALE
  5
D158
102
{ACAD_REACTORS
330
D13B
102
}
330
D13B
100
AcDbScale
 70
     0
300
1" = 1'-0"
140
1.0
141
12.0
290
     0
  0
SCALE
  5
D159
102
{ACAD_REACTORS
330
D13B
102
}
330
D13B
100
AcDbScale
 70
     0
300
1-1/2" = 1'-0"
140
1.5
141
12.0
290
     0
  0
SCALE
  5
D15A
102
{ACAD_REACTORS
330
D13B
102
}
330
D13B
100
AcDbScale
 70
     0
300
3" = 1'-0"
140
3.0
141
12.0
290
     0
  0
SCALE
  5
D15B
102
{ACAD_REACTORS
330
D13B
102
}
330
D13B
100
AcDbScale
 70
     0
300
6" = 1'-0"
140
6.0
141
12.0
290
     0
  0
SCALE
  5
D15C
102
{ACAD_REACTORS
330
D13B
102
}
330
D13B
100
AcDbScale
 70
     0
300
1'-0" = 1'-0"
140
12.0
141
12.0
290
     0
  0
TABLESTYLE
  5
AABA
102
{ACAD_XDICTIONARY
360
D356
102
}
102
{ACAD_REACTORS
330
AAB9
102
}
330
AAB9
100
AcDbTableStyle
  3
Standard
 70
     0
 71
     0
 40
1.5
 41
1.5
280
     0
281
     0
  7
STANDARD
140
4.5
170
     2
 62
     0
 63
     7
283
     0
274
    -2
284
     1
 64
     0
275
    -2
285
     1
 65
     0
276
    -2
286
     1
 66
     0
277
    -2
287
     1
 67
     0
278
    -2
288
     1
 68
     0
279
    -2
289
     1
 69
     0
  7
STANDARD
140
6.0
170
     5
 62
     0
 63
     7
283
     0
274
    -2
284
     1
 64
     0
275
    -2
285
     1
 65
     0
276
    -2
286
     1
 66
     0
277
    -2
287
     1
 67
     0
278
    -2
288
     1
 68
     0
279
    -2
289
     1
 69
     0
  7
STANDARD
140
4.5
170
     5
 62
     0
 63
     7
283
     0
274
    -2
284
     1
 64
     0
275
    -2
285
     1
 65
     0
276
    -2
286
     1
 66
     0
277
    -2
287
     1
 67
     0
278
    -2
288
     1
 68
     0
279
    -2
289
     1
 69
     0
  0
VISUALSTYLE
  5
B44A
102
{ACAD_REACTORS
330
B444
102
}
330
B444
100
AcDbVisualStyle
  2
2dWireframe
 70
     4
 71
     0
 72
     2
 73
     0
 90
        0
 40
-0.6
 41
-30.0
 62
     5
 63
     7
 74
     1
 91
        4
 64
     7
 65
   257
 75
     1
175
     1
 42
1.0
 92
        0
 66
   257
 43
1.0
 76
     1
 77
     6
 78
     2
 67
     7
 79
     5
170
     0
171
     0
290
     0
174
     0
 93
        1
 44
0.0
173
     0
291
     0
 45
0.0
1001
ACAD
1000
AcDbSavedByObjectVersion
1070
     0
  0
VISUALSTYLE
  5
B44C
102
{ACAD_REACTORS
330
B444
102
}
330
B444
100
AcDbVisualStyle
  2
3D Hidden
 70
     6
 71
     1
 72
     2
 73
     2
 90
        0
 40
-0.6
 41
-30.0
 62
     5
 63
     7
 74
     2
 91
        2
 64
     7
 65
   257
 75
     2
175
     1
 42
40.0
 92
        0
 66
   257
 43
1.0
 76
     1
 77
     6
 78
     2
 67
     7
 79
     3
170
     0
171
     0
290
     0
174
     0
 93
        1
 44
0.0
173
     0
291
     0
 45
0.0
1001
ACAD
1000
AcDbSavedByObjectVersion
1070
     0
  0
VISUALSTYLE
  5
B44B
102
{ACAD_REACTORS
330
B444
102
}
330
B444
100
AcDbVisualStyle
  2
3dWireframe
 70
     5
 71
     0
 72
     2
 73
     0
 90
        0
 40
-0.6
 41
-30.0
 62
     5
 63
     7
 74
     1
 91
        4
 64
     7
 65
   257
 75
     1
175
     1
 42
1.0
 92
        0
 66
   257
 43
1.0
 76
     1
 77
     6
 78
     2
 67
     7
 79
     5
170
     0
171
     0
290
     0
174
     0
 93
        1
 44
0.0
173
     0
291
     0
 45
0.0
1001
ACAD
1000
AcDbSavedByObjectVersion
1070
     0
  0
VISUALSTYLE
  5
B449
102
{ACAD_REACTORS
330
B444
102
}
330
B444
100
AcDbVisualStyle
  2
Basic
 70
     7
 71
     1
 72
     0
 73
     1
 90
        0
 40
-0.6
 41
-30.0
 62
     5
 63
     7
 74
     0
 91
        4
 64
     7
 65
   257
 75
     1
175
     1
 42
1.0
 92
        8
 66
     7
 43
1.0
 76
     1
 77
     6
 78
     2
 67
     7
 79
     5
170
     0
171
     0
290
     0
174
     0
 93
        1
 44
0.0
173
     0
291
     1
 45
0.0
1001
ACAD
1000
AcDbSavedByObjectVersion
1070
     0
  0
VISUALSTYLE
  5
B450
102
{ACAD_REACTORS
330
B444
102
}
330
B444
100
AcDbVisualStyle
  2
Brighten
 70
    12
 71
     2
 72
     2
 73
     0
 90
        0
 40
-0.6
 41
-30.0
 62
     5
 63
     7
 74
     1
 91
        4
 64
     7
 65
   257
 75
     1
175
     1
 42
1.0
 92
        8
 66
     7
 43
1.0
 76
     1
 77
     6
 78
     2
 67
     7
 79
     5
170
     0
171
     0
290
     0
174
     0
 93
        1
 44
50.0
173
     0
291
     1
 45
0.0
1001
ACAD
1000
AcDbSavedByObjectVersion
1070
     0
  0
VISUALSTYLE
  5
B454
102
{ACAD_REACTORS
330
B444
102
}
330
B444
100
AcDbVisualStyle
  2
ColorChange
 70
    16
 71
     2
 72
     2
 73
     3
 90
        0
 40
-0.6
 41
-30.0
 62
     5
 63
     8
 74
     1
 91
        4
 64
     7
 65
   257
 75
     1
175
     1
 42
1.0
 92
        8
 66
     8
 43
1.0
 76
     1
 77
     6
 78
     2
 67
     7
 79
     5
170
     0
171
     0
290
     0
174
     0
 93
        1
 44
0.0
173
     0
291
     1
 45
0.0
1001
ACAD
1000
AcDbSavedByObjectVersion
1070
     0
  0
VISUALSTYLE
  5
B44D
102
{ACAD_REACTORS
330
B444
102
}
330
B444
100
AcDbVisualStyle
  2
Conceptual
 70
     9
 71
     3
 72
     2
 73
     0
 90
        0
 40
-0.6
 41
-30.0
 62
     5
 63
     7
 74
     2
 91
        2
 64
     7
 65
   257
 75
     1
175
     1
 42
40.0
 92
        8
 66
     7
 43
1.0
 76
     1
 77
     6
 78
     2
 67
     7
 79
     3
170
     0
171
     0
290
     0
174
     0
 93
        1
 44
0.0
173
     0
291
     0
 45
0.0
1001
ACAD
1000
AcDbSavedByObjectVersion
1070
     0
  0
VISUALSTYLE
  5
B44F
102
{ACAD_REACTORS
330
B444
102
}
330
B444
100
AcDbVisualStyle
  2
Dim
 70
    11
 71
     2
 72
     2
 73
     0
 90
        0
 40
-0.6
 41
-30.0
 62
     5
 63
     7
 74
     1
 91
        4
 64
     7
 65
   257
 75
     1
175
     1
 42
1.0
 92
        8
 66
     7
 43
1.0
 76
     1
 77
     6
 78
     2
 67
     7
 79
     5
170
     0
171
     0
290
     0
174
     0
 93
        1
 44
-50.0
173
     0
291
     1
 45
0.0
1001
ACAD
1000
AcDbSavedByObjectVersion
1070
     0
  0
VISUALSTYLE
  5
B453
102
{ACAD_REACTORS
330
B444
102
}
330
B444
100
AcDbVisualStyle
  2
Facepattern
 70
    15
 71
     2
 72
     2
 73
     0
 90
        0
 40
-0.6
 41
-30.0
 62
     5
 63
     7
 74
     1
 91
        4
 64
     7
 65
   257
 75
     1
175
     1
 42
1.0
 92
        8
 66
     7
 43
1.0
 76
     1
 77
     6
 78
     2
 67
     7
 79
     5
170
     0
171
     0
290
     0
174
     0
 93
        1
 44
0.0
173
     0
291
     1
 45
0.0
1001
ACAD
1000
AcDbSavedByObjectVersion
1070
     0
  0
VISUALSTYLE
  5
B445
102
{ACAD_REACTORS
330
B444
102
}
330
B444
100
AcDbVisualStyle
  2
Flat
 70
     0
 71
     2
 72
     1
 73
     1
 90
        2
 40
-0.6
 41
30.0
 62
     5
 63
     7
 74
     0
 91
        4
 64
     7
 65
   257
 75
     1
175
     1
 42
1.0
 92
        8
 66
     7
 43
1.0
 76
     1
 77
     6
 78
     2
 67
     7
 79
     5
170
     0
171
     0
290
     0
174
     0
 93
       13
 44
0.0
173
     0
291
     1
 45
0.0
1001
ACAD
1000
AcDbSavedByObjectVersion
1070
     0
  0
VISUALSTYLE
  5
B446
102
{ACAD_REACTORS
330
B444
102
}
330
B444
100
AcDbVisualStyle
  2
FlatWithEdges
 70
     1
 71
     2
 72
     1
 73
     1
 90
        2
 40
-0.6
 41
30.0
 62
     5
 63
     7
 74
     1
 91
        4
 64
     7
 65
   257
 75
     1
175
     1
 42
1.0
 92
        0
 66
   257
 43
1.0
 76
     1
 77
     6
 78
     2
 67
     7
 79
     5
170
     0
171
     0
290
     0
174
     0
 93
       13
 44
0.0
173
     0
291
     1
 45
0.0
1001
ACAD
1000
AcDbSavedByObjectVersion
1070
     0
  0
VISUALSTYLE
  5
B447
102
{ACAD_REACTORS
330
B444
102
}
330
B444
100
AcDbVisualStyle
  2
Gouraud
 70
     2
 71
     2
 72
     2
 73
     1
 90
        2
 40
-0.6
 41
30.0
 62
     5
 63
     7
 74
     0
 91
        4
 64
     7
 65
   257
 75
     1
175
     1
 42
1.0
 92
        0
 66
     7
 43
1.0
 76
     1
 77
     6
 78
     2
 67
     7
 79
     5
170
     0
171
     0
290
     0
174
     0
 93
       13
 44
0.0
173
     0
291
     1
 45
0.0
1001
ACAD
1000
AcDbSavedByObjectVersion
1070
     0
  0
VISUALSTYLE
  5
B448
102
{ACAD_REACTORS
330
B444
102
}
330
B444
100
AcDbVisualStyle
  2
GouraudWithEdges
 70
     3
 71
     2
 72
     2
 73
     1
 90
        2
 40
-0.6
 41
30.0
 62
     5
 63
     7
 74
     1
 91
        4
 64
     7
 65
   257
 75
     1
175
     1
 42
1.0
 92
        0
 66
   257
 43
1.0
 76
     1
 77
     6
 78
     2
 67
     7
 79
     5
170
     0
171
     0
290
     0
174
     0
 93
       13
 44
0.0
173
     0
291
     1
 45
0.0
1001
ACAD
1000
AcDbSavedByObjectVersion
1070
     0
  0
VISUALSTYLE
  5
B452
102
{ACAD_REACTORS
330
B444
102
}
330
B444
100
AcDbVisualStyle
  2
Linepattern
 70
    14
 71
     2
 72
     2
 73
     0
 90
        0
 40
-0.6
 41
-30.0
 62
     5
 63
     7
 74
     1
 91
        4
 64
     7
 65
   257
 75
     7
175
     7
 42
1.0
 92
        8
 66
     7
 43
1.0
 76
     1
 77
     6
 78
     2
 67
     7
 79
     5
170
     0
171
     0
290
     0
174
     0
 93
        1
 44
0.0
173
     0
291
     1
 45
0.0
1001
ACAD
1000
AcDbSavedByObjectVersion
1070
     0
  0
VISUALSTYLE
  5
B44E
102
{ACAD_REACTORS
330
B444
102
}
330
B444
100
AcDbVisualStyle
  2
Realistic
 70
     8
 71
     2
 72
     2
 73
     0
 90
        0
 40
-0.6
 41
-30.0
 62
     5
 63
     7
 74
     1
 91
        0
 64
     7
 65
   257
 75
     1
175
     1
 42
1.0
 92
        8
 66
     8
 43
1.0
 76
     1
 77
     6
 78
     2
 67
     7
 79
     5
170
     0
171
     0
290
     0
174
     0
 93
       13
 44
0.0
173
     0
291
     0
 45
0.0
1001
ACAD
1000
AcDbSavedByObjectVersion
1070
     0
  0
VISUALSTYLE
  5
B451
102
{ACAD_REACTORS
330
B444
102
}
330
B444
100
AcDbVisualStyle
  2
Thicken
 70
    13
 71
     2
 72
     2
 73
     0
 90
        0
 40
-0.6
 41
-30.0
 62
     5
 63
     7
 74
     1
 91
        4
 64
     7
 65
   257
 75
     1
175
     1
 42
1.0
 92
       12
 66
     7
 43
1.0
 76
     1
 77
     6
 78
     2
 67
     7
 79
     5
170
     0
171
     0
290
     0
174
     0
 93
        1
 44
0.0
173
     0
291
     1
 45
0.0
1001
ACAD
1000
AcDbSavedByObjectVersion
1070
     0
  0
DICTIONARYVAR
  5
D35B
102
{ACAD_REACTORS
330
34
102
}
330
34
100
DictionaryVariables
280
     0
  1
1:1
  0
DICTIONARYVAR
  5
D359
102
{ACAD_REACTORS
330
34
102
}
330
34
100
DictionaryVariables
280
     0
  1
STANDARD
  0
DICTIONARYVAR
  5
AAF3
102
{ACAD_REACTORS
330
34
102
}
330
34
100
DictionaryVariables
280
     0
  1
STANDARD
  0
DICTIONARYVAR
  5
A10C
102
{ACAD_REACTORS
330
34
102
}
330
34
100
DictionaryVariables
280
     0
  1
1
  0
DICTIONARYVAR
  5
AB07
102
{ACAD_REACTORS
330
34
102
}
330
34
100
DictionaryVariables
280
     0
  1
4
  0
DICTIONARYVAR
  5
35
102
{ACAD_REACTORS
330
34
102
}
330
34
100
DictionaryVariables
280
     0
  1
0
  0
DICTIONARYVAR
  5
D35C
102
{ACAD_REACTORS
330
34
102
}
330
34
100
DictionaryVariables
280
     0
  1
0
  0
DICTIONARYVAR
  5
D35A
102
{ACAD_REACTORS
330
34
102
}
330
34
100
DictionaryVariables
280
     0
  1
0
  0
DICTIONARYVAR
  5
194C
102
{ACAD_REACTORS
330
34
102
}
330
34
100
DictionaryVariables
280
     0
  1
96
  0
DICTIONARY
  5
7E8
102
{ACAD_REACTORS
330
47
102
}
330
47
100
AcDbDictionary
281
     1
  0
DICTIONARY
  5
4C
102
{ACAD_REACTORS
330
47
102
}
330
47
100
AcDbDictionary
281
     1
  0
XRECORD
  5
A929
102
{ACAD_REACTORS
330
47
102
}
330
47
100
AcDbXrecord
280
     1
 90
-1023410169
  0
XRECORD
  5
9F49
102
{ACAD_REACTORS
330
9F48
102
}
330
9F48
100
AcDbXrecord
280
     1
330
0
330
0
330
0
330
0
330
0
330
0
330
0
330
0
  0
XRECORD
  5
3FB7
102
{ACAD_REACTORS
330
3F96
102
}
330
3F96
100
AcDbXrecord
280
     1
 91
        3
330
0
 90
        8
 62
     7
370
    40
331
16
  1
Color_7
330
0
 90
        0
 62
    14
370
    -3
331
16
  1
Color_14
330
0
 90
        8
 62
     7
370
    20
331
16
  1
Color_7
330
6D1
 90
        0
 62
     7
370
    -3
331
16
  1
Color_7
330
0
 90
        8
 62
     7
370
    50
331
16
  1
Color_7
330
0
 90
        8
 62
     2
370
    35
331
16
  1
Color_2
330
0
 90
        8
 62
     7
370
    -3
331
16
  1
Color_7
330
10
 90
        8
 62
     7
370
    -3
331
16
  1
Color_7
  0
DICTIONARY
  5
D4FB
330
B442
100
AcDbDictionary
280
     1
281
     1
  3
ACAD_XREC_ROUNDTRIP
360
D4FC
  0
DICTIONARY
  5
D4F9
330
B441
100
AcDbDictionary
280
     1
281
     1
  3
ACAD_XREC_ROUNDTRIP
360
D4FA
  0
DICTIONARY
  5
D4FD
330
B443
100
AcDbDictionary
280
     1
281
     1
  3
ACAD_XREC_ROUNDTRIP
360
D4FE
  0
DICTIONARY
  5
D356
330
AABA
100
AcDbDictionary
280
     1
281
     1
  3
ACAD_ROUNDTRIP_2008_TABLESTYLE_CELLSTYLEMAP
360
D4F5
  3
ACAD_XREC_ROUNDTRIP
360
D4F8
  0
XRECORD
  5
D4FC
102
{ACAD_REACTORS
330
D4FB
102
}
330
D4FB
100
AcDbXrecord
280
     1
102
MATERIAL
148
0.0
149
0.0
149
0.0
 93
        0
 94
       63
282
     0
 72
     1
 77
     1
171
     1
175
     1
179
     1
273
     0
  0
XRECORD
  5
D4FA
102
{ACAD_REACTORS
330
D4F9
102
}
330
D4F9
100
AcDbXrecord
280
     1
102
MATERIAL
148
0.0
149
0.0
149
0.0
 93
        0
 94
       63
282
     0
 72
     1
 77
     1
171
     1
175
     1
179
     1
273
     0
  0
XRECORD
  5
D4FE
102
{ACAD_REACTORS
330
D4FD
102
}
330
D4FD
100
AcDbXrecord
280
     1
102
MATERIAL
148
0.0
149
0.0
149
0.0
 93
        0
 94
       63
282
     0
 72
     1
 77
     1
171
     1
175
     1
179
     1
273
     0
  0
CELLSTYLEMAP
  5
D4F5
102
{ACAD_REACTORS
330
D356
102
}
330
D356
100
AcDbCellStyleMap
 90
        3
300
CELLSTYLE
  1
TABLEFORMAT_BEGIN
 90
        5
170
     1
 91
        0
 92
    32768
 62
   257
 93
        1
300
CONTENTFORMAT
  1
CONTENTFORMAT_BEGIN
 90
        0
 91
        0
 92
        4
 93
        0
300

 40
0.0
140
1.0
 94
        5
 62
     0
340
11
144
6.0
309
CONTENTFORMAT_END
171
     1
301
MARGIN
  1
CELLMARGIN_BEGIN
 40
1.5
 40
1.5
 40
1.5
 40
1.5
 40
0.18
 40
0.18
309
CELLMARGIN_END
 94
        6
 95
        1
302
GRIDFORMAT
  1
GRIDFORMAT_BEGIN
 90
        0
 91
        1
 62
     0
 92
       -2
340
0
 93
        0
 40
0.045
309
GRIDFORMAT_END
 95
        2
302
GRIDFORMAT
  1
GRIDFORMAT_BEGIN
 90
        0
 91
        1
 62
     0
 92
       -2
340
0
 93
        0
 40
0.045
309
GRIDFORMAT_END
 95
        4
302
GRIDFORMAT
  1
GRIDFORMAT_BEGIN
 90
        0
 91
        1
 62
     0
 92
       -2
340
0
 93
        0
 40
0.045
309
GRIDFORMAT_END
 95
        8
302
GRIDFORMAT
  1
GRIDFORMAT_BEGIN
 90
        0
 91
        1
 62
     0
 92
       -2
340
0
 93
        0
 40
0.045
309
GRIDFORMAT_END
 95
       16
302
GRIDFORMAT
  1
GRIDFORMAT_BEGIN
 90
        0
 91
        1
 62
     0
 92
       -2
340
0
 93
        0
 40
0.045
309
GRIDFORMAT_END
 95
       32
302
GRIDFORMAT
  1
GRIDFORMAT_BEGIN
 90
        0
 91
        1
 62
     0
 92
       -2
340
0
 93
        0
 40
0.045
309
GRIDFORMAT_END
309
TABLEFORMAT_END
  1
CELLSTYLE_BEGIN
 90
        1
 91
        1
300
_TITLE
309
CELLSTYLE_END
300
CELLSTYLE
  1
TABLEFORMAT_BEGIN
 90
        5
170
     1
 91
        0
 92
        0
 62
   257
 93
        1
300
CONTENTFORMAT
  1
CONTENTFORMAT_BEGIN
 90
        0
 91
        0
 92
        4
 93
        0
300

 40
0.0
140
1.0
 94
        5
 62
     0
340
11
144
4.5
309
CONTENTFORMAT_END
171
     1
301
MARGIN
  1
CELLMARGIN_BEGIN
 40
1.5
 40
1.5
 40
1.5
 40
1.5
 40
0.18
 40
0.18
309
CELLMARGIN_END
 94
        6
 95
        1
302
GRIDFORMAT
  1
GRIDFORMAT_BEGIN
 90
        0
 91
        1
 62
     0
 92
       -2
340
0
 93
        0
 40
0.045
309
GRIDFORMAT_END
 95
        2
302
GRIDFORMAT
  1
GRIDFORMAT_BEGIN
 90
        0
 91
        1
 62
     0
 92
       -2
340
0
 93
        0
 40
0.045
309
GRIDFORMAT_END
 95
        4
302
GRIDFORMAT
  1
GRIDFORMAT_BEGIN
 90
        0
 91
        1
 62
     0
 92
       -2
340
0
 93
        0
 40
0.045
309
GRIDFORMAT_END
 95
        8
302
GRIDFORMAT
  1
GRIDFORMAT_BEGIN
 90
        0
 91
        1
 62
     0
 92
       -2
340
0
 93
        0
 40
0.045
309
GRIDFORMAT_END
 95
       16
302
GRIDFORMAT
  1
GRIDFORMAT_BEGIN
 90
        0
 91
        1
 62
     0
 92
       -2
340
0
 93
        0
 40
0.045
309
GRIDFORMAT_END
 95
       32
302
GRIDFORMAT
  1
GRIDFORMAT_BEGIN
 90
        0
 91
        1
 62
     0
 92
       -2
340
0
 93
        0
 40
0.045
309
GRIDFORMAT_END
309
TABLEFORMAT_END
  1
CELLSTYLE_BEGIN
 90
        2
 91
        1
300
_HEADER
309
CELLSTYLE_END
300
CELLSTYLE
  1
TABLEFORMAT_BEGIN
 90
        5
170
     1
 91
        0
 92
        0
 62
   257
 93
        1
300
CONTENTFORMAT
  1
CONTENTFORMAT_BEGIN
 90
        0
 91
        0
 92
        4
 93
        0
300

 40
0.0
140
1.0
 94
        2
 62
     0
340
11
144
4.5
309
CONTENTFORMAT_END
171
     1
301
MARGIN
  1
CELLMARGIN_BEGIN
 40
1.5
 40
1.5
 40
1.5
 40
1.5
 40
0.18
 40
0.18
309
CELLMARGIN_END
 94
        6
 95
        1
302
GRIDFORMAT
  1
GRIDFORMAT_BEGIN
 90
        0
 91
        1
 62
     0
 92
       -2
340
0
 93
        0
 40
0.045
309
GRIDFORMAT_END
 95
        2
302
GRIDFORMAT
  1
GRIDFORMAT_BEGIN
 90
        0
 91
        1
 62
     0
 92
       -2
340
0
 93
        0
 40
0.045
309
GRIDFORMAT_END
 95
        4
302
GRIDFORMAT
  1
GRIDFORMAT_BEGIN
 90
        0
 91
        1
 62
     0
 92
       -2
340
0
 93
        0
 40
0.045
309
GRIDFORMAT_END
 95
        8
302
GRIDFORMAT
  1
GRIDFORMAT_BEGIN
 90
        0
 91
        1
 62
     0
 92
       -2
340
0
 93
        0
 40
0.045
309
GRIDFORMAT_END
 95
       16
302
GRIDFORMAT
  1
GRIDFORMAT_BEGIN
 90
        0
 91
        1
 62
     0
 92
       -2
340
0
 93
        0
 40
0.045
309
GRIDFORMAT_END
 95
       32
302
GRIDFORMAT
  1
GRIDFORMAT_BEGIN
 90
        0
 91
        1
 62
     0
 92
       -2
340
0
 93
        0
 40
0.045
309
GRIDFORMAT_END
309
TABLEFORMAT_END
  1
CELLSTYLE_BEGIN
 90
        3
 91
        2
300
_DATA
309
CELLSTYLE_END
  0
XRECORD
  5
D4F8
102
{ACAD_REACTORS
330
D356
102
}
330
D356
100
AcDbXrecord
280
     1
102
ACAD_ROUNDTRIP_PRE2007_TABLESTYLE
 90
        4
 91
        0
  1

 92
        4
 93
        0
  2

 94
        4
 95
        0
  3

  0
ENDSEC
  0
EOF
