  0
SECTION
  2
HEADER
  9
$ACADVER
  1
AC1015
  9
$ACADMAINTVER
 70
    20
  9
$DWGCODEPAGE
  3
ANSI_932
  9
$INSBASE
 10
0.0
 20
0.0
 30
0.0
  9
$EXTMIN
 10
4902.54782652164
 20
-2616.482271409579
 30
0.0
  9
$EXTMAX
 10
5199.547826521642
 20
-2406.482271409579
 30
0.0
  9
$LIMMIN
 10
1735.132052145826
 20
-6087.884660833434
  9
$LIMMAX
 10
2155.132052145826
 20
-5790.884660833434
  9
$ORTHOMODE
 70
     0
  9
$REGENMODE
 70
     1
  9
$FILLMODE
 70
     1
  9
$QTEXTMODE
 70
     0
  9
$MIRRTEXT
 70
     0
  9
$LTSCALE
 40
1.0
  9
$ATTMODE
 70
     1
  9
$TEXTSIZE
 40
3.5
  9
$TRACEWID
 40
1.0
  9
$TEXTSTYLE
  7
STANDARD
  9
$CLAYER
  8
0
  9
$CELTYPE
  6
ByLayer
  9
$CECOLOR
 62
   256
  9
$CELTSCALE
 40
0.5
  9
$DISPSILH
 70
     0
  9
$DIMSCALE
 40
1.0
  9
$DIMASZ
 40
1.0
  9
$DIMEXO
 40
1.0
  9
$DIMDLI
 40
10.0
  9
$DIMRND
 40
0.0
  9
$DIMDLE
 40
0.0
  9
$DIMEXE
 40
1.0
  9
$DIMTP
 40
0.1
  9
$DIMTM
 40
0.1
  9
$DIMTXT
 40
3.5
  9
$DIMCEN
 40
0.0
  9
$DIMTSZ
 40
0.0
  9
$DIMTOL
 70
     0
  9
$DIMLIM
 70
     0
  9
$DIMTIH
 70
     0
  9
$DIMTOH
 70
     0
  9
$DIMSE1
 70
     0
  9
$DIMSE2
 70
     0
  9
$DIMTAD
 70
     1
  9
$DIMZIN
 70
     8
  9
$DIMBLK
  1

  9
$DIMASO
 70
     1
  9
$DIMSHO
 70
     1
  9
$DIMPOST
  1

  9
$DIMAPOST
  1
"
  9
$DIMALT
 70
     0
  9
$DIMALTD
 70
     2
  9
$DIMALTF
 40
0.0393701
  9
$DIMLFAC
 40
1.0
  9
$DIMTOFL
 70
     1
  9
$DIMTVP
 40
0.0
  9
$DIMTIX
 70
     0
  9
$DIMSOXD
 70
     0
  9
$DIMSAH
 70
     0
  9
$DIMBLK1
  1

  9
$DIMBLK2
  1

  9
$DIMSTYLE
  2
SYS
  9
$DIMCLRD
 70
   256
  9
$DIMCLRE
 70
   256
  9
$DIMCLRT
 70
     7
  9
$DIMTFAC
 40
0.71
  9
$DIMGAP
 40
1.5
  9
$DIMJUST
 70
     0
  9
$DIMSD1
 70
     0
  9
$DIMSD2
 70
     0
  9
$DIMTOLJ
 70
     0
  9
$DIMTZIN
 70
     8
  9
$DIMALTZ
 70
     0
  9
$DIMALTTZ
 70
     0
  9
$DIMUPT
 70
     0
  9
$DIMDEC
 70
     1
  9
$DIMTDEC
 70
     2
  9
$DIMALTU
 70
     2
  9
$DIMALTTD
 70
     2
  9
$DIMTXSTY
  7
STANDARD
  9
$DIMAUNIT
 70
     0
  9
$DIMADEC
 70
     0
  9
$DIMALTRND
 40
0.0
  9
$DIMAZIN
 70
     2
  9
$DIMDSEP
 70
    46
  9
$DIMATFIT
 70
     3
  9
$DIMFRAC
 70
     0
  9
$DIMLDRBLK
  1

  9
$DIMLUNIT
 70
     2
  9
$DIMLWD
 70
    -1
  9
$DIMLWE
 70
    -1
  9
$DIMTMOVE
 70
     0
  9
$LUNITS
 70
     2
  9
$LUPREC
 70
     2
  9
$SKETCHINC
 40
1.0
  9
$FILLETRAD
 40
2.0
  9
$AUNITS
 70
     0
  9
$AUPREC
 70
     0
  9
$MENU
  1
.
  9
$ELEVATION
 40
0.0
  9
$PELEVATION
 40
0.0
  9
$THICKNESS
 40
0.0
  9
$LIMCHECK
 70
     0
  9
$CHAMFERA
 40
0.0
  9
$CHAMFERB
 40
0.0
  9
$CHAMFERC
 40
20.0
  9
$CHAMFERD
 40
0.0
  9
$SKPOLY
 70
     0
  9
$TDCREATE
 40
2455567.561054317
  9
$TDUCREATE
 40
2455567.186054318
  9
$TDUPDATE
 40
2456030.709537940
  9
$TDUUPDATE
 40
2456030.334537940
  9
$TDINDWG
 40
8.2696572569
  9
$TDUSRTIMER
 40
8.2696527315
  9
$USRTIMER
 70
     1
  9
$ANGBASE
 50
0.0
  9
$ANGDIR
 70
     0
  9
$PDMODE
 70
     0
  9
$PDSIZE
 40
-3.0
  9
$PLINEWID
 40
0.0
  9
$SPLFRAME
 70
     0
  9
$SPLINETYPE
 70
     6
  9
$SPLINESEGS
 70
     8
  9
$HANDSEED
  5
52964
  9
$SURFTAB1
 70
     6
  9
$SURFTAB2
 70
     6
  9
$SURFTYPE
 70
     6
  9
$SURFU
 70
     6
  9
$SURFV
 70
     6
  9
$UCSBASE
  2

  9
$UCSNAME
  2

  9
$UCSORG
 10
0.0
 20
0.0
 30
0.0
  9
$UCSXDIR
 10
1.0
 20
0.0
 30
0.0
  9
$UCSYDIR
 10
0.0
 20
1.0
 30
0.0
  9
$UCSORTHOREF
  2

  9
$UCSORTHOVIEW
 70
     0
  9
$UCSORGTOP
 10
0.0
 20
0.0
 30
0.0
  9
$UCSORGBOTTOM
 10
0.0
 20
0.0
 30
0.0
  9
$UCSORGLEFT
 10
0.0
 20
0.0
 30
0.0
  9
$UCSORGRIGHT
 10
0.0
 20
0.0
 30
0.0
  9
$UCSORGFRONT
 10
0.0
 20
0.0
 30
0.0
  9
$UCSORGBACK
 10
0.0
 20
0.0
 30
0.0
  9
$PUCSBASE
  2

  9
$PUCSNAME
  2

  9
$PUCSORG
 10
0.0
 20
0.0
 30
0.0
  9
$PUCSXDIR
 10
1.0
 20
0.0
 30
0.0
  9
$PUCSYDIR
 10
0.0
 20
1.0
 30
0.0
  9
$PUCSORTHOREF
  2

  9
$PUCSORTHOVIEW
 70
     0
  9
$PUCSORGTOP
 10
0.0
 20
0.0
 30
0.0
  9
$PUCSORGBOTTOM
 10
0.0
 20
0.0
 30
0.0
  9
$PUCSORGLEFT
 10
0.0
 20
0.0
 30
0.0
  9
$PUCSORGRIGHT
 10
0.0
 20
0.0
 30
0.0
  9
$PUCSORGFRONT
 10
0.0
 20
0.0
 30
0.0
  9
$PUCSORGBACK
 10
0.0
 20
0.0
 30
0.0
  9
$USERI1
 70
     0
  9
$USERI2
 70
     0
  9
$USERI3
 70
     0
  9
$USERI4
 70
     0
  9
$USERI5
 70
     0
  9
$USERR1
 40
0.0
  9
$USERR2
 40
0.0
  9
$USERR3
 40
0.0
  9
$USERR4
 40
0.0
  9
$USERR5
 40
0.0
  9
$WORLDVIEW
 70
     1
  9
$SHADEDGE
 70
     3
  9
$SHADEDIF
 70
    70
  9
$TILEMODE
 70
     1
  9
$MAXACTVP
 70
    64
  9
$PINSBASE
 10
0.0
 20
0.0
 30
0.0
  9
$PLIMCHECK
 70
     0
  9
$PEXTMIN
 10
1.000000000000000E+20
 20
1.000000000000000E+20
 30
1.000000000000000E+20
  9
$PEXTMAX
 10
-1.000000000000000E+20
 20
-1.000000000000000E+20
 30
-1.000000000000000E+20
  9
$PLIMMIN
 10
-3.17498779296875
 20
-3.174999952316283
  9
$PLIMMAX
 10
293.4970092773438
 20
206.692492723465
  9
$UNITMODE
 70
     0
  9
$VISRETAIN
 70
     1
  9
$PLINEGEN
 70
     0
  9
$PSLTSCALE
 70
     1
  9
$TREEDEPTH
 70
  3020
  9
$CMLSTYLE
  2
Standard
  9
$CMLJUST
 70
     0
  9
$CMLSCALE
 40
20.0
  9
$PROXYGRAPHICS
 70
     1
  9
$MEASUREMENT
 70
     1
  9
$CELWEIGHT
370
    -1
  9
$ENDCAPS
280
     0
  9
$JOINSTYLE
280
     0
  9
$LWDISPLAY
290
     1
  9
$INSUNITS
 70
     4
  9
$HYPERLINKBASE
  1

  9
$STYLESHEET
  1
MONOCHROME.CTB
  9
$XEDIT
290
     1
  9
$CEPSNTYPE
380
     0
  9
$PSTYLEMODE
290
     1
  9
$FINGERPRINTGUID
  2
{E0FB5660-30B4-4D8A-8C1D-9D7E99D72F0A}
  9
$VERSIONGUID
  2
{BCFA861E-DD6B-4398-89D1-509201A1F598}
  9
$EXTNAMES
290
     1
  9
$PSVPSCALE
 40
0.0
  9
$OLESTARTUP
290
     0
  0
ENDSEC
  0
SECTION
  2
CLASSES
  0
CLASS
  1
ACDBDICTIONARYWDFLT
  2
AcDbDictionaryWithDefault
  3
ObjectDBX Classes
 90
        0
280
     0
281
     0
  0
CLASS
  1
ACDBPLACEHOLDER
  2
AcDbPlaceHolder
  3
ObjectDBX Classes
 90
        0
280
     0
281
     0
  0
CLASS
  1
LAYOUT
  2
AcDbLayout
  3
ObjectDBX Classes
 90
        0
280
     0
281
     0
  0
CLASS
  1
AMGSETTINGSOBJ
  2
AmgSettingsObj
  3
"AcadM|Product Description: AutoCAD Mechanical|Company: Autodesk"
 90
        0
280
     0
281
     0
  0
CLASS
  1
ACME_DOCUMENT
  2
AcMeDbDoc
  3
AcMeServices
 90
        0
280
     0
281
     0
  0
CLASS
  1
ACMESCOPE
  2
AcMeScope
  3
AcMeServices
 90
        0
280
     0
281
     0
  0
CLASS
  1
ACMECOMMANDHISTORY
  2
AcMeCommandHistory
  3
AcMeServices
 90
        0
280
     0
281
     0
  0
CLASS
  1
DICTIONARYVAR
  2
AcDbDictionaryVar
  3
ObjectDBX Classes
 90
        0
280
     0
281
     0
  0
CLASS
  1
ACIMSYSVARMAN
  2
AcImSysVarManager
  3
AcMeServices
 90
        0
280
     0
281
     0
  0
CLASS
  1
ACIMREALSYSVAR
  2
AcImRealSysVar
  3
AcMeServices
 90
        0
280
     0
281
     0
  0
CLASS
  1
ACIMINTSYSVAR
  2
AcImIntSysVar
  3
AcMeServices
 90
        0
280
     0
281
     0
  0
CLASS
  1
ACMEDRAWINGMAN
  2
AcMeDrawingMan
  3
AcMeServices
 90
        0
280
     0
281
     0
  0
CLASS
  1
ACMEVIEW
  2
AcMeView
  3
AcMeServices
 90
        0
280
     0
281
     0
  0
CLASS
  1
ACDBENTITYCACHE
  2
AcMeEntityCache
  3
AcMeServices
 90
        0
280
     0
281
     0
  0
CLASS
  1
GSMANAGER
  2
AcMeGSManager
  3
AcMeServices
 90
        0
280
     0
281
     0
  0
CLASS
  1
AMDTINTERNALREACTOR
  2
AmdtInternalReactor
  3
AcMeServices
 90
        0
280
     0
281
     0
  0
CLASS
  1
ACMESTATEMGR
  2
AcMeStateMgr
  3
AcMeServices
 90
        0
280
     0
281
     0
  0
CLASS
  1
ACGREFMASTER
  2
AcGrefMaster
  3
AcAttribServices
 90
        0
280
     0
281
     0
  0
CLASS
  1
ACME_DATABASE
  2
AcMeDbDatabase
  3
AcMeServices
 90
        0
280
     0
281
     0
  0
CLASS
  1
ACRFINSADJUSTERMGR
  2
AcRfInsAdjusterMgr
  3
AcMeServices
 90
        0
280
     0
281
     0
  0
CLASS
  1
ACGREFACADMASTER
  2
AcGrefacadMaster
  3
AcGrefServices
 90
        0
280
     0
281
     0
  0
CLASS
  1
AMIMASTER
  2
AmiMaster
  3
AmiServices
 90
        0
280
     0
281
     0
  0
CLASS
  1
ACMDATADICTIONARY
  2
AcmDataDictionary
  3
"AcmSymBB|Product Description: AutoCAD Mechanical|Company: Autodesk"
 90
        0
280
     0
281
     0
  0
CLASS
  1
ACMDATAENTRYBLOCK
  2
AcmDataEntryBlock
  3
"AcmSymBB|Product Description: AutoCAD Mechanical|Company: Autodesk"
 90
    32768
280
     0
281
     0
  0
CLASS
  1
ACIMSTRSYSVAR
  2
AcImStrSysVar
  3
AcMeServices
 90
        0
280
     0
281
     0
  0
CLASS
  1
ACMSTANDARDISO
  2
AcmStandardISO
  3
"Amdt_StdImp|Product Description: AutoCAD Mechanical|Company: Autodesk"
 90
        0
280
     0
281
     0
  0
CLASS
  1
AMGOBJPROPCFG
  2
AmgObjPropCfg
  3
"AmgLay|Product Description: AutoCAD Mechanical|Company: Autodesk"
 90
        1
280
     0
281
     0
  0
CLASS
  1
AMDTEDGESTANDARDISO
  2
AmdtEdgeStdISO
  3
"Amdt_StdImp|Product Description: AutoCAD Mechanical|Company: Autodesk"
 90
    32768
280
     0
281
     0
  0
CLASS
  1
ACMSURFSTANDARDISO
  2
AcmSurfTextStdISO
  3
"Amdt_StdImp|Product Description: AutoCAD Mechanical|Company: Autodesk"
 90
        0
280
     0
281
     0
  0
CLASS
  1
ACMFCFSTANDARDISO
  2
AcmFCFStdISO
  3
"Amdt_StdImp|Product Description: AutoCAD Mechanical|Company: Autodesk"
 90
        0
280
     0
281
     0
  0
CLASS
  1
ACMWELDSTANDARDISO
  2
AcmWeldingStdISO
  3
"Amdt_StdImp|Product Description: AutoCAD Mechanical|Company: Autodesk"
 90
        0
280
     0
281
     0
  0
CLASS
  1
ACMIDSTANDARDISO
  2
AcmIdStdISO
  3
"Amdt_StdImp|Product Description: AutoCAD Mechanical|Company: Autodesk"
 90
        0
280
     0
281
     0
  0
CLASS
  1
ACMDATUMSTANDARDISO
  2
AcmDatumStdISO
  3
"Amdt_StdImp|Product Description: AutoCAD Mechanical|Company: Autodesk"
 90
        0
280
     0
281
     0
  0
CLASS
  1
ACMBOMSTANDARDISO
  2
AcmBOMStdISO
  3
"Amdt_StdImp|Product Description: AutoCAD Mechanical|Company: Autodesk"
 90
        0
280
     0
281
     0
  0
CLASS
  1
ACMDETAILSTANDARDISO
  2
AmdtDetailSymStdISO
  3
"Amdt_StdImp|Product Description: AutoCAD Mechanical|Company: Autodesk"
 90
        0
280
     0
281
     0
  0
CLASS
  1
ACMSECTIONSTANDARDISO
  2
AmdtSectionSymStdISO
  3
"Amdt_StdImp|Product Description: AutoCAD Mechanical|Company: Autodesk"
 90
        0
280
     0
281
     0
  0
CLASS
  1
ACMCENTERLINESTANDARDISO
  2
AmdtCenterLineStdISO
  3
"Amdt_StdImp|Product Description: AutoCAD Mechanical|Company: Autodesk"
 90
        0
280
     0
281
     0
  0
CLASS
  1
ACAMGLAYSTD
  2
AcAmgLayStd
  3
"AmgLay|Product Description: AutoCAD Mechanical|Company: Autodesk"
 90
        0
280
     0
281
     0
  0
CLASS
  1
ACAMGDIMSTD
  2
AcAmgDimStd
  3
"AmgDim|Product Description: AutoCAD Mechanical|Company: Autodesk"
 90
        0
280
     0
281
     0
  0
CLASS
  1
ACAMGTITLESTD
  2
AcAmgTitleStd
  3
"AmgTitle|Product Description: AutoCAD Mechanical|Company: Autodesk"
 90
        0
280
     0
281
     0
  0
CLASS
  1
ACAMGFILTERDAT
  2
AcAmgFilterDat
  3
"AcadM|Product Description: AutoCAD Mechanical|Company: Autodesk"
 90
    32768
280
     0
281
     0
  0
CLASS
  1
LAYER_INDEX
  2
AcDbLayerIndex
  3
ObjectDBX Classes
 90
    32768
280
     0
281
     0
  0
CLASS
  1
IDBUFFER
  2
AcDbIdBuffer
  3
ObjectDBX Classes
 90
    32768
280
     0
281
     0
  0
CLASS
  1
PLOTSETTINGS
  2
AcDbPlotSettings
  3
ObjectDBX Classes
 90
    32768
280
     0
281
     0
  0
CLASS
  1
AMDTFORMULAUPDATEDISPATCHER
  2
AmdtFormulaUpdateDispatcher
  3
AcMeServices
 90
    32768
280
     0
281
     0
  0
CLASS
  1
ACMSTANDARDANSI
  2
AcmStandardANSI
  3
"Amdt_StdImp|Product Description: AutoCAD Mechanical|Company: Autodesk"
 90
    32768
280
     0
281
     0
  0
CLASS
  1
ACMSURFSTANDARDANSI
  2
AcmSurfTextStdANSI
  3
"Amdt_StdImp|Product Description: AutoCAD Mechanical|Company: Autodesk"
 90
    32768
280
     0
281
     0
  0
CLASS
  1
ACMFCFSTANDARDANSI
  2
AcmFCFStdANSI
  3
"Amdt_StdImp|Product Description: AutoCAD Mechanical|Company: Autodesk"
 90
    32768
280
     0
281
     0
  0
CLASS
  1
ACMWELDSTANDARDANSI
  2
AcmWeldingStdANSI
  3
"Amdt_StdImp|Product Description: AutoCAD Mechanical|Company: Autodesk"
 90
    32768
280
     0
281
     0
  0
CLASS
  1
ACMIDSTANDARDANSI
  2
AcmIdStdANSI
  3
"Amdt_StdImp|Product Description: AutoCAD Mechanical|Company: Autodesk"
 90
    32768
280
     0
281
     0
  0
CLASS
  1
ACMDATUMSTANDARDANSI
  2
AcmDatumStdANSI
  3
"Amdt_StdImp|Product Description: AutoCAD Mechanical|Company: Autodesk"
 90
    32768
280
     0
281
     0
  0
CLASS
  1
ACMBOMSTANDARDANSI
  2
AcmBOMStdANSI
  3
"Amdt_StdImp|Product Description: AutoCAD Mechanical|Company: Autodesk"
 90
    32768
280
     0
281
     0
  0
CLASS
  1
ACMDETAILSTANDARDANSI
  2
AmdtDetailSymStdANSI
  3
"Amdt_StdImp|Product Description: AutoCAD Mechanical|Company: Autodesk"
 90
    32768
280
     0
281
     0
  0
CLASS
  1
ACMSECTIONSTANDARDANSI
  2
AmdtSectionSymStdANSI
  3
"Amdt_StdImp|Product Description: AutoCAD Mechanical|Company: Autodesk"
 90
    32768
280
     0
281
     0
  0
CLASS
  1
ACMCENTERLINESTANDARDANSI
  2
AmdtCenterLineStdANSI
  3
"Amdt_StdImp|Product Description: AutoCAD Mechanical|Company: Autodesk"
 90
    32768
280
     0
281
     0
  0
CLASS
  1
ACMBOM
  2
AcmBom
  3
"AcmSymBB|Product Description: AutoCAD Mechanical|Company: Autodesk"
 90
    32768
280
     0
281
     0
  0
CLASS
  1
ACMDATAENTRYPART
  2
AcmDataEntryPart
  3
"AcmSymBB|Product Description: AutoCAD Mechanical|Company: Autodesk"
 90
    32768
280
     0
281
     0
  0
CLASS
  1
ACMPARTREF
  2
AcmPartRef
  3
"AcmSymBB|Product Description: AutoCAD Mechanical|Company: Autodesk"
 90
    35839
280
     0
281
     1
  0
CLASS
  1
ACDBCIRCARCRES
  2
AcDbCircArcRes
  3
AcGrefServices
 90
    32768
280
     0
281
     0
  0
CLASS
  1
ACMBOMROW
  2
AcmBomRow
  3
"AcmSymBB|Product Description: AutoCAD Mechanical|Company: Autodesk"
 90
    32768
280
     0
281
     0
  0
CLASS
  1
ACMBALLOON
  2
AcmBalloon
  3
"AcmSymBB|Product Description: AutoCAD Mechanical|Company: Autodesk"
 90
    35839
280
     0
281
     1
  0
CLASS
  1
AMDTNOTE
  2
AmdtNote
  3
"AcmSymBB|Product Description: AutoCAD Mechanical|Company: Autodesk"
 90
    35839
280
     0
281
     1
  0
CLASS
  1
STDPART2D
  2
AmgStdPart
  3
"g3vace|Class: AmgStdPart|Product Description: AutoCAD Mechanical|Company: Autodesk"
 90
    35839
280
     0
281
     1
  0
CLASS
  1
ACDBSTDPARTRES_LINE
  2
AcDbStdPartRes_Line
  3
"g3vace|Class: AcDbStdPartRes_Line|Product Description: AutoCAD Mechanical|Company: Autodesk"
 90
    32768
280
     0
281
     0
  0
CLASS
  1
ACMDATAENTRY
  2
AcmDataEntry
  3
"AcmSymBB|Product Description: AutoCAD Mechanical|Company: Autodesk"
 90
    32768
280
     0
281
     0
  0
CLASS
  1
ACDBOPPOLYLINERES
  2
AcDbOpPolylineRes
  3
AcGrefServices
 90
    32768
280
     0
281
     0
  0
CLASS
  1
ACMPARTLIST
  2
AcmPartList
  3
"AcmSymBB|Product Description: AutoCAD Mechanical|Company: Autodesk"
 90
    35839
280
     0
281
     1
  0
CLASS
  1
ACDBLINERES
  2
AcDbLineRes
  3
AcGrefServices
 90
    32768
280
     0
281
     0
  0
CLASS
  1
ACRFINSADJ
  2
AcRfInsAdjuster
  3
AcMeServices
 90
    32768
280
     0
281
     0
  0
CLASS
  1
AM_DRAWING_MGR
  2
AcDmDwgMgr
  3
AcMechDwgViewMgmt
 90
        0
280
     0
281
     0
  0
CLASS
  1
AM_DWG_DOCUMENT
  2
AcDmDwgDocument
  3
AcMechDwgViewMgmt
 90
        0
280
     0
281
     0
  0
CLASS
  1
AM_DWG_SHEET
  2
AcDmSheet
  3
AcMechDwgViewMgmt
 90
        0
280
     0
281
     0
  0
CLASS
  1
AM_VIEWDIMPARMAP
  2
AcDmViewDimParMap
  3
AcMechDwgViewMgmt
 90
        0
280
     0
281
     0
  0
CLASS
  1
AM_DWGMGR_NAME
  2
AcDmDwgMgrName
  3
AcMechDwgViewMgmt
 90
        0
280
     0
281
     0
  0
CLASS
  1
AMDTMENUSTATEMGR
  2
AmdtMenuStateMgr
  3
McadcomServices
 90
        0
280
     0
281
     0
  0
CLASS
  1
AMDTMCOMMENUSTATE
  2
AmdtMcomMenuState
  3
McadcomServices
 90
        0
280
     0
281
     0
  0
CLASS
  1
ASAPP
  2
AcAsAppObject
  3
AutoSurfServices
 90
        0
280
     0
281
     0
  0
CLASS
  1
IM_STATIC_MAN
  2
AcImStaticVarManager
  3
AcMeServices
 90
    32768
280
     0
281
     0
  0
CLASS
  1
ACIMDBLSTATICVAR
  2
AcImDblStaticVar
  3
AcMeServices
 90
    32768
280
     0
281
     0
  0
CLASS
  1
ACIMSTRSTATICVAR
  2
AcImStrStaticVar
  3
AcMeServices
 90
    32768
280
     0
281
     0
  0
CLASS
  1
ACIMINTSTATICVAR
  2
AcImIntStaticVar
  3
AcMeServices
 90
    32768
280
     0
281
     0
  0
CLASS
  1
ACASGREFMASTER
  2
AcAsGrefMaster
  3
AutoSurfResolverServices
 90
        0
280
     0
281
     0
  0
CLASS
  1
ACADGREFMODULE
  2
AcAdGrefModule
  3
AdGrefServices
 90
        0
280
     0
281
     0
  0
CLASS
  1
AMDTMAPISURFMOUDULE
  2
AmdtMApiSurfModule
  3
MApiSurfServices
 90
        0
280
     0
281
     0
  0
CLASS
  1
MAPIAMMOUDLE
  2
MApiAmModule
  3
MApiAmServices
 90
        0
280
     0
281
     0
  0
CLASS
  1
AMDTADMENUSTATE
  2
AmdtAdMenuState
  3
DesignerServices
 90
        0
280
     0
281
     0
  0
CLASS
  1
ADAPPL
  2
AcAdAppl
  3
DesignerServices
 90
        0
280
     0
281
     0
  0
CLASS
  1
DEPMGR
  2
AcAdDepMgr
  3
DesignerServices
 90
        0
280
     0
281
     0
  0
CLASS
  1
PARAMMGR
  2
AcAdParamMgr
  3
DesignerServices
 90
        0
280
     0
281
     0
  0
CLASS
  1
PARAMSCOPE
  2
AcAdParamScope
  3
DesignerServices
 90
        0
280
     0
281
     0
  0
CLASS
  1
NAMEDAPPL
  2
AcAdNamedAppl
  3
DesignerServices
 90
        0
280
     0
281
     0
  0
CLASS
  1
ADHNTMPLT
  2
AdHoleNoteTemplateMgr
  3
DesignerServices
 90
    32768
280
     0
281
     0
  0
CLASS
  1
AM_HNTEMPLATE_MGR_NAME
  2
AdHoleNoteTemplateMgrName
  3
DesignerServices
 90
    32768
280
     0
281
     0
  0
CLASS
  1
AMDTDMMENUSTATE
  2
AmdtDmMenuState
  3
AcMechDwgViewMgmt
 90
        0
280
     0
281
     0
  0
CLASS
  1
MAPIADMODULE
  2
MApiAdModule
  3
MApiAdServices
 90
        0
280
     0
281
     0
  0
CLASS
  1
AMDTAMMENUSTATE
  2
AmdtAmMenuState
  3
DesignerAssemblies
 90
        0
280
     0
281
     0
  0
CLASS
  1
ACAMPROJECT
  2
AcAmProject
  3
DesignerAssemblies
 90
        0
280
     0
281
     0
  0
CLASS
  1
ACAMGRCOMPDEF
  2
AcAmGrCompDef
  3
DesignerAssemblies
 90
        0
280
     0
281
     0
  0
CLASS
  1
ACCMCONTEXT
  2
AcCmContext
  3
DesignerAssemblies
 90
        0
280
     0
281
     0
  0
CLASS
  1
ACAMCOMPDEF
  2
AcAmCompDef
  3
DesignerAssemblies
 90
        0
280
     0
281
     0
  0
CLASS
  1
ACAMCOMPDEFMGR
  2
AcAmCompDefMgr
  3
DesignerAssemblies
 90
        0
280
     0
281
     0
  0
CLASS
  1
AMCONTEXTMGR
  2
AcAmContextMgr
  3
DesignerAssemblies
 90
        0
280
     0
281
     0
  0
CLASS
  1
ACAMCONTEXTMODELER
  2
AcAmContextModeler
  3
DesignerAssemblies
 90
        0
280
     0
281
     0
  0
CLASS
  1
CATALOGSTATE
  2
AcAmCatalogState
  3
DesignerAssemblies
 90
        0
280
     0
281
     0
  0
CLASS
  1
ACAMGRCOMPDEFSET
  2
AcAmGrCompDefSet
  3
DesignerAssemblies
 90
        0
280
     0
281
     0
  0
CLASS
  1
AMDTBROWSERDBTAB
  2
AmdtBrowserDbTab
  3
McadcomServices
 90
        0
280
     0
281
     0
  0
CLASS
  1
CBROWSERAPPOBJECT
  2
CBrowserAppObject
  3
McadcomServices
 90
        0
280
     0
281
     0
  0
CLASS
  1
DM_PLACEHOLDER
  2
AcDmSelsetPlaceholder
  3
AcMechDwgViewMgmt
 90
        0
280
     0
281
     0
  0
CLASS
  1
ACMPICKOBJ
  2
AcmPickEnt
  3
"AcmSymBB|Product Description: AutoCAD Mechanical|Company: Autodesk"
 90
    32768
280
     0
281
     1
  0
CLASS
  1
ACMNOTESTANDARDISO
  2
AmdtNoteStdISO
  3
"Amdt_StdImp|Product Description: AutoCAD Mechanical|Company: Autodesk"
 90
        0
280
     0
281
     0
  0
CLASS
  1
ACMNOTESTANDARDANSI
  2
AmdtNoteStdANSI
  3
"Amdt_StdImp|Product Description: AutoCAD Mechanical|Company: Autodesk"
 90
    32768
280
     0
281
     0
  0
CLASS
  1
ACMTHREADLINESTANDARDISO
  2
AmdtThreadLineStdISO
  3
"Amdt_StdImp|Product Description: AutoCAD Mechanical|Company: Autodesk"
 90
        0
280
     0
281
     0
  0
CLASS
  1
ACMTHREADLINESTANDARDANSI
  2
AmdtThreadLineStdANSI
  3
"Amdt_StdImp|Product Description: AutoCAD Mechanical|Company: Autodesk"
 90
    32768
280
     0
281
     0
  0
CLASS
  1
TABLESTYLE
  2
AcDbTableStyle
  3
ObjectDBX Classes
 90
     4095
280
     0
281
     0
  0
CLASS
  1
SORTENTSTABLE
  2
AcDbSortentsTable
  3
ObjectDBX Classes
 90
        0
280
     0
281
     0
  0
CLASS
  1
MATERIAL
  2
AcDbMaterial
  3
ObjectDBX Classes
 90
     1024
280
     0
281
     0
  0
CLASS
  1
VISUALSTYLE
  2
AcDbVisualStyle
  3
ObjectDBX Classes
 90
     4095
280
     0
281
     0
  0
CLASS
  1
ACRFATTGENMGR
  2
AcRfAttGeneralMgr
  3
AcAttribServices
 90
    32768
280
     0
281
     0
  0
CLASS
  1
ACRFOBJATTMGR
  2
AcRfObjAttGroupMgr
  3
AcAttribServices
 90
    32768
280
     0
281
     0
  0
CLASS
  1
ACRFMCADAPIATTHOLDER
  2
AcRfMCADAPIAttHolder
  3
AcAttribServices
 90
    32768
280
     0
281
     0
  0
CLASS
  1
AMDTSYSATTR
  2
AmdtSystemAttribute
  3
AcAttribServices
 90
    32768
280
     0
281
     0
  0
CLASS
  1
ACMTAPERSTANDARDISO
  2
AcmTaperStdISO
  3
"Amdt_StdImp|Product Description: AutoCAD Mechanical|Company: Autodesk"
 90
        0
280
     0
281
     0
  0
CLASS
  1
CAMSSTRUCTBTNSTATE
  2
StructBtnState
  3
L"DesignerAssemblies"
 90
    32768
280
     0
281
     0
  0
CLASS
  1
DIMASSOC
  2
AcDbDimAssoc
  3
"AcDbDimAssoc|Product Desc:     AcDim ARX App For Dimension|Company:          Autodesk, Inc.|WEB Address:      www.autodesk.com"
 90
    32768
280
     0
281
     0
  0
CLASS
  1
AMDTNOTETEMPLATEDB
  2
AmdtNoteTemplateDB
  3
AMDT_STDIMP_MODULE_NAME
 90
        0
280
     0
281
     0
  0
CLASS
  1
ACMTAPERSTANDARDANSI
  2
AcmTaperStdANSI
  3
"Amdt_StdImp|Product Description: AutoCAD Mechanical|Company: Autodesk"
 90
    32768
280
     0
281
     0
  0
CLASS
  1
ACAMGHOLECHARTSTDANSI
  2
AcAmgHoleChartStdANSI
  3
ACMSYMBB_MODULE_NAME
 90
    32768
280
     0
281
     0
  0
CLASS
  1
AMDTACMWBLOCKBOMENTITY
  2
AmdtAcmWblockBomEntity
  3
"AcmSymBB|Product Description: AutoCAD Mechanical|Company: Autodesk"
 90
     3071
280
     0
281
     1
  0
CLASS
  1
EXACXREFPANELOBJECT
  2
ExAcXREFPanelObject
  3
EXAC_ESW
 90
    33793
280
     0
281
     0
  0
CLASS
  1
NPOCOLLECTION
  2
AcDbImpNonPersistentObjectsCollection
  3
ObjectDBX Classes
 90
    33921
280
     0
281
     0
  0
CLASS
  1
LARGE_RADIAL_DIMENSION
  2
AcDbRadialDimensionLarge
  3
ObjectDBX Classes
 90
    33793
280
     0
281
     1
  0
CLASS
  1
AMDTEDGESTANDARDISO13715
  2
AmdtEdgeStdISO13715
  3
"Amdt_StdImp|Product Description: AutoCAD Mechanical|Company: Autodesk"
 90
        0
280
     0
281
     0
  0
CLASS
  1
ACAMGHOLECHARTSTDISO
  2
AcAmgHoleChartStdISO
  3
ACMSYMBB_MODULE_NAME
 90
        0
280
     0
281
     0
  0
ENDSEC
  0
SECTION
  2
TABLES
  0
TABLE
  2
VPORT
  5
8
102
{ACAD_XDICTIONARY
360
5283C
102
}
330
0
100
AcDbSymbolTable
 70
     1
  0
VPORT
  5
B0EC
330
8
100
AcDbSymbolTableRecord
100
AcDbViewportTableRecord
  2
*Active
 70
     0
 10
0.0
 20
0.0
 11
1.0
 21
1.0
 12
5061.531144633588
 22
-2514.562512233446
 13
0.0
 23
0.0
 14
2.5
 24
2.5
 15
10.0
 25
10.0
 16
0.0
 26
0.0
 36
1.0
 17
0.0
 27
0.0
 37
0.0
 40
228.2854380070094
 41
2.04325699745547
 42
50.0
 43
-1370.695619172058
 44
-1370.695619172058
 50
0.0
 51
0.0
 71
     0
 72
   100
 73
     1
 74
     3
 75
     0
 76
     0
 77
     0
 78
     0
281
     0
 65
     0
110
0.0
120
0.0
130
0.0
111
1.0
121
0.0
131
0.0
112
0.0
122
1.0
132
0.0
 79
     0
146
0.0
  0
ENDTAB
  0
TABLE
  2
LTYPE
  5
5
330
0
100
AcDbSymbolTable
 70
    34
  0
LTYPE
  5
14
330
5
100
AcDbSymbolTableRecord
100
AcDbLinetypeTableRecord
  2
ByBlock
 70
     0
  3

 72
    65
 73
     0
 40
0.0
  0
LTYPE
  5
15
330
5
100
AcDbSymbolTableRecord
100
AcDbLinetypeTableRecord
  2
ByLayer
 70
     0
  3

 72
    65
 73
     0
 40
0.0
  0
LTYPE
  5
16
330
5
100
AcDbSymbolTableRecord
100
AcDbLinetypeTableRecord
  2
Continuous
 70
     0
  3
Solid line
 72
    65
 73
     0
 40
0.0
  0
LTYPE
  5
4F
330
5
100
AcDbSymbolTableRecord
100
AcDbLinetypeTableRecord
  2
AM_ISO02W050
 70
     0
  3
__ __ __ __ __ __ __ __ __ __ __ __ __ __ __
 72
    65
 73
     2
 40
7.5
 49
6.0
 74
     0
 49
-1.5
 74
     0
  0
LTYPE
  5
52
330
5
100
AcDbSymbolTableRecord
100
AcDbLinetypeTableRecord
  2
Amconstr
 70
     0
  3
_______________________
 72
    65
 73
     2
 40
9999.0
 49
9999.0
 74
     0
 49
0.0
 74
     0
  0
LTYPE
  5
64
330
5
100
AcDbSymbolTableRecord
100
AcDbLinetypeTableRecord
  2
ACISOWELD
 70
     0
  3
_ _ _ _ _
 72
    65
 73
     2
 40
2.0
 49
2.0
 74
     0
 49
-1.0
 74
     0
  0
LTYPE
  5
65
330
5
100
AcDbSymbolTableRecord
100
AcDbLinetypeTableRecord
  2
ACISOTGB
 70
     0
  3
__ . . __ . .
 72
    65
 73
     6
 40
9.0
 49
4.0
 74
     0
 49
-1.0
 74
     0
 49
1.0
 74
     0
 49
-1.0
 74
     0
 49
1.0
 74
     0
 49
-1.0
 74
     0
  0
LTYPE
  5
66
330
5
100
AcDbSymbolTableRecord
100
AcDbLinetypeTableRecord
  2
ACISOTGL
 70
     0
  3
_ _ _ _ _
 72
    65
 73
     2
 40
3.0
 49
2.0
 74
     0
 49
-1.0
 74
     0
  0
LTYPE
  5
69
330
5
100
AcDbSymbolTableRecord
100
AcDbLinetypeTableRecord
  2
CENTER
 70
     0
  3
__ . __
 72
    65
 73
     4
 40
7.0
 49
4.0
 74
     0
 49
-1.0
 74
     0
 49
1.0
 74
     0
 49
-1.0
 74
     0
  0
LTYPE
  5
A6E
330
5
100
AcDbSymbolTableRecord
100
AcDbLinetypeTableRecord
  2
PHANTOM2
 70
     0
  3
Phantom (.5x) ___ _ _ ___ _ _ ___ _ _ ___ _ _
 72
    65
 73
     6
 40
31.75
 49
15.875
 74
     0
 49
-3.174999999999998
 74
     0
 49
3.174999999999998
 74
     0
 49
-3.174999999999998
 74
     0
 49
3.174999999999998
 74
     0
 49
-3.174999999999998
 74
     0
  0
LTYPE
  5
4DED
330
5
100
AcDbSymbolTableRecord
100
AcDbLinetypeTableRecord
  2
中線
 70
     0
  3
___________________
 72
    65
 73
     2
 40
2.0
 49
1.0
 74
     0
 49
1.0
 74
     0
  0
LTYPE
  5
4DF6
330
5
100
AcDbSymbolTableRecord
100
AcDbLinetypeTableRecord
  2
細線
 70
     0
  3
___________________
 72
    65
 73
     2
 40
2.0
 49
1.0
 74
     0
 49
1.0
 74
     0
  0
LTYPE
  5
4DF7
330
5
100
AcDbSymbolTableRecord
100
AcDbLinetypeTableRecord
  2
太線
 70
     0
  3
___________________
 72
    65
 73
     2
 40
2.0
 49
1.0
 74
     0
 49
1.0
 74
     0
  0
LTYPE
  5
4EA7
330
5
100
AcDbSymbolTableRecord
100
AcDbLinetypeTableRecord
  2
文字
 70
     0
  3
_________________
 72
    65
 73
     2
 40
2.0
 49
1.0
 74
     0
 49
1.0
 74
     0
  0
LTYPE
  5
4EA9
330
5
100
AcDbSymbolTableRecord
100
AcDbLinetypeTableRecord
  2
寸法線
 70
     0
  3
________________
 72
    65
 73
     2
 40
2.0
 49
1.0
 74
     0
 49
1.0
 74
     0
  0
LTYPE
  5
4F12
330
5
100
AcDbSymbolTableRecord
100
AcDbLinetypeTableRecord
  2
ハッチング
 70
     0
  3
_________________
 72
    65
 73
     2
 40
2.0
 49
1.0
 74
     0
 49
1.0
 74
     0
  0
LTYPE
  5
5180
330
5
100
AcDbSymbolTableRecord
100
AcDbLinetypeTableRecord
  2
陰線1
 70
     0
  3
__ __ __ __
 72
    65
 73
     2
 40
4.0
 49
2.2
 74
     0
 49
-1.8
 74
     0
  0
LTYPE
  5
5182
330
5
100
AcDbSymbolTableRecord
100
AcDbLinetypeTableRecord
  2
切断線
 70
     0
  3
/\/-/\/-/\/-/\/-/\/-/\/
 72
    65
 73
     2
 40
11.0001
 49
0.0001
 74
     4
 75
   135
340
56
 46
0.04
 50
0.0
 44
0.0
 45
0.0
 49
-11.0
 74
     0
  0
LTYPE
  5
5183
330
5
100
AcDbSymbolTableRecord
100
AcDbLinetypeTableRecord
  2
想像線1
 70
     0
  3
__ __ __ _____ __ __ ____
 72
    65
 73
     6
 40
14.5
 49
6.0
 74
     0
 49
-1.5
 74
     0
 49
2.0
 74
     0
 49
-1.5
 74
     0
 49
2.0
 74
     0
 49
-1.5
 74
     0
  0
LTYPE
  5
5185
330
5
100
AcDbSymbolTableRecord
100
AcDbLinetypeTableRecord
  2
中心線1
 70
     0
  3
___ _ ___ _ ___
 72
    65
 73
     4
 40
18.0
 49
12.0
 74
     0
 49
-2.0
 74
     0
 49
2.0
 74
     0
 49
-2.0
 74
     0
  0
LTYPE
  5
5188
330
5
100
AcDbSymbolTableRecord
100
AcDbLinetypeTableRecord
  2
補助線
 70
     0
  3
______________
 72
    65
 73
     2
 40
2.0
 49
1.0
 74
     0
 49
1.0
 74
     0
  0
LTYPE
  5
6427
330
5
100
AcDbSymbolTableRecord
100
AcDbLinetypeTableRecord
  2
HIDDEN
 70
     0
  3
Hidden __ __ __ __ __ __ __ __ __ __ __ __ __ _
 72
    65
 73
     2
 40
0.375
 49
0.25
 74
     0
 49
-0.125
 74
     0
  0
LTYPE
  5
AC81
330
5
100
AcDbSymbolTableRecord
100
AcDbLinetypeTableRecord
  2
破断線
 70
     0
  3
/\/-/\/-/\/-/\/-/\/-/\/
 72
    65
 73
     2
 40
0.4401
 49
0.0001
 74
     4
 75
   136
340
AC80
 46
0.0016
 50
0.0
 44
0.0
 45
0.0
 49
-0.4400000000000002
 74
     0
  0
LTYPE
  5
AC9E
330
5
100
AcDbSymbolTableRecord
100
AcDbLinetypeTableRecord
  2
Amzigzag
 70
     0
  3
/\/-/\/-/\/-/\/-/\/-/\/
 72
    65
 73
     2
 40
11.0001
 49
0.0001
 74
     4
 75
   135
340
56
 46
0.04
 50
0.0
 44
0.0
 45
0.0
 49
-11.0
 74
     0
  0
LTYPE
  5
AF0F
330
5
100
AcDbSymbolTableRecord
100
AcDbLinetypeTableRecord
  2
genzigzag
 70
     0
  3
/\/-/\/-/\/-/\/-/\/-/\/
 72
    65
 73
     2
 40
12.0001
 49
0.0001
 74
     4
 75
   135
340
AC80
 46
2.0
 50
0.0
 44
0.0
 45
0.0
 49
-12.0
 74
     0
  0
LTYPE
  5
AF95
330
5
100
AcDbSymbolTableRecord
100
AcDbLinetypeTableRecord
  2
AM_ISO08W050
 70
     0
  3
____ . ____ . ____ . ____ . ____ . ____ . ____
 72
    65
 73
     4
 40
18.0
 49
12.0
 74
     0
 49
-1.5
 74
     0
 49
3.0
 74
     0
 49
-1.5
 74
     0
  0
LTYPE
  5
AF96
330
5
100
AcDbSymbolTableRecord
100
AcDbLinetypeTableRecord
  2
AM_ISO09W050
 70
     0
  3
_____ . . _____ . . _____ . . ____ .. ____
 72
    65
 73
     6
 40
22.5
 49
12.0
 74
     0
 49
-1.5
 74
     0
 49
3.0
 74
     0
 49
-1.5
 74
     0
 49
3.0
 74
     0
 49
-1.5
 74
     0
  0
LTYPE
  5
AF97
330
5
100
AcDbSymbolTableRecord
100
AcDbLinetypeTableRecord
  2
AM_ISO08W050x2
 70
     0
  3
__ . __ . __ . __ . __ . __
 72
    65
 73
     4
 40
9.0
 49
6.0
 74
     0
 49
-0.75
 74
     0
 49
1.5
 74
     0
 49
-0.75
 74
     0
  0
LTYPE
  5
AF98
330
5
100
AcDbSymbolTableRecord
100
AcDbLinetypeTableRecord
  2
AM_ISO02W050x2
 70
     0
  3
 _ _ _ _ _ _ _ _ _ _ _ _
 72
    65
 73
     2
 40
3.75
 49
3.0
 74
     0
 49
-0.75
 74
     0
  0
LTYPE
  5
1D53A
330
5
100
AcDbSymbolTableRecord
100
AcDbLinetypeTableRecord
  2
DASHED
 70
     0
  3
__ __ __ __ __ __ __ __ __ __ __ __ __ __ __
 72
    65
 73
     2
 40
3.5
 49
2.0
 74
     0
 49
-1.5
 74
     0
  0
LTYPE
  5
1D53B
330
5
100
AcDbSymbolTableRecord
100
AcDbLinetypeTableRecord
  2
CENTER2
 70
     0
  3
Center (.5x) ___ _ ___ _ ___ _ ___ _ ___ _ ___
 72
    65
 73
     4
 40
1.125
 49
0.75
 74
     0
 49
-0.125
 74
     0
 49
0.125
 74
     0
 49
-0.125
 74
     0
  0
LTYPE
  5
1D53C
330
5
100
AcDbSymbolTableRecord
100
AcDbLinetypeTableRecord
  2
HIDDEN2
 70
     0
  3
Hidden (.5x) _ _ _ _ _ _ _ _ _ _ _ _ _ _ _ _ _
 72
    65
 73
     2
 40
0.1875
 49
0.125
 74
     0
 49
-0.0625
 74
     0
  0
LTYPE
  5
1D53D
330
5
100
AcDbSymbolTableRecord
100
AcDbLinetypeTableRecord
  2
Amzigzag2
 70
     0
  3
/\/-/\/-/\/-/\/-/\/-/\/
 72
    65
 73
     2
 40
0.4401
 49
0.0001
 74
     4
 75
   136
340
AC80
 46
0.0016
 50
0.0
 44
0.0
 45
0.0
 49
-0.4400000000000002
 74
     0
  0
LTYPE
  5
1D53E
330
5
100
AcDbSymbolTableRecord
100
AcDbLinetypeTableRecord
  2
ACANSTGB
 70
     0
  3
__ . . __ . .
 72
    65
 73
     6
 40
0.35433070866
 49
0.15748031496
 74
     0
 49
-0.03937007874
 74
     0
 49
0.03937007874
 74
     0
 49
-0.03937007874
 74
     0
 49
0.03937007874
 74
     0
 49
-0.03937007874
 74
     0
  0
LTYPE
  5
1D53F
330
5
100
AcDbSymbolTableRecord
100
AcDbLinetypeTableRecord
  2
ACANSTGL
 70
     0
  3
_ _ _ _ _
 72
    65
 73
     2
 40
0.11811023622
 49
0.07874015748
 74
     0
 49
-0.03937007874
 74
     0
  0
LTYPE
  5
3215C
330
5
100
AcDbSymbolTableRecord
100
AcDbLinetypeTableRecord
  2
PHANTOM
 70
     0
  3
_____ _ _ _____ _ _ _____ _ _ _____ _ _ ____  
 72
    65
 73
     6
 40
15.5
 49
8.0
 74
     0
 49
-1.5
 74
     0
 49
1.5
 74
     0
 49
-1.5
 74
     0
 49
1.5
 74
     0
 49
-1.5
 74
     0
  0
ENDTAB
  0
TABLE
  2
LAYER
  5
2
102
{ACAD_XDICTIONARY
360
3F95
102
}
330
0
100
AcDbSymbolTable
 70
    24
  0
LAYER
  5
10
330
2
100
AcDbSymbolTableRecord
100
AcDbLayerTableRecord
  2
0
 70
     0
 62
     7
  6
Continuous
370
    -3
390
F
  0
LAYER
  5
6D1
330
2
100
AcDbSymbolTableRecord
100
AcDbLayerTableRecord
  2
Defpoints
 70
     0
 62
     7
  6
Continuous
290
     0
370
    -3
390
F
  0
LAYER
  5
5F85
330
2
100
AcDbSymbolTableRecord
100
AcDbLayerTableRecord
  2
AM_0
 70
     0
 62
     7
  6
中線
370
    30
390
F
1001
AcAecLayerStandard
1000

1000

  0
LAYER
  5
AC9F
330
2
100
AcDbSymbolTableRecord
100
AcDbLayerTableRecord
  2
size
 70
     0
 62
     5
  6
Continuous
290
     0
370
    25
390
F
  0
LAYER
  5
ACA0
330
2
100
AcDbSymbolTableRecord
100
AcDbLayerTableRecord
  2
waku
 70
     0
 62
     7
  6
Continuous
370
    35
390
F
  0
LAYER
  5
ACA1
330
2
100
AcDbSymbolTableRecord
100
AcDbLayerTableRecord
  2
AM_6
 70
     0
 62
     2
  6
文字
370
    13
390
F
1001
AcAecLayerStandard
1000

1000

  0
LAYER
  5
ACC8
330
2
100
AcDbSymbolTableRecord
100
AcDbLayerTableRecord
  2
hyomoji
 70
     0
 62
     2
  6
Continuous
370
    13
390
F
  0
LAYER
  5
ACC9
330
2
100
AcDbSymbolTableRecord
100
AcDbLayerTableRecord
  2
hyosen1
 70
     0
 62
     1
  6
Continuous
370
    25
390
F
  0
LAYER
  5
ACCA
330
2
100
AcDbSymbolTableRecord
100
AcDbLayerTableRecord
  2
hyosen2
 70
     0
 62
     1
  6
Continuous
370
    13
390
F
  0
LAYER
  5
AD60
330
2
100
AcDbSymbolTableRecord
100
AcDbLayerTableRecord
  2
AM_1
 70
     0
 62
    30
  6
太線
370
    40
390
F
1001
AcAecLayerStandard
1000

1000

  0
LAYER
  5
AD64
330
2
100
AcDbSymbolTableRecord
100
AcDbLayerTableRecord
  2
AM_2
 70
     0
 62
     1
  6
細線
370
     9
390
F
1001
AcAecLayerStandard
1000

1000

  0
LAYER
  5
AD67
330
2
100
AcDbSymbolTableRecord
100
AcDbLayerTableRecord
  2
AM_3
 70
     0
 62
     6
  6
陰線1
370
     9
390
F
1001
AcAecLayerStandard
1000

1000

  0
LAYER
  5
AD68
330
2
100
AcDbSymbolTableRecord
100
AcDbLayerTableRecord
  2
AM_5
 70
     0
 62
     3
  6
寸法線
370
     9
390
F
1001
AcAecLayerStandard
1000

1000

  0
LAYER
  5
AD69
330
2
100
AcDbSymbolTableRecord
100
AcDbLayerTableRecord
  2
AM_7
 70
     0
 62
     4
  6
中心線1
370
     9
390
F
1001
AcAecLayerStandard
1000

1000

  0
LAYER
  5
AD6A
330
2
100
AcDbSymbolTableRecord
100
AcDbLayerTableRecord
  2
AM_8
 70
     0
 62
     1
  6
ハッチング
370
     9
390
F
1001
AcAecLayerStandard
1000

1000

  0
LAYER
  5
AD6E
330
2
100
AcDbSymbolTableRecord
100
AcDbLayerTableRecord
  2
AM_10
 70
     0
 62
     7
  6
切断線
370
    13
390
F
1001
AcAecLayerStandard
1000

1000

  0
LAYER
  5
AD6F
330
2
100
AcDbSymbolTableRecord
100
AcDbLayerTableRecord
  2
AM_11
 70
     0
 62
     2
  6
想像線1
370
     9
390
F
1001
AcAecLayerStandard
1000

1000

  0
LAYER
  5
B1B6
330
2
100
AcDbSymbolTableRecord
100
AcDbLayerTableRecord
  2
AM_CL
 70
     0
 62
     1
  6
Amconstr
370
    15
390
F
1001
AcAecLayerStandard
1000

1000

  0
LAYER
  5
B2EB
330
2
100
AcDbSymbolTableRecord
100
AcDbLayerTableRecord
  2
AM_14
 70
     0
 62
     5
  6
細線
370
     9
390
F
1001
AcAecLayerStandard
1000

1000

  0
LAYER
  5
B2EC
330
2
100
AcDbSymbolTableRecord
100
AcDbLayerTableRecord
  2
AM_15
 70
     0
 62
     6
  6
陰線1
370
     9
390
F
1001
AcAecLayerStandard
1000

1000

  0
LAYER
  5
CA46
330
2
100
AcDbSymbolTableRecord
100
AcDbLayerTableRecord
  2
001本体
 70
     0
 62
   121
  6
中線
370
    30
390
F
1001
AcAecLayerStandard
1000

1000

  0
LAYER
  5
EB4F
330
2
100
AcDbSymbolTableRecord
100
AcDbLayerTableRecord
  2
AM_4
 70
     0
 62
     3
  6
補助線
370
     9
390
F
1001
AcAecLayerStandard
1000

1000

  0
LAYER
  5
19759
330
2
100
AcDbSymbolTableRecord
100
AcDbLayerTableRecord
  2
000確認事項
 70
     0
 62
   130
  6
中線
370
    30
390
F
1001
AcAecLayerStandard
1000

1000

  0
LAYER
  5
1E1B6
330
2
100
AcDbSymbolTableRecord
100
AcDbLayerTableRecord
  2
AM_12
 70
     0
 62
     7
  6
Continuous
290
     0
370
    15
390
F
  0
ENDTAB
  0
TABLE
  2
STYLE
  5
3
330
0
100
AcDbSymbolTable
 70
    11
  0
STYLE
  5
11
330
3
100
AcDbSymbolTableRecord
100
AcDbTextStyleTableRecord
  2
STANDARD
 70
     0
 40
0.0
 41
0.7
 50
0.0
 71
     0
 42
3.5
  3
romans.shx
  4
extfont.shx
  0
STYLE
  5
56
330
3
100
AcDbSymbolTableRecord
100
AcDbTextStyleTableRecord
  2

 70
     1
 40
0.0
 41
1.0
 50
0.0
 71
     0
 42
2.5
  3
ltypeshp.shx
  4

  0
STYLE
  5
58
330
3
100
AcDbSymbolTableRecord
100
AcDbTextStyleTableRecord
  2
ACISOTS
 70
     0
 40
1.0
 41
1.0
 50
0.0
 71
     0
 42
2.5
  3
isocp.shx
  4
extfont.shx
  0
STYLE
  5
63
330
3
100
AcDbSymbolTableRecord
100
AcDbTextStyleTableRecord
  2
ACISOGDT
 70
     0
 40
0.0
 41
1.0
 50
0.0
 71
     0
 42
2.5
  3
amgdt.shx
  4

  0
STYLE
  5
A74
330
3
100
AcDbSymbolTableRecord
100
AcDbTextStyleTableRecord
  2
DIM
 70
     0
 40
0.0
 41
1.0
 50
0.0
 71
     0
 42
2.5
  3
monotxt.shx
  4
extfont.shx
  0
STYLE
  5
AC80
330
3
100
AcDbSymbolTableRecord
100
AcDbTextStyleTableRecord
  2

 70
     1
 40
0.0
 41
1.0
 50
0.0
 71
     0
 42
3.2
  3
genltshp.shx
  4

  0
STYLE
  5
CA48
330
3
100
AcDbSymbolTableRecord
100
AcDbTextStyleTableRecord
  2
横書き
 70
     0
 40
0.0
 41
1.0
 50
0.0
 71
     0
 42
3.5
  3
TXT.shx
  4
bigfont.shx
  0
STYLE
  5
CA49
330
3
100
AcDbSymbolTableRecord
100
AcDbTextStyleTableRecord
  2
横書き2
 70
     0
 40
0.0
 41
1.0
 50
0.0
 71
     0
 42
4.0
  3
TXT.shx
  4
extfont2.shx
  0
STYLE
  5
CA4A
330
3
100
AcDbSymbolTableRecord
100
AcDbTextStyleTableRecord
  2
明朝
 70
     0
 40
0.0
 41
1.0
 50
0.0
 71
     0
 42
3.0
  3
MS Mincho.ttf
  4

1001
ACAD
1000
MS Mincho
1071
    32785
  0
STYLE
  5
1D540
330
3
100
AcDbSymbolTableRecord
100
AcDbTextStyleTableRecord
  2
ACANSTS
 70
     0
 40
1.0
 41
1.0
 50
0.0
 71
     0
 42
3.2
  3
romans.shx
  4
extfont.shx
  0
STYLE
  5
1D541
330
3
100
AcDbSymbolTableRecord
100
AcDbTextStyleTableRecord
  2
ACANSGDT
 70
     0
 40
0.0
 41
1.0
 50
0.0
 71
     0
 42
3.2
  3
amgdt.shx
  4

  0
ENDTAB
  0
TABLE
  2
VIEW
  5
6
330
0
100
AcDbSymbolTable
 70
     6
  0
VIEW
  5
AE1
330
6
100
AcDbSymbolTableRecord
100
AcDbViewTableRecord
  2
AM_VIEW1
 70
     0
 40
148.5
 10
1876.338856879554
 20
-5865.134660833434
 41
282.4136094674557
 11
0.0
 21
0.0
 31
1.0
 12
0.0
 22
0.0
 32
0.0
 42
50.0
 43
-1370.695619172058
 44
-1370.695619172058
 50
0.0
 71
     0
281
     0
 72
     0
  0
VIEW
  5
AE2
330
6
100
AcDbSymbolTableRecord
100
AcDbViewTableRecord
  2
AM_VIEW2
 70
     0
 40
148.5
 10
2013.925247412098
 20
-5865.134660833434
 41
282.4136094674557
 11
0.0
 21
0.0
 31
1.0
 12
0.0
 22
0.0
 32
0.0
 42
50.0
 43
-1370.695619172058
 44
-1370.695619172058
 50
0.0
 71
     0
281
     0
 72
     0
  0
VIEW
  5
AE3
330
6
100
AcDbSymbolTableRecord
100
AcDbViewTableRecord
  2
AM_VIEW3
 70
     0
 40
148.5
 10
1876.338856879554
 20
-6013.634660833434
 41
282.4136094674557
 11
0.0
 21
0.0
 31
1.0
 12
0.0
 22
0.0
 32
0.0
 42
50.0
 43
-1370.695619172058
 44
-1370.695619172058
 50
0.0
 71
     0
281
     0
 72
     0
  0
VIEW
  5
AE4
330
6
100
AcDbSymbolTableRecord
100
AcDbViewTableRecord
  2
AM_VIEW4
 70
     0
 40
148.5
 10
2013.925247412098
 20
-6013.634660833434
 41
282.4136094674557
 11
0.0
 21
0.0
 31
1.0
 12
0.0
 22
0.0
 32
0.0
 42
50.0
 43
-1370.695619172058
 44
-1370.695619172058
 50
0.0
 71
     0
281
     0
 72
     0
  0
VIEW
  5
AE5
330
6
100
AcDbSymbolTableRecord
100
AcDbViewTableRecord
  2
AM_VIEW5
 70
     0
 40
148.5
 10
1945.132052145826
 20
-5939.384660833434
 41
282.4136094674557
 11
0.0
 21
0.0
 31
1.0
 12
0.0
 22
0.0
 32
0.0
 42
50.0
 43
-1370.695619172058
 44
-1370.695619172058
 50
0.0
 71
     0
281
     0
 72
     0
  0
VIEW
  5
AE6
330
6
100
AcDbSymbolTableRecord
100
AcDbViewTableRecord
  2
AM_VIEW6
 70
     0
 40
296.9970300000004
 10
1945.132052145826
 20
-5939.384660833434
 41
564.8215706627218
 11
0.0
 21
0.0
 31
1.0
 12
0.0
 22
0.0
 32
0.0
 42
50.0
 43
-1370.695619172058
 44
-1370.695619172058
 50
0.0
 71
     0
281
     0
 72
     0
  0
ENDTAB
  0
TABLE
  2
UCS
  5
7
330
0
100
AcDbSymbolTable
 70
     0
  0
ENDTAB
  0
TABLE
  2
APPID
  5
9
330
0
100
AcDbSymbolTable
 70
    60
  0
APPID
  5
12
330
9
100
AcDbSymbolTableRecord
100
AcDbRegAppTableRecord
  2
ACAD
 70
     0
  0
APPID
  5
30
330
9
100
AcDbSymbolTableRecord
100
AcDbRegAppTableRecord
  2
MCAD_NO_VIS
 70
     0
  0
APPID
  5
31
330
9
100
AcDbSymbolTableRecord
100
AcDbRegAppTableRecord
  2
ACAD_TEMP_GRAPHIC
 70
     0
  0
APPID
  5
44
330
9
100
AcDbSymbolTableRecord
100
AcDbRegAppTableRecord
  2
ACATTRIBSERVICES
 70
     0
  0
APPID
  5
7A1
330
9
100
AcDbSymbolTableRecord
100
AcDbRegAppTableRecord
  2
GENIUS_GENDIMSH_14
 70
     0
  0
APPID
  5
A49
330
9
100
AcDbSymbolTableRecord
100
AcDbRegAppTableRecord
  2
GENIUS_GENREC_14
 70
     0
  0
APPID
  5
A4A
330
9
100
AcDbSymbolTableRecord
100
AcDbRegAppTableRecord
  2
GENIUS_GENOBJ-N-REC_13
 70
     0
  0
APPID
  5
A4B
330
9
100
AcDbSymbolTableRecord
100
AcDbRegAppTableRecord
  2
GENIUS_GENODEF_13
 70
     0
  0
APPID
  5
A4C
330
9
100
AcDbSymbolTableRecord
100
AcDbRegAppTableRecord
  2
DCO15
 70
     0
  0
APPID
  5
ADC
330
9
100
AcDbSymbolTableRecord
100
AcDbRegAppTableRecord
  2
GENIUS_GENOLIS_13
 70
     0
  0
APPID
  5
ADD
330
9
100
AcDbSymbolTableRecord
100
AcDbRegAppTableRecord
  2
GENIUS_GENOENT_13
 70
     0
  0
APPID
  5
ADE
330
9
100
AcDbSymbolTableRecord
100
AcDbRegAppTableRecord
  2
GENIUS_GENOBJ-N-TIT_13
 70
     0
  0
APPID
  5
ADF
330
9
100
AcDbSymbolTableRecord
100
AcDbRegAppTableRecord
  2
GENIUS_GENTITLE_13
 70
     0
  0
APPID
  5
AE0
330
9
100
AcDbSymbolTableRecord
100
AcDbRegAppTableRecord
  2
GENIUS_GENOREF_13
 70
     0
  0
APPID
  5
AE7
330
9
100
AcDbSymbolTableRecord
100
AcDbRegAppTableRecord
  2
GENIUS_GENSCREG_15
 70
     0
  0
APPID
  5
AE8
330
9
100
AcDbSymbolTableRecord
100
AcDbRegAppTableRecord
  2
GENIUS_GENOBJ-N-SDF_13
 70
     0
  0
APPID
  5
FAF
330
9
100
AcDbSymbolTableRecord
100
AcDbRegAppTableRecord
  2
GENIUS_GENBLLY_14
 70
     0
  0
APPID
  5
FB0
330
9
100
AcDbSymbolTableRecord
100
AcDbRegAppTableRecord
  2
GENIUS_GENTRA_14
 70
     0
  0
APPID
  5
1285
330
9
100
AcDbSymbolTableRecord
100
AcDbRegAppTableRecord
  2
GENIUS_GENDTOL_13
 70
     0
  0
APPID
  5
142D
330
9
100
AcDbSymbolTableRecord
100
AcDbRegAppTableRecord
  2
GENIUS_GENOBJ-N-CEN_13
 70
     0
  0
APPID
  5
1AB5
330
9
100
AcDbSymbolTableRecord
100
AcDbRegAppTableRecord
  2
GENIUS_GENOBJ-N-CRS_13
 70
     0
  0
APPID
  5
1B36
330
9
100
AcDbSymbolTableRecord
100
AcDbRegAppTableRecord
  2
GENIUS_GENOBJ-N-HTC_13
 70
     0
  0
APPID
  5
1B37
330
9
100
AcDbSymbolTableRecord
100
AcDbRegAppTableRecord
  2
GENIUS_GENHATCH_13
 70
     0
  0
APPID
  5
216D
330
9
100
AcDbSymbolTableRecord
100
AcDbRegAppTableRecord
  2
GENIUS_GENOBJ-N-FIL_13
 70
     0
  0
APPID
  5
2356
330
9
100
AcDbSymbolTableRecord
100
AcDbRegAppTableRecord
  2
GEVID990412420
 70
     0
  0
APPID
  5
2357
330
9
100
AcDbSymbolTableRecord
100
AcDbRegAppTableRecord
  2
GEVDC
 70
     0
  0
APPID
  5
2358
330
9
100
AcDbSymbolTableRecord
100
AcDbRegAppTableRecord
  2
GEVCON
 70
     0
  0
APPID
  5
235B
330
9
100
AcDbSymbolTableRecord
100
AcDbRegAppTableRecord
  2
GEVRADREF
 70
     0
  0
APPID
  5
2360
330
9
100
AcDbSymbolTableRecord
100
AcDbRegAppTableRecord
  2
GENIUS_GENBH_13
 70
     0
  0
APPID
  5
2362
330
9
100
AcDbSymbolTableRecord
100
AcDbRegAppTableRecord
  2
GENIUS_GENOBJ-NBEHI-BHF_13
 70
     0
  0
APPID
  5
2364
330
9
100
AcDbSymbolTableRecord
100
AcDbRegAppTableRecord
  2
GENIUS_GENOBJ-NBEHI-BHB_13
 70
     0
  0
APPID
  5
2379
330
9
100
AcDbSymbolTableRecord
100
AcDbRegAppTableRecord
  2
GENIUS_GENOBJ-F-SCPASSM_13
 70
     0
  0
APPID
  5
3D74
330
9
100
AcDbSymbolTableRecord
100
AcDbRegAppTableRecord
  2
GENIUS_GENDIM_13
 70
     0
  0
APPID
  5
3D76
330
9
100
AcDbSymbolTableRecord
100
AcDbRegAppTableRecord
  2
GENIUS_GE3DTOL_13
 70
     0
  0
APPID
  5
3D9C
330
9
100
AcDbSymbolTableRecord
100
AcDbRegAppTableRecord
  2
AD_DRAW
 70
     0
  0
APPID
  5
3DE8
330
9
100
AcDbSymbolTableRecord
100
AcDbRegAppTableRecord
  2
ASURF_PCURVE_APPNAME
 70
     0
  0
APPID
  5
3DED
330
9
100
AcDbSymbolTableRecord
100
AcDbRegAppTableRecord
  2
AMG_3D2D_5.0
 70
     0
  0
APPID
  5
3E1B
330
9
100
AcDbSymbolTableRecord
100
AcDbRegAppTableRecord
  2
DESIGNERASSEMBLIES
 70
     0
  0
APPID
  5
3E20
330
9
100
AcDbSymbolTableRecord
100
AcDbRegAppTableRecord
  2
ACADM_DIM_EDIT
 70
     0
  0
APPID
  5
3E21
330
9
100
AcDbSymbolTableRecord
100
AcDbRegAppTableRecord
  2
AMDT_DM_ADJ
 70
     0
  0
APPID
  5
4143
330
9
100
AcDbSymbolTableRecord
100
AcDbRegAppTableRecord
  2
GENIUS_GENFIL_13
 70
     0
  0
APPID
  5
4144
330
9
100
AcDbSymbolTableRecord
100
AcDbRegAppTableRecord
  2
GENIUS_GENOBJ-N-CHA_13
 70
     0
  0
APPID
  5
4E17
330
9
100
AcDbSymbolTableRecord
100
AcDbRegAppTableRecord
  2
GEVID1008153417
 70
     0
  0
APPID
  5
4E58
330
9
100
AcDbSymbolTableRecord
100
AcDbRegAppTableRecord
  2
GEVID1008153418
 70
     0
  0
APPID
  5
4E5E
330
9
100
AcDbSymbolTableRecord
100
AcDbRegAppTableRecord
  2
GEVID1008153419
 70
     0
  0
APPID
  5
4E64
330
9
100
AcDbSymbolTableRecord
100
AcDbRegAppTableRecord
  2
GEVID1008153420
 70
     0
  0
APPID
  5
4E75
330
9
100
AcDbSymbolTableRecord
100
AcDbRegAppTableRecord
  2
GEVID1008153421
 70
     0
  0
APPID
  5
4EB7
330
9
100
AcDbSymbolTableRecord
100
AcDbRegAppTableRecord
  2
GENIUS_AMGTXT_16
 70
     0
  0
APPID
  5
7645
330
9
100
AcDbSymbolTableRecord
100
AcDbRegAppTableRecord
  2
GENIUS_GENOBJ-N-DIM_13
 70
     0
  0
APPID
  5
AAD0
330
9
100
AcDbSymbolTableRecord
100
AcDbRegAppTableRecord
  2
ACAD_DSTYLE_DIMARC_LENGTH_SYMBOL
 70
     0
  0
APPID
  5
AAD1
330
9
100
AcDbSymbolTableRecord
100
AcDbRegAppTableRecord
  2
ACAD_DSTYLE_DIMJOGGED_JOGANGLE_SYMBOL
 70
     0
  0
APPID
  5
AAFD
330
9
100
AcDbSymbolTableRecord
100
AcDbRegAppTableRecord
  2
ACAD_PSEXT
 70
     0
  0
APPID
  5
AD61
330
9
100
AcDbSymbolTableRecord
100
AcDbRegAppTableRecord
  2
AcAecLayerStandard
 70
     0
  0
APPID
  5
AEE3
330
9
100
AcDbSymbolTableRecord
100
AcDbRegAppTableRecord
  2
ACAD_EXEMPT_FROM_CAD_STANDARDS
 70
     0
  0
APPID
  5
B1BE
330
9
100
AcDbSymbolTableRecord
100
AcDbRegAppTableRecord
  2
GENIUS_GENCEN_19
 70
     0
  0
APPID
  5
B4DF
330
9
100
AcDbSymbolTableRecord
100
AcDbRegAppTableRecord
  2
ACAD_MLEADERVER
 70
     0
  0
APPID
  5
CA4C
330
9
100
AcDbSymbolTableRecord
100
AcDbRegAppTableRecord
  2
ACAD_DSTYLE_DIMRADIAL_EXTENSION
 70
     0
  0
APPID
  5
1ED6D
330
9
100
AcDbSymbolTableRecord
100
AcDbRegAppTableRecord
  2
ACAD_DSTYLE_DIMINSPECT
 70
     0
  0
APPID
  5
219D8
330
9
100
AcDbSymbolTableRecord
100
AcDbRegAppTableRecord
  2
ACDBBLOCKREPETAG
 70
     0
  0
APPID
  5
219D9
330
9
100
AcDbSymbolTableRecord
100
AcDbRegAppTableRecord
  2
AcDbDynamicBlockGUID
 70
     0
  0
ENDTAB
  0
TABLE
  2
DIMSTYLE
  5
A
330
0
100
AcDbSymbolTable
 70
    30
100
AcDbDimStyleTable
 71
     1
340
2515
  0
DIMSTYLE
105
A76
330
A
100
AcDbSymbolTableRecord
100
AcDbDimStyleTableRecord
  2
STANDARD
 70
     0
 41
3.0
 42
1.0
 43
7.0
 44
2.0
 73
     0
 74
     0
 77
     1
140
2.799999999999998
141
0.0
143
0.0394
147
0.7
171
     4
172
     1
173
     1
176
     3
177
     3
178
     2
271
     3
272
     3
273
     8
274
     4
289
     0
340
A74
341
A66
343
A66
344
A66
  0
DIMSTYLE
105
2515
330
A
100
AcDbSymbolTableRecord
100
AcDbDimStyleTableRecord
  2
SYS
 70
     0
  4
"
 41
1.0
 42
1.0
 43
10.0
 44
1.0
 47
0.1
 48
0.1
 73
     0
 74
     0
 77
     1
 78
     8
 79
     2
140
3.5
141
0.0
143
0.0393701
146
0.71
147
1.5
172
     1
176
   256
177
   256
178
     7
271
     2
272
     2
283
     0
284
     8
340
11
371
    -1
372
    -1
1001
ACAD_DSTYLE_DIMJOGGED_JOGANGLE_SYMBOL
1070
   384
1040
0.7853981633974483
1001
ACAD_DSTYLE_DIMARC_LENGTH_SYMBOL
1070
   379
1070
     1
  0
DIMSTYLE
105
2516
102
{ACAD_REACTORS
330
39F82
102
}
330
A
100
AcDbSymbolTableRecord
100
AcDbDimStyleTableRecord
  2
SYS$3
 70
     0
  4
"
 41
2.0
 42
1.0
 43
10.0
 44
1.0
 47
0.1
 48
0.1
 73
     0
 77
     1
 78
     8
 79
     2
140
3.2
141
0.0
143
0.0393701
146
0.71
147
1.0
176
   256
177
   256
178
     2
271
     2
272
     2
283
     0
284
     8
288
     1
340
11
342
A66
371
    -1
372
    -1
1001
ACAD_DSTYLE_DIMJOGGED_JOGANGLE_SYMBOL
1070
   384
1040
0.7853981633974483
1001
ACAD_DSTYLE_DIMARC_LENGTH_SYMBOL
1070
   379
1070
     1
  0
DIMSTYLE
105
2517
330
A
100
AcDbSymbolTableRecord
100
AcDbDimStyleTableRecord
  2
SYS$4
 70
     0
  4
"
 41
2.0
 42
1.0
 43
10.0
 44
1.0
 47
0.1
 48
0.1
 73
     0
 77
     1
 78
     8
 79
     2
140
3.2
141
0.0
143
0.0393701
146
0.71
147
1.0
173
     1
176
   256
177
   256
178
     2
271
     2
272
     2
283
     0
284
     8
288
     1
340
11
344
A66
371
    -1
372
    -1
1001
ACAD_DSTYLE_DIMJOGGED_JOGANGLE_SYMBOL
1070
   384
1040
0.7853981633974483
1001
ACAD_DSTYLE_DIMARC_LENGTH_SYMBOL
1070
   379
1070
     1
  0
DIMSTYLE
105
2518
330
A
100
AcDbSymbolTableRecord
100
AcDbDimStyleTableRecord
  2
SYS$6
 70
     0
  4
"
 41
2.0
 42
1.0
 43
10.0
 44
1.0
 47
0.1
 48
0.1
 73
     0
 74
     0
 78
     8
 79
     2
140
3.5
141
0.0
143
0.0393701
146
0.71
147
1.5
172
     1
176
   256
177
   256
178
     2
271
     2
272
     2
283
     0
284
     8
340
11
341
A66
371
    -1
372
    -1
1001
ACAD_DSTYLE_DIMJOGGED_JOGANGLE_SYMBOL
1070
   384
1040
0.7853981633974483
1001
ACAD_DSTYLE_DIMARC_LENGTH_SYMBOL
1070
   379
1070
     1
  0
DIMSTYLE
105
2519
330
A
100
AcDbSymbolTableRecord
100
AcDbDimStyleTableRecord
  2
SYS$7
 70
     0
  4
"
 41
2.0
 42
1.0
 43
10.0
 44
1.0
 47
0.1
 48
0.1
 73
     0
 74
     0
 77
     1
 78
     8
 79
     2
140
3.2
141
0.0
143
0.0393701
146
0.71
147
1.0
172
     1
176
   256
177
   256
178
     2
271
     2
272
     2
283
     0
284
     8
340
11
341
A66
342
A66
371
    -1
372
    -1
1001
ACAD_DSTYLE_DIMJOGGED_JOGANGLE_SYMBOL
1070
   384
1040
0.7853981633974483
1001
ACAD_DSTYLE_DIMARC_LENGTH_SYMBOL
1070
   379
1070
     1
  0
DIMSTYLE
105
251A
330
A
100
AcDbSymbolTableRecord
100
AcDbDimStyleTableRecord
  2
SYS$SF
 70
     0
  4
"
 41
2.5
 42
1.0
 43
10.0
 44
1.0
 47
0.1
 48
0.1
 73
     0
 74
     0
 75
     1
 76
     1
 77
     1
 78
     8
 79
     2
140
3.5
141
0.0
143
0.0393701
146
0.71
147
1.5
172
     1
176
   256
177
   256
178
     2
271
     2
272
     3
283
     0
284
     8
340
11
341
6C4
342
6C4
371
    -1
372
    -1
1001
ACAD_DSTYLE_DIMJOGGED_JOGANGLE_SYMBOL
1070
   384
1040
0.7853981633974483
1001
ACAD_DSTYLE_DIMARC_LENGTH_SYMBOL
1070
   379
1070
     1
  0
DIMSTYLE
105
251B
330
A
100
AcDbSymbolTableRecord
100
AcDbDimStyleTableRecord
  2
SYS$SH
 70
     0
  4
"
 41
2.5
 42
1.0
 43
10.0
 44
1.0
 47
0.1
 48
0.1
 73
     0
 74
     0
 75
     1
 76
     1
 77
     1
 78
     8
 79
     2
140
3.5
141
0.0
143
0.0393701
144
2.0
146
0.71
147
1.5
172
     1
173
     1
176
   256
177
   256
178
     2
271
     2
272
     3
283
     0
284
     8
340
11
341
6C4
343
72
344
6C4
371
    -1
372
    -1
1001
ACAD_DSTYLE_DIMJOGGED_JOGANGLE_SYMBOL
1070
   384
1040
0.7853981633974483
1001
ACAD_DSTYLE_DIMARC_LENGTH_SYMBOL
1070
   379
1070
     1
  0
DIMSTYLE
105
2A59
330
A
100
AcDbSymbolTableRecord
100
AcDbDimStyleTableRecord
  2
SYS$2
 70
     0
  4
"
 41
1.0
 42
1.0
 43
10.0
 44
1.0
 47
0.1
 48
0.1
 73
     0
 74
     0
 77
     1
 78
     8
 79
     2
140
3.2
141
0.0
143
0.0393701
146
0.71
147
1.0
172
     1
176
   256
177
   256
178
     2
271
     2
272
     2
283
     0
284
     8
340
11
342
6C4
371
    -1
372
    -1
1001
ACAD_DSTYLE_DIMJOGGED_JOGANGLE_SYMBOL
1070
   384
1040
0.7853981633974483
1001
ACAD_DSTYLE_DIMARC_LENGTH_SYMBOL
1070
   379
1070
     1
  0
DIMSTYLE
105
2AAB
102
{ACAD_REACTORS
330
39F7E
330
39F7F
330
39F80
330
39F81
330
39F83
330
39F84
330
39F85
330
39F86
330
39F87
102
}
330
A
100
AcDbSymbolTableRecord
100
AcDbDimStyleTableRecord
  2
SYS$0
 70
     0
  4
"
 41
1.0
 42
1.0
 43
10.0
 44
1.0
 47
0.1
 48
0.1
 73
     0
 74
     0
 77
     1
 78
     8
 79
     2
140
3.200000000000001
141
0.0
143
0.0393701
146
0.71
147
1.0
172
     1
176
   256
177
   256
178
     2
271
     2
272
     2
283
     0
284
     8
340
11
341
A66
342
6C4
371
    -1
372
    -1
1001
ACAD_DSTYLE_DIMJOGGED_JOGANGLE_SYMBOL
1070
   384
1040
0.7853981633974483
1001
ACAD_DSTYLE_DIMARC_LENGTH_SYMBOL
1070
   379
1070
     1
  0
DIMSTYLE
105
AF99
330
A
100
AcDbSymbolTableRecord
100
AcDbDimStyleTableRecord
  2
AM_ISO
 70
     0
  4
"
 41
2.5
 42
1.0
 43
10.0
 44
1.0
 47
0.1
 48
0.1
 73
     0
 74
     0
 77
     1
 78
     8
 79
     2
140
3.5
141
0.0
143
0.0393701
146
0.71
147
1.5
172
     1
176
   256
177
   256
178
     2
271
     2
272
     3
274
     4
283
     0
284
     8
340
11
371
    -1
372
    -1
  0
DIMSTYLE
105
AF9A
330
A
100
AcDbSymbolTableRecord
100
AcDbDimStyleTableRecord
  2
AM_ISO$3
 70
     0
  4
"
 41
2.5
 42
1.0
 43
10.0
 44
1.0
 47
0.1
 48
0.1
 73
     0
 77
     1
 78
     8
 79
     2
140
3.5
141
0.0
143
0.0393701
146
0.71
147
1.5
176
   256
177
   256
178
     2
271
     2
272
     3
274
     4
283
     0
284
     8
288
     1
289
     0
340
11
371
    -1
372
    -1
  0
DIMSTYLE
105
AF9B
330
A
100
AcDbSymbolTableRecord
100
AcDbDimStyleTableRecord
  2
AM_ISO$4
 70
     0
  4
"
 41
2.5
 42
1.0
 43
10.0
 44
1.0
 47
0.1
 48
0.1
 73
     0
 77
     1
 78
     8
 79
     2
140
3.5
141
0.0
143
0.0393701
146
0.71
147
1.5
176
   256
177
   256
178
     2
271
     2
272
     3
274
     4
283
     0
284
     8
288
     1
289
     0
340
11
371
    -1
372
    -1
  0
DIMSTYLE
105
AF9C
330
A
100
AcDbSymbolTableRecord
100
AcDbDimStyleTableRecord
  2
AM_ISO$6
 70
     0
  4
"
 41
2.5
 42
1.0
 43
10.0
 44
1.0
 47
0.1
 48
0.1
 73
     0
 74
     0
 78
     8
 79
     2
140
3.5
141
0.0
143
0.0393701
146
0.71
147
1.5
172
     1
176
   256
177
   256
178
     2
271
     2
272
     3
274
     4
283
     0
284
     8
340
11
371
    -1
372
    -1
  0
DIMSTYLE
105
AF9D
330
A
100
AcDbSymbolTableRecord
100
AcDbDimStyleTableRecord
  2
AM_ISO$7
 70
     0
  4
"
 41
2.5
 42
1.0
 43
10.0
 44
1.0
 47
0.1
 48
0.1
 73
     0
 74
     0
 77
     1
 78
     8
 79
     2
140
5.0
141
0.0
143
0.0393701
146
0.71
147
1.5
172
     1
176
   256
177
   256
178
     2
271
     2
272
     3
274
     4
283
     0
284
     8
340
11
371
    -1
372
    -1
  0
DIMSTYLE
105
AF9E
330
A
100
AcDbSymbolTableRecord
100
AcDbDimStyleTableRecord
  2
AM_ISO$SF
 70
     0
  4
"
 41
2.5
 42
1.0
 43
10.0
 44
1.0
 47
0.1
 48
0.1
 73
     0
 74
     0
 75
     1
 76
     1
 77
     1
 78
     8
 79
     2
140
3.5
141
0.0
143
0.0393701
146
0.71
147
1.5
172
     1
176
   256
177
   256
178
     2
271
     2
272
     3
274
     4
283
     0
284
     8
340
11
371
    -1
372
    -1
  0
DIMSTYLE
105
AF9F
330
A
100
AcDbSymbolTableRecord
100
AcDbDimStyleTableRecord
  2
AM_ISO$SH
 70
     0
  4
"
 41
2.5
 42
1.0
 43
10.0
 44
1.0
 47
0.1
 48
0.1
 73
     0
 74
     0
 75
     1
 76
     1
 77
     1
 78
     8
 79
     2
140
3.5
141
0.0
143
0.0393701
144
2.0
146
0.71
147
1.5
172
     1
173
     1
176
   256
177
   256
178
     2
271
     2
272
     3
274
     4
283
     0
284
     8
340
11
343
72
371
    -1
372
    -1
  0
DIMSTYLE
105
B658
330
A
100
AcDbSymbolTableRecord
100
AcDbDimStyleTableRecord
  2
AM_ANSI
 70
     0
  4
mm
 41
0.1
 42
0.05
 43
0.5
 44
0.1
 47
0.1
 48
0.1
 78
     7
 79
     2
140
0.12
141
0.0
146
0.71
147
0.06
176
   256
177
   256
178
     2
274
     4
284
     7
340
11
371
    -1
372
    -1
  0
DIMSTYLE
105
CA4B
330
A
100
AcDbSymbolTableRecord
100
AcDbDimStyleTableRecord
  2
原寸
 70
     0
 41
2.5
 42
1.0
 43
10.0
 44
0.7
 73
     0
 74
     0
 77
     3
 78
     8
 79
     2
140
3.5
141
0.0
147
1.0
172
     1
179
     1
271
     2
272
     2
340
CA48
341
A66
342
A66
  0
DIMSTYLE
105
1D542
330
A
100
AcDbSymbolTableRecord
100
AcDbDimStyleTableRecord
  2
DIMSTYLE
 70
     0
 41
1.0
 42
2.54
 44
2.54
 73
     0
 74
     0
140
3.2
147
1.6
173
     1
279
     2
340
11
  0
DIMSTYLE
105
1D543
330
A
100
AcDbSymbolTableRecord
100
AcDbDimStyleTableRecord
  2
AM_ANSI$3
 70
     0
  4
mm
 41
0.1
 42
0.05
 43
0.5
 44
0.1
 47
0.1
 48
0.1
 78
     7
 79
     2
140
0.12
141
0.0
146
0.71
147
0.06
176
   256
177
   256
178
     2
274
     4
284
     7
288
     1
289
     0
340
11
371
    -1
372
    -1
1001
ACAD_DSTYLE_DIMARC_LENGTH_SYMBOL
1070
   379
1070
     1
  0
DIMSTYLE
105
1D544
330
A
100
AcDbSymbolTableRecord
100
AcDbDimStyleTableRecord
  2
AM_ANSI$4
 70
     0
  4
mm
 41
0.1
 42
0.05
 43
0.5
 44
0.1
 47
0.1
 48
0.1
 78
     7
 79
     2
140
0.12
141
0.0
146
0.71
147
0.06
176
   256
177
   256
178
     2
274
     4
284
     7
288
     1
289
     0
340
11
371
    -1
372
    -1
1001
ACAD_DSTYLE_DIMARC_LENGTH_SYMBOL
1070
   379
1070
     1
  0
DIMSTYLE
105
1D545
330
A
100
AcDbSymbolTableRecord
100
AcDbDimStyleTableRecord
  2
AM_ANSI$7
 70
     0
  4
mm
 41
0.1
 42
0.05
 43
0.5
 44
0.1
 47
0.1
 48
0.1
 78
     7
 79
     2
140
0.24
141
0.0
146
0.71
147
0.06
176
   256
177
   256
178
     2
274
     4
284
     7
340
11
371
    -1
372
    -1
1001
ACAD_DSTYLE_DIMARC_LENGTH_SYMBOL
1070
   379
1070
     1
  0
DIMSTYLE
105
1D546
330
A
100
AcDbSymbolTableRecord
100
AcDbDimStyleTableRecord
  2
AM_ANSI$SF
 70
     0
  4
mm
 41
0.1
 42
0.05
 43
0.5
 44
0.1
 47
0.1
 48
0.1
 75
     1
 76
     1
 78
     7
 79
     2
140
0.12
141
0.0
146
0.71
147
0.06
176
   256
177
   256
178
     2
274
     4
284
     7
340
11
371
    -1
372
    -1
1001
ACAD_DSTYLE_DIMARC_LENGTH_SYMBOL
1070
   379
1070
     1
  0
DIMSTYLE
105
1D547
330
A
100
AcDbSymbolTableRecord
100
AcDbDimStyleTableRecord
  2
AM_ANSI$SH
 70
     0
  4
mm
 41
0.1
 42
0.05
 43
0.5
 44
0.1
 47
0.1
 48
0.1
 75
     1
 76
     1
 78
     7
 79
     2
140
0.12
141
0.0
146
0.71
147
0.06
173
     1
176
   256
177
   256
178
     2
274
     4
284
     7
340
11
343
72
371
    -1
372
    -1
1001
ACAD_DSTYLE_DIMARC_LENGTH_SYMBOL
1070
   379
1070
     1
  0
DIMSTYLE
105
1DA90
330
A
100
AcDbSymbolTableRecord
100
AcDbDimStyleTableRecord
  2
SYSORG4P0
 70
     0
  4
"
 41
1.0
 42
1.0
 43
10.0
 44
1.0
 47
0.2
 48
0.2000000002
 71
     1
 73
     0
 74
     0
 77
     1
 78
     8
 79
     2
140
3.5
141
0.0
143
0.0393701
144
3.999999999999793
146
0.6
147
1.5
172
     1
176
   256
177
   256
178
     7
271
     2
272
     2
283
     0
284
     8
340
11
341
A66
342
6C4
371
    -1
372
    -1
  0
DIMSTYLE
105
1DA91
330
A
100
AcDbSymbolTableRecord
100
AcDbDimStyleTableRecord
  2
SYSORG2P0
 70
     0
  4
"
 41
1.0
 42
1.0
 43
10.0
 44
1.0
 47
0.2
 48
0.2000000002
 71
     1
 73
     0
 74
     0
 77
     1
 78
     8
 79
     2
140
3.5
141
0.0
143
0.0393701
144
2.000000119209306
146
0.6
147
1.5
172
     1
176
   256
177
   256
178
     7
271
     2
272
     2
283
     0
284
     8
340
11
341
A66
342
6C4
371
    -1
372
    -1
  0
DIMSTYLE
105
1DA92
330
A
100
AcDbSymbolTableRecord
100
AcDbDimStyleTableRecord
  2
SYSORG0P5
 70
     0
  4
"
 41
1.0
 42
1.0
 43
10.0
 44
1.0
 47
0.1
 48
0.1
 73
     0
 74
     0
 77
     1
 78
     8
 79
     2
140
3.5
141
0.0
143
0.0393701
144
0.5
146
0.71
147
1.5
172
     1
176
   256
177
   256
178
     7
271
     2
272
     2
283
     0
284
     8
340
11
371
    -1
372
    -1
  0
DIMSTYLE
105
32EB5
330
A
100
AcDbSymbolTableRecord
100
AcDbDimStyleTableRecord
  2
SYS0000
 70
     0
  4
"
 41
2.5
 42
1.0
 43
10.0
 44
1.0
 47
0.1
 48
0.1
 73
     0
 74
     0
 77
     1
 78
     8
 79
     2
140
3.5
141
0.0
143
0.0393701
146
0.71
147
1.5
172
     1
176
   256
177
   256
178
     2
271
     1
272
     3
283
     0
284
     8
340
11
341
6C4
342
32DFB
371
    -1
372
    -1
  0
DIMSTYLE
105
425A4
330
A
100
AcDbSymbolTableRecord
100
AcDbDimStyleTableRecord
  2
DIMSTYLE$0
 70
     0
 41
1.0
 42
2.54
 44
2.54
 73
     0
 74
     0
140
3.2
147
1.6
173
     1
279
     2
340
11
  0
ENDTAB
  0
TABLE
  2
BLOCK_RECORD
  5
1
330
0
100
AcDbSymbolTable
 70
    17
  0
BLOCK_RECORD
  5
1F
102
{ACAD_XDICTIONARY
360
8A
102
}
330
1
100
AcDbSymbolTableRecord
100
AcDbBlockTableRecord
  2
*Model_Space
340
22
  0
BLOCK_RECORD
  5
1B
330
1
100
AcDbSymbolTableRecord
100
AcDbBlockTableRecord
  2
*Paper_Space
340
1E
  0
BLOCK_RECORD
  5
23
330
1
100
AcDbSymbolTableRecord
100
AcDbBlockTableRecord
  2
*Paper_Space0
340
26
  0
BLOCK_RECORD
  5
72
330
1
100
AcDbSymbolTableRecord
100
AcDbBlockTableRecord
  2
GENAXEH
340
0
  0
BLOCK_RECORD
  5
6C4
330
1
100
AcDbSymbolTableRecord
100
AcDbBlockTableRecord
  2
_Dot
340
0
102
{BLKREFS
331
50F07
331
50F08
331
50F19
331
50F1A
331
50F2B
331
50F2C
331
50F3D
331
50F3E
331
50F65
331
50F66
331
50F77
331
50F78
331
50F89
331
50F8A
331
50F9B
331
50F9C
331
50FAD
331
50FAE
102
}
  0
BLOCK_RECORD
  5
A66
330
1
100
AcDbSymbolTableRecord
100
AcDbBlockTableRecord
  2
_OPEN30
340
0
  0
BLOCK_RECORD
  5
32629
330
1
100
AcDbSymbolTableRecord
100
AcDbBlockTableRecord
  2
GENDOT
340
0
102
{BLKREFS
331
50F51
331
50F52
102
}
  0
BLOCK_RECORD
  5
32DFB
330
1
100
AcDbSymbolTableRecord
100
AcDbBlockTableRecord
  2
_DotSmall
340
0
  0
BLOCK_RECORD
  5
3A163
330
1
100
AcDbSymbolTableRecord
100
AcDbBlockTableRecord
  2
*D6
340
0
  0
BLOCK_RECORD
  5
3A16F
330
1
100
AcDbSymbolTableRecord
100
AcDbBlockTableRecord
  2
*D7
340
0
  0
BLOCK_RECORD
  5
3A17B
330
1
100
AcDbSymbolTableRecord
100
AcDbBlockTableRecord
  2
*D8
340
0
  0
BLOCK_RECORD
  5
3A187
330
1
100
AcDbSymbolTableRecord
100
AcDbBlockTableRecord
  2
*D9
340
0
  0
BLOCK_RECORD
  5
3A193
330
1
100
AcDbSymbolTableRecord
100
AcDbBlockTableRecord
  2
*D10
340
0
  0
BLOCK_RECORD
  5
3A19F
330
1
100
AcDbSymbolTableRecord
100
AcDbBlockTableRecord
  2
*D11
340
0
  0
BLOCK_RECORD
  5
3A1AD
330
1
100
AcDbSymbolTableRecord
100
AcDbBlockTableRecord
  2
*D12
340
0
  0
BLOCK_RECORD
  5
3A1B9
330
1
100
AcDbSymbolTableRecord
100
AcDbBlockTableRecord
  2
*D13
340
0
  0
BLOCK_RECORD
  5
3A1C5
330
1
100
AcDbSymbolTableRecord
100
AcDbBlockTableRecord
  2
*D14
340
0
  0
BLOCK_RECORD
  5
3A1D1
330
1
100
AcDbSymbolTableRecord
100
AcDbBlockTableRecord
  2
*D15
340
0
  0
ENDTAB
  0
ENDSEC
  0
SECTION
  2
BLOCKS
  0
BLOCK
  5
20
330
1F
100
AcDbEntity
  8
0
100
AcDbBlockBegin
  2
*Model_Space
 70
     0
 10
0.0
 20
0.0
 30
0.0
  3
*Model_Space
  1

  0
ENDBLK
  5
21
330
1F
100
AcDbEntity
  8
0
100
AcDbBlockEnd
  0
BLOCK
  5
1C
330
1B
100
AcDbEntity
 67
     1
  8
0
100
AcDbBlockBegin
  2
*Paper_Space
 70
     0
 10
0.0
 20
0.0
 30
0.0
  3
*Paper_Space
  1

  0
ENDBLK
  5
1D
330
1B
100
AcDbEntity
 67
     1
  8
0
100
AcDbBlockEnd
  0
BLOCK
  5
24
330
23
100
AcDbEntity
 67
     1
  8
0
100
AcDbBlockBegin
  2
*Paper_Space0
 70
     0
 10
0.0
 20
0.0
 30
0.0
  3
*Paper_Space0
  1

  0
ENDBLK
  5
25
330
23
100
AcDbEntity
 67
     1
  8
0
100
AcDbBlockEnd
  0
BLOCK
  5
74
330
72
100
AcDbEntity
  8
0
100
AcDbBlockBegin
  2
GENAXEH
 70
     0
 10
0.0
 20
0.0
 30
0.0
  3
GENAXEH
  1

  0
LINE
  5
73
330
72
100
AcDbEntity
  8
0
100
AcDbLine
 10
-1.0
 20
0.0
 30
0.0
 11
1.0
 21
0.0
 31
0.0
  0
ENDBLK
  5
75
330
72
100
AcDbEntity
  8
0
100
AcDbBlockEnd
  0
BLOCK
  5
6C7
330
6C4
100
AcDbEntity
  8
0
100
AcDbBlockBegin
  2
_Dot
 70
     0
 10
0.0
 20
0.0
 30
0.0
  3
_Dot
  1

  0
LWPOLYLINE
  5
6C5
330
6C4
100
AcDbEntity
  8
0
  6
ByBlock
 62
     0
100
AcDbPolyline
 90
        2
 70
     1
 43
0.5
 10
-0.25
 20
0.0
 42
1.0
 10
0.25
 20
0.0
 42
1.0
  0
LINE
  5
6C6
330
6C4
100
AcDbEntity
  8
0
  6
ByBlock
 62
     0
370
    -2
100
AcDbLine
 10
-0.5
 20
0.0
 30
0.0
 11
-1.0
 21
0.0
 31
0.0
  0
ENDBLK
  5
6C8
330
6C4
100
AcDbEntity
  8
0
100
AcDbBlockEnd
  0
BLOCK
  5
A6A
330
A66
100
AcDbEntity
  8
0
100
AcDbBlockBegin
  2
_OPEN30
 70
     0
 10
0.0
 20
0.0
 30
0.0
  3
_OPEN30
  1

  0
LINE
  5
A67
330
A66
100
AcDbEntity
  8
0
  6
ByBlock
 62
     0
100
AcDbLine
 10
-1.0
 20
0.26794919
 30
0.0
 11
0.0
 21
0.0
 31
0.0
  0
LINE
  5
A68
330
A66
100
AcDbEntity
  8
0
  6
ByBlock
 62
     0
100
AcDbLine
 10
0.0
 20
0.0
 30
0.0
 11
-1.0
 21
-0.26794919
 31
0.0
  0
LINE
  5
A69
330
A66
100
AcDbEntity
  8
0
  6
ByBlock
 62
     0
100
AcDbLine
 10
0.0
 20
0.0
 30
0.0
 11
-1.0
 21
0.0
 31
0.0
  0
ENDBLK
  5
A6B
330
A66
100
AcDbEntity
  8
0
100
AcDbBlockEnd
  0
BLOCK
  5
3262A
330
32629
100
AcDbEntity
  8
0
100
AcDbBlockBegin
  2
GENDOT
 70
     0
 10
0.0
 20
0.0
 30
0.0
  3
GENDOT
  1

  0
LINE
  5
3262B
330
32629
100
AcDbEntity
  8
0
100
AcDbLine
 10
0.0
 20
0.0
 30
0.0
 11
-1.0
 21
0.0
 31
0.0
  0
LWPOLYLINE
  5
3262C
330
32629
100
AcDbEntity
  8
0
100
AcDbPolyline
 90
        2
 70
     1
 43
0.25
 10
-0.125
 20
0.0
 42
1.0
 10
0.125
 20
0.0
 42
1.0
  0
ENDBLK
  5
3262D
330
32629
100
AcDbEntity
  8
0
100
AcDbBlockEnd
  0
BLOCK
  5
32DFC
330
32DFB
100
AcDbEntity
  8
0
100
AcDbBlockBegin
  2
_DotSmall
 70
     0
 10
0.0
 20
0.0
 30
0.0
  3
_DotSmall
  1

  0
LWPOLYLINE
  5
32DFD
330
32DFB
100
AcDbEntity
  8
0
  6
ByBlock
 62
     0
100
AcDbPolyline
 90
        2
 70
     1
 43
0.5
 10
-0.0625
 20
0.0
 42
1.0
 10
0.0625
 20
0.0
 42
1.0
  0
ENDBLK
  5
32DFE
330
32DFB
100
AcDbEntity
  8
0
100
AcDbBlockEnd
  0
BLOCK
  5
3A16D
330
3A163
100
AcDbEntity
  8
0
 48
0.5
100
AcDbBlockBegin
  2
*D6
 70
     1
 10
0.0
 20
0.0
 30
0.0
  3
*D6
  1

  0
LINE
  5
50F04
330
3A163
100
AcDbEntity
  8
AM_5
100
AcDbLine
 10
5030.804787621732
 20
-2503.322221996147
 30
0.0
 11
5030.804787621732
 21
-2518.572221996148
 31
0.0
  0
LINE
  5
50F05
330
3A163
100
AcDbEntity
  8
AM_5
100
AcDbLine
 10
4997.804787621732
 20
-2503.322221996147
 30
0.0
 11
4997.804787621732
 21
-2518.572221996148
 31
0.0
  0
LINE
  5
50F06
330
3A163
100
AcDbEntity
  8
AM_5
100
AcDbLine
 10
5029.804787621732
 20
-2517.572221996148
 30
0.0
 11
4998.804787621732
 21
-2517.572221996148
 31
0.0
  0
INSERT
  5
50F07
330
3A163
100
AcDbEntity
  8
AM_5
100
AcDbBlockReference
  2
_Dot
 10
5030.804787621732
 20
-2517.572221996148
 30
0.0
  0
INSERT
  5
50F08
330
3A163
100
AcDbEntity
  8
AM_5
100
AcDbBlockReference
  2
_Dot
 10
4997.804787621732
 20
-2517.572221996148
 30
0.0
 50
180.0
  0
MTEXT
  5
50F09
330
3A163
100
AcDbEntity
  8
AM_5
 62
     2
100
AcDbMText
 10
5014.304787621735
 20
-2514.972221996148
 30
0.0
 40
3.200000000000001
 41
0.0
 71
     5
 72
     1
  1
33
 73
     1
 44
1.0
1001
ACAD
1000
MTEXTBEGIN
1070
    73
1070
     1
1070
    44
1040
1.0
1070
    74
1070
     0
1000
MTEXTEND
  0
POINT
  5
50F0A
330
3A163
100
AcDbEntity
  8
Defpoints
 62
     0
100
AcDbPoint
 10
5030.804787621732
 20
-2502.322221996147
 30
0.0
  0
POINT
  5
50F0B
330
3A163
100
AcDbEntity
  8
Defpoints
 62
     0
100
AcDbPoint
 10
4997.804787621732
 20
-2502.322221996147
 30
0.0
  0
POINT
  5
50F0C
330
3A163
100
AcDbEntity
  8
Defpoints
 62
     0
100
AcDbPoint
 10
4997.804787621732
 20
-2517.572221996148
 30
0.0
  0
ENDBLK
  5
3A16E
330
3A163
100
AcDbEntity
  8
0
 48
0.5
100
AcDbBlockEnd
  0
BLOCK
  5
3A179
330
3A16F
100
AcDbEntity
  8
0
 48
0.5
100
AcDbBlockBegin
  2
*D7
 70
     1
 10
0.0
 20
0.0
 30
0.0
  3
*D7
  1

  0
LINE
  5
50F16
330
3A16F
100
AcDbEntity
  8
AM_5
100
AcDbLine
 10
5041.304787621733
 20
-2502.672221996148
 30
0.0
 11
5041.304787621733
 21
-2526.572221996147
 31
0.0
  0
LINE
  5
50F17
330
3A16F
100
AcDbEntity
  8
AM_5
100
AcDbLine
 10
4987.304787621734
 20
-2502.672221996148
 30
0.0
 11
4987.304787621734
 21
-2526.572221996147
 31
0.0
  0
LINE
  5
50F18
330
3A16F
100
AcDbEntity
  8
AM_5
100
AcDbLine
 10
5040.304787621733
 20
-2525.572221996148
 30
0.0
 11
4988.304787621732
 21
-2525.572221996148
 31
0.0
  0
INSERT
  5
50F19
330
3A16F
100
AcDbEntity
  8
AM_5
100
AcDbBlockReference
  2
_Dot
 10
5041.304787621733
 20
-2525.572221996148
 30
0.0
  0
INSERT
  5
50F1A
330
3A16F
100
AcDbEntity
  8
AM_5
100
AcDbBlockReference
  2
_Dot
 10
4987.304787621734
 20
-2525.572221996148
 30
0.0
 50
180.0
  0
MTEXT
  5
50F1B
330
3A16F
100
AcDbEntity
  8
AM_5
 62
     2
100
AcDbMText
 10
5014.304787621735
 20
-2522.972221996148
 30
0.0
 40
3.200000000000001
 41
0.0
 71
     5
 72
     1
  1
54
 73
     1
 44
1.0
1001
ACAD
1000
MTEXTBEGIN
1070
    73
1070
     1
1070
    44
1040
1.0
1070
    74
1070
     0
1000
MTEXTEND
  0
POINT
  5
50F1C
330
3A16F
100
AcDbEntity
  8
Defpoints
 62
     0
100
AcDbPoint
 10
5041.304787621733
 20
-2501.672221996148
 30
0.0
  0
POINT
  5
50F1D
330
3A16F
100
AcDbEntity
  8
Defpoints
 62
     0
100
AcDbPoint
 10
4987.304787621734
 20
-2501.672221996148
 30
0.0
  0
POINT
  5
50F1E
330
3A16F
100
AcDbEntity
  8
Defpoints
 62
     0
100
AcDbPoint
 10
4987.304787621734
 20
-2525.572221996148
 30
0.0
  0
ENDBLK
  5
3A17A
330
3A16F
100
AcDbEntity
  8
0
 48
0.5
100
AcDbBlockEnd
  0
BLOCK
  5
3A185
330
3A17B
100
AcDbEntity
  8
0
 48
0.5
100
AcDbBlockBegin
  2
*D8
 70
     1
 10
0.0
 20
0.0
 30
0.0
  3
*D8
  1

  0
LINE
  5
50F28
330
3A17B
100
AcDbEntity
  8
AM_5
100
AcDbLine
 10
5047.804787621732
 20
-2549.230888270822
 30
0.0
 11
5047.804787621732
 21
-2541.230888270822
 31
0.0
  0
LINE
  5
50F29
330
3A17B
100
AcDbEntity
  8
AM_5
100
AcDbLine
 10
4980.804787621734
 20
-2549.230888270822
 30
0.0
 11
4980.804787621734
 21
-2541.230888270822
 31
0.0
  0
LINE
  5
50F2A
330
3A17B
100
AcDbEntity
  8
AM_5
100
AcDbLine
 10
5046.804787621733
 20
-2542.230888270822
 30
0.0
 11
4981.804787621733
 21
-2542.230888270822
 31
0.0
  0
INSERT
  5
50F2B
330
3A17B
100
AcDbEntity
  8
AM_5
100
AcDbBlockReference
  2
_Dot
 10
5047.804787621732
 20
-2542.230888270822
 30
0.0
  0
INSERT
  5
50F2C
330
3A17B
100
AcDbEntity
  8
AM_5
100
AcDbBlockReference
  2
_Dot
 10
4980.804787621734
 20
-2542.230888270822
 30
0.0
 50
180.0
  0
MTEXT
  5
50F2D
330
3A17B
100
AcDbEntity
  8
AM_5
 62
     2
100
AcDbMText
 10
5014.304787621735
 20
-2539.630888270822
 30
0.0
 40
3.200000000000001
 41
0.0
 71
     5
 72
     1
  1
67
 73
     1
 44
1.0
1001
ACAD
1000
MTEXTBEGIN
1070
    73
1070
     1
1070
    44
1040
1.0
1070
    74
1070
     0
1000
MTEXTEND
  0
POINT
  5
50F2E
330
3A17B
100
AcDbEntity
  8
Defpoints
 62
     0
100
AcDbPoint
 10
5047.804787621732
 20
-2550.230888270822
 30
0.0
  0
POINT
  5
50F2F
330
3A17B
100
AcDbEntity
  8
Defpoints
 62
     0
100
AcDbPoint
 10
4980.804787621734
 20
-2550.230888270822
 30
0.0
  0
POINT
  5
50F30
330
3A17B
100
AcDbEntity
  8
Defpoints
 62
     0
100
AcDbPoint
 10
4980.804787621734
 20
-2542.230888270822
 30
0.0
  0
ENDBLK
  5
3A186
330
3A17B
100
AcDbEntity
  8
0
 48
0.5
100
AcDbBlockEnd
  0
BLOCK
  5
3A191
330
3A187
100
AcDbEntity
  8
0
 48
0.5
100
AcDbBlockBegin
  2
*D9
 70
     1
 10
0.0
 20
0.0
 30
0.0
  3
*D9
  1

  0
LINE
  5
50F3A
330
3A187
100
AcDbEntity
  8
AM_5
100
AcDbLine
 10
5031.804787621734
 20
-2502.322221996148
 30
0.0
 11
5058.804787621732
 21
-2502.322221996148
 31
0.0
  0
LINE
  5
50F3B
330
3A187
100
AcDbEntity
  8
AM_5
100
AcDbLine
 10
5031.804787621734
 20
-2488.822221996148
 30
0.0
 11
5058.804787621732
 21
-2488.822221996148
 31
0.0
  0
LINE
  5
50F3C
330
3A187
100
AcDbEntity
  8
AM_5
100
AcDbLine
 10
5057.804787621734
 20
-2501.322221996148
 30
0.0
 11
5057.804787621734
 21
-2489.822221996148
 31
0.0
  0
INSERT
  5
50F3D
330
3A187
100
AcDbEntity
  8
AM_5
100
AcDbBlockReference
  2
_Dot
 10
5057.804787621734
 20
-2502.322221996148
 30
0.0
 50
270.0
  0
INSERT
  5
50F3E
330
3A187
100
AcDbEntity
  8
AM_5
100
AcDbBlockReference
  2
_Dot
 10
5057.804787621734
 20
-2488.822221996148
 30
0.0
 50
90.0
  0
MTEXT
  5
50F3F
330
3A187
100
AcDbEntity
  8
AM_5
 62
     2
100
AcDbMText
 10
5055.204787621732
 20
-2495.572221996148
 30
0.0
 40
3.200000000000001
 41
0.0
 71
     5
 72
     1
  1
13.5
 11
0.0000000000000001
 21
1.0
 31
0.0
 73
     1
 44
1.0
1001
ACAD
1000
MTEXTBEGIN
1070
    73
1070
     1
1070
    44
1040
1.0
1070
    74
1070
     0
1000
MTEXTEND
  0
POINT
  5
50F40
330
3A187
100
AcDbEntity
  8
Defpoints
 62
     0
100
AcDbPoint
 10
5030.804787621732
 20
-2502.322221996148
 30
0.0
  0
POINT
  5
50F41
330
3A187
100
AcDbEntity
  8
Defpoints
 62
     0
100
AcDbPoint
 10
5030.804787621732
 20
-2488.822221996148
 30
0.0
  0
POINT
  5
50F42
330
3A187
100
AcDbEntity
  8
Defpoints
 62
     0
100
AcDbPoint
 10
5057.804787621734
 20
-2488.822221996148
 30
0.0
  0
ENDBLK
  5
3A192
330
3A187
100
AcDbEntity
  8
0
 48
0.5
100
AcDbBlockEnd
  0
BLOCK
  5
3A19D
330
3A193
100
AcDbEntity
  8
0
 48
0.5
100
AcDbBlockBegin
  2
*D10
 70
     1
 10
0.0
 20
0.0
 30
0.0
  3
*D10
  1

  0
LINE
  5
50F4C
330
3A193
100
AcDbEntity
  8
AM_5
100
AcDbLine
 10
5079.813004234249
 20
-2482.550693839596
 30
0.0
 11
5052.338337567572
 21
-2482.550693839596
 31
0.0
  0
LINE
  5
50F4D
330
3A193
100
AcDbEntity
  8
AM_5
100
AcDbLine
 10
5052.338337567572
 20
-2482.550693839596
 30
0.0
 11
5044.56943916784
 21
-2491.719359387319
 31
0.0
  0
LINE
  5
50F4E
330
3A193
100
AcDbEntity
  8
AM_5
100
AcDbLine
 10
5038.040136075625
 20
-2499.425084604978
 30
0.0
 11
5036.747204770237
 21
-2500.950970786691
 31
0.0
  0
MTEXT
  5
50F4F
330
3A193
100
AcDbEntity
  8
AM_5
 62
     2
100
AcDbMText
 10
5066.575670900917
 20
-2479.950693839596
 30
0.0
 40
3.2
 41
0.0
 71
     5
 72
     1
  1
2-%%c4.2×\U+22056.1サラ
 73
     1
 44
1.0
1001
ACAD
1000
MTEXTBEGIN
1070
    73
1070
     1
1070
    44
1040
1.0
1070
    74
1070
     0
1000
MTEXTEND
  0
LINE
  5
50F50
330
3A193
100
AcDbEntity
  8
AM_5
100
AcDbLine
 10
5039.333067381014
 20
-2497.899198423263
 30
0.0
 11
5043.276507862452
 21
-2493.245245569033
 31
0.0
  0
INSERT
  5
50F51
330
3A193
100
AcDbEntity
  8
AM_5
100
AcDbBlockReference
  2
GENDOT
 10
5039.333067381014
 20
-2497.899198423263
 30
0.0
 41
2.0
 42
2.0
 43
2.0
 50
49.72434577777747
  0
INSERT
  5
50F52
330
3A193
100
AcDbEntity
  8
AM_5
100
AcDbBlockReference
  2
GENDOT
 10
5043.276507862452
 20
-2493.245245569033
 30
0.0
 41
2.0
 42
2.0
 43
2.0
 50
229.7243457777774
  0
POINT
  5
50F53
330
3A193
100
AcDbEntity
  8
Defpoints
 62
     0
100
AcDbPoint
 10
5043.276507862452
 20
-2493.245245569033
 30
0.0
  0
POINT
  5
50F54
330
3A193
100
AcDbEntity
  8
Defpoints
 62
     0
100
AcDbPoint
 10
5039.333067381014
 20
-2497.899198423263
 30
0.0
  0
ENDBLK
  5
3A19E
330
3A193
100
AcDbEntity
  8
0
 48
0.5
100
AcDbBlockEnd
  0
BLOCK
  5
3A1AB
330
3A19F
100
AcDbEntity
  8
0
 48
0.5
100
AcDbBlockBegin
  2
*D11
 70
     1
 10
0.0
 20
0.0
 30
0.0
  3
*D11
  1

  0
LINE
  5
50F60
330
3A19F
100
AcDbEntity
  8
AM_5
100
AcDbLine
 10
5100.333400808048
 20
-2508.572221996149
 30
0.0
 11
5100.333400808048
 21
-2518.572222996148
 31
0.0
  0
LINE
  5
50F61
330
3A19F
100
AcDbEntity
  8
AM_5
100
AcDbLine
 10
5098.833400808048
 20
-2508.572221996149
 30
0.0
 11
5098.833400808048
 21
-2518.572222996148
 31
0.0
  0
LINE
  5
50F62
330
3A19F
100
AcDbEntity
  8
AM_5
100
AcDbLine
 10
5101.333400808048
 20
-2517.572222996148
 30
0.0
 11
5102.333400808048
 21
-2517.572222996148
 31
0.0
  0
LINE
  5
50F63
330
3A19F
100
AcDbEntity
  8
AM_5
100
AcDbLine
 10
5097.833400808048
 20
-2517.572222996148
 30
0.0
 11
5090.460067474716
 21
-2517.572222996148
 31
0.0
  0
LINE
  5
50F64
330
3A19F
100
AcDbEntity
  8
AM_5
100
AcDbLine
 10
5100.333400808048
 20
-2517.572222996148
 30
0.0
 11
5098.833400808048
 21
-2517.572222996148
 31
0.0
  0
INSERT
  5
50F65
330
3A19F
100
AcDbEntity
  8
AM_5
100
AcDbBlockReference
  2
_Dot
 10
5100.333400808048
 20
-2517.572222996148
 30
0.0
 50
180.0
  0
INSERT
  5
50F66
330
3A19F
100
AcDbEntity
  8
AM_5
100
AcDbBlockReference
  2
_Dot
 10
5098.833400808048
 20
-2517.572222996148
 30
0.0
  0
MTEXT
  5
50F67
330
3A19F
100
AcDbEntity
  8
AM_5
 62
     2
100
AcDbMText
 10
5093.646734141383
 20
-2514.972222996148
 30
0.0
 40
3.200000000000001
 41
0.0
 71
     5
 72
     1
  1
1.5
 73
     1
 44
1.0
1001
ACAD
1000
MTEXTBEGIN
1070
    73
1070
     1
1070
    44
1040
1.0
1070
    74
1070
     0
1000
MTEXTEND
  0
POINT
  5
50F68
330
3A19F
100
AcDbEntity
  8
Defpoints
 62
     0
100
AcDbPoint
 10
5100.333400808048
 20
-2507.572221996148
 30
0.0
  0
POINT
  5
50F69
330
3A19F
100
AcDbEntity
  8
Defpoints
 62
     0
100
AcDbPoint
 10
5098.833400808048
 20
-2507.572221996148
 30
0.0
  0
POINT
  5
50F6A
330
3A19F
100
AcDbEntity
  8
Defpoints
 62
     0
100
AcDbPoint
 10
5098.833400808048
 20
-2517.572222996148
 30
0.0
  0
ENDBLK
  5
3A1AC
330
3A19F
100
AcDbEntity
  8
0
 48
0.5
100
AcDbBlockEnd
  0
BLOCK
  5
3A1B7
330
3A1AD
100
AcDbEntity
  8
0
 48
0.5
100
AcDbBlockBegin
  2
*D12
 70
     1
 10
0.0
 20
0.0
 30
0.0
  3
*D12
  1

  0
LINE
  5
50F74
330
3A1AD
100
AcDbEntity
  8
AM_5
100
AcDbLine
 10
5100.333400808048
 20
-2508.572221996149
 30
0.0
 11
5100.333400808048
 21
-2518.572221996148
 31
0.0
  0
LINE
  5
50F75
330
3A1AD
100
AcDbEntity
  8
AM_5
100
AcDbLine
 10
5116.833400808048
 20
-2503.322221996146
 30
0.0
 11
5116.833400808048
 21
-2518.572221996148
 31
0.0
  0
LINE
  5
50F76
330
3A1AD
100
AcDbEntity
  8
AM_5
100
AcDbLine
 10
5101.333400808048
 20
-2517.572221996148
 30
0.0
 11
5115.83340080805
 21
-2517.572221996148
 31
0.0
  0
INSERT
  5
50F77
330
3A1AD
100
AcDbEntity
  8
AM_5
100
AcDbBlockReference
  2
_Dot
 10
5100.333400808048
 20
-2517.572221996148
 30
0.0
 50
180.0
  0
INSERT
  5
50F78
330
3A1AD
100
AcDbEntity
  8
AM_5
100
AcDbBlockReference
  2
_Dot
 10
5116.833400808048
 20
-2517.572221996148
 30
0.0
  0
MTEXT
  5
50F79
330
3A1AD
100
AcDbEntity
  8
AM_5
 62
     2
100
AcDbMText
 10
5108.583400808051
 20
-2514.972221996148
 30
0.0
 40
3.200000000000001
 41
0.0
 71
     5
 72
     1
  1
16.5
 73
     1
 44
1.0
1001
ACAD
1000
MTEXTBEGIN
1070
    73
1070
     1
1070
    44
1040
1.0
1070
    74
1070
     0
1000
MTEXTEND
  0
POINT
  5
50F7A
330
3A1AD
100
AcDbEntity
  8
Defpoints
 62
     0
100
AcDbPoint
 10
5100.333400808048
 20
-2507.572221996148
 30
0.0
  0
POINT
  5
50F7B
330
3A1AD
100
AcDbEntity
  8
Defpoints
 62
     0
100
AcDbPoint
 10
5116.833400808048
 20
-2502.322221996146
 30
0.0
  0
POINT
  5
50F7C
330
3A1AD
100
AcDbEntity
  8
Defpoints
 62
     0
100
AcDbPoint
 10
5116.833400808048
 20
-2517.572221996148
 30
0.0
  0
ENDBLK
  5
3A1B8
330
3A1AD
100
AcDbEntity
  8
0
 48
0.5
100
AcDbBlockEnd
  0
BLOCK
  5
3A1C3
330
3A1B9
100
AcDbEntity
  8
0
 48
0.5
100
AcDbBlockBegin
  2
*D13
 70
     1
 10
0.0
 20
0.0
 30
0.0
  3
*D13
  1

  0
LINE
  5
50F86
330
3A1B9
100
AcDbEntity
  8
AM_5
100
AcDbLine
 10
5116.333400808048
 20
-2487.322221996148
 30
0.0
 11
5124.333400808048
 21
-2487.322221996148
 31
0.0
  0
LINE
  5
50F87
330
3A1B9
100
AcDbEntity
  8
AM_5
100
AcDbLine
 10
5116.333400808044
 20
-2503.822221996149
 30
0.0
 11
5124.333400808048
 21
-2503.822221996149
 31
0.0
  0
LINE
  5
50F88
330
3A1B9
100
AcDbEntity
  8
AM_5
100
AcDbLine
 10
5123.333400808048
 20
-2488.322221996148
 30
0.0
 11
5123.333400808048
 21
-2502.82222199615
 31
0.0
  0
INSERT
  5
50F89
330
3A1B9
100
AcDbEntity
  8
AM_5
100
AcDbBlockReference
  2
_Dot
 10
5123.333400808048
 20
-2487.322221996148
 30
0.0
 50
90.0
  0
INSERT
  5
50F8A
330
3A1B9
100
AcDbEntity
  8
AM_5
100
AcDbBlockReference
  2
_Dot
 10
5123.333400808048
 20
-2503.822221996149
 30
0.0
 50
270.0
  0
MTEXT
  5
50F8B
330
3A1B9
100
AcDbEntity
  8
AM_5
 62
     2
100
AcDbMText
 10
5120.73340080805
 20
-2495.572221996148
 30
0.0
 40
3.200000000000001
 41
0.0
 71
     5
 72
     1
  1
16.5
 11
0.0000000000000001
 21
1.0
 31
0.0
 73
     1
 44
1.0
1001
ACAD
1000
MTEXTBEGIN
1070
    73
1070
     1
1070
    44
1040
1.0
1070
    74
1070
     0
1000
MTEXTEND
  0
POINT
  5
50F8C
330
3A1B9
100
AcDbEntity
  8
Defpoints
 62
     0
100
AcDbPoint
 10
5115.333400808048
 20
-2487.322221996148
 30
0.0
  0
POINT
  5
50F8D
330
3A1B9
100
AcDbEntity
  8
Defpoints
 62
     0
100
AcDbPoint
 10
5115.333400808044
 20
-2503.822221996149
 30
0.0
  0
POINT
  5
50F8E
330
3A1B9
100
AcDbEntity
  8
Defpoints
 62
     0
100
AcDbPoint
 10
5123.333400808048
 20
-2503.822221996149
 30
0.0
  0
ENDBLK
  5
3A1C4
330
3A1B9
100
AcDbEntity
  8
0
 48
0.5
100
AcDbBlockEnd
  0
BLOCK
  5
3A1CF
330
3A1C5
100
AcDbEntity
  8
0
 48
0.5
100
AcDbBlockBegin
  2
*D14
 70
     1
 10
0.0
 20
0.0
 30
0.0
  3
*D14
  1

  0
LINE
  5
50F98
330
3A1C5
100
AcDbEntity
  8
AM_5
100
AcDbLine
 10
5097.833400808048
 20
-2483.572221996148
 30
0.0
 11
5089.83340080805
 21
-2483.572221996148
 31
0.0
  0
LINE
  5
50F99
330
3A1C5
100
AcDbEntity
  8
AM_5
100
AcDbLine
 10
5097.833400808048
 20
-2507.572221996148
 30
0.0
 11
5089.83340080805
 21
-2507.572221996148
 31
0.0
  0
LINE
  5
50F9A
330
3A1C5
100
AcDbEntity
  8
AM_5
100
AcDbLine
 10
5090.833400808048
 20
-2484.572221996148
 30
0.0
 11
5090.833400808048
 21
-2506.572221996148
 31
0.0
  0
INSERT
  5
50F9B
330
3A1C5
100
AcDbEntity
  8
AM_5
100
AcDbBlockReference
  2
_Dot
 10
5090.833400808048
 20
-2483.572221996148
 30
0.0
 50
90.0
  0
INSERT
  5
50F9C
330
3A1C5
100
AcDbEntity
  8
AM_5
100
AcDbBlockReference
  2
_Dot
 10
5090.833400808048
 20
-2507.572221996148
 30
0.0
 50
270.0
  0
MTEXT
  5
50F9D
330
3A1C5
100
AcDbEntity
  8
AM_5
 62
     2
100
AcDbMText
 10
5088.23340080805
 20
-2495.572221996147
 30
0.0
 40
3.200000000000001
 41
0.0
 71
     5
 72
     1
  1
24
 11
0.0000000000000001
 21
1.0
 31
0.0
 73
     1
 44
1.0
1001
ACAD
1000
MTEXTBEGIN
1070
    73
1070
     1
1070
    44
1040
1.0
1070
    74
1070
     0
1000
MTEXTEND
  0
POINT
  5
50F9E
330
3A1C5
100
AcDbEntity
  8
Defpoints
 62
     0
100
AcDbPoint
 10
5098.833400808048
 20
-2483.572221996148
 30
0.0
  0
POINT
  5
50F9F
330
3A1C5
100
AcDbEntity
  8
Defpoints
 62
     0
100
AcDbPoint
 10
5098.833400808048
 20
-2507.572221996148
 30
0.0
  0
POINT
  5
50FA0
330
3A1C5
100
AcDbEntity
  8
Defpoints
 62
     0
100
AcDbPoint
 10
5090.833400808048
 20
-2507.572221996148
 30
0.0
  0
ENDBLK
  5
3A1D0
330
3A1C5
100
AcDbEntity
  8
0
 48
0.5
100
AcDbBlockEnd
  0
BLOCK
  5
3A1DB
330
3A1D1
100
AcDbEntity
  8
0
 48
0.5
100
AcDbBlockBegin
  2
*D15
 70
     1
 10
0.0
 20
0.0
 30
0.0
  3
*D15
  1

  0
LINE
  5
50FAA
330
3A1D1
100
AcDbEntity
  8
AM_5
100
AcDbLine
 10
4994.862557621734
 20
-2552.730888270823
 30
0.0
 11
4994.862557621734
 21
-2580.730888270822
 31
0.0
  0
LINE
  5
50FAB
330
3A1D1
100
AcDbEntity
  8
AM_5
100
AcDbLine
 10
5033.746987621732
 20
-2552.730888270823
 30
0.0
 11
5033.746987621732
 21
-2580.730888270822
 31
0.0
  0
LINE
  5
50FAC
330
3A1D1
100
AcDbEntity
  8
AM_5
100
AcDbLine
 10
4995.862557621734
 20
-2579.730888270822
 30
0.0
 11
5032.746987621733
 21
-2579.730888270822
 31
0.0
  0
INSERT
  5
50FAD
330
3A1D1
100
AcDbEntity
  8
AM_5
100
AcDbBlockReference
  2
_Dot
 10
4994.862557621734
 20
-2579.730888270822
 30
0.0
 50
180.0
  0
INSERT
  5
50FAE
330
3A1D1
100
AcDbEntity
  8
AM_5
100
AcDbBlockReference
  2
_Dot
 10
5033.746987621732
 20
-2579.730888270822
 30
0.0
  0
MTEXT
  5
50FAF
330
3A1D1
100
AcDbEntity
  8
AM_5
 62
     2
100
AcDbMText
 10
5014.304772621734
 20
-2577.130888270823
 30
0.0
 40
3.200000000000001
 41
0.0
 71
     5
 72
     1
  1
（39）
 73
     1
 44
1.0
1001
ACAD
1000
MTEXTBEGIN
1070
    73
1070
     1
1070
    44
1040
1.0
1070
    74
1070
     0
1000
MTEXTEND
  0
POINT
  5
50FB0
330
3A1D1
100
AcDbEntity
  8
Defpoints
 62
     0
100
AcDbPoint
 10
4994.862557621734
 20
-2551.730888270822
 30
0.0
  0
POINT
  5
50FB1
330
3A1D1
100
AcDbEntity
  8
Defpoints
 62
     0
100
AcDbPoint
 10
5033.746987621732
 20
-2551.730888270822
 30
0.0
  0
POINT
  5
50FB2
330
3A1D1
100
AcDbEntity
  8
Defpoints
 62
     0
100
AcDbPoint
 10
5033.746987621732
 20
-2579.730888270822
 30
0.0
  0
ENDBLK
  5
3A1DC
330
3A1D1
100
AcDbEntity
  8
0
 48
0.5
100
AcDbBlockEnd
  0
ENDSEC
  0
SECTION
  2
ENTITIES
  0
AMDTACMWBLOCKBOMENTITY
  5
1EB3A
330
1F
100
AcDbEntity
  8
AM_6
 92
        8
310
0800000000000000
  0
AMDTACMWBLOCKBOMENTITY
  5
1EB3B
330
1F
100
AcDbEntity
  8
AM_5
 92
        8
310
0800000000000000
  0
AMDTACMWBLOCKBOMENTITY
  5
1EB3C
330
1F
100
AcDbEntity
  8
AM_5
 92
        8
310
0800000000000000
  0
AMDTACMWBLOCKBOMENTITY
  5
1EB3D
330
1F
100
AcDbEntity
  8
AM_5
 92
        8
310
0800000000000000
  0
AMDTACMWBLOCKBOMENTITY
  5
1EB3E
330
1F
100
AcDbEntity
  8
AM_5
 92
        8
310
0800000000000000
  0
AMDTACMWBLOCKBOMENTITY
  5
1EB3F
330
1F
100
AcDbEntity
  8
AM_5
 92
        8
310
0800000000000000
  0
AMDTACMWBLOCKBOMENTITY
  5
1EB40
330
1F
100
AcDbEntity
  8
AM_5
 92
        8
310
0800000000000000
  0
AMDTACMWBLOCKBOMENTITY
  5
1EB41
330
1F
100
AcDbEntity
  8
AM_5
 92
        8
310
0800000000000000
  0
ARC
  5
2121D
330
1F
100
AcDbEntity
  8
001本体
 48
0.5
 60
     1
100
AcDbCircle
 10
4762.519581199091
 20
-2259.06618040198
 30
0.0
 40
17.0
100
AcDbArc
 50
113.1764439438205
 51
176.107466317104
  0
AMDTACMWBLOCKBOMENTITY
  5
214E3
330
1F
100
AcDbEntity
  8
AM_5
 92
        8
310
0800000000000000
  0
AMDTACMWBLOCKBOMENTITY
  5
21FF0
330
1F
100
AcDbEntity
  8
AM_5
 92
        8
310
0800000000000000
  0
AMDTACMWBLOCKBOMENTITY
  5
21FF1
330
1F
100
AcDbEntity
  8
AM_5
 92
        8
310
0800000000000000
  0
AMDTACMWBLOCKBOMENTITY
  5
21FF2
330
1F
100
AcDbEntity
  8
AM_5
 92
        8
310
0800000000000000
  0
AMDTACMWBLOCKBOMENTITY
  5
21FF3
330
1F
100
AcDbEntity
  8
AM_5
 92
        8
310
0800000000000000
  0
AMDTACMWBLOCKBOMENTITY
  5
2627D
330
1F
100
AcDbEntity
  8
AM_6
 92
        8
310
0800000000000000
  0
AMDTACMWBLOCKBOMENTITY
  5
2627E
330
1F
100
AcDbEntity
  8
AM_5
 92
        8
310
0800000000000000
  0
AMDTACMWBLOCKBOMENTITY
  5
2627F
330
1F
100
AcDbEntity
  8
AM_5
 92
        8
310
0800000000000000
  0
AMDTACMWBLOCKBOMENTITY
  5
26280
330
1F
100
AcDbEntity
  8
AM_5
 92
        8
310
0800000000000000
  0
AMDTACMWBLOCKBOMENTITY
  5
26281
330
1F
100
AcDbEntity
  8
AM_5
 92
        8
310
0800000000000000
  0
AMDTACMWBLOCKBOMENTITY
  5
26282
330
1F
100
AcDbEntity
  8
AM_5
 92
        8
310
0800000000000000
  0
AMDTACMWBLOCKBOMENTITY
  5
26283
330
1F
100
AcDbEntity
  8
AM_5
 92
        8
310
0800000000000000
  0
LINE
  5
39EEB
330
1F
100
AcDbEntity
  8
AM_0
100
AcDbLine
 10
4914.047826521642
 20
-2414.982271409579
 30
0.0
 11
5024.047826521641
 21
-2414.982271409579
 31
0.0
  0
LINE
  5
39EEC
330
1F
100
AcDbEntity
  8
AM_0
100
AcDbLine
 10
4914.047826521642
 20
-2446.982271409579
 30
0.0
 11
5024.047826521641
 21
-2446.982271409579
 31
0.0
  0
LINE
  5
39EED
330
1F
100
AcDbEntity
  8
AM_2
100
AcDbLine
 10
4914.047826521642
 20
-2438.982271409579
 30
0.0
 11
5024.047826521641
 21
-2438.982271409579
 31
0.0
  0
LINE
  5
39EEE
330
1F
100
AcDbEntity
  8
AM_2
100
AcDbLine
 10
4914.047826521642
 20
-2430.982271409579
 30
0.0
 11
5024.047826521641
 21
-2430.982271409579
 31
0.0
  0
LINE
  5
39EEF
330
1F
100
AcDbEntity
  8
AM_2
100
AcDbLine
 10
4914.047826521642
 20
-2422.982271409579
 30
0.0
 11
5024.047826521641
 21
-2422.982271409579
 31
0.0
  0
LINE
  5
39EF0
330
1F
100
AcDbEntity
  8
AM_2
100
AcDbLine
 10
4934.04782652164
 20
-2414.982271409579
 30
0.0
 11
4934.04782652164
 21
-2446.982271409579
 31
0.0
  0
MTEXT
  5
39EF1
330
1F
100
AcDbEntity
  8
AM_6
100
AcDbMText
 10
4924.047826521642
 20
-2442.982271409579
 30
0.0
 40
3.2
 41
20.0
 71
     5
 72
     5
  1
仕上げ
 73
     1
 44
1.0
1001
ACAD
1000
MTEXTBEGIN
1070
    73
1070
     1
1070
    44
1040
1.0
1070
    74
1070
     0
1000
MTEXTEND
  0
MTEXT
  5
39EF2
330
1F
100
AcDbEntity
  8
AM_6
100
AcDbMText
 10
4924.047826521642
 20
-2434.982271409579
 30
0.0
 40
3.2
 41
20.0
 71
     5
 72
     5
  1
材　質
 73
     1
 44
1.0
1001
ACAD
1000
MTEXTBEGIN
1070
    73
1070
     1
1070
    44
1040
1.0
1070
    74
1070
     0
1000
MTEXTEND
  0
MTEXT
  5
39EF3
330
1F
100
AcDbEntity
  8
AM_6
100
AcDbMText
 10
4924.047826521642
 20
-2418.982271409579
 30
0.0
 40
3.2
 41
20.0
 71
     5
 72
     5
  1
品　名
 73
     1
 44
1.0
1001
ACAD
1000
MTEXTBEGIN
1070
    73
1070
     1
1070
    44
1040
1.0
1070
    74
1070
     0
1000
MTEXTEND
  0
MTEXT
  5
39EF4
330
1F
100
AcDbEntity
  8
AM_6
100
AcDbMText
 10
4924.047826521642
 20
-2426.982271409579
 30
0.0
 40
3.2
 41
20.0
 71
     5
 72
     5
  1
品　番
 73
     1
 44
1.0
1001
ACAD
1000
MTEXTBEGIN
1070
    73
1070
     1
1070
    44
1040
1.0
1070
    74
1070
     0
1000
MTEXTEND
  0
MTEXT
  5
39EF5
330
1F
100
AcDbEntity
  8
AM_6
100
AcDbMText
 10
4934.04782652164
 20
-2442.982271409579
 30
0.0
 40
3.2
 41
90.0
 71
     4
 72
     5
  1
　ショットブラスト
 73
     1
 44
1.0
1001
ACAD
1000
MTEXTBEGIN
1070
    73
1070
     1
1070
    44
1040
1.0
1070
    74
1070
     0
1000
MTEXTEND
  0
MTEXT
  5
39EF6
330
1F
100
AcDbEntity
  8
AM_6
100
AcDbMText
 10
4934.04782652164
 20
-2434.982271409579
 30
0.0
 40
3.2
 41
90.0
 71
     4
 72
     5
  1
　ステンレス
 73
     1
 44
1.0
1001
ACAD
1000
MTEXTBEGIN
1070
    73
1070
     1
1070
    44
1040
1.0
1070
    74
1070
     0
1000
MTEXTEND
  0
MTEXT
  5
39EF7
330
1F
100
AcDbEntity
  8
AM_6
100
AcDbMText
 10
4934.04782652164
 20
-2426.982271409579
 30
0.0
 40
3.2
 41
90.0
 71
     4
 72
     5
  1
　DB-60-1
 73
     1
 44
1.0
1001
ACAD
1000
MTEXTBEGIN
1070
    73
1070
     1
1070
    44
1040
1.0
1070
    74
1070
     0
1000
MTEXTEND
  0
MTEXT
  5
39EF8
330
1F
100
AcDbEntity
  8
AM_6
100
AcDbMText
 10
4934.04782652164
 20
-2418.982271409579
 30
0.0
 40
3.2
 41
90.0
 71
     4
 72
     5
  1
　落し受（下坪）
 73
     1
 44
1.0
1001
ACAD
1000
MTEXTBEGIN
1070
    73
1070
     1
1070
    44
1040
1.0
1070
    74
1070
     0
1000
MTEXTEND
  0
LINE
  5
39EF9
330
1F
100
AcDbEntity
  8
AM_0
100
AcDbLine
 10
5024.047826521641
 20
-2414.982271409579
 30
0.0
 11
5024.047826521641
 21
-2446.982271409579
 31
0.0
  0
LINE
  5
39EFA
330
1F
100
AcDbEntity
  8
size
100
AcDbLine
 10
4902.54782652164
 20
-2406.482271409579
 30
0.0
 11
5199.547826521642
 21
-2406.482271409579
 31
0.0
1001
GENIUS_GENREC_14
1002
{
1000
PYDIR
1011
4902.54782652164
1021
-2319.482271409579
1031
0.0
1002
}
1002
{
1000
PXDIR
1011
5322.547826521642
1021
-2616.482271409579
1031
0.0
1002
}
1002
{
1000
PORI
1011
4902.54782652164
1021
-2616.482271409579
1031
0.0
1002
}
1002
{
1000
PINS
1011
5112.547826521641
1021
-2467.982271409578
1031
0.0
1002
}
1002
{
1000
HVAL
1000
297
1002
}
1002
{
1000
H
1070
     2
1002
}
1002
{
1000
WVAL
1000
420
1002
}
1002
{
1000
W
1070
     2
1002
}
1002
{
1000
C
1070
     4
1002
}
1001
GENIUS_GENOBJ-N-REC_13
1002
{
1000
OWNER
1000
GEN
1002
}
1001
GENIUS_GENODEF_13
1002
{
1000
HIER
1070
     0
1002
}
1002
{
1000
MANEDIT
1070
     0
1002
}
1002
{
1000
NOSEL
1070
     0
1002
}
1002
{
1000
BEHIND
1070
     0
1002
}
1002
{
1000
OTHER
1070
     0
1002
}
1002
{
1000
REACTOR
1002
}
  0
LINE
  5
39EFB
330
1F
100
AcDbEntity
  8
size
100
AcDbLine
 10
5199.547826521642
 20
-2406.482271409579
 30
0.0
 11
5199.547826521642
 21
-2616.482271409579
 31
0.0
1001
GENIUS_GENREC_14
1002
{
1000
PYDIR
1011
4902.54782652164
1021
-2319.482271409579
1031
0.0
1002
}
1002
{
1000
PXDIR
1011
5322.547826521642
1021
-2616.482271409579
1031
0.0
1002
}
1002
{
1000
PORI
1011
4902.54782652164
1021
-2616.482271409579
1031
0.0
1002
}
1002
{
1000
PINS
1011
5112.547826521641
1021
-2467.982271409578
1031
0.0
1002
}
1002
{
1000
HVAL
1000
297
1002
}
1002
{
1000
H
1070
     2
1002
}
1002
{
1000
WVAL
1000
420
1002
}
1002
{
1000
W
1070
     2
1002
}
1002
{
1000
C
1070
     4
1002
}
1001
GENIUS_GENOBJ-N-REC_13
1002
{
1000
OWNER
1000
GEN
1002
}
1001
GENIUS_GENODEF_13
1002
{
1000
HIER
1070
     0
1002
}
1002
{
1000
MANEDIT
1070
     0
1002
}
1002
{
1000
NOSEL
1070
     0
1002
}
1002
{
1000
BEHIND
1070
     0
1002
}
1002
{
1000
OTHER
1070
     0
1002
}
1002
{
1000
REACTOR
1002
}
  0
LINE
  5
39EFC
330
1F
100
AcDbEntity
  8
waku
100
AcDbLine
 10
4914.047826521642
 20
-2607.982271409579
 30
0.0
 11
5188.047826521642
 21
-2607.982271409579
 31
0.0
1001
GENIUS_GENREC_14
1002
{
1000
PYDIR
1011
4902.54782652164
1021
-2319.482271409579
1031
0.0
1002
}
1002
{
1000
PXDIR
1011
5322.547826521642
1021
-2616.482271409579
1031
0.0
1002
}
1002
{
1000
PORI
1011
4902.54782652164
1021
-2616.482271409579
1031
0.0
1002
}
1002
{
1000
PINS
1011
5112.547826521641
1021
-2467.982271409578
1031
0.0
1002
}
1002
{
1000
HVAL
1000
297
1002
}
1002
{
1000
H
1070
     2
1002
}
1002
{
1000
WVAL
1000
420
1002
}
1002
{
1000
W
1070
     2
1002
}
1002
{
1000
C
1070
     4
1002
}
  0
LINE
  5
39EFD
330
1F
100
AcDbEntity
  8
waku
100
AcDbLine
 10
5188.047826521642
 20
-2414.982271409579
 30
0.0
 11
4914.047826521642
 21
-2414.982271409579
 31
0.0
1001
GENIUS_GENREC_14
1002
{
1000
PYDIR
1011
4779.547826521642
1021
-2406.482271409579
1031
0.0
1002
}
1002
{
1000
PXDIR
1011
5199.547826521642
1021
-2703.482271409578
1031
0.0
1002
}
1002
{
1000
PORI
1011
4779.547826521642
1021
-2703.482271409578
1031
0.0
1002
}
1002
{
1000
PINS
1011
4989.547826521642
1021
-2554.982271409579
1031
0.0
1002
}
1002
{
1000
HVAL
1000
297
1002
}
1002
{
1000
H
1070
     2
1002
}
1002
{
1000
WVAL
1000
420
1002
}
1002
{
1000
W
1070
     2
1002
}
1002
{
1000
C
1070
     4
1002
}
1001
GENIUS_GENOBJ-N-REC_13
1002
{
1000
OWNER
1000
GEN
1002
}
1001
GENIUS_GENODEF_13
1002
{
1000
HIER
1070
     0
1002
}
1002
{
1000
MANEDIT
1070
     0
1002
}
1002
{
1000
NOSEL
1070
     0
1002
}
1002
{
1000
BEHIND
1070
     0
1002
}
1002
{
1000
OTHER
1070
     0
1002
}
1002
{
1000
REACTOR
1002
}
  0
LINE
  5
39EFE
330
1F
100
AcDbEntity
  8
waku
100
AcDbLine
 10
4914.047826521642
 20
-2414.982271409579
 30
0.0
 11
4914.047826521642
 21
-2607.982271409579
 31
0.0
1001
GENIUS_GENREC_14
1002
{
1000
PYDIR
1011
4902.54782652164
1021
-2319.482271409579
1031
0.0
1002
}
1002
{
1000
PXDIR
1011
5322.547826521642
1021
-2616.482271409579
1031
0.0
1002
}
1002
{
1000
PORI
1011
4902.54782652164
1021
-2616.482271409579
1031
0.0
1002
}
1002
{
1000
PINS
1011
5112.547826521641
1021
-2467.982271409578
1031
0.0
1002
}
1002
{
1000
HVAL
1000
297
1002
}
1002
{
1000
H
1070
     2
1002
}
1002
{
1000
WVAL
1000
420
1002
}
1002
{
1000
W
1070
     2
1002
}
1002
{
1000
C
1070
     4
1002
}
1001
GENIUS_GENOBJ-N-REC_13
1002
{
1000
OWNER
1000
GEN
1002
}
1001
GENIUS_GENODEF_13
1002
{
1000
HIER
1070
     0
1002
}
1002
{
1000
MANEDIT
1070
     0
1002
}
1002
{
1000
NOSEL
1070
     0
1002
}
1002
{
1000
BEHIND
1070
     0
1002
}
1002
{
1000
OTHER
1070
     0
1002
}
1002
{
1000
REACTOR
1002
}
  0
LINE
  5
39EFF
330
1F
100
AcDbEntity
  8
waku
100
AcDbLine
 10
5188.047826521642
 20
-2607.982271409579
 30
0.0
 11
5188.047826521642
 21
-2414.982271409579
 31
0.0
1001
GENIUS_GENREC_14
1002
{
1000
PYDIR
1011
4779.547826521642
1021
-2400.482271409579
1031
0.0
1002
}
1002
{
1000
PXDIR
1011
5199.547826521642
1021
-2697.482271409579
1031
0.0
1002
}
1002
{
1000
PORI
1011
4779.547826521642
1021
-2697.482271409579
1031
0.0
1002
}
1002
{
1000
PINS
1011
4989.547826521642
1021
-2548.982271409579
1031
0.0
1002
}
1002
{
1000
HVAL
1000
297
1002
}
1002
{
1000
H
1070
     2
1002
}
1002
{
1000
WVAL
1000
420
1002
}
1002
{
1000
W
1070
     2
1002
}
1002
{
1000
C
1070
     4
1002
}
1001
GENIUS_GENOBJ-N-REC_13
1002
{
1000
OWNER
1000
GEN
1002
}
1001
GENIUS_GENODEF_13
1002
{
1000
HIER
1070
     0
1002
}
1002
{
1000
MANEDIT
1070
     0
1002
}
1002
{
1000
NOSEL
1070
     0
1002
}
1002
{
1000
BEHIND
1070
     0
1002
}
1002
{
1000
OTHER
1070
     0
1002
}
1002
{
1000
REACTOR
1002
}
  0
LINE
  5
39F00
330
1F
100
AcDbEntity
  8
size
100
AcDbLine
 10
4902.54782652164
 20
-2406.482271409579
 30
0.0
 11
4902.54782652164
 21
-2616.482271409579
 31
0.0
1001
GENIUS_GENREC_14
1002
{
1000
PYDIR
1011
4902.54782652164
1021
-2319.482271409579
1031
0.0
1002
}
1002
{
1000
PXDIR
1011
5322.547826521642
1021
-2616.482271409579
1031
0.0
1002
}
1002
{
1000
PORI
1011
4902.54782652164
1021
-2616.482271409579
1031
0.0
1002
}
1002
{
1000
PINS
1011
5112.547826521641
1021
-2467.982271409578
1031
0.0
1002
}
1002
{
1000
HVAL
1000
297
1002
}
1002
{
1000
H
1070
     2
1002
}
1002
{
1000
WVAL
1000
420
1002
}
1002
{
1000
W
1070
     2
1002
}
1002
{
1000
C
1070
     4
1002
}
1001
GENIUS_GENOBJ-N-REC_13
1002
{
1000
OWNER
1000
GEN
1002
}
1001
GENIUS_GENODEF_13
1002
{
1000
HIER
1070
     0
1002
}
1002
{
1000
MANEDIT
1070
     0
1002
}
1002
{
1000
NOSEL
1070
     0
1002
}
1002
{
1000
BEHIND
1070
     0
1002
}
1002
{
1000
OTHER
1070
     0
1002
}
1002
{
1000
REACTOR
1002
}
  0
LINE
  5
39F01
330
1F
100
AcDbEntity
  8
size
100
AcDbLine
 10
4902.54782652164
 20
-2616.482271409579
 30
0.0
 11
5199.547826521642
 21
-2616.482271409579
 31
0.0
1001
GENIUS_GENREC_14
1002
{
1000
PYDIR
1011
4902.54782652164
1021
-2319.482271409579
1031
0.0
1002
}
1002
{
1000
PXDIR
1011
5322.547826521642
1021
-2616.482271409579
1031
0.0
1002
}
1002
{
1000
PORI
1011
4902.54782652164
1021
-2616.482271409579
1031
0.0
1002
}
1002
{
1000
PINS
1011
5112.547826521641
1021
-2467.982271409578
1031
0.0
1002
}
1002
{
1000
HVAL
1000
297
1002
}
1002
{
1000
H
1070
     2
1002
}
1002
{
1000
WVAL
1000
420
1002
}
1002
{
1000
W
1070
     2
1002
}
1002
{
1000
C
1070
     4
1002
}
1001
GENIUS_GENOBJ-N-REC_13
1002
{
1000
OWNER
1000
GEN
1002
}
1001
GENIUS_GENODEF_13
1002
{
1000
HIER
1070
     0
1002
}
1002
{
1000
MANEDIT
1070
     0
1002
}
1002
{
1000
NOSEL
1070
     0
1002
}
1002
{
1000
BEHIND
1070
     0
1002
}
1002
{
1000
OTHER
1070
     0
1002
}
1002
{
1000
REACTOR
1002
}
  0
POINT
  5
39F02
330
1F
100
AcDbEntity
  8
AM_0
  6
Continuous
 62
     3
100
AcDbPoint
 10
4980.804787621734
 20
-2550.230888270822
 30
0.0
  0
POINT
  5
39F03
330
1F
100
AcDbEntity
  8
AM_0
  6
Continuous
 62
     3
100
AcDbPoint
 10
5047.804787621732
 20
-2550.230888270822
 30
0.0
  0
POINT
  5
39F04
330
1F
100
AcDbEntity
  8
AM_0
  6
Continuous
 62
     3
100
AcDbPoint
 10
4987.304787621734
 20
-2501.672231996148
 30
0.0
  0
POINT
  5
39F05
330
1F
100
AcDbEntity
  8
AM_0
  6
Continuous
 62
     3
100
AcDbPoint
 10
5041.304787621733
 20
-2501.672231996148
 30
0.0
  0
POINT
  5
39F06
330
1F
100
AcDbEntity
  8
AM_0
  6
Continuous
 62
     3
100
AcDbPoint
 10
4987.304787621734
 20
-2501.672231996148
 30
0.0
  0
POINT
  5
39F07
330
1F
100
AcDbEntity
  8
AM_0
  6
Continuous
 62
     3
100
AcDbPoint
 10
4980.804787621734
 20
-2507.572221996148
 30
0.0
  0
POINT
  5
39F08
330
1F
100
AcDbEntity
  8
AM_0
  6
Continuous
 62
     3
100
AcDbPoint
 10
5028.804787621734
 20
-2502.322221996148
 30
0.0
  0
POINT
  5
39F09
330
1F
100
AcDbEntity
  8
AM_0
  6
Continuous
 62
     3
100
AcDbPoint
 10
5047.804787621732
 20
-2507.572221996148
 30
0.0
  0
POINT
  5
39F0A
330
1F
100
AcDbEntity
  8
AM_0
  6
Continuous
 62
     3
100
AcDbPoint
 10
5041.304787621733
 20
-2501.672231996148
 30
0.0
  0
POINT
  5
39F0B
330
1F
100
AcDbEntity
  8
AM_0
  6
Continuous
 62
     3
100
AcDbPoint
 10
5047.804787621732
 20
-2507.572221996148
 30
0.0
  0
POINT
  5
39F0C
330
1F
100
AcDbEntity
  8
AM_0
  6
Continuous
 62
     3
100
AcDbPoint
 10
5028.804787621734
 20
-2488.822221996148
 30
0.0
  0
POINT
  5
39F0D
330
1F
100
AcDbEntity
  8
AM_0
  6
Continuous
 62
     3
100
AcDbPoint
 10
5047.804787621732
 20
-2483.572221996148
 30
0.0
  0
POINT
  5
39F0E
330
1F
100
AcDbEntity
  8
AM_0
  6
Continuous
 62
     3
100
AcDbPoint
 10
5028.804787621734
 20
-2488.822221996148
 30
0.0
  0
POINT
  5
39F0F
330
1F
100
AcDbEntity
  8
AM_0
  6
Continuous
 62
     3
100
AcDbPoint
 10
5028.804787621734
 20
-2502.322221996148
 30
0.0
  0
POINT
  5
39F10
330
1F
100
AcDbEntity
  8
AM_0
  6
Continuous
 62
     3
100
AcDbPoint
 10
5100.333400808048
 20
-2507.572221996148
 30
0.0
  0
POINT
  5
39F11
330
1F
100
AcDbEntity
  8
AM_0
  6
Continuous
 62
     3
100
AcDbPoint
 10
5098.833400808048
 20
-2507.572221996148
 30
0.0
  0
POINT
  5
39F12
330
1F
100
AcDbEntity
  8
AM_0
  6
Continuous
 62
     3
100
AcDbPoint
 10
5098.833400808048
 20
-2483.572221996148
 30
0.0
  0
POINT
  5
39F13
330
1F
100
AcDbEntity
  8
AM_0
  6
Continuous
 62
     3
100
AcDbPoint
 10
5098.833400808048
 20
-2507.572221996148
 30
0.0
  0
POINT
  5
39F14
330
1F
100
AcDbEntity
  8
AM_0
  6
Continuous
 62
     3
100
AcDbPoint
 10
5098.833400808048
 20
-2507.572221996148
 30
0.0
  0
POINT
  5
39F15
330
1F
100
AcDbEntity
  8
AM_0
  6
Continuous
 62
     3
100
AcDbPoint
 10
5116.833400808048
 20
-2503.822221996149
 30
0.0
  0
POINT
  5
39F16
330
1F
100
AcDbEntity
  8
AM_0
  6
Continuous
 62
     3
100
AcDbPoint
 10
4980.804787621734
 20
-2507.572221996148
 30
0.0
  0
POINT
  5
39F17
330
1F
100
AcDbEntity
  8
AM_0
  6
Continuous
 62
     3
100
AcDbPoint
 10
4997.804787621732
 20
-2502.322221996148
 30
0.0
  0
POINT
  5
39F18
330
1F
100
AcDbEntity
  8
AM_0
  6
Continuous
 62
     3
100
AcDbPoint
 10
4997.804787621732
 20
-2502.322221996148
 30
0.0
  0
POINT
  5
39F19
330
1F
100
AcDbEntity
  8
AM_0
  6
Continuous
 62
     3
100
AcDbPoint
 10
5030.804787621732
 20
-2502.322221996148
 30
0.0
  0
POINT
  5
39F1A
330
1F
100
AcDbEntity
  8
AM_0
  6
Continuous
 62
     3
100
AcDbPoint
 10
5030.804787621732
 20
-2502.322221996148
 30
0.0
  0
POINT
  5
39F1B
330
1F
100
AcDbEntity
  8
AM_0
  6
Continuous
 62
     3
100
AcDbPoint
 10
5047.804787621732
 20
-2507.572221996148
 30
0.0
  0
POINT
  5
39F1C
330
1F
100
AcDbEntity
  8
AM_0
  6
Continuous
 62
     3
100
AcDbPoint
 10
5033.746987621732
 20
-2551.730888270822
 30
0.0
  0
POINT
  5
39F1D
330
1F
100
AcDbEntity
  8
AM_0
  6
Continuous
 62
     3
100
AcDbPoint
 10
4994.862557621734
 20
-2551.730888270822
 30
0.0
  0
POINT
  5
39F1E
330
1F
100
AcDbEntity
  8
AM_0
  6
Continuous
 62
     3
100
AcDbPoint
 10
5116.833400808048
 20
-2503.822221996149
 30
0.0
  0
POINT
  5
39F1F
330
1F
100
AcDbEntity
  8
AM_0
  6
Continuous
 62
     3
100
AcDbPoint
 10
5100.333400808048
 20
-2507.572221996148
 30
0.0
  0
POINT
  5
39F20
330
1F
100
AcDbEntity
  8
AM_0
  6
Continuous
 62
     3
100
AcDbPoint
 10
5116.833400808048
 20
-2503.822221996149
 30
0.0
  0
POINT
  5
39F21
330
1F
100
AcDbEntity
  8
AM_0
  6
Continuous
 62
     3
100
AcDbPoint
 10
5116.833400808048
 20
-2487.322221996148
 30
0.0
  0
LINE
  5
39F22
330
1F
100
AcDbEntity
  8
AM_7
  6
CENTER
100
AcDbLine
 10
5014.304787621735
 20
-2547.230888270823
 30
0.0
 11
5014.304787621735
 21
-2572.730888270822
 31
0.0
  0
LINE
  5
39F23
330
1F
100
AcDbEntity
  8
AM_0
  6
Continuous
 62
     7
100
AcDbLine
 10
4980.804787621734
 20
-2551.730888270822
 30
0.0
 11
5047.804787621732
 21
-2551.730888270822
 31
0.0
  0
LINE
  5
39F24
330
1F
100
AcDbEntity
  8
AM_0
  6
Continuous
 62
     7
100
AcDbLine
 10
5047.804787621732
 20
-2550.230888270822
 30
0.0
 11
4980.804787621734
 21
-2550.230888270822
 31
0.0
  0
LINE
  5
39F25
330
1F
100
AcDbEntity
  8
AM_7
  6
CENTER
100
AcDbLine
 10
4977.804787621733
 20
-2495.572221996148
 30
0.0
 11
5050.804787621732
 21
-2495.572221996148
 31
0.0
  0
LINE
  5
39F26
330
1F
100
AcDbEntity
  8
AM_0
  6
Continuous
 62
     7
100
AcDbLine
 10
4980.804787621734
 20
-2551.730888270822
 30
0.0
 11
4994.862557621734
 21
-2551.730888270822
 31
0.0
  0
LINE
  5
39F27
330
1F
100
AcDbEntity
  8
AM_0
  6
Continuous
 62
     7
100
AcDbLine
 10
4980.804787621734
 20
-2550.230888270822
 30
0.0
 11
4980.804787621734
 21
-2551.730888270822
 31
0.0
  0
LINE
  5
39F28
330
1F
100
AcDbEntity
  8
AM_7
  6
CENTER
100
AcDbLine
 10
4987.304787621734
 20
-2489.472221996149
 30
0.0
 11
4987.304787621734
 21
-2501.672231996148
 31
0.0
  0
LINE
  5
39F29
330
1F
100
AcDbEntity
  8
AM_0
  6
Continuous
 62
     7
100
AcDbLine
 10
5033.746987621732
 20
-2551.730888270822
 30
0.0
 11
5047.804787621732
 21
-2551.730888270822
 31
0.0
  0
LINE
  5
39F2A
330
1F
100
AcDbEntity
  8
AM_0
  6
Continuous
 62
     7
100
AcDbLine
 10
5047.804787621732
 20
-2551.730888270822
 30
0.0
 11
5047.804787621732
 21
-2550.230888270822
 31
0.0
  0
LINE
  5
39F2B
330
1F
100
AcDbEntity
  8
AM_7
  6
CENTER
100
AcDbLine
 10
5014.304787621735
 20
-2480.572221996148
 30
0.0
 11
5014.304787621735
 21
-2510.572221996148
 31
0.0
  0
LINE
  5
39F2C
330
1F
100
AcDbEntity
  8
AM_7
  6
CENTER
100
AcDbLine
 10
5041.304787621733
 20
-2489.472221996149
 30
0.0
 11
5041.304787621733
 21
-2501.672231996148
 31
0.0
  0
ARC
  5
39F2D
330
1F
100
AcDbEntity
  8
AM_0
  6
Continuous
 62
     7
100
AcDbCircle
 10
4994.862557621734
 20
-2553.230888270822
 30
0.0
 40
1.5
100
AcDbArc
 50
4.411758199979108
 51
90.0
  0
ARC
  5
39F2E
330
1F
100
AcDbEntity
  8
AM_0
  6
Continuous
 62
     7
100
AcDbCircle
 10
5033.746987621732
 20
-2553.230888270822
 30
0.0
 40
1.5
100
AcDbArc
 50
90.0
 51
175.588149999975
  0
ARC
  5
39F2F
330
1F
100
AcDbEntity
  8
AM_0
  6
Continuous
 62
     7
100
AcDbCircle
 10
5014.304787621735
 20
-2551.730888270822
 30
0.0
 40
18.0
100
AcDbArc
 50
184.4117200000169
 51
355.5882799999831
  0
ARC
  5
39F30
330
1F
100
AcDbEntity
  8
AM_0
  6
Continuous
 62
     7
100
AcDbCircle
 10
4999.804787621734
 20
-2500.322221996148
 30
0.0
 40
2.0
100
AcDbArc
 50
180.0
 51
270.0
  0
CIRCLE
  5
39F31
330
1F
100
AcDbEntity
  8
AM_0
  6
Continuous
 62
     7
100
AcDbCircle
 10
4987.304787621734
 20
-2495.572221996148
 30
0.0
 40
3.049999999999998
  0
CIRCLE
  5
39F32
330
1F
100
AcDbEntity
  8
AM_0
  6
Continuous
 62
     7
100
AcDbCircle
 10
4987.304787621734
 20
-2495.572221996148
 30
0.0
 40
2.099999899999998
  0
CIRCLE
  5
39F33
330
1F
100
AcDbEntity
  8
AM_0
  6
Continuous
 62
     7
100
AcDbCircle
 10
5041.304787621733
 20
-2495.572221996148
 30
0.0
 40
3.049999999999998
  0
CIRCLE
  5
39F34
330
1F
100
AcDbEntity
  8
AM_0
  6
Continuous
 62
     7
100
AcDbCircle
 10
5041.304787621733
 20
-2495.572221996148
 30
0.0
 40
2.099999899999998
  0
POLYLINE
  5
39F35
330
1F
100
AcDbEntity
  8
AM_0
  6
Continuous
 62
     7
100
AcDb2dPolyline
 66
     1
 10
0.0
 20
0.0
 30
0.0
  0
VERTEX
  5
39F36
330
39F35
100
AcDbEntity
  8
AM_0
  6
Continuous
 62
     7
100
AcDbVertex
100
AcDb2dVertex
 10
4999.804787621734
 20
-2502.322221996148
 30
0.0
  0
VERTEX
  5
39F37
330
39F35
100
AcDbEntity
  8
AM_0
  6
Continuous
 62
     7
100
AcDbVertex
100
AcDb2dVertex
 10
5028.804787621734
 20
-2502.322221996148
 30
0.0
  0
SEQEND
  5
39F38
330
39F35
100
AcDbEntity
  8
AM_0
  6
Continuous
 62
     7
  0
POLYLINE
  5
39F39
330
1F
100
AcDbEntity
  8
AM_0
  6
Continuous
 62
     7
100
AcDb2dPolyline
 66
     1
 10
0.0
 20
0.0
 30
0.0
  0
VERTEX
  5
39F3A
330
39F39
100
AcDbEntity
  8
AM_0
  6
Continuous
 62
     7
100
AcDbVertex
100
AcDb2dVertex
 10
5028.804787621734
 20
-2502.322221996148
 30
0.0
 42
0.096816877
  0
VERTEX
  5
39F3B
330
39F39
100
AcDbEntity
  8
AM_0
  6
Continuous
 62
     7
100
AcDbVertex
100
AcDb2dVertex
 10
5029.799657621733
 20
-2502.040901996148
 30
0.0
 42
0.15869667
  0
VERTEX
  5
39F3C
330
39F39
100
AcDbEntity
  8
AM_0
  6
Continuous
 62
     7
100
AcDbVertex
100
AcDb2dVertex
 10
5030.523437621734
 20
-2501.317101996149
 30
0.0
 42
0.096818103
  0
VERTEX
  5
39F3D
330
39F39
100
AcDbEntity
  8
AM_0
  6
Continuous
 62
     7
100
AcDbVertex
100
AcDb2dVertex
 10
5030.804787621732
 20
-2500.322221996148
 30
0.0
  0
SEQEND
  5
39F3E
330
39F39
100
AcDbEntity
  8
AM_0
  6
Continuous
 62
     7
  0
POLYLINE
  5
39F3F
330
1F
100
AcDbEntity
  8
AM_0
  6
Continuous
 62
     7
100
AcDb2dPolyline
 66
     1
 10
0.0
 20
0.0
 30
0.0
  0
VERTEX
  5
39F40
330
39F3F
100
AcDbEntity
  8
AM_0
  6
Continuous
 62
     7
100
AcDbVertex
100
AcDb2dVertex
 10
5030.804787621732
 20
-2500.322221996148
 30
0.0
  0
VERTEX
  5
39F41
330
39F3F
100
AcDbEntity
  8
AM_0
  6
Continuous
 62
     7
100
AcDbVertex
100
AcDb2dVertex
 10
5030.804787621732
 20
-2490.822221996148
 30
0.0
  0
SEQEND
  5
39F42
330
39F3F
100
AcDbEntity
  8
AM_0
  6
Continuous
 62
     7
  0
POLYLINE
  5
39F43
330
1F
100
AcDbEntity
  8
AM_0
  6
Continuous
 62
     7
100
AcDb2dPolyline
 66
     1
 10
0.0
 20
0.0
 30
0.0
  0
VERTEX
  5
39F44
330
39F43
100
AcDbEntity
  8
AM_0
  6
Continuous
 62
     7
100
AcDbVertex
100
AcDb2dVertex
 10
5030.804787621732
 20
-2490.822221996148
 30
0.0
 42
0.096815506
  0
VERTEX
  5
39F45
330
39F43
100
AcDbEntity
  8
AM_0
  6
Continuous
 62
     7
100
AcDbVertex
100
AcDb2dVertex
 10
5030.523447621733
 20
-2489.827361996149
 30
0.0
 42
0.15870214
  0
VERTEX
  5
39F46
330
39F43
100
AcDbEntity
  8
AM_0
  6
Continuous
 62
     7
100
AcDbVertex
100
AcDb2dVertex
 10
5029.799637621734
 20
-2489.103541996148
 30
0.0
 42
0.096814584
  0
VERTEX
  5
39F47
330
39F43
100
AcDbEntity
  8
AM_0
  6
Continuous
 62
     7
100
AcDbVertex
100
AcDb2dVertex
 10
5028.804787621734
 20
-2488.822221996148
 30
0.0
  0
SEQEND
  5
39F48
330
39F43
100
AcDbEntity
  8
AM_0
  6
Continuous
 62
     7
  0
POLYLINE
  5
39F49
330
1F
100
AcDbEntity
  8
AM_0
  6
Continuous
 62
     7
100
AcDb2dPolyline
 66
     1
 10
0.0
 20
0.0
 30
0.0
  0
VERTEX
  5
39F4A
330
39F49
100
AcDbEntity
  8
AM_0
  6
Continuous
 62
     7
100
AcDbVertex
100
AcDb2dVertex
 10
5028.804787621734
 20
-2488.822221996148
 30
0.0
  0
VERTEX
  5
39F4B
330
39F49
100
AcDbEntity
  8
AM_0
  6
Continuous
 62
     7
100
AcDbVertex
100
AcDb2dVertex
 10
4999.804787621734
 20
-2488.822221996148
 30
0.0
  0
SEQEND
  5
39F4C
330
39F49
100
AcDbEntity
  8
AM_0
  6
Continuous
 62
     7
  0
POLYLINE
  5
39F4D
330
1F
100
AcDbEntity
  8
AM_0
  6
Continuous
 62
     7
100
AcDb2dPolyline
 66
     1
 10
0.0
 20
0.0
 30
0.0
  0
VERTEX
  5
39F4E
330
39F4D
100
AcDbEntity
  8
AM_0
  6
Continuous
 62
     7
100
AcDbVertex
100
AcDb2dVertex
 10
4999.804787621734
 20
-2488.822221996148
 30
0.0
 42
0.096805699
  0
VERTEX
  5
39F4F
330
39F4D
100
AcDbEntity
  8
AM_0
  6
Continuous
 62
     7
100
AcDbVertex
100
AcDb2dVertex
 10
4998.809897621733
 20
-2489.103541996148
 30
0.0
 42
0.15872532
  0
VERTEX
  5
39F50
330
39F4D
100
AcDbEntity
  8
AM_0
  6
Continuous
 62
     7
100
AcDbVertex
100
AcDb2dVertex
 10
4998.086077621734
 20
-2489.827361996149
 30
0.0
 42
0.096804778
  0
VERTEX
  5
39F51
330
39F4D
100
AcDbEntity
  8
AM_0
  6
Continuous
 62
     7
100
AcDbVertex
100
AcDb2dVertex
 10
4997.804787621732
 20
-2490.822221996148
 30
0.0
  0
SEQEND
  5
39F52
330
39F4D
100
AcDbEntity
  8
AM_0
  6
Continuous
 62
     7
  0
POLYLINE
  5
39F53
330
1F
100
AcDbEntity
  8
AM_0
  6
Continuous
 62
     7
100
AcDb2dPolyline
 66
     1
 10
0.0
 20
0.0
 30
0.0
  0
VERTEX
  5
39F54
330
39F53
100
AcDbEntity
  8
AM_0
  6
Continuous
 62
     7
100
AcDbVertex
100
AcDb2dVertex
 10
4997.804787621732
 20
-2490.822221996148
 30
0.0
  0
VERTEX
  5
39F55
330
39F53
100
AcDbEntity
  8
AM_0
  6
Continuous
 62
     7
100
AcDbVertex
100
AcDb2dVertex
 10
4997.804787621732
 20
-2500.322221996148
 30
0.0
  0
SEQEND
  5
39F56
330
39F53
100
AcDbEntity
  8
AM_0
  6
Continuous
 62
     7
  0
POLYLINE
  5
39F57
330
1F
100
AcDbEntity
  8
AM_0
  6
Continuous
 62
     7
100
AcDb2dPolyline
 66
     1
 10
0.0
 20
0.0
 30
0.0
  0
VERTEX
  5
39F58
330
39F57
100
AcDbEntity
  8
AM_0
  6
Continuous
 62
     7
100
AcDbVertex
100
AcDb2dVertex
 10
4980.804787621734
 20
-2507.572221996148
 30
0.0
  0
VERTEX
  5
39F59
330
39F57
100
AcDbEntity
  8
AM_0
  6
Continuous
 62
     7
100
AcDbVertex
100
AcDb2dVertex
 10
5047.804787621732
 20
-2507.572221996148
 30
0.0
  0
VERTEX
  5
39F5A
330
39F57
100
AcDbEntity
  8
AM_0
  6
Continuous
 62
     7
100
AcDbVertex
100
AcDb2dVertex
 10
5047.804787621732
 20
-2483.572221996148
 30
0.0
  0
VERTEX
  5
39F5B
330
39F57
100
AcDbEntity
  8
AM_0
  6
Continuous
 62
     7
100
AcDbVertex
100
AcDb2dVertex
 10
4980.804787621734
 20
-2483.572221996148
 30
0.0
  0
VERTEX
  5
39F5C
330
39F57
100
AcDbEntity
  8
AM_0
  6
Continuous
 62
     7
100
AcDbVertex
100
AcDb2dVertex
 10
4980.804787621734
 20
-2507.572221996148
 30
0.0
  0
SEQEND
  5
39F5D
330
39F57
100
AcDbEntity
  8
AM_0
  6
Continuous
 62
     7
  0
POLYLINE
  5
39F5E
330
1F
100
AcDbEntity
  8
AM_0
  6
Continuous
 62
     7
100
AcDb2dPolyline
 66
     1
 10
0.0
 20
0.0
 30
0.0
  0
VERTEX
  5
39F5F
330
39F5E
100
AcDbEntity
  8
AM_0
  6
Continuous
 62
     7
100
AcDbVertex
100
AcDb2dVertex
 10
5100.333400808048
 20
-2503.822221996149
 30
0.0
  0
VERTEX
  5
39F60
330
39F5E
100
AcDbEntity
  8
AM_0
  6
Continuous
 62
     7
100
AcDbVertex
100
AcDb2dVertex
 10
5115.333400808048
 20
-2503.822221996149
 30
0.0
  0
SEQEND
  5
39F61
330
39F5E
100
AcDbEntity
  8
AM_0
  6
Continuous
 62
     7
  0
POLYLINE
  5
39F62
330
1F
100
AcDbEntity
  8
AM_0
  6
Continuous
 62
     7
100
AcDb2dPolyline
 66
     1
 10
0.0
 20
0.0
 30
0.0
  0
VERTEX
  5
39F63
330
39F62
100
AcDbEntity
  8
AM_0
  6
Continuous
 62
     7
100
AcDbVertex
100
AcDb2dVertex
 10
5115.333400808048
 20
-2503.822221996149
 30
0.0
 42
0.096935837
  0
VERTEX
  5
39F64
330
39F62
100
AcDbEntity
  8
AM_0
  6
Continuous
 62
     7
100
AcDbVertex
100
AcDb2dVertex
 10
5116.080240808049
 20
-2503.610881996149
 30
0.0
 42
0.15857571
  0
VERTEX
  5
39F65
330
39F62
100
AcDbEntity
  8
AM_0
  6
Continuous
 62
     7
100
AcDbVertex
100
AcDb2dVertex
 10
5116.622420808049
 20
-2503.068381996148
 30
0.0
 42
0.096808173
  0
VERTEX
  5
39F66
330
39F62
100
AcDbEntity
  8
AM_0
  6
Continuous
 62
     7
100
AcDbVertex
100
AcDb2dVertex
 10
5116.833400808048
 20
-2502.322221996148
 30
0.0
  0
SEQEND
  5
39F67
330
39F62
100
AcDbEntity
  8
AM_0
  6
Continuous
 62
     7
  0
POLYLINE
  5
39F68
330
1F
100
AcDbEntity
  8
AM_0
  6
Continuous
 62
     7
100
AcDb2dPolyline
 66
     1
 10
0.0
 20
0.0
 30
0.0
  0
VERTEX
  5
39F69
330
39F68
100
AcDbEntity
  8
AM_0
  6
Continuous
 62
     7
100
AcDbVertex
100
AcDb2dVertex
 10
5116.833400808048
 20
-2502.322221996148
 30
0.0
  0
VERTEX
  5
39F6A
330
39F68
100
AcDbEntity
  8
AM_0
  6
Continuous
 62
     7
100
AcDbVertex
100
AcDb2dVertex
 10
5116.833400808048
 20
-2488.822221996148
 30
0.0
  0
SEQEND
  5
39F6B
330
39F68
100
AcDbEntity
  8
AM_0
  6
Continuous
 62
     7
  0
POLYLINE
  5
39F6C
330
1F
100
AcDbEntity
  8
AM_0
  6
Continuous
 62
     7
100
AcDb2dPolyline
 66
     1
 10
0.0
 20
0.0
 30
0.0
  0
VERTEX
  5
39F6D
330
39F6C
100
AcDbEntity
  8
AM_0
  6
Continuous
 62
     7
100
AcDbVertex
100
AcDb2dVertex
 10
5116.833400808048
 20
-2488.822221996148
 30
0.0
 42
0.096935837
  0
VERTEX
  5
39F6E
330
39F6C
100
AcDbEntity
  8
AM_0
  6
Continuous
 62
     7
100
AcDbVertex
100
AcDb2dVertex
 10
5116.622060808048
 20
-2488.075381996149
 30
0.0
 42
0.15857571
  0
VERTEX
  5
39F6F
330
39F6C
100
AcDbEntity
  8
AM_0
  6
Continuous
 62
     7
100
AcDbVertex
100
AcDb2dVertex
 10
5116.079560808049
 20
-2487.533211996148
 30
0.0
 42
0.096808173
  0
VERTEX
  5
39F70
330
39F6C
100
AcDbEntity
  8
AM_0
  6
Continuous
 62
     7
100
AcDbVertex
100
AcDb2dVertex
 10
5115.333400808048
 20
-2487.322221996148
 30
0.0
  0
SEQEND
  5
39F71
330
39F6C
100
AcDbEntity
  8
AM_0
  6
Continuous
 62
     7
  0
POLYLINE
  5
39F72
330
1F
100
AcDbEntity
  8
AM_0
  6
Continuous
 62
     7
100
AcDb2dPolyline
 66
     1
 10
0.0
 20
0.0
 30
0.0
  0
VERTEX
  5
39F73
330
39F72
100
AcDbEntity
  8
AM_0
  6
Continuous
 62
     7
100
AcDbVertex
100
AcDb2dVertex
 10
5115.333400808048
 20
-2487.322221996148
 30
0.0
  0
VERTEX
  5
39F74
330
39F72
100
AcDbEntity
  8
AM_0
  6
Continuous
 62
     7
100
AcDbVertex
100
AcDb2dVertex
 10
5100.333400808048
 20
-2487.322221996148
 30
0.0
  0
VERTEX
  5
39F75
330
39F72
100
AcDbEntity
  8
AM_0
  6
Continuous
 62
     7
100
AcDbVertex
100
AcDb2dVertex
 10
5100.333400808048
 20
-2503.822221996149
 30
0.0
  0
SEQEND
  5
39F76
330
39F72
100
AcDbEntity
  8
AM_0
  6
Continuous
 62
     7
  0
POLYLINE
  5
39F77
330
1F
100
AcDbEntity
  8
AM_0
  6
Continuous
 62
     7
100
AcDb2dPolyline
 66
     1
 10
0.0
 20
0.0
 30
0.0
  0
VERTEX
  5
39F78
330
39F77
100
AcDbEntity
  8
AM_0
  6
Continuous
 62
     7
100
AcDbVertex
100
AcDb2dVertex
 10
5098.833400808048
 20
-2507.572221996148
 30
0.0
  0
VERTEX
  5
39F79
330
39F77
100
AcDbEntity
  8
AM_0
  6
Continuous
 62
     7
100
AcDbVertex
100
AcDb2dVertex
 10
5100.333400808048
 20
-2507.572221996148
 30
0.0
  0
VERTEX
  5
39F7A
330
39F77
100
AcDbEntity
  8
AM_0
  6
Continuous
 62
     7
100
AcDbVertex
100
AcDb2dVertex
 10
5100.333400808048
 20
-2483.572221996148
 30
0.0
  0
VERTEX
  5
39F7B
330
39F77
100
AcDbEntity
  8
AM_0
  6
Continuous
 62
     7
100
AcDbVertex
100
AcDb2dVertex
 10
5098.833400808048
 20
-2483.572221996148
 30
0.0
  0
VERTEX
  5
39F7C
330
39F77
100
AcDbEntity
  8
AM_0
  6
Continuous
 62
     7
100
AcDbVertex
100
AcDb2dVertex
 10
5098.833400808048
 20
-2507.572221996148
 30
0.0
  0
SEQEND
  5
39F7D
330
39F77
100
AcDbEntity
  8
AM_0
  6
Continuous
 62
     7
  0
DIMENSION
  5
39F7E
330
1F
100
AcDbEntity
  8
AM_5
100
AcDbDimension
  2
*D6
 10
4997.804787621732
 20
-2517.572221996148
 30
0.0
 11
5014.304787621735
 21
-2514.972221996148
 31
0.0
 70
    32
 71
     5
 42
33.0
  3
SYS$0
100
AcDbAlignedDimension
 13
5030.804787621732
 23
-2502.322221996147
 33
0.0
 14
4997.804787621732
 24
-2502.322221996147
 34
0.0
100
AcDbRotatedDimension
  0
DIMENSION
  5
39F7F
330
1F
100
AcDbEntity
  8
AM_5
100
AcDbDimension
  2
*D7
 10
4987.304787621734
 20
-2525.572221996148
 30
0.0
 11
5014.304787621735
 21
-2522.972221996148
 31
0.0
 70
    32
 71
     5
 42
54.0
  3
SYS$0
100
AcDbAlignedDimension
 13
5041.304787621733
 23
-2501.672221996148
 33
0.0
 14
4987.304787621734
 24
-2501.672221996148
 34
0.0
100
AcDbRotatedDimension
  0
DIMENSION
  5
39F80
330
1F
100
AcDbEntity
  8
AM_5
100
AcDbDimension
  2
*D8
 10
4980.804787621734
 20
-2542.230888270822
 30
0.0
 11
5014.304787621735
 21
-2539.630888270822
 31
0.0
 70
    32
 71
     5
 42
67.0
  3
SYS$0
100
AcDbAlignedDimension
 13
5047.804787621732
 23
-2550.230888270822
 33
0.0
 14
4980.804787621734
 24
-2550.230888270822
 34
0.0
100
AcDbRotatedDimension
  0
DIMENSION
  5
39F81
330
1F
100
AcDbEntity
  8
AM_5
100
AcDbDimension
  2
*D9
 10
5057.804787621734
 20
-2488.822221996148
 30
0.0
 11
5055.204787621732
 21
-2495.572221996148
 31
0.0
 70
    32
 71
     5
 42
13.50000000000045
  3
SYS$0
100
AcDbAlignedDimension
 13
5030.804787621732
 23
-2502.322221996148
 33
0.0
 14
5030.804787621732
 24
-2488.822221996148
 34
0.0
 50
90.0
100
AcDbRotatedDimension
  0
DIMENSION
  5
39F82
330
1F
100
AcDbEntity
  8
AM_5
100
AcDbDimension
  2
*D10
 10
5039.333067381014
 20
-2497.899198423263
 30
0.0
 11
5066.575670900917
 21
-2482.550693839596
 31
0.0
 70
   163
  1
2-%%c4.2×<>サラ
 71
     5
 42
6.100000000002863
  3
SYS$3
100
AcDbDiametricDimension
 15
5043.276507862452
 25
-2493.245245569033
 35
0.0
 40
0.0
1001
ACAD
1000
DSTYLE
1002
{
1070
   172
1070
     1
1070
   342
1005
32629
1002
}
  0
DIMENSION
  5
39F83
330
1F
100
AcDbEntity
  8
AM_5
100
AcDbDimension
  2
*D11
 10
5098.833400808048
 20
-2517.572222996148
 30
0.0
 11
5093.646734141383
 21
-2514.972222996148
 31
0.0
 70
    32
 71
     5
 42
1.5
  3
SYS$0
100
AcDbAlignedDimension
 13
5100.333400808048
 23
-2507.572221996148
 33
0.0
 14
5098.833400808048
 24
-2507.572221996148
 34
0.0
100
AcDbRotatedDimension
  0
DIMENSION
  5
39F84
330
1F
100
AcDbEntity
  8
AM_5
100
AcDbDimension
  2
*D12
 10
5116.833400808048
 20
-2517.572221996148
 30
0.0
 11
5108.583400808051
 21
-2514.972221996148
 31
0.0
 70
    32
 71
     5
 42
16.5
  3
SYS$0
100
AcDbAlignedDimension
 13
5100.333400808048
 23
-2507.572221996148
 33
0.0
 14
5116.833400808048
 24
-2502.322221996146
 34
0.0
100
AcDbRotatedDimension
  0
DIMENSION
  5
39F85
330
1F
100
AcDbEntity
  8
AM_5
100
AcDbDimension
  2
*D13
 10
5123.333400808048
 20
-2503.822221996149
 30
0.0
 11
5120.73340080805
 21
-2495.572221996148
 31
0.0
 70
    32
 71
     5
 42
16.50000000000044
  3
SYS$0
100
AcDbAlignedDimension
 13
5115.333400808048
 23
-2487.322221996148
 33
0.0
 14
5115.333400808044
 24
-2503.822221996149
 34
0.0
 50
90.0
100
AcDbRotatedDimension
  0
DIMENSION
  5
39F86
330
1F
100
AcDbEntity
  8
AM_5
100
AcDbDimension
  2
*D14
 10
5090.833400808048
 20
-2507.572221996148
 30
0.0
 11
5088.23340080805
 21
-2495.572221996147
 31
0.0
 70
    32
 71
     5
 42
24.0
  3
SYS$0
100
AcDbAlignedDimension
 13
5098.833400808048
 23
-2483.572221996148
 33
0.0
 14
5098.833400808048
 24
-2507.572221996148
 34
0.0
 50
90.0
100
AcDbRotatedDimension
  0
DIMENSION
  5
39F87
330
1F
100
AcDbEntity
  8
AM_5
100
AcDbDimension
  2
*D15
 10
5033.746987621732
 20
-2579.730888270822
 30
0.0
 11
5014.304772621734
 21
-2577.130888270823
 31
0.0
 70
    32
  1
（39）
 71
     5
 42
38.88442999999825
  3
SYS$0
100
AcDbAlignedDimension
 13
4994.862557621734
 23
-2551.730888270822
 33
0.0
 14
5033.746987621732
 24
-2551.730888270822
 34
0.0
100
AcDbRotatedDimension
  0
LINE
  5
4D649
330
1F
100
AcDbEntity
  8
AM_7
 48
0.4
100
AcDbLine
 10
5041.304787621733
 20
-2547.230888270823
 30
0.0
 11
5041.304787621733
 21
-2554.730888270822
 31
0.0
1001
GENIUS_GENODEF_13
1002
{
1000
HIER
1070
     0
1002
}
1002
{
1000
MANEDIT
1070
     0
1002
}
1002
{
1000
NOSEL
1070
     0
1002
}
1002
{
1000
BEHIND
1070
     0
1002
}
1002
{
1000
OTHER
1070
     0
1002
}
1002
{
1000
REACTOR
1002
}
1001
GENIUS_GENOBJ-N-CEN_13
1002
{
1000
OWNER
1000
GEN
1002
}
1001
GENIUS_GENCEN_19
1002
{
1040
3.0
1002
}
  0
LINE
  5
4D64A
330
1F
100
AcDbEntity
  8
AM_7
 48
0.4
100
AcDbLine
 10
4987.304787621734
 20
-2547.230888270823
 30
0.0
 11
4987.304787621734
 21
-2554.730888270822
 31
0.0
1001
GENIUS_GENOBJ-N-CEN_13
1002
{
1000
OWNER
1000
GEN
1002
}
1001
GENIUS_GENODEF_13
1002
{
1000
HIER
1070
     0
1002
}
1002
{
1000
MANEDIT
1070
     0
1002
}
1002
{
1000
NOSEL
1070
     0
1002
}
1002
{
1000
BEHIND
1070
     0
1002
}
1002
{
1000
OTHER
1070
     0
1002
}
1002
{
1000
REACTOR
1002
}
1001
GENIUS_GENCEN_19
1002
{
1040
3.0
1002
}
  0
ENDSEC
  0
SECTION
  2
OBJECTS
  0
DICTIONARY
  5
C
330
0
100
AcDbDictionary
281
     1
  3
ACAD_2007HEADERVARS_RT
350
5295A
  3
ACAD_BGPLOT_KEY
350
AB06
  3
ACAD_COLOR
350
A91D
  3
ACAD_GROUP
350
D
  3
ACAD_LAYOUT
350
1A
  3
ACAD_MATERIAL
350
A91C
  3
ACAD_MLINESTYLE
350
17
  3
ACAD_PLOTSETTINGS
350
19
  3
ACAD_PLOTSTYLENAME
350
E
  3
ACAD_TABLESTYLE
350
AAB9
  3
ACAD_VISUALSTYLE
350
B0F1
  3
AcAsAppObject
350
3DA1
  3
ACASGREF_MASTER
350
3DE9
  3
AcDbVariableDictionary
350
34
  3
AcmDictionary
350
47
  3
AD_GREF_MODULE
350
3DEA
  3
AD_MAPI_MODULE
350
3E06
  3
AMG
350
2B
  3
AMGSNAPSETTINGS
350
7D
  3
ASE_INDEX_DICTIONARY
350
B331
  3
DWGPROPS
350
52959
  3
MAPISURF_MODULE
350
3DEB
  0
DICTIONARY
  5
5283C
330
8
100
AcDbDictionary
280
     1
281
     1
  0
DICTIONARY
  5
3F95
330
2
100
AcDbDictionary
280
     1
281
     1
  3
ACAD_LAYERFILTERS
360
3F9CB
  3
ACAD_LAYERSTATES
360
3F96
  3
ACLYDICTIONARY
360
3F9CA
  3
AMLAYER_GROUPCOLORS
360
AAB4
  0
DICTIONARY
  5
8A
330
1F
100
AcDbDictionary
280
     1
281
     1
  3
ACAD_SORTENTS
360
B1BA
  0
DICTIONARY
  5
5295A
102
{ACAD_REACTORS
330
C
102
}
330
C
100
AcDbDictionary
281
     1
  3
DIMARCSYM
350
5295B
  0
DICTIONARY
  5
AB06
102
{ACAD_REACTORS
330
C
102
}
330
C
100
AcDbDictionary
280
     1
281
     1
  0
DICTIONARY
  5
A91D
102
{ACAD_REACTORS
330
C
102
}
330
C
100
AcDbDictionary
281
     1
  0
DICTIONARY
  5
D
102
{ACAD_REACTORS
330
C
102
}
330
C
100
AcDbDictionary
281
     1
  0
DICTIONARY
  5
1A
102
{ACAD_REACTORS
330
C
102
}
330
C
100
AcDbDictionary
281
     1
  3
Model
350
22
  3
ﾚｲｱｳﾄ1
350
1E
  3
ﾚｲｱｳﾄ2
350
26
  0
DICTIONARY
  5
A91C
102
{ACAD_REACTORS
330
C
102
}
330
C
100
AcDbDictionary
281
     1
  3
ByBlock
350
B0EF
  3
ByLayer
350
B0EE
  3
Global
350
B0F0
  0
DICTIONARY
  5
17
102
{ACAD_REACTORS
330
C
102
}
330
C
100
AcDbDictionary
281
     1
  3
Standard
350
18
  0
DICTIONARY
  5
19
102
{ACAD_REACTORS
330
C
102
}
330
C
100
AcDbDictionary
281
     1
  0
ACDBDICTIONARYWDFLT
  5
E
102
{ACAD_REACTORS
330
C
102
}
330
C
100
AcDbDictionary
281
     1
  3
Normal
350
F
100
AcDbDictionaryWithDefault
340
F
  0
DICTIONARY
  5
AAB9
102
{ACAD_REACTORS
330
C
102
}
330
C
100
AcDbDictionary
281
     1
  3
Standard
350
AABA
  0
DICTIONARY
  5
B0F1
102
{ACAD_REACTORS
330
C
102
}
330
C
100
AcDbDictionary
281
     1
  3
2dWireframe
350
B0F7
  3
3D Hidden
350
B0F9
  3
3dWireframe
350
B0F8
  3
Basic
350
B0F6
  3
Brighten
350
B0FD
  3
ColorChange
350
B101
  3
Conceptual
350
B0FA
  3
Dim
350
B0FC
  3
Facepattern
350
B100
  3
Flat
350
B0F2
  3
FlatWithEdges
350
B0F3
  3
Gouraud
350
B0F4
  3
GouraudWithEdges
350
B0F5
  3
Linepattern
350
B0FF
  3
Realistic
350
B0FB
  3
Thicken
350
B0FE
  0
ACAD_PROXY_OBJECT
  5
3DA1
102
{ACAD_REACTORS
330
C
102
}
330
C
100
AcDbProxyObject
 90
      499
 91
      576
 95
   917527
 70
     0
 93
       10
310
407F
 94
        0
1001
ACAD
1000
AcRTDxfName
1000
ASAPP
  0
ACAD_PROXY_OBJECT
  5
3DE9
102
{ACAD_REACTORS
330
C
102
}
330
C
100
AcDbProxyObject
 90
      499
 91
      581
 95
   917527
 70
     0
 93
       34
310
010000407F
 94
        0
1001
ACAD
1000
AcRTDxfName
1000
ACASGREFMASTER
  0
DICTIONARY
  5
34
102
{ACAD_REACTORS
330
C
102
}
330
C
100
AcDbDictionary
281
     1
  3
CTABLESTYLE
350
AAF3
  3
DIMASSOC
350
A10C
  3
FIELDEVAL
350
AB07
  3
HPORIGIN
350
EB56
  3
INDEXCTL
350
35
  3
SORTENTS
350
194C
  0
DICTIONARY
  5
47
102
{ACAD_REACTORS
330
C
102
}
330
C
100
AcDbDictionary
281
     1
  3
AcmBOM
350
7E8
  3
AcmStdDictionary
350
4C
  3
AMDTSECTSYM_ARROWCOLOR
350
A929
  0
ACAD_PROXY_OBJECT
  5
3DEA
102
{ACAD_REACTORS
330
C
102
}
330
C
100
AcDbProxyObject
 90
      499
 91
      582
 95
   917527
 70
     0
 93
      114
310
00000043800000000000000000003F
 94
        0
1001
ACAD
1000
AcRTDxfName
1000
ACADGREFMODULE
  0
ACAD_PROXY_OBJECT
  5
3E06
102
{ACAD_REACTORS
330
C
102
}
330
C
100
AcDbProxyObject
 90
      499
 91
      594
 95
   917527
 70
     0
 93
       34
310
05000044FF
 94
        0
1001
ACAD
1000
AcRTDxfName
1000
MAPIADMODULE
  0
DICTIONARY
  5
2B
102
{ACAD_REACTORS
330
C
102
}
330
C
100
AcDbDictionary
281
     1
  0
DICTIONARY
  5
7D
102
{ACAD_REACTORS
330
C
102
}
330
C
100
AcDbDictionary
281
     1
  0
DICTIONARY
  5
B331
102
{ACAD_REACTORS
330
C
102
}
330
C
100
AcDbDictionary
281
     1
  3
ASEBlockHierarchyIndexRecord
350
B332
1001
DCO15
1040
1594111214.218
  0
XRECORD
  5
52959
102
{ACAD_REACTORS
330
C
102
}
330
C
100
AcDbXrecord
280
     1
  1
DWGPROPS COOKIE
  2

  3

  4

  6

  7

  8
Administrator
  9

300
AmdtFileType=84
301
=
302
=
303
=
304
=
305
=
306
=
307
=
308
=
309
=
 40
8.269657083333333
 41
2455567.561054317
 42
2456030.70953794
  1

 90
        1
  0
ACAD_PROXY_OBJECT
  5
3DEB
102
{ACAD_REACTORS
330
C
102
}
330
C
100
AcDbProxyObject
 90
      499
 91
      583
 95
   917527
 70
     0
 93
        8
310
0477
 94
        0
1001
ACAD
1000
AcRTDxfName
1000
AMDTMAPISURFMOUDULE
  0
DICTIONARY
  5
3F9CB
102
{ACAD_REACTORS
330
3F95
102
}
330
3F95
100
AcDbDictionary
281
     1
  0
DICTIONARY
  5
3F96
102
{ACAD_REACTORS
330
3F95
102
}
330
3F95
100
AcDbDictionary
281
     1
  3
20011210
350
3FB7
  0
DICTIONARY
  5
3F9CA
102
{ACAD_REACTORS
330
3F95
102
}
330
3F95
100
AcDbDictionary
281
     1
1001
ACAD
1000
<All
  0
DICTIONARY
  5
AAB4
102
{ACAD_REACTORS
330
3F95
102
}
330
3F95
100
AcDbDictionary
280
     1
281
     1
  0
SORTENTSTABLE
  5
B1BA
102
{ACAD_REACTORS
330
8A
102
}
330
8A
100
AcDbSortentsTable
330
1F
331
39EFB
  5
39F1C
331
39F35
  5
39F91
331
39F11
  5
39F32
331
39F20
  5
39F72
331
39EED
  5
39F0E
331
1EB3A
  5
1EB3A
331
39EFC
  5
39F1D
331
39F12
  5
39F33
331
39F21
  5
39F77
331
39EEE
  5
39F0F
331
1EB3B
  5
1EB3B
331
39EFD
  5
39F1E
331
39F68
  5
39F9B
331
39F77
  5
39F9E
331
39F28
  5
39F84
331
39F13
  5
39F34
331
39F22
  5
39F7E
331
39EEF
  5
39F10
331
1EB3C
  5
1EB3C
331
39EFE
  5
39F1F
331
39F7E
  5
39F9F
331
39F4D
  5
39F96
331
39F29
  5
39F85
331
39F14
  5
39F35
331
39F23
  5
39F7F
331
39EF0
  5
39F11
331
39F80
  5
39FA1
331
1EB3D
  5
1EB3D
331
39EFF
  5
39F20
331
39F7F
  5
39FA0
331
39F2A
  5
39F86
331
39F39
  5
39F92
331
39F15
  5
39F39
331
39F24
  5
39F80
331
39EF1
  5
39F12
331
39F81
  5
39FA2
331
1EB3E
  5
1EB3E
331
39F00
  5
39F21
331
2121D
  5
21225
331
39F5E
  5
39F99
331
39F2B
  5
39F87
331
39F16
  5
39F3F
331
39F25
  5
39F81
331
39EF2
  5
39F13
331
39F82
  5
39FA3
331
1EB3F
  5
1EB3F
331
39F01
  5
39F22
331
39F6C
  5
39F9C
331
39F2C
  5
39F88
331
39F08
  5
39F29
331
39F17
  5
39F43
331
39F26
  5
39F82
331
39EF3
  5
39F14
331
39F83
  5
39FA4
331
1EB40
  5
1EB40
331
39F02
  5
39F23
331
39F2D
  5
39F89
331
39F09
  5
39F2A
331
39F18
  5
39F49
331
2627D
  5
2627D
331
39F27
  5
39F83
331
39EF4
  5
39F15
331
39F84
  5
39FA5
331
1EB41
  5
1EB41
331
39F03
  5
39F24
331
39F2E
  5
39F8A
331
39F0A
  5
39F2B
331
39F19
  5
39F4D
331
2627E
  5
2627E
331
39EF5
  5
39F16
331
39F85
  5
39FA6
331
39F04
  5
39F25
331
39F53
  5
39F97
331
39F2F
  5
39F8B
331
39F0B
  5
39F2C
331
39F1A
  5
39F53
331
21FF0
  5
2215D
331
2627F
  5
2627F
331
39EF6
  5
39F17
331
39F86
  5
39FA7
331
39F05
  5
39F26
331
39F30
  5
39F8C
331
39F3F
  5
39F93
331
39F0C
  5
39F2D
331
39F1B
  5
39F57
331
21FF1
  5
2215E
331
26280
  5
26280
331
39EF7
  5
39F18
331
39F87
  5
39FA8
331
39F06
  5
39F27
331
214E3
  5
2154A
331
39F62
  5
39F9A
331
39F31
  5
39F8D
331
39F0D
  5
39F2E
331
39F1C
  5
39F5E
331
21FF2
  5
22406
331
26281
  5
26281
331
39EF8
  5
39F19
331
39F07
  5
39F28
331
39F72
  5
39F9D
331
39F32
  5
39F8E
331
39F0E
  5
39F2F
331
21FF3
  5
22408
331
39F1D
  5
39F62
331
26282
  5
26282
331
39EF9
  5
39F1A
331
39F57
  5
39F98
331
39F33
  5
39F8F
331
39F0F
  5
39F30
331
39F1E
  5
39F68
331
39EEB
  5
39F0C
331
26283
  5
26283
331
39EFA
  5
39F1B
331
39F49
  5
39F95
331
39F34
  5
39F90
331
39F43
  5
39F94
331
39F10
  5
39F31
331
39F1F
  5
39F6C
331
39EEC
  5
39F0D
  0
XRECORD
  5
5295B
102
{ACAD_REACTORS
330
5295A
102
}
330
5295A
100
AcDbXrecord
280
     1
 70
     1
  0
LAYOUT
  5
22
102
{ACAD_XDICTIONARY
360
5295E
102
}
102
{ACAD_REACTORS
330
1A
102
}
330
1A
100
AcDbPlotSettings
  1

  2
Adobe PDF
  4
A4
  6

 40
3.174999952316283
 41
3.174999952316283
 42
3.175003051757812
 43
3.17498779296875
 44
209.9733276367186
 45
297.0318298339844
 46
0.0000000000000142
 47
1.364832920257498
 48
7017.194750291371
 49
-3860.982271409579
140
7437.194750291372
141
-3563.982271409579
142
1.0
143
1.458575536647462
 70
  3764
 72
     1
 73
     1
 74
     4
  7
monochrome.ctb
 75
     0
147
0.6856004196385343
148
-7017.194750291371
149
3860.982271409579
100
AcDbLayout
  1
Model
 70
     1
 71
     0
 10
0.0
 20
0.0
 11
12.0
 21
9.0
 12
0.0
 22
0.0
 32
0.0
 14
0.0
 24
0.0
 34
0.0
 15
0.0
 25
0.0
 35
0.0
146
0.0
 13
0.0
 23
0.0
 33
0.0
 16
1.0
 26
0.0
 36
0.0
 17
0.0
 27
1.0
 37
0.0
 76
     0
330
1F
331
B0EC
1001
ACAD_PSEXT
1000
Adobe PDF
1000
Adobe PDF Converter
1000
My Documents\*.pdf
1000

1070
     0
  0
LAYOUT
  5
1E
102
{ACAD_XDICTIONARY
360
5295C
102
}
102
{ACAD_REACTORS
330
1A
102
}
330
1A
100
AcDbPlotSettings
  1

  2
\\ML370\XEROX
  4
A4
  6

 40
3.174999952316283
 41
3.174999952316283
 42
3.175003051757812
 43
3.17498779296875
 44
209.8674926757813
 45
296.6719970703125
 46
0.0
 47
0.0
 48
0.0
 49
0.0
140
0.0
141
0.0
142
1.0
143
1.0
 70
   688
 72
     1
 73
     1
 74
     5
  7
monochrome.ctb
 75
    16
147
1.0
148
0.0
149
0.0
100
AcDbLayout
  1
ﾚｲｱｳﾄ1
 70
     1
 71
     1
 10
-3.17498779296875
 20
-3.174999952316283
 11
293.4970092773438
 21
206.692492723465
 12
0.0
 22
0.0
 32
0.0
 14
1.000000000000000E+20
 24
1.000000000000000E+20
 34
1.000000000000000E+20
 15
-1.000000000000000E+20
 25
-1.000000000000000E+20
 35
-1.000000000000000E+20
146
0.0
 13
0.0
 23
0.0
 33
0.0
 16
1.0
 26
0.0
 36
0.0
 17
0.0
 27
1.0
 37
0.0
 76
     0
330
1B
  0
LAYOUT
  5
26
102
{ACAD_XDICTIONARY
360
52960
102
}
102
{ACAD_REACTORS
330
1A
102
}
330
1A
100
AcDbPlotSettings
  1

  2
\\ML370\XEROX
  4

  6

 40
0.0
 41
0.0
 42
0.0
 43
0.0
 44
0.0
 45
0.0
 46
0.0
 47
0.0
 48
0.0
 49
0.0
140
0.0
141
0.0
142
1.0
143
1.0
 70
   688
 72
     0
 73
     0
 74
     5
  7
monochrome.ctb
 75
    16
147
1.0
148
0.0
149
0.0
100
AcDbLayout
  1
ﾚｲｱｳﾄ2
 70
     1
 71
     2
 10
0.0
 20
0.0
 11
12.0
 21
9.0
 12
0.0
 22
0.0
 32
0.0
 14
0.0
 24
0.0
 34
0.0
 15
0.0
 25
0.0
 35
0.0
146
0.0
 13
0.0
 23
0.0
 33
0.0
 16
1.0
 26
0.0
 36
0.0
 17
0.0
 27
1.0
 37
0.0
 76
     0
330
23
  0
MATERIAL
  5
B0EF
102
{ACAD_XDICTIONARY
360
528D2
102
}
102
{ACAD_REACTORS
330
A91C
102
}
330
A91C
100
AcDbMaterial
  1
ByBlock
  0
MATERIAL
  5
B0EE
102
{ACAD_XDICTIONARY
360
528D0
102
}
102
{ACAD_REACTORS
330
A91C
102
}
330
A91C
100
AcDbMaterial
  1
ByLayer
  0
MATERIAL
  5
B0F0
102
{ACAD_XDICTIONARY
360
528D4
102
}
102
{ACAD_REACTORS
330
A91C
102
}
330
A91C
100
AcDbMaterial
  1
Global
  0
MLINESTYLE
  5
18
102
{ACAD_REACTORS
330
17
102
}
330
17
100
AcDbMlineStyle
  2
STANDARD
 70
     0
  3

 62
   256
 51
90.0
 52
90.0
 71
     2
 49
0.5
 62
   256
  6
BYLAYER
 49
-0.5
 62
   256
  6
BYLAYER
  0
ACDBPLACEHOLDER
  5
F
102
{ACAD_REACTORS
330
E
102
}
330
E
  0
TABLESTYLE
  5
AABA
102
{ACAD_XDICTIONARY
360
52962
102
}
102
{ACAD_REACTORS
330
AAB9
102
}
330
AAB9
100
AcDbTableStyle
  3
Standard
 70
     0
 71
     0
 40
1.5
 41
1.5
280
     0
281
     0
  7
STANDARD
140
4.5
170
     2
 62
     0
 63
     7
283
     0
274
    -2
284
     1
 64
     0
275
    -2
285
     1
 65
     0
276
    -2
286
     1
 66
     0
277
    -2
287
     1
 67
     0
278
    -2
288
     1
 68
     0
279
    -2
289
     1
 69
     0
  7
STANDARD
140
6.0
170
     5
 62
     0
 63
     7
283
     0
274
    -2
284
     1
 64
     0
275
    -2
285
     1
 65
     0
276
    -2
286
     1
 66
     0
277
    -2
287
     1
 67
     0
278
    -2
288
     1
 68
     0
279
    -2
289
     1
 69
     0
  7
STANDARD
140
4.5
170
     5
 62
     0
 63
     7
283
     0
274
    -2
284
     1
 64
     0
275
    -2
285
     1
 65
     0
276
    -2
286
     1
 66
     0
277
    -2
287
     1
 67
     0
278
    -2
288
     1
 68
     0
279
    -2
289
     1
 69
     0
  0
VISUALSTYLE
  5
B0F7
102
{ACAD_REACTORS
330
B0F1
102
}
330
B0F1
100
AcDbVisualStyle
  2
2dWireframe
 70
     4
 71
     0
 72
     2
 73
     0
 90
        0
 40
-0.6
 41
-30.0
 62
     5
 63
     7
 74
     1
 91
        4
 64
     7
 65
   257
 75
     1
175
     1
 42
1.0
 92
        0
 66
   257
 43
1.0
 76
     1
 77
     6
 78
     2
 67
     7
 79
     5
170
     0
171
     0
290
     0
174
     0
 93
        1
 44
0.0
173
     0
291
     0
 45
0.0
1001
ACAD
1000
AcDbSavedByObjectVersion
1070
     0
1000
AcDbSavedByObjectVersion
1070
     0
  0
VISUALSTYLE
  5
B0F9
102
{ACAD_REACTORS
330
B0F1
102
}
330
B0F1
100
AcDbVisualStyle
  2
3D Hidden
 70
     6
 71
     1
 72
     2
 73
     2
 90
        0
 40
-0.6
 41
-30.0
 62
     5
 63
     7
 74
     2
 91
        2
 64
     7
 65
   257
 75
     2
175
     1
 42
40.0
 92
        0
 66
   257
 43
1.0
 76
     1
 77
     6
 78
     2
 67
     7
 79
     3
170
     0
171
     0
290
     0
174
     0
 93
        1
 44
0.0
173
     0
291
     0
 45
0.0
1001
ACAD
1000
AcDbSavedByObjectVersion
1070
     0
1000
AcDbSavedByObjectVersion
1070
     0
  0
VISUALSTYLE
  5
B0F8
102
{ACAD_REACTORS
330
B0F1
102
}
330
B0F1
100
AcDbVisualStyle
  2
3dWireframe
 70
     5
 71
     0
 72
     2
 73
     0
 90
        0
 40
-0.6
 41
-30.0
 62
     5
 63
     7
 74
     1
 91
        4
 64
     7
 65
   257
 75
     1
175
     1
 42
1.0
 92
        0
 66
   257
 43
1.0
 76
     1
 77
     6
 78
     2
 67
     7
 79
     5
170
     0
171
     0
290
     0
174
     0
 93
        1
 44
0.0
173
     0
291
     0
 45
0.0
1001
ACAD
1000
AcDbSavedByObjectVersion
1070
     0
1000
AcDbSavedByObjectVersion
1070
     0
  0
VISUALSTYLE
  5
B0F6
102
{ACAD_REACTORS
330
B0F1
102
}
330
B0F1
100
AcDbVisualStyle
  2
Basic
 70
     7
 71
     1
 72
     0
 73
     1
 90
        0
 40
-0.6
 41
-30.0
 62
     5
 63
     7
 74
     0
 91
        4
 64
     7
 65
   257
 75
     1
175
     1
 42
1.0
 92
        8
 66
     7
 43
1.0
 76
     1
 77
     6
 78
     2
 67
     7
 79
     5
170
     0
171
     0
290
     0
174
     0
 93
        1
 44
0.0
173
     0
291
     1
 45
0.0
1001
ACAD
1000
AcDbSavedByObjectVersion
1070
     0
1000
AcDbSavedByObjectVersion
1070
     0
  0
VISUALSTYLE
  5
B0FD
102
{ACAD_REACTORS
330
B0F1
102
}
330
B0F1
100
AcDbVisualStyle
  2
Brighten
 70
    12
 71
     2
 72
     2
 73
     0
 90
        0
 40
-0.6
 41
-30.0
 62
     5
 63
     7
 74
     1
 91
        4
 64
     7
 65
   257
 75
     1
175
     1
 42
1.0
 92
        8
 66
     7
 43
1.0
 76
     1
 77
     6
 78
     2
 67
     7
 79
     5
170
     0
171
     0
290
     0
174
     0
 93
        1
 44
50.0
173
     0
291
     1
 45
0.0
1001
ACAD
1000
AcDbSavedByObjectVersion
1070
     0
1000
AcDbSavedByObjectVersion
1070
     0
  0
VISUALSTYLE
  5
B101
102
{ACAD_REACTORS
330
B0F1
102
}
330
B0F1
100
AcDbVisualStyle
  2
ColorChange
 70
    16
 71
     2
 72
     2
 73
     3
 90
        0
 40
-0.6
 41
-30.0
 62
     5
 63
     8
 74
     1
 91
        4
 64
     7
 65
   257
 75
     1
175
     1
 42
1.0
 92
        8
 66
     8
 43
1.0
 76
     1
 77
     6
 78
     2
 67
     7
 79
     5
170
     0
171
     0
290
     0
174
     0
 93
        1
 44
0.0
173
     0
291
     1
 45
0.0
1001
ACAD
1000
AcDbSavedByObjectVersion
1070
     0
1000
AcDbSavedByObjectVersion
1070
     0
  0
VISUALSTYLE
  5
B0FA
102
{ACAD_REACTORS
330
B0F1
102
}
330
B0F1
100
AcDbVisualStyle
  2
Conceptual
 70
     9
 71
     3
 72
     2
 73
     0
 90
        0
 40
-0.6
 41
-30.0
 62
     5
 63
     7
 74
     2
 91
        2
 64
     7
 65
   257
 75
     1
175
     1
 42
40.0
 92
        8
 66
     7
 43
1.0
 76
     1
 77
     6
 78
     2
 67
     7
 79
     3
170
     0
171
     0
290
     0
174
     0
 93
        1
 44
0.0
173
     0
291
     0
 45
0.0
1001
ACAD
1000
AcDbSavedByObjectVersion
1070
     0
1000
AcDbSavedByObjectVersion
1070
     0
  0
VISUALSTYLE
  5
B0FC
102
{ACAD_REACTORS
330
B0F1
102
}
330
B0F1
100
AcDbVisualStyle
  2
Dim
 70
    11
 71
     2
 72
     2
 73
     0
 90
        0
 40
-0.6
 41
-30.0
 62
     5
 63
     7
 74
     1
 91
        4
 64
     7
 65
   257
 75
     1
175
     1
 42
1.0
 92
        8
 66
     7
 43
1.0
 76
     1
 77
     6
 78
     2
 67
     7
 79
     5
170
     0
171
     0
290
     0
174
     0
 93
        1
 44
-50.0
173
     0
291
     1
 45
0.0
1001
ACAD
1000
AcDbSavedByObjectVersion
1070
     0
1000
AcDbSavedByObjectVersion
1070
     0
  0
VISUALSTYLE
  5
B100
102
{ACAD_REACTORS
330
B0F1
102
}
330
B0F1
100
AcDbVisualStyle
  2
Facepattern
 70
    15
 71
     2
 72
     2
 73
     0
 90
        0
 40
-0.6
 41
-30.0
 62
     5
 63
     7
 74
     1
 91
        4
 64
     7
 65
   257
 75
     1
175
     1
 42
1.0
 92
        8
 66
     7
 43
1.0
 76
     1
 77
     6
 78
     2
 67
     7
 79
     5
170
     0
171
     0
290
     0
174
     0
 93
        1
 44
0.0
173
     0
291
     1
 45
0.0
1001
ACAD
1000
AcDbSavedByObjectVersion
1070
     0
1000
AcDbSavedByObjectVersion
1070
     0
  0
VISUALSTYLE
  5
B0F2
102
{ACAD_REACTORS
330
B0F1
102
}
330
B0F1
100
AcDbVisualStyle
  2
Flat
 70
     0
 71
     2
 72
     1
 73
     1
 90
        2
 40
-0.6
 41
30.0
 62
     5
 63
     7
 74
     0
 91
        4
 64
     7
 65
   257
 75
     1
175
     1
 42
1.0
 92
        8
 66
     7
 43
1.0
 76
     1
 77
     6
 78
     2
 67
     7
 79
     5
170
     0
171
     0
290
     0
174
     0
 93
       13
 44
0.0
173
     0
291
     1
 45
0.0
1001
ACAD
1000
AcDbSavedByObjectVersion
1070
     0
1000
AcDbSavedByObjectVersion
1070
     0
  0
VISUALSTYLE
  5
B0F3
102
{ACAD_REACTORS
330
B0F1
102
}
330
B0F1
100
AcDbVisualStyle
  2
FlatWithEdges
 70
     1
 71
     2
 72
     1
 73
     1
 90
        2
 40
-0.6
 41
30.0
 62
     5
 63
     7
 74
     1
 91
        4
 64
     7
 65
   257
 75
     1
175
     1
 42
1.0
 92
        0
 66
   257
 43
1.0
 76
     1
 77
     6
 78
     2
 67
     7
 79
     5
170
     0
171
     0
290
     0
174
     0
 93
       13
 44
0.0
173
     0
291
     1
 45
0.0
1001
ACAD
1000
AcDbSavedByObjectVersion
1070
     0
1000
AcDbSavedByObjectVersion
1070
     0
  0
VISUALSTYLE
  5
B0F4
102
{ACAD_REACTORS
330
B0F1
102
}
330
B0F1
100
AcDbVisualStyle
  2
Gouraud
 70
     2
 71
     2
 72
     2
 73
     1
 90
        2
 40
-0.6
 41
30.0
 62
     5
 63
     7
 74
     0
 91
        4
 64
     7
 65
   257
 75
     1
175
     1
 42
1.0
 92
        0
 66
     7
 43
1.0
 76
     1
 77
     6
 78
     2
 67
     7
 79
     5
170
     0
171
     0
290
     0
174
     0
 93
       13
 44
0.0
173
     0
291
     1
 45
0.0
1001
ACAD
1000
AcDbSavedByObjectVersion
1070
     0
1000
AcDbSavedByObjectVersion
1070
     0
  0
VISUALSTYLE
  5
B0F5
102
{ACAD_REACTORS
330
B0F1
102
}
330
B0F1
100
AcDbVisualStyle
  2
GouraudWithEdges
 70
     3
 71
     2
 72
     2
 73
     1
 90
        2
 40
-0.6
 41
30.0
 62
     5
 63
     7
 74
     1
 91
        4
 64
     7
 65
   257
 75
     1
175
     1
 42
1.0
 92
        0
 66
   257
 43
1.0
 76
     1
 77
     6
 78
     2
 67
     7
 79
     5
170
     0
171
     0
290
     0
174
     0
 93
       13
 44
0.0
173
     0
291
     1
 45
0.0
1001
ACAD
1000
AcDbSavedByObjectVersion
1070
     0
1000
AcDbSavedByObjectVersion
1070
     0
  0
VISUALSTYLE
  5
B0FF
102
{ACAD_REACTORS
330
B0F1
102
}
330
B0F1
100
AcDbVisualStyle
  2
Linepattern
 70
    14
 71
     2
 72
     2
 73
     0
 90
        0
 40
-0.6
 41
-30.0
 62
     5
 63
     7
 74
     1
 91
        4
 64
     7
 65
   257
 75
     7
175
     7
 42
1.0
 92
        8
 66
     7
 43
1.0
 76
     1
 77
     6
 78
     2
 67
     7
 79
     5
170
     0
171
     0
290
     0
174
     0
 93
        1
 44
0.0
173
     0
291
     1
 45
0.0
1001
ACAD
1000
AcDbSavedByObjectVersion
1070
     0
1000
AcDbSavedByObjectVersion
1070
     0
  0
VISUALSTYLE
  5
B0FB
102
{ACAD_REACTORS
330
B0F1
102
}
330
B0F1
100
AcDbVisualStyle
  2
Realistic
 70
     8
 71
     2
 72
     2
 73
     0
 90
        0
 40
-0.6
 41
-30.0
 62
     5
 63
     7
 74
     1
 91
        0
 64
     7
 65
   257
 75
     1
175
     1
 42
1.0
 92
        8
 66
     8
 43
1.0
 76
     1
 77
     6
 78
     2
 67
     7
 79
     5
170
     0
171
     0
290
     0
174
     0
 93
       13
 44
0.0
173
     0
291
     0
 45
0.0
1001
ACAD
1000
AcDbSavedByObjectVersion
1070
     0
1000
AcDbSavedByObjectVersion
1070
     0
  0
VISUALSTYLE
  5
B0FE
102
{ACAD_REACTORS
330
B0F1
102
}
330
B0F1
100
AcDbVisualStyle
  2
Thicken
 70
    13
 71
     2
 72
     2
 73
     0
 90
        0
 40
-0.6
 41
-30.0
 62
     5
 63
     7
 74
     1
 91
        4
 64
     7
 65
   257
 75
     1
175
     1
 42
1.0
 92
       12
 66
     7
 43
1.0
 76
     1
 77
     6
 78
     2
 67
     7
 79
     5
170
     0
171
     0
290
     0
174
     0
 93
        1
 44
0.0
173
     0
291
     1
 45
0.0
1001
ACAD
1000
AcDbSavedByObjectVersion
1070
     0
1000
AcDbSavedByObjectVersion
1070
     0
  0
DICTIONARYVAR
  5
AAF3
102
{ACAD_REACTORS
330
34
102
}
330
34
100
DictionaryVariables
280
     0
  1
STANDARD
  0
DICTIONARYVAR
  5
A10C
102
{ACAD_REACTORS
330
34
102
}
330
34
100
DictionaryVariables
280
     0
  1
1
  0
DICTIONARYVAR
  5
AB07
102
{ACAD_REACTORS
330
34
102
}
330
34
100
DictionaryVariables
280
     0
  1
4
  0
DICTIONARYVAR
  5
EB56
102
{ACAD_REACTORS
330
34
102
}
330
34
100
DictionaryVariables
280
     0
  1
0.000000;0.000000
  0
DICTIONARYVAR
  5
35
102
{ACAD_REACTORS
330
34
102
}
330
34
100
DictionaryVariables
280
     0
  1
0
  0
DICTIONARYVAR
  5
194C
102
{ACAD_REACTORS
330
34
102
}
330
34
100
DictionaryVariables
280
     0
  1
127
  0
DICTIONARY
  5
7E8
102
{ACAD_REACTORS
330
47
102
}
330
47
100
AcDbDictionary
281
     1
  0
DICTIONARY
  5
4C
102
{ACAD_REACTORS
330
47
102
}
330
47
100
AcDbDictionary
281
     1
  0
XRECORD
  5
A929
102
{ACAD_REACTORS
330
47
102
}
330
47
100
AcDbXrecord
280
     1
 90
-1023410169
  0
XRECORD
  5
B332
102
{ACAD_REACTORS
330
B331
102
}
330
B331
100
AcDbXrecord
280
     1
  0
XRECORD
  5
3FB7
102
{ACAD_REACTORS
330
3F96
102
}
330
3F96
100
AcDbXrecord
280
     1
 91
        3
330
0
 90
        8
 62
     7
370
    40
331
16
  1
Color_7
330
0
 90
        0
 62
    14
370
    -3
331
16
  1
Color_14
330
0
 90
        8
 62
     7
370
    20
331
16
  1
Color_7
330
6D1
 90
        0
 62
     7
370
    -3
331
16
  1
Color_7
330
0
 90
        8
 62
     7
370
    50
331
16
  1
Color_7
330
0
 90
        8
 62
     2
370
    35
331
16
  1
Color_2
330
0
 90
        8
 62
     7
370
    -3
331
16
  1
Color_7
330
10
 90
        8
 62
     7
370
    -3
331
16
  1
Color_7
  0
DICTIONARY
  5
5295E
330
22
100
AcDbDictionary
280
     1
281
     1
  3
ACAD_XREC_ROUNDTRIP
360
5295F
  0
DICTIONARY
  5
5295C
330
1E
100
AcDbDictionary
280
     1
281
     1
  3
ACAD_XREC_ROUNDTRIP
360
5295D
  0
DICTIONARY
  5
52960
330
26
100
AcDbDictionary
280
     1
281
     1
  3
ACAD_XREC_ROUNDTRIP
360
52961
  0
DICTIONARY
  5
528D2
330
B0EF
100
AcDbDictionary
280
     1
281
     1
  3
ACAD_XREC_ROUNDTRIP
360
528D3
  0
DICTIONARY
  5
528D0
330
B0EE
100
AcDbDictionary
280
     1
281
     1
  3
ACAD_XREC_ROUNDTRIP
360
528D1
  0
DICTIONARY
  5
528D4
330
B0F0
100
AcDbDictionary
280
     1
281
     1
  3
ACAD_XREC_ROUNDTRIP
360
528D5
  0
DICTIONARY
  5
52962
330
AABA
100
AcDbDictionary
280
     1
281
     1
  3
ACAD_XREC_ROUNDTRIP
360
52963
  0
XRECORD
  5
5295F
102
{ACAD_REACTORS
330
5295E
102
}
330
5295E
100
AcDbXrecord
280
     1
102
SHADEPLOT
 70
     1
102
SHADEPLOTRESLEVEL
 70
     2
102
SHADEPLOTCUSTOMDPI
 70
   300
  0
XRECORD
  5
5295D
102
{ACAD_REACTORS
330
5295C
102
}
330
5295C
100
AcDbXrecord
280
     1
102
SHADEPLOT
 70
     0
102
SHADEPLOTRESLEVEL
 70
     2
102
SHADEPLOTCUSTOMDPI
 70
   300
  0
XRECORD
  5
52961
102
{ACAD_REACTORS
330
52960
102
}
330
52960
100
AcDbXrecord
280
     1
102
SHADEPLOT
 70
     0
102
SHADEPLOTRESLEVEL
 70
     2
102
SHADEPLOTCUSTOMDPI
 70
   300
  0
XRECORD
  5
528D3
102
{ACAD_REACTORS
330
528D2
102
}
330
528D2
100
AcDbXrecord
280
     1
102
MATERIAL
148
0.0
149
0.0
149
0.0
 93
        0
 94
       63
282
     0
 72
     1
 77
     1
171
     1
175
     1
179
     1
273
     0
  0
XRECORD
  5
528D1
102
{ACAD_REACTORS
330
528D0
102
}
330
528D0
100
AcDbXrecord
280
     1
102
MATERIAL
148
0.0
149
0.0
149
0.0
 93
        0
 94
       63
282
     0
 72
     1
 77
     1
171
     1
175
     1
179
     1
273
     0
  0
XRECORD
  5
528D5
102
{ACAD_REACTORS
330
528D4
102
}
330
528D4
100
AcDbXrecord
280
     1
102
MATERIAL
148
0.0
149
0.0
149
0.0
 93
        0
 94
       63
282
     0
 72
     1
 77
     1
171
     1
175
     1
179
     1
273
     0
  0
XRECORD
  5
52963
102
{ACAD_REACTORS
330
52962
102
}
330
52962
100
AcDbXrecord
280
     1
102
ACAD_ROUNDTRIP_PRE2007_TABLESTYLE
 90
        4
 91
        0
  1

 92
        4
 93
        0
  2

 94
        4
 95
        0
  3

  0
ENDSEC
  0
EOF
