  0
SECTION
  2
HEADER
  9
$EXTMAX
 10
170
 20
173
 30
0
  9
$EXTMIN
 10
-211
 20
-100
 30
0
  9
$LIMMAX
 10
170
 20
173
  9
$LIMMIN
 10
-211
 20
-100
  9
$PLIMMAX
 10
170
 20
173
  9
$PLIMMIN
 10
-211
 20
-100
  9
$TEXTSIZE
 40
3.2
  9
$DIMSHO
 70
     0
  9
$DIMASZ
 40
1.0
  9
$DIMTAD
 70
     1
  9
$DIMTIH
 70
     0
  9
$DIMTOH
 70
     0
  9
$DIMEXE
 40
2.54
  9
$DIMEXO
 40
2.54
  9
$DIMTVP
 40
1.0
  9
$DIMSAH
 70
     1
  9
$DIMDLE
 40
0.0
  9
$DIMTXT
 40
3.2
  9
$DIMGAP
 40
1.6
  0
ENDSEC
  0
SECTION
  2
TABLES
  0
TABLE
  2
LTYPE
 70
     6
  0
LTYPE
  2
CONTINUOUS
 70
    64
  3
Solid line
 72
    65
 73
     0
 40
0.0
  0
LTYPE
  2
DASHED
 70
    64
  3
__ __ __ __ __ __ __ __ __ __ __ __ __ __ __
 72
    65
 73
     2
 40
3.5
 49
2.0
 49
-1.5
  0
LTYPE
  2
CENTER
 70
    64
  3
____ _ ____ _ ____ _ ____ _ ____ _ ____ _ ____
 72
    65
 73
     4
 40
17.5
 49
13.0
 49
-1.5
 49
1.5
 49
-1.5
  0
LTYPE
  2
PHANTOM
 70
    64
  3
_____ _ _ _____ _ _ _____ _ _ _____ _ _ ____  
 72
    65
 73
     6
 40
15.5
 49
8.0
 49
-1.5
 49
1.5
 49
-1.5
 49
1.5
 49
-1.5
  0
LTYPE
  2
DOT
 70
    64
  3
. . . . . . . . . . . . . . . . . . . . . . . .
 72
    65
 73
     2
 40
0.25
 49
0.0
 49
-0.25
  0
LTYPE
  2
HIDDEN
 70
    64
  3
__ __ __ __ __ __ __ __ __ __ __ __ __ __ __
 72
    65
 73
     2
 40
3.5
 49
2.0
 49
-1.5
  0
ENDTAB
  0
TABLE
  2
LAYER
 70
     3
  0
LAYER
  2
0
 70
     0
 62
     7
  6
CONTINUOUS
  0
LAYER
  2
1
 70
     0
 62
     7
  6
CONTINUOUS
  0
LAYER
  2
DEFPOINTS
 70
     0
 62
     7
  6
CONTINUOUS
  0
ENDTAB
  0
TABLE
  2
STYLE
 70
     1
  0
STYLE
  2
STANDARD
 70
     0
 40
0.0
 41
1.0
 50
0.0
 71
     0
 42
0.2
  3
txt
  4
BIGFONT
  0
ENDTAB
  0
TABLE
  2
DIMSTYLE
 70
     1
  0
DIMSTYLE
  2
DIMSTYLE
 70
     0
  3

  4

  5
_DOT
  6
_DOT
  7
_DOT
 40
1
 41
1
 42
2.54
 43
0.38
 44
2.54
 45
0
 46
0
 47
0
 48
0
140
3.2
141
0.09
142
0
143
25.4
144
1
145
0
146
1
147
1.6
 71
     0
 72
     0
 73
     0
 74
     0
 75
     0
 76
     0
 78
     0
170
     0
171
     2
 77
     0
172
     0
173
     1
174
     0
175
     0
176
     0
177
     0
178
     0
  0
ENDTAB
  0
ENDSEC
  0
SECTION
  2
BLOCKS
  0
BLOCK
  8
0
  2
_DOT
 70
    64
 10
0
 20
0
  3
_DOT
  0
POLYLINE
  8
0
  6
BYBLOCK
 62
     0
 66
     1
 10
0
 20
0
 70
     1
 40
0.40000001
 41
0.40000001
  0
VERTEX
  8
0
  6
BYBLOCK
 62
     0
 10
-0.2
 20
0
 42
1
  0
VERTEX
  8
0
  6
BYBLOCK
 62
     0
 10
0.2
 20
0
 42
1
  0
SEQEND
  8
0
  6
BYBLOCK
 62
     0
  0
LINE
  8
0
  6
BYBLOCK
 62
     0
 10
-0.40000001
 20
0
 11
-3
 21
0
  0
ENDBLK
  8
0
  0
BLOCK
  8
0
  2
*D1
 70
    65
 10
0
 20
0
  0
LINE
  8
0
  6
CONTINUOUS
 62
     7
 10
-30.600006
 20
92.5
 11
-30.600006
 21
107.5
  0
INSERT
  8
0
  6
CONTINUOUS
 62
     7
  2
_DOT
 10
-30.600006
 20
92.5
 50
270
  0
INSERT
  8
0
  6
CONTINUOUS
 62
     7
  2
_DOT
 10
-30.600006
 20
107.5
 50
90
  0
LINE
  8
0
  6
CONTINUOUS
 62
     7
 10
13.110002
 20
92.5
 11
-30.600105
 21
92.5
  0
LINE
  8
0
  6
CONTINUOUS
 62
     7
 10
13.110002
 20
107.5
 11
-30.600105
 21
107.5
  0
TEXT
  8
0
  6
CONTINUOUS
 62
     7
 10
-31.350006
 20
97.4285
 40
3
 41
1.28575
  1
15
 50
90.000003
  0
POINT
  8
DEFPOINTS
  6
CONTINUOUS
 62
     7
 10
15.650002
 20
92.5
  0
POINT
  8
DEFPOINTS
  6
CONTINUOUS
 62
     7
 10
15.650002
 20
107.5
  0
POINT
  8
DEFPOINTS
  6
CONTINUOUS
 62
     7
 10
-30.600006
 20
107.5
  0
ENDBLK
  8
0
  0
BLOCK
  8
0
  2
*D2
 70
    65
 10
0
 20
0
  0
LINE
  8
0
  6
CONTINUOUS
 62
     7
 10
25.650002
 20
55
 11
120
 21
55
  0
INSERT
  8
0
  6
CONTINUOUS
 62
     7
  2
_DOT
 10
25.650002
 20
55
 50
180
  0
INSERT
  8
0
  6
CONTINUOUS
 62
     7
  2
_DOT
 10
120
 20
55
  0
LINE
  8
0
  6
CONTINUOUS
 62
     7
 10
25.650002
 20
84.418458
 11
25.650002
 21
54.999901
  0
LINE
  8
0
  6
CONTINUOUS
 62
     7
 10
120
 20
77.46
 11
120
 21
54.999901
  0
TEXT
  8
0
  6
CONTINUOUS
 62
     7
 10
71.753497
 20
55.75
 40
3
 41
1
  1
T
  0
POINT
  8
DEFPOINTS
  6
CONTINUOUS
 62
     7
 10
25.650002
 20
86.958458
  0
POINT
  8
DEFPOINTS
  6
CONTINUOUS
 62
     7
 10
120
 20
80
  0
POINT
  8
DEFPOINTS
  6
CONTINUOUS
 62
     7
 10
120
 20
55
  0
ENDBLK
  8
0
  0
BLOCK
  8
0
  2
*D3
 70
    65
 10
0
 20
0
  0
LINE
  8
0
  6
CONTINUOUS
 62
     7
 10
-20.600006
 20
130
 11
120
 21
130
  0
INSERT
  8
0
  6
CONTINUOUS
 62
     7
  2
_DOT
 10
-20.600006
 20
130
 50
180
  0
INSERT
  8
0
  6
CONTINUOUS
 62
     7
  2
_DOT
 10
120
 20
130
  0
LINE
  8
0
  6
CONTINUOUS
 62
     7
 10
-20.600006
 20
122.54001
 11
-20.600006
 21
130.00009
  0
LINE
  8
0
  6
CONTINUOUS
 62
     7
 10
120
 20
122.54001
 11
120
 21
130.00009
  0
TEXT
  8
0
  6
CONTINUOUS
 62
     7
 10
48.628497
 20
130.75
 40
3
 41
1
  1
L
  0
POINT
  8
DEFPOINTS
  6
CONTINUOUS
 62
     7
 10
-20.600006
 20
120.00001
  0
POINT
  8
DEFPOINTS
  6
CONTINUOUS
 62
     7
 10
120
 20
120.00001
  0
POINT
  8
DEFPOINTS
  6
CONTINUOUS
 62
     7
 10
120
 20
130
  0
ENDBLK
  8
0
  0
BLOCK
  8
0
  2
*D4
 70
    65
 10
0
 20
0
  0
LINE
  8
0
  6
CONTINUOUS
 62
     7
 10
8.1500015
 20
65
 11
43.150002
 21
65
  0
INSERT
  8
0
  6
CONTINUOUS
 62
     7
  2
_DOT
 10
8.1500015
 20
65
 50
180
  0
INSERT
  8
0
  6
CONTINUOUS
 62
     7
  2
_DOT
 10
43.150002
 20
65
  0
LINE
  8
0
  6
CONTINUOUS
 62
     7
 10
8.1500015
 20
97.46
 11
8.1500015
 21
64.999901
  0
LINE
  8
0
  6
CONTINUOUS
 62
     7
 10
43.150002
 20
97.46
 11
43.150002
 21
64.999901
  0
TEXT
  8
0
  6
CONTINUOUS
 62
     7
 10
14.798131
 20
65.75
 40
3
 41
1.0286
  1
35
  0
POINT
  8
DEFPOINTS
  6
CONTINUOUS
 62
     7
 10
8.1500015
 20
100
  0
POINT
  8
DEFPOINTS
  6
CONTINUOUS
 62
     7
 10
43.150002
 20
100
  0
POINT
  8
DEFPOINTS
  6
CONTINUOUS
 62
     7
 10
43.150002
 20
65
  0
ENDBLK
  8
0
  0
BLOCK
  8
0
  2
*D5
 70
    65
 10
0
 20
0
  0
LINE
  8
0
  6
CONTINUOUS
 62
     7
 10
13.439995
 20
-45.000004
 11
85.959999
 21
-45.000004
  0
INSERT
  8
0
  6
CONTINUOUS
 62
     7
  2
_DOT
 10
13.439995
 20
-45.000004
 50
180
  0
INSERT
  8
0
  6
CONTINUOUS
 62
     7
  2
_DOT
 10
85.959999
 20
-45.000004
  0
LINE
  8
0
  6
CONTINUOUS
 62
     7
 10
13.439995
 20
-26.838923
 11
13.439995
 21
-45.000103
  0
LINE
  8
0
  6
CONTINUOUS
 62
     7
 10
85.959999
 20
-26.838923
 11
85.959999
 21
-45.000103
  0
TEXT
  8
0
  6
CONTINUOUS
 62
     7
 10
32.128497
 20
-44.250004
 40
3
 41
0.84376951
  1
アンカーピッチＰ≦４００
  0
POINT
  8
DEFPOINTS
  6
CONTINUOUS
 62
     7
 10
13.439995
 20
-24.298923
  0
POINT
  8
DEFPOINTS
  6
CONTINUOUS
 62
     7
 10
85.959999
 20
-24.298923
  0
POINT
  8
DEFPOINTS
  6
CONTINUOUS
 62
     7
 10
85.959999
 20
-45.000004
  0
ENDBLK
  8
0
  0
BLOCK
  8
0
  2
*D6
 70
    65
 10
0
 20
0
  0
LINE
  8
0
  6
CONTINUOUS
 62
     7
 10
-130.60001
 20
30
 11
-90.600006
 21
30
  0
INSERT
  8
0
  6
CONTINUOUS
 62
     7
  2
_DOT
 10
-130.60001
 20
30
 50
180
  0
INSERT
  8
0
  6
CONTINUOUS
 62
     7
  2
_DOT
 10
-90.600006
 20
30
  0
LINE
  8
0
  6
CONTINUOUS
 62
     7
 10
-130.60001
 20
20.04
 11
-130.60001
 21
31.200001
  0
LINE
  8
0
  6
CONTINUOUS
 62
     7
 10
-90.600006
 20
20.04
 11
-90.600006
 21
31.200001
  0
TEXT
  8
0
  6
CONTINUOUS
 62
     7
 10
-113.17151
 20
30.75
 40
3
 41
1.1020715
  1
40
  0
POINT
  8
DEFPOINTS
  6
CONTINUOUS
 62
     7
 10
-130.60001
 20
17.5
  0
POINT
  8
DEFPOINTS
  6
CONTINUOUS
 62
     7
 10
-90.600006
 20
17.5
  0
POINT
  8
DEFPOINTS
  6
CONTINUOUS
 62
     7
 10
-90.600006
 20
30
  0
ENDBLK
  8
0
  0
BLOCK
  8
0
  2
*D7
 70
    65
 10
0
 20
0
  0
LINE
  8
0
  6
CONTINUOUS
 62
     7
 10
-75.600006
 20
20
 11
-75.600006
 21
0
  0
INSERT
  8
0
  6
CONTINUOUS
 62
     7
  2
_DOT
 10
-75.600006
 20
20
 50
90
  0
INSERT
  8
0
  6
CONTINUOUS
 62
     7
  2
_DOT
 10
-75.600006
 20
0
 50
270
  0
LINE
  8
0
  6
CONTINUOUS
 62
     7
 10
-90.560006
 20
20
 11
-75.599907
 21
20
  0
LINE
  8
0
  6
CONTINUOUS
 62
     7
 10
-90.560006
 20
0
 11
-75.599907
 21
0
  0
TEXT
  8
0
  6
CONTINUOUS
 62
     7
 10
-76.350006
 20
7.4284999
 40
3
 41
1.1020715
  1
20
 50
90.000003
  0
POINT
  8
DEFPOINTS
  6
CONTINUOUS
 62
     7
 10
-93.100006
 20
20
  0
POINT
  8
DEFPOINTS
  6
CONTINUOUS
 62
     7
 10
-93.100006
 20
0
  0
POINT
  8
DEFPOINTS
  6
CONTINUOUS
 62
     7
 10
-75.600006
 20
0
  0
ENDBLK
  8
0
  0
BLOCK
  8
0
  2
*D8
 70
    65
 10
0
 20
0
  0
LINE
  8
0
  6
CONTINUOUS
 62
     7
 10
-75.600006
 20
0
 11
-75.600006
 21
-20
  0
INSERT
  8
0
  6
CONTINUOUS
 62
     7
  2
_DOT
 10
-75.600006
 20
0
 50
90
  0
INSERT
  8
0
  6
CONTINUOUS
 62
     7
  2
_DOT
 10
-75.600006
 20
-20
 50
270
  0
LINE
  8
0
  6
CONTINUOUS
 62
     7
 10
-88.560006
 20
-20
 11
-75.599907
 21
-20
  0
TEXT
  8
0
  6
CONTINUOUS
 62
     7
 10
-76.350006
 20
-12.5715
 40
3
 41
1.1020715
  1
20
 50
90.000003
  0
POINT
  8
DEFPOINTS
  6
CONTINUOUS
 62
     7
 10
-93.100006
 20
0
  0
POINT
  8
DEFPOINTS
  6
CONTINUOUS
 62
     7
 10
-91.100006
 20
-20
  0
POINT
  8
DEFPOINTS
  6
CONTINUOUS
 62
     7
 10
-75.600006
 20
-20
  0
ENDBLK
  8
0
  0
BLOCK
  8
0
  2
*D9
 70
    65
 10
0
 20
0
  0
LINE
  8
0
  6
CONTINUOUS
 62
     7
 10
-20.600006
 20
-35
 11
-31.152218
 21
-35
  0
LINE
  8
0
  6
CONTINUOUS
 62
     7
 10
-20.100006
 20
-35
 11
-20.600006
 21
-35
  0
INSERT
  8
0
  6
CONTINUOUS
 62
     7
  2
_DOT
 10
-20.100006
 20
-35
  0
INSERT
  8
0
  6
CONTINUOUS
 62
     7
  2
_DOT
 10
-20.600006
 20
-35
 50
180
  0
LINE
  8
0
  6
CONTINUOUS
 62
     7
 10
-20.600006
 20
-2.5399999
 11
-20.600006
 21
-35.000099
  0
TEXT
  8
0
  6
CONTINUOUS
 62
     7
 10
-31.152219
 20
-34.25
 40
3
 41
1.4805455
  1
0.5
  0
POINT
  8
DEFPOINTS
  6
CONTINUOUS
 62
     7
 10
-20.100006
 20
2.2999992
  0
POINT
  8
DEFPOINTS
  6
CONTINUOUS
 62
     7
 10
-20.600006
 20
0
  0
POINT
  8
DEFPOINTS
  6
CONTINUOUS
 62
     7
 10
-20.600006
 20
-35
  0
ENDBLK
  8
0
  0
BLOCK
  8
0
  2
*D10
 70
    65
 10
0
 20
0
  0
LINE
  8
0
  6
CONTINUOUS
 62
     7
 10
-130.10001
 20
-35
 11
-91.100006
 21
-35
  0
INSERT
  8
0
  6
CONTINUOUS
 62
     7
  2
_DOT
 10
-130.10001
 20
-35
 50
180
  0
INSERT
  8
0
  6
CONTINUOUS
 62
     7
  2
_DOT
 10
-91.100006
 20
-35
  0
LINE
  8
0
  6
CONTINUOUS
 62
     7
 10
-130.10001
 20
-22.54
 11
-130.10001
 21
-35.000099
  0
LINE
  8
0
  6
CONTINUOUS
 62
     7
 10
-91.100006
 20
-22.54
 11
-91.100006
 21
-35.000099
  0
TEXT
  8
0
  6
CONTINUOUS
 62
     7
 10
-113.17151
 20
-34.25
 40
3
 41
1.0286
  1
39
  0
POINT
  8
DEFPOINTS
  6
CONTINUOUS
 62
     7
 10
-130.10001
 20
-20
  0
POINT
  8
DEFPOINTS
  6
CONTINUOUS
 62
     7
 10
-91.100006
 20
-20
  0
POINT
  8
DEFPOINTS
  6
CONTINUOUS
 62
     7
 10
-91.100006
 20
-35
  0
ENDBLK
  8
0
  0
BLOCK
  8
0
  2
*D11
 70
    65
 10
0
 20
0
  0
LINE
  8
0
  6
CONTINUOUS
 62
     7
 10
13.439995
 20
-45.000004
 11
-20.600006
 21
-45.000004
  0
INSERT
  8
0
  6
CONTINUOUS
 62
     7
  2
_DOT
 10
13.439995
 20
-45.000004
  0
INSERT
  8
0
  6
CONTINUOUS
 62
     7
  2
_DOT
 10
-20.600006
 20
-45.000004
 50
180
  0
LINE
  8
0
  6
CONTINUOUS
 62
     7
 10
-20.600006
 20
-2.5399999
 11
-20.600006
 21
-45.000103
  0
TEXT
  8
0
  6
CONTINUOUS
 62
     7
 10
-7.6515057
 20
-44.250004
 40
3
 41
1.22145
  1
150
  0
POINT
  8
DEFPOINTS
  6
CONTINUOUS
 62
     7
 10
13.439995
 20
-24.298923
  0
POINT
  8
DEFPOINTS
  6
CONTINUOUS
 62
     7
 10
-20.600006
 20
0
  0
POINT
  8
DEFPOINTS
  6
CONTINUOUS
 62
     7
 10
-20.600006
 20
-45.000004
  0
ENDBLK
  8
0
  0
BLOCK
  8
0
  2
*D12
 70
    65
 10
0
 20
0
  0
LINE
  8
0
  6
CONTINUOUS
 62
     7
 10
85.959999
 20
-45.000004
 11
120
 21
-45.000004
  0
INSERT
  8
0
  6
CONTINUOUS
 62
     7
  2
_DOT
 10
85.959999
 20
-45.000004
 50
180
  0
INSERT
  8
0
  6
CONTINUOUS
 62
     7
  2
_DOT
 10
120
 20
-45.000004
  0
LINE
  8
0
  6
CONTINUOUS
 62
     7
 10
120
 20
-2.5399999
 11
120
 21
-45.000103
  0
TEXT
  8
0
  6
CONTINUOUS
 62
     7
 10
98.908503
 20
-44.250004
 40
3
 41
1.22145
  1
150
  0
POINT
  8
DEFPOINTS
  6
CONTINUOUS
 62
     7
 10
85.959999
 20
-24.298923
  0
POINT
  8
DEFPOINTS
  6
CONTINUOUS
 62
     7
 10
120
 20
0
  0
POINT
  8
DEFPOINTS
  6
CONTINUOUS
 62
     7
 10
120
 20
-45.000004
  0
ENDBLK
  8
0
  0
BLOCK
  8
0
  2
*D13
 70
    65
 10
0
 20
0
  0
LINE
  8
0
  6
CONTINUOUS
 62
     7
 10
-17.800007
 20
-35
 11
-7.2124825
 21
-35
  0
LINE
  8
0
  6
CONTINUOUS
 62
     7
 10
-17.800007
 20
-35
 11
-20.100006
 21
-35
  0
INSERT
  8
0
  6
CONTINUOUS
 62
     7
  2
_DOT
 10
-17.800007
 20
-35
  0
INSERT
  8
0
  6
CONTINUOUS
 62
     7
  2
_DOT
 10
-20.100006
 20
-35
 50
180
  0
LINE
  8
0
  6
CONTINUOUS
 62
     7
 10
-17.800007
 20
-0.24000069
 11
-17.800007
 21
-35.000099
  0
LINE
  8
0
  6
CONTINUOUS
 62
     7
 10
-20.100006
 20
-0.24000069
 11
-20.100006
 21
-35.000099
  0
TEXT
  8
0
  6
CONTINUOUS
 62
     7
 10
-15.355481
 20
-34.25
 40
3
 41
1.3571667
  1
2.3
  0
POINT
  8
DEFPOINTS
  6
CONTINUOUS
 62
     7
 10
-17.800007
 20
2.2999992
  0
POINT
  8
DEFPOINTS
  6
CONTINUOUS
 62
     7
 10
-20.100006
 20
2.2999992
  0
POINT
  8
DEFPOINTS
  6
CONTINUOUS
 62
     7
 10
-20.100006
 20
-35
  0
ENDBLK
  8
0
  0
BLOCK
  8
0
  2
KOZU0001
 70
    64
 10
0
 20
0
  0
LINE
  8
0
  6
CONTINUOUS
 62
     7
 10
0
 20
0
 11
-15
 21
19.999999
  0
LINE
  8
0
  6
CONTINUOUS
 62
     7
 10
-15
 20
19.999999
 11
-59.06575
 21
19.999999
  0
LINE
  8
0
  6
CONTINUOUS
 62
     7
 10
0
 20
0
 11
-2.3264
 21
2.1651999
  0
LINE
  8
0
  6
CONTINUOUS
 62
     7
 10
0
 20
0
 11
-1.4272
 21
2.8395999
  0
TEXT
  8
0
  6
CONTINUOUS
 62
     7
 10
-58.151758
 20
20.800003
 40
3.2
 41
0.84350122
  1
サイドジョイントは溶接止め
  0
ENDBLK
  8
0
  0
ENDSEC
  0
SECTION
  2
ENTITIES
  0
LINE
  8
0
  6
CONTINUOUS
 62
     7
 10
170
 20
173
 11
170
 21
-100
  0
LINE
  8
0
  6
CONTINUOUS
 62
     7
 10
-211
 20
-100
 11
170
 21
-100
  0
LINE
  8
0
  6
CONTINUOUS
 62
     7
 10
-211
 20
173
 11
170
 21
173
  0
LINE
  8
0
  6
CONTINUOUS
 62
     7
 10
-211
 20
173
 11
-211
 21
-100
  0
LINE
  8
0
  6
CONTINUOUS
 62
     7
 10
-191
 20
173
 11
-191
 21
77
  0
LINE
  8
0
  6
CONTINUOUS
 62
     7
 10
-211
 20
165
 11
-101
 21
165
  0
LINE
  8
0
  6
CONTINUOUS
 62
     7
 10
-211
 20
157
 11
-101
 21
157
  0
LINE
  8
0
  6
CONTINUOUS
 62
     7
 10
-211
 20
149
 11
-101
 21
149
  0
LINE
  8
0
  6
CONTINUOUS
 62
     7
 10
-211
 20
141
 11
-101
 21
141
  0
LINE
  8
0
  6
CONTINUOUS
 62
     7
 10
-191
 20
117
 11
-101
 21
117
  0
LINE
  8
0
  6
CONTINUOUS
 62
     7
 10
-191
 20
109
 11
-101
 21
109
  0
LINE
  8
0
  6
CONTINUOUS
 62
     7
 10
-211
 20
101
 11
-101
 21
101
  0
LINE
  8
0
  6
CONTINUOUS
 62
     7
 10
-191
 20
93
 11
-101
 21
93
  0
LINE
  8
0
  6
CONTINUOUS
 62
     7
 10
-191
 20
85
 11
-101
 21
85
  0
LINE
  8
0
  6
CONTINUOUS
 62
     7
 10
-211
 20
77
 11
-101
 21
77
  0
LINE
  8
0
  6
CONTINUOUS
 62
     7
 10
-211
 20
173
 11
-211
 21
77
  0
LINE
  8
0
  6
CONTINUOUS
 62
     7
 10
-211
 20
173
 11
-101
 21
173
  0
LINE
  8
0
  6
CONTINUOUS
 62
     7
 10
-101
 20
173
 11
-101
 21
77
  0
LINE
  8
0
  6
CONTINUOUS
 62
     7
 10
-211
 20
133
 11
-101
 21
133
  0
LINE
  8
0
  6
CONTINUOUS
 62
     7
 10
-211
 20
125
 11
-101
 21
125
  0
LINE
  8
0
  6
CONTINUOUS
 62
     7
 10
-191
 20
117
 11
-101
 21
117
  0
LINE
  8
0
  6
CONTINUOUS
 62
     3
 10
15.650002
 20
92.5
 11
35.650002
 21
92.5
  0
LINE
  8
0
  6
CONTINUOUS
 62
     3
 10
-20.600006
 20
120.00001
 11
83.000008
 21
120.00001
  0
LINE
  8
0
  6
CONTINUOUS
 62
     3
 10
-3.875
 20
102.59
 11
-3.875
 21
100.925
  0
LINE
  8
0
  6
CONTINUOUS
 62
     3
 10
-2.0250015
 20
99.075005
 11
-2.0250015
 21
97.409996
  0
LINE
  8
0
  6
CONTINUOUS
 62
     3
 10
-2.0250015
 20
102.59
 11
-2.0250015
 21
100.925
  0
LINE
  8
0
  6
CONTINUOUS
 62
     3
 10
-128.10001
 20
0
 11
-93.100006
 21
0
  0
LINE
  8
0
  6
CONTINUOUS
 62
     3
 10
-92.900009
 20
17.700001
 11
-92.900009
 21
2.2999992
  0
LINE
  8
0
  6
CONTINUOUS
 62
     3
 10
-5.5400009
 20
100.925
 11
-3.875
 21
100.925
  0
LINE
  8
0
  6
CONTINUOUS
 62
     3
 10
-20.600006
 20
80
 11
83.000008
 21
80
  0
LINE
  8
0
  6
CONTINUOUS
 62
     3
 10
-101.255
 20
-20
 11
-91.100006
 21
-20
  0
LINE
  8
0
  6
CONTINUOUS
 62
     3
 10
-117.44501
 20
-4.1499996
 11
-117.44501
 21
-17.5
  0
LINE
  8
0
  6
CONTINUOUS
 62
     3
 10
-20.600006
 20
120.00001
 11
-20.600006
 21
80
  0
LINE
  8
0
  6
CONTINUOUS
 62
     7
 10
86.700005
 20
123.00001
 11
86.700005
 21
77
  0
LINE
  8
0
  6
CONTINUOUS
 62
     3
 10
120
 20
120.00001
 11
120
 21
80
  0
LINE
  8
0
  6
CONTINUOUS
 62
     3
 10
86.700005
 20
120.00001
 11
120
 21
120.00001
  0
LINE
  8
0
  6
CONTINUOUS
 62
     7
 10
83.000008
 20
123.00001
 11
83.000008
 21
77
  0
LINE
  8
0
  6
CONTINUOUS
 62
     3
 10
86.700005
 20
80
 11
120
 21
80
  0
LINE
  8
0
  6
CONTINUOUS
 62
     3
 10
-130.60001
 20
17.5
 11
-130.60001
 21
2.5
  0
LINE
  8
0
  6
CONTINUOUS
 62
     3
 10
-128.3
 20
17.700001
 11
-128.3
 21
2.2999992
  0
LINE
  8
0
  6
CONTINUOUS
 62
     3
 10
-128.3
 20
17.700001
 11
-92.900009
 21
17.700001
  0
LINE
  8
0
  6
CENTER
 62
     7
 10
-20.600006
 20
100
 11
120
 21
100
  0
LINE
  8
0
  6
CENTER
 62
     7
 10
25.650002
 20
112.88131
 11
25.650002
 21
86.958458
  0
LINE
  8
0
  6
CONTINUOUS
 62
     3
 10
-2.0250015
 20
99.075005
 11
-0.36000061
 21
99.075005
  0
LINE
  8
0
  6
CONTINUOUS
 62
     3
 10
-2.0250015
 20
100.925
 11
-0.36000061
 21
100.925
  0
LINE
  8
0
  6
CONTINUOUS
 62
     3
 10
53.325005
 20
102.59
 11
53.325005
 21
100.925
  0
LINE
  8
0
  6
CENTER
 62
     7
 10
-110.60001
 20
24.212366
 11
-110.60001
 21
-21.443455
  0
LINE
  8
0
  6
CONTINUOUS
 62
     3
 10
-128.3
 20
2.2999992
 11
-92.900009
 21
2.2999992
  0
LINE
  8
0
  6
CONTINUOUS
 62
     3
 10
-128.10001
 20
20
 11
-93.100006
 21
20
  0
LINE
  8
0
  6
CONTINUOUS
 62
     3
 10
-20.600006
 20
20
 11
47.849998
 21
20
  0
LINE
  8
0
  6
CONTINUOUS
 62
     3
 10
-5.5400009
 20
99.075005
 11
-3.875
 21
99.075005
  0
LINE
  8
0
  6
CENTER
 62
     7
 10
54.250004
 20
106.08033
 11
54.250004
 21
94.213356
  0
LINE
  8
0
  6
CONTINUOUS
 62
     3
 10
53.325005
 20
99.075005
 11
53.325005
 21
97.409996
  0
LINE
  8
0
  6
CONTINUOUS
 62
     3
 10
55.175003
 20
99.075005
 11
55.175003
 21
97.409996
  0
LINE
  8
0
  6
CONTINUOUS
 62
     3
 10
-3.875
 20
99.075005
 11
-3.875
 21
97.409996
  0
LINE
  8
0
  6
CONTINUOUS
 62
     3
 10
53.325005
 20
100.925
 11
51.660004
 21
100.925
  0
LINE
  8
0
  6
CONTINUOUS
 62
     3
 10
56.840004
 20
100.925
 11
55.175003
 21
100.925
  0
LINE
  8
0
  6
CONTINUOUS
 62
     3
 10
53.325005
 20
99.075005
 11
51.660004
 21
99.075005
  0
LINE
  8
0
  6
CONTINUOUS
 62
     3
 10
56.840004
 20
99.075005
 11
55.175003
 21
99.075005
  0
LINE
  8
0
  6
CONTINUOUS
 62
     3
 10
55.175003
 20
102.59
 11
55.175003
 21
100.925
  0
LINE
  8
0
  6
CONTINUOUS
 62
     3
 10
-103.755
 20
-4.1499996
 11
-103.755
 21
-17.5
  0
LINE
  8
0
  6
CONTINUOUS
 62
     3
 10
-90.600006
 20
17.5
 11
-90.600006
 21
2.5
  0
LINE
  8
0
  6
CONTINUOUS
 62
     3
 10
-91.100006
 20
-17.700001
 11
-91.100006
 21
-20
  0
LINE
  8
0
  6
CONTINUOUS
 62
     3
 10
-117.44501
 20
-4.1499996
 11
-103.755
 21
-4.1499996
  0
LINE
  8
0
  6
CONTINUOUS
 62
     3
 10
-119.74501
 20
-17.700001
 11
-130.10001
 21
-17.700001
  0
LINE
  8
0
  6
CONTINUOUS
 62
     3
 10
-101.455
 20
-4.3500004
 11
-101.455
 21
-17.700001
  0
LINE
  8
0
  6
CONTINUOUS
 62
     3
 10
-128.3
 20
-1.8500004
 11
-92.900009
 21
-1.8500004
  0
LINE
  8
0
  6
CONTINUOUS
 62
     3
 10
-119.94501
 20
-20
 11
-130.10001
 21
-20
  0
LINE
  8
0
  6
CONTINUOUS
 62
     3
 10
-101.455
 20
-17.700001
 11
-91.100006
 21
-17.700001
  0
LINE
  8
0
  6
CENTER
 62
     7
 10
-2.9500008
 20
106.08033
 11
-2.9500008
 21
94.213356
  0
LINE
  8
0
  6
CONTINUOUS
 62
     3
 10
15.650002
 20
107.5
 11
35.650002
 21
107.5
  0
LINE
  8
0
  6
CONTINUOUS
 62
     3
 10
-92.900009
 20
0.0080127716
 11
-92.900009
 21
-1.8500004
  0
LINE
  8
0
  6
CONTINUOUS
 62
     3
 10
-130.10001
 20
-17.700001
 11
-130.10001
 21
-20
  0
LINE
  8
0
  6
CONTINUOUS
 62
     3
 10
-128.3
 20
0.0080127716
 11
-128.3
 21
-1.8500004
  0
LINE
  8
0
  6
CONTINUOUS
 62
     3
 10
-119.74501
 20
-4.3500004
 11
-119.74501
 21
-17.700001
  0
LINE
  8
0
  6
CONTINUOUS
 62
     3
 10
-101.66
 20
2.3000066
 11
-102.49714
 21
7.9342863e-006
  0
LINE
  8
0
  6
CONTINUOUS
 62
     3
 10
-120.96001
 20
2.2999995
 11
-120.12288
 21
7.1068962e-007
  0
LINE
  8
0
  6
CONTINUOUS
 62
     3
 10
-99.500008
 20
2.2999992
 11
-99.500008
 21
0
  0
LINE
  8
0
  6
CONTINUOUS
 62
     3
 10
-121.7
 20
2.2999992
 11
-121.7
 21
0
  0
LINE
  8
0
  6
CONTINUOUS
 62
     3
 10
-119.54001
 20
2.3000028
 11
-118.70287
 21
5.4185239e-007
  0
LINE
  8
0
  6
CONTINUOUS
 62
     3
 10
-20.600006
 20
2.2999992
 11
-17.144836
 21
2.2999992
  0
LINE
  8
0
  6
CONTINUOUS
 62
     3
 10
-100.24001
 20
2.3000023
 11
-101.07714
 21
3.5432593e-006
  0
LINE
  8
0
  6
CONTINUOUS
 62
     3
 10
1.4149933
 20
-1.8500004
 11
25.464996
 21
-1.8500004
  0
LINE
  8
0
  6
CONTINUOUS
 62
     3
 10
-20.600006
 20
0
 11
47.849998
 21
0
  0
LINE
  8
0
  6
CONTINUOUS
 62
     3
 10
1.4149933
 20
-18.150002
 11
25.464996
 21
-18.150002
  0
LINE
  8
0
  6
CENTER
 62
     7
 10
13.439995
 20
2.1944714
 11
13.439995
 21
-24.298923
  0
LINE
  8
0
  6
CONTINUOUS
 62
     3
 10
-20.600006
 20
20
 11
-20.600006
 21
0
  0
LINE
  8
0
  6
CONTINUOUS
 62
     3
 10
120
 20
0
 11
51.549995
 21
0
  0
LINE
  8
0
  6
CONTINUOUS
 62
     7
 10
47.849998
 20
21.85
 11
47.849998
 21
-2.7000008
  0
LINE
  8
0
  6
CONTINUOUS
 62
     7
 10
51.549995
 20
21.85
 11
51.549995
 21
-2.7000008
  0
LINE
  8
0
  6
CENTER
 62
     7
 10
85.959999
 20
2.1944714
 11
85.959999
 21
-24.298923
  0
LINE
  8
0
  6
CONTINUOUS
 62
     3
 10
97.985001
 20
-20
 11
73.934998
 21
-20
  0
LINE
  8
0
  6
CONTINUOUS
 62
     3
 10
97.985001
 20
0
 11
97.985001
 21
-20
  0
LINE
  8
0
  6
CONTINUOUS
 62
     3
 10
120
 20
20
 11
120
 21
0
  0
LINE
  8
0
  6
CONTINUOUS
 62
     3
 10
-20.600006
 20
17.700001
 11
-14.252922
 21
17.700001
  0
LINE
  8
0
  6
CONTINUOUS
 62
     3
 10
1.4149933
 20
-20
 11
25.464996
 21
-20
  0
LINE
  8
0
  6
CONTINUOUS
 62
     3
 10
-20.100006
 20
17.700001
 11
-20.100006
 21
2.2999992
  0
LINE
  8
0
  6
CONTINUOUS
 62
     3
 10
-17.800007
 20
17.700001
 11
-17.800007
 21
2.2999992
  0
LINE
  8
0
  6
CONTINUOUS
 62
     3
 10
25.464996
 20
0
 11
25.464996
 21
-20
  0
LINE
  8
0
  6
CONTINUOUS
 62
     3
 10
1.4149933
 20
0
 11
1.4149933
 21
-20
  0
LINE
  8
0
  6
CONTINUOUS
 62
     3
 10
120
 20
20
 11
51.549995
 21
20
  0
LINE
  8
0
  6
CONTINUOUS
 62
     3
 10
97.985001
 20
-1.8500004
 11
73.934998
 21
-1.8500004
  0
LINE
  8
0
  6
CONTINUOUS
 62
     3
 10
73.934998
 20
0
 11
73.934998
 21
-20
  0
LINE
  8
0
  6
CONTINUOUS
 62
     3
 10
97.985001
 20
-18.150002
 11
73.934998
 21
-18.150002
  0
LINE
  8
0
  6
CONTINUOUS
 62
     7
 10
-200.60001
 20
-95
 11
-50.600006
 21
-95
  0
LINE
  8
0
  6
CONTINUOUS
 62
     7
 10
-200.60001
 20
-55
 11
-200.60001
 21
-95
  0
LINE
  8
0
  6
CONTINUOUS
 62
     7
 10
-140.60001
 20
-55
 11
-140.60001
 21
-95
  0
LINE
  8
0
  6
CONTINUOUS
 62
     7
 10
-110.60001
 20
-55
 11
-110.60001
 21
-95
  0
LINE
  8
0
  6
CONTINUOUS
 62
     7
 10
-80.600006
 20
-55
 11
-80.600006
 21
-95
  0
LINE
  8
0
  6
CONTINUOUS
 62
     7
 10
-50.600006
 20
-55
 11
-50.600006
 21
-95
  0
LINE
  8
0
  6
CONTINUOUS
 62
     7
 10
-200.60001
 20
-85
 11
-50.600006
 21
-85
  0
LINE
  8
0
  6
CONTINUOUS
 62
     7
 10
-200.60001
 20
-75
 11
-50.600006
 21
-75
  0
LINE
  8
0
  6
CONTINUOUS
 62
     7
 10
-200.60001
 20
-65
 11
-50.600006
 21
-65
  0
LINE
  8
0
  6
CONTINUOUS
 62
     7
 10
-200.60001
 20
-55
 11
-50.600006
 21
-55
  0
LINE
  8
0
  6
CONTINUOUS
 62
     7
 10
-110.60001
 20
-65
 11
-80.600006
 21
-75
  0
ARC
  8
0
  6
CONTINUOUS
 62
     3
 10
-0.36000061
 20
100
 40
0.92499924
 50
270.00002
 51
89.999982
  0
ARC
  8
0
  6
CONTINUOUS
 62
     3
 10
-2.9500008
 20
102.59
 40
0.92499924
 50
0
 51
180
  0
ARC
  8
0
  6
CONTINUOUS
 62
     3
 10
15.650002
 20
100
 40
7.5
 50
89.999985
 51
270
  0
ARC
  8
0
  6
CONTINUOUS
 62
     3
 10
-2.9500008
 20
97.409996
 40
0.92499924
 50
180
 51
360
  0
ARC
  8
0
  6
CONTINUOUS
 62
     3
 10
35.650002
 20
100
 40
7.5
 50
270.00003
 51
89.999971
  0
CIRCLE
  8
0
  6
CONTINUOUS
 62
     3
 10
54.250004
 20
100
 40
4.0700016
  0
ARC
  8
0
  6
CONTINUOUS
 62
     3
 10
-5.5400009
 20
100
 40
0.92499924
 50
89.99997
 51
270
  0
ARC
  8
0
  6
CONTINUOUS
 62
     3
 10
-128.10001
 20
17.5
 40
2.5
 50
90
 51
179.99996
  0
ARC
  8
0
  6
CONTINUOUS
 62
     3
 10
-93.100006
 20
17.5
 40
2.5
 50
0
 51
90
  0
ARC
  8
0
  6
CONTINUOUS
 62
     3
 10
54.250004
 20
97.409996
 40
0.92499924
 50
180
 51
360
  0
ARC
  8
0
  6
CONTINUOUS
 62
     3
 10
51.660004
 20
100
 40
0.92499924
 50
90
 51
270
  0
ARC
  8
0
  6
CONTINUOUS
 62
     3
 10
56.840004
 20
100
 40
0.92499924
 50
270
 51
90
  0
ARC
  8
0
  6
CONTINUOUS
 62
     3
 10
54.250004
 20
102.59
 40
0.92499924
 50
0
 51
180
  0
ARC
  8
0
  6
CONTINUOUS
 62
     3
 10
-128.10001
 20
2.5
 40
2.5
 50
179.99998
 51
270
  0
ARC
  8
0
  6
CONTINUOUS
 62
     3
 10
-101.255
 20
-17.5
 40
2.5
 50
179.99996
 51
270
  0
ARC
  8
0
  6
CONTINUOUS
 62
     3
 10
-93.100006
 20
2.5
 40
2.5
 50
270
 51
360
  0
ARC
  8
0
  6
CONTINUOUS
 62
     3
 10
-119.94501
 20
-17.5
 40
2.5
 50
270
 51
360
  0
CIRCLE
  8
0
  6
CONTINUOUS
 62
     3
 10
-2.9500008
 20
100
 40
4.0700016
  0
ARC
  8
0
  6
CONTINUOUS
 62
     3
 10
-103.955
 20
-4.3500004
 40
2.5
 50
0
 51
90
  0
ARC
  8
0
  6
CONTINUOUS
 62
     3
 10
-117.24501
 20
-4.3500004
 40
2.5
 50
90
 51
179.99997
  0
POLYLINE
  8
0
  6
CONTINUOUS
 62
     7
 66
     1
 10
0
 20
0
  0
VERTEX
  8
0
  6
CONTINUOUS
 62
     7
 10
-13.142675
 20
21.848509
 42
0.068612395
  0
VERTEX
  8
0
  6
CONTINUOUS
 62
     7
 10
-14.132963
 20
18.876289
 42
0.062584212
  0
VERTEX
  8
0
  6
CONTINUOUS
 62
     7
 10
-14.191072
 20
15.742571
 42
-0.021714877
  0
VERTEX
  8
0
  6
CONTINUOUS
 62
     7
 10
-14.042364
 20
12.604924
 42
-0.031268091
  0
VERTEX
  8
0
  6
CONTINUOUS
 62
     7
 10
-14.238042
 20
9.4704301
 42
-0.04095293
  0
VERTEX
  8
0
  6
CONTINUOUS
 62
     7
 10
-14.866413
 20
6.39473
 42
-0.071460444
  0
VERTEX
  8
0
  6
CONTINUOUS
 62
     7
 10
-16.149422
 20
3.5372901
 42
-0.10145949
  0
VERTEX
  8
0
  6
CONTINUOUS
 62
     7
 10
-18.339658
 20
1.3129952
 42
-0.068874
  0
VERTEX
  8
0
  6
CONTINUOUS
 62
     7
 10
-21.154495
 20
-0.063341141
 42
0
  0
SEQEND
  8
0
  6
CONTINUOUS
 62
     7
  0
TEXT
  8
0
  6
CONTINUOUS
 62
     7
 10
-188.37855
 20
127.36617
 40
3.2
 41
0.86439075
  1
無し
  0
TEXT
  8
0
  6
CONTINUOUS
 62
     7
 10
-188.143
 20
95.4
 40
3.2
 41
0.84248387
  1
定尺外寸法については別途ご相談下さい。
  0
TEXT
  8
0
  6
CONTINUOUS
 62
     7
 10
-205.343
 20
167.4
 40
3.2
 41
0.85537027
  1
品　名
  0
TEXT
  8
0
  6
CONTINUOUS
 62
     7
 10
-205.343
 20
159.4
 40
3.2
 41
0.85537027
  1
品　番
  0
TEXT
  8
0
  6
CONTINUOUS
 62
     7
 10
-188.143
 20
87.4
 40
3.2
 41
0.85127005
  1
受注生産
  0
TEXT
  8
0
  6
CONTINUOUS
 62
     7
 10
-188.143
 20
79.4
 40
3.2
 41
0.90047268
  1
＊
  0
TEXT
  8
0
  6
CONTINUOUS
 62
     7
 10
-205.343
 20
151.4
 40
3.2
 41
0.85537027
  1
材　質
  0
TEXT
  8
0
  6
CONTINUOUS
 62
     7
 10
-205.343
 20
143.4
 40
3.2
 41
0.85537027
  1
仕上げ
  0
TEXT
  8
0
  6
CONTINUOUS
 62
     7
 10
-188.143
 20
103.4
 40
3.2
 41
0.90047268
  1
＊
  0
TEXT
  8
0
  6
CONTINUOUS
 62
     7
 10
-188.143
 20
111.4
 40
3.2
 41
0.90047268
  1
＊
  0
TEXT
  8
0
  6
CONTINUOUS
 62
     7
 10
-208.543
 20
119.4
 40
3.2
 41
0.84892707
  1
セットビス
  0
TEXT
  8
0
  6
CONTINUOUS
 62
     7
 10
-188.143
 20
119.4
 40
3.2
 41
0.90047268
  1
＊
  0
TEXT
  8
0
  6
CONTINUOUS
 62
     7
 10
-188.143
 20
151.4
 40
3.2
 41
0.84892707
  1
ステンレス
  0
TEXT
  8
0
  6
CONTINUOUS
 62
     7
 10
-203.743
 20
95.4
 40
3.2
 41
0.86439075
  1
備考
  0
TEXT
  8
0
  6
CONTINUOUS
 62
     7
 10
-188.143
 20
159.4
 40
3.2
 41
0.84741102
  1
Ｄ２ＲＴ－Ｆ
  0
TEXT
  8
0
  6
CONTINUOUS
 62
     7
 10
-188.143
 20
167.4
 40
3.2
 41
0.8427416
  1
ステンレス下枠（フラット枠４０巾）
  0
TEXT
  8
0
  6
CONTINUOUS
 62
     7
 10
-205.343
 20
135.4
 40
3.2
 41
0.85537027
  1
定　尺
  0
TEXT
  8
0
  6
CONTINUOUS
 62
     7
 10
-206.943
 20
127.4
 40
3.2
 41
0.85127005
  1
左右勝手
  0
TEXT
  8
0
  6
CONTINUOUS
 62
     7
 10
-188.35928
 20
134.96998
 40
3.2
 41
0.82827884
  1
８００ｍｍ、１６００ｍｍ、１７００ｍｍ
  0
TEXT
  8
0
  6
CONTINUOUS
 62
     7
 10
-188.143
 20
143.4
 40
3.2
 41
0.84741102
  1
ヘアーライン
  0
TEXT
  8
0
  6
CONTINUOUS
 62
     7
 10
-193.91451
 20
-92.4
 40
4.8000002
 41
0.8444834
  1
Ｄ２ＲＴ－１７００Ｆ
  0
TEXT
  8
0
  6
CONTINUOUS
 62
     7
 10
-186.71451
 20
-62.4
 40
4.8000002
 41
0.84634971
  1
品　　　　　番
  0
TEXT
  8
0
  6
CONTINUOUS
 62
     7
 10
-191.51451
 20
-72.4
 40
4.8000002
 41
0.84496194
  1
Ｄ２ＲＴ－８００Ｆ
  0
TEXT
  8
0
  6
CONTINUOUS
 62
     7
 10
-193.91451
 20
-82.4
 40
4.8000002
 41
0.8444834
  1
Ｄ２ＲＴ－１６００Ｆ
  0
TEXT
  8
0
  6
CONTINUOUS
 62
     7
 10
-132.11451
 20
-62.4
 40
4.8000002
 41
0.8553702
  1
Ｌ寸法
  0
TEXT
  8
0
  6
CONTINUOUS
 62
     7
 10
-102.11451
 20
-62.4
 40
4.8000002
 41
0.8553702
  1
Ｔ寸法
  0
TEXT
  8
0
  6
CONTINUOUS
 62
     7
 10
-78.600006
 20
-62.4
 40
4.8000002
 41
0.80326241
  1
アンカー数量
  0
TEXT
  8
0
  6
CONTINUOUS
 62
     7
 10
-132.11451
 20
-72.4
 40
4.8000002
 41
0.8553702
  1
８００
  0
TEXT
  8
0
  6
CONTINUOUS
 62
     7
 10
-134.51451
 20
-82.4
 40
4.8000002
 41
0.85126997
  1
１６００
  0
TEXT
  8
0
  6
CONTINUOUS
 62
     7
 10
-134.51451
 20
-92.4
 40
4.8000002
 41
0.85126997
  1
１７００
  0
TEXT
  8
0
  6
CONTINUOUS
 62
     7
 10
-102.11451
 20
-82.4
 40
4.8000002
 41
0.8553702
  1
８１５
  0
TEXT
  8
0
  6
CONTINUOUS
 62
     7
 10
-102.11451
 20
-92.4
 40
4.8000002
 41
0.8553702
  1
８６５
  0
TEXT
  8
0
  6
CONTINUOUS
 62
     7
 10
-67.314506
 20
-72.4
 40
4.8000002
 41
0.90047263
  1
３
  0
TEXT
  8
0
  6
CONTINUOUS
 62
     7
 10
-67.314506
 20
-82.4
 40
4.8000002
 41
0.90047263
  1
５
  0
TEXT
  8
0
  6
CONTINUOUS
 62
     7
 10
-67.314506
 20
-92.4
 40
4.8000002
 41
0.90047263
  1
５
  0
DIMENSION
  8
0
  6
CONTINUOUS
 62
     7
  2
*D1
 70
     0
 10
-30.600006
 20
107.5
 11
-30.600006
 21
100
  3
DIMSTYLE
 13
15.650002
 23
92.5
 14
15.650002
 24
107.5
 50
90
1001
ACAD
1000
DSTYLE
1002
{
1070
    77
1070
     1
1070
   172
1070
     1
1002
}
  0
DIMENSION
  8
0
  6
CONTINUOUS
 62
     7
  2
*D2
 70
     0
 10
120
 20
55
 11
72.824997
 21
55
  3
DIMSTYLE
 13
25.650002
 23
86.958458
 14
120
 24
80
 50
0
1001
ACAD
1000
DSTYLE
1002
{
1070
    77
1070
     1
1070
   172
1070
     1
1002
}
  0
DIMENSION
  8
0
  6
CONTINUOUS
 62
     7
  2
*D3
 70
     0
 10
120
 20
130
 11
49.699997
 21
130
  3
DIMSTYLE
 13
-20.600006
 23
120.00001
 14
120
 24
120.00001
 50
0
1001
ACAD
1000
DSTYLE
1002
{
1070
    77
1070
     1
1070
   172
1070
     1
1002
}
  0
DIMENSION
  8
0
  6
CONTINUOUS
 62
     7
  2
*D4
 70
     0
 10
43.150002
 20
65
 11
17.369631
 21
65
  3
DIMSTYLE
 13
8.1500015
 23
100
 14
43.150002
 24
100
 50
0
1001
ACAD
1000
DSTYLE
1002
{
1070
    77
1070
     1
1070
   172
1070
     1
1002
}
  0
DIMENSION
  8
0
  6
CONTINUOUS
 62
     7
  2
*D5
 70
     0
 10
85.959999
 20
-45.000004
 11
49.699997
 21
-45.000004
  3
DIMSTYLE
 13
13.439995
 23
-24.298923
 14
85.959999
 24
-24.298923
 50
0
1001
ACAD
1000
DSTYLE
1002
{
1070
    77
1070
     1
1070
   172
1070
     1
1002
}
  0
DIMENSION
  8
0
  6
CONTINUOUS
 62
     7
  2
*D6
 70
     0
 10
-90.600006
 20
30
 11
-110.60001
 21
30
  3
DIMSTYLE
 13
-130.60001
 23
17.5
 14
-90.600006
 24
17.5
 50
0
1001
ACAD
1000
DSTYLE
1002
{
1070
    77
1070
     1
1070
   172
1070
     1
1002
}
  0
DIMENSION
  8
0
  6
CONTINUOUS
 62
     7
  2
*D7
 70
     0
 10
-75.600006
 20
0
 11
-75.600006
 21
10
  3
DIMSTYLE
 13
-93.100006
 23
20
 14
-93.100006
 24
0
 50
90
1001
ACAD
1000
DSTYLE
1002
{
1070
    77
1070
     1
1070
   172
1070
     1
1002
}
  0
DIMENSION
  8
0
  6
CONTINUOUS
 62
     7
  2
*D8
 70
     0
 10
-75.600006
 20
-20
 11
-75.600006
 21
-10
  3
DIMSTYLE
 13
-93.100006
 23
0
 14
-91.100006
 24
-20
 50
90
1001
ACAD
1000
DSTYLE
1002
{
1070
    77
1070
     1
1070
   172
1070
     1
1070
    75
1070
     1
1002
}
  0
DIMENSION
  8
0
  6
CONTINUOUS
 62
     7
  2
*D9
 70
     0
 10
-20.600006
 20
-35
 11
-27.080719
 21
-35
  3
DIMSTYLE
 13
-20.100006
 23
2.2999992
 14
-20.600006
 24
0
 50
0
1001
ACAD
1000
DSTYLE
1002
{
1070
    77
1070
     1
1070
   172
1070
     1
1070
    75
1070
     1
1002
}
  0
DIMENSION
  8
0
  6
CONTINUOUS
 62
     7
  2
*D10
 70
     0
 10
-91.100006
 20
-35
 11
-110.60001
 21
-35
  3
DIMSTYLE
 13
-130.10001
 23
-20
 14
-91.100006
 24
-20
 50
0
1001
ACAD
1000
DSTYLE
1002
{
1070
    77
1070
     1
1070
   172
1070
     1
1002
}
  0
DIMENSION
  8
0
  6
CONTINUOUS
 62
     7
  2
*D11
 70
     0
 10
-20.600006
 20
-45.000004
 11
-3.5800056
 21
-45.000004
  3
DIMSTYLE
 13
13.439995
 23
-24.298923
 14
-20.600006
 24
0
 50
0
1001
ACAD
1000
DSTYLE
1002
{
1070
    77
1070
     1
1070
   172
1070
     1
1070
    75
1070
     1
1002
}
  0
DIMENSION
  8
0
  6
CONTINUOUS
 62
     7
  2
*D12
 70
     0
 10
120
 20
-45.000004
 11
102.98
 21
-45.000004
  3
DIMSTYLE
 13
85.959999
 23
-24.298923
 14
120
 24
0
 50
0
1001
ACAD
1000
DSTYLE
1002
{
1070
    77
1070
     1
1070
   172
1070
     1
1070
    75
1070
     1
1002
}
  0
DIMENSION
  8
0
  6
CONTINUOUS
 62
     7
  2
*D13
 70
     0
 10
-20.100006
 20
-35
 11
-11.283981
 21
-35
  3
DIMSTYLE
 13
-17.800007
 23
2.2999992
 14
-20.100006
 24
2.2999992
 50
0
1001
ACAD
1000
DSTYLE
1002
{
1070
    77
1070
     1
1070
   172
1070
     1
1002
}
  0
INSERT
  8
0
  6
CONTINUOUS
 62
     7
  2
KOZU0001
 10
-120.60001
 20
9.9999971
  0
ENDSEC
  0
EOF
