  0
SECTION
  2
HEADER
  9
$ACADVER
  1
AC1015
  9
$ACADMAINTVER
 70
    20
  9
$DWGCODEPAGE
  3
ANSI_932
  9
$INSBASE
 10
0.0
 20
0.0
 30
0.0
  9
$EXTMIN
 10
730.5709091316778
 20
-407.6007655977361
 30
-0.0000000349181948
  9
$EXTMAX
 10
1111.668642102253
 20
-134.5539072825506
 30
0.0000000814935747
  9
$LIMMIN
 10
219.4956354736257
 20
-100.0
  9
$LIMMAX
 10
627.9956354736257
 20
188.5
  9
$ORTHOMODE
 70
     1
  9
$REGENMODE
 70
     1
  9
$FILLMODE
 70
     1
  9
$QTEXTMODE
 70
     0
  9
$MIRRTEXT
 70
     1
  9
$LTSCALE
 40
1.0
  9
$ATTMODE
 70
     1
  9
$TEXTSIZE
 40
3.2
  9
$TRACEWID
 40
1.0
  9
$TEXTSTYLE
  7
STANDARD
  9
$CLAYER
  8
AM_0
  9
$CELTYPE
  6
ByLayer
  9
$CECOLOR
 62
   256
  9
$CELTSCALE
 40
1.0
  9
$DISPSILH
 70
     0
  9
$DIMSCALE
 40
1.0
  9
$DIMASZ
 40
1.0
  9
$DIMEXO
 40
1.0
  9
$DIMDLI
 40
10.0
  9
$DIMRND
 40
0.0
  9
$DIMDLE
 40
0.0
  9
$DIMEXE
 40
1.0
  9
$DIMTP
 40
0.2
  9
$DIMTM
 40
0.2
  9
$DIMTXT
 40
3.5
  9
$DIMCEN
 40
0.0
  9
$DIMTSZ
 40
0.0
  9
$DIMTOL
 70
     1
  9
$DIMLIM
 70
     0
  9
$DIMTIH
 70
     0
  9
$DIMTOH
 70
     0
  9
$DIMSE1
 70
     0
  9
$DIMSE2
 70
     0
  9
$DIMTAD
 70
     1
  9
$DIMZIN
 70
     8
  9
$DIMBLK
  1
Dot
  9
$DIMASO
 70
     1
  9
$DIMSHO
 70
     1
  9
$DIMPOST
  1

  9
$DIMAPOST
  1
"
  9
$DIMALT
 70
     0
  9
$DIMALTD
 70
     2
  9
$DIMALTF
 40
0.0393701
  9
$DIMLFAC
 40
1.0
  9
$DIMTOFL
 70
     1
  9
$DIMTVP
 40
0.0
  9
$DIMTIX
 70
     0
  9
$DIMSOXD
 70
     0
  9
$DIMSAH
 70
     1
  9
$DIMBLK1
  1

  9
$DIMBLK2
  1

  9
$DIMSTYLE
  2
SYS
  9
$DIMCLRD
 70
   256
  9
$DIMCLRE
 70
   256
  9
$DIMCLRT
 70
     7
  9
$DIMTFAC
 40
0.6
  9
$DIMGAP
 40
1.5
  9
$DIMJUST
 70
     0
  9
$DIMSD1
 70
     0
  9
$DIMSD2
 70
     0
  9
$DIMTOLJ
 70
     0
  9
$DIMTZIN
 70
     8
  9
$DIMALTZ
 70
     0
  9
$DIMALTTZ
 70
     0
  9
$DIMUPT
 70
     0
  9
$DIMDEC
 70
     1
  9
$DIMTDEC
 70
     1
  9
$DIMALTU
 70
     2
  9
$DIMALTTD
 70
     2
  9
$DIMTXSTY
  7
STANDARD
  9
$DIMAUNIT
 70
     0
  9
$DIMADEC
 70
     0
  9
$DIMALTRND
 40
0.0
  9
$DIMAZIN
 70
     2
  9
$DIMDSEP
 70
    46
  9
$DIMATFIT
 70
     3
  9
$DIMFRAC
 70
     0
  9
$DIMLDRBLK
  1
OPEN30
  9
$DIMLUNIT
 70
     2
  9
$DIMLWD
 70
    -1
  9
$DIMLWE
 70
    -1
  9
$DIMTMOVE
 70
     0
  9
$LUNITS
 70
     2
  9
$LUPREC
 70
     2
  9
$SKETCHINC
 40
1.0
  9
$FILLETRAD
 40
3.0
  9
$AUNITS
 70
     0
  9
$AUPREC
 70
     0
  9
$MENU
  1
.
  9
$ELEVATION
 40
0.0
  9
$PELEVATION
 40
0.0
  9
$THICKNESS
 40
0.0
  9
$LIMCHECK
 70
     0
  9
$CHAMFERA
 40
0.5
  9
$CHAMFERB
 40
0.5
  9
$CHAMFERC
 40
20.0
  9
$CHAMFERD
 40
0.0
  9
$SKPOLY
 70
     0
  9
$TDCREATE
 40
2452002.615067627
  9
$TDUCREATE
 40
2452002.240067627
  9
$TDUPDATE
 40
2454263.649911019
  9
$TDUUPDATE
 40
2454263.274911018
  9
$TDINDWG
 40
18.3186697454
  9
$TDUSRTIMER
 40
18.3186643056
  9
$USRTIMER
 70
     1
  9
$ANGBASE
 50
0.0
  9
$ANGDIR
 70
     0
  9
$PDMODE
 70
     0
  9
$PDSIZE
 40
0.0
  9
$PLINEWID
 40
0.0
  9
$SPLFRAME
 70
     0
  9
$SPLINETYPE
 70
     6
  9
$SPLINESEGS
 70
     8
  9
$HANDSEED
  5
1E248
  9
$SURFTAB1
 70
     6
  9
$SURFTAB2
 70
     6
  9
$SURFTYPE
 70
     6
  9
$SURFU
 70
     6
  9
$SURFV
 70
     6
  9
$UCSBASE
  2

  9
$UCSNAME
  2

  9
$UCSORG
 10
0.0
 20
0.0
 30
0.0
  9
$UCSXDIR
 10
1.0
 20
0.0
 30
0.0
  9
$UCSYDIR
 10
0.0
 20
1.0
 30
0.0
  9
$UCSORTHOREF
  2

  9
$UCSORTHOVIEW
 70
     0
  9
$UCSORGTOP
 10
0.0
 20
0.0
 30
0.0
  9
$UCSORGBOTTOM
 10
0.0
 20
0.0
 30
0.0
  9
$UCSORGLEFT
 10
0.0
 20
0.0
 30
0.0
  9
$UCSORGRIGHT
 10
0.0
 20
0.0
 30
0.0
  9
$UCSORGFRONT
 10
0.0
 20
0.0
 30
0.0
  9
$UCSORGBACK
 10
0.0
 20
0.0
 30
0.0
  9
$PUCSBASE
  2

  9
$PUCSNAME
  2

  9
$PUCSORG
 10
0.0
 20
0.0
 30
0.0
  9
$PUCSXDIR
 10
1.0
 20
0.0
 30
0.0
  9
$PUCSYDIR
 10
0.0
 20
1.0
 30
0.0
  9
$PUCSORTHOREF
  2

  9
$PUCSORTHOVIEW
 70
     0
  9
$PUCSORGTOP
 10
0.0
 20
0.0
 30
0.0
  9
$PUCSORGBOTTOM
 10
0.0
 20
0.0
 30
0.0
  9
$PUCSORGLEFT
 10
0.0
 20
0.0
 30
0.0
  9
$PUCSORGRIGHT
 10
0.0
 20
0.0
 30
0.0
  9
$PUCSORGFRONT
 10
0.0
 20
0.0
 30
0.0
  9
$PUCSORGBACK
 10
0.0
 20
0.0
 30
0.0
  9
$USERI1
 70
     0
  9
$USERI2
 70
     0
  9
$USERI3
 70
     0
  9
$USERI4
 70
     0
  9
$USERI5
 70
     0
  9
$USERR1
 40
0.0
  9
$USERR2
 40
0.0
  9
$USERR3
 40
0.0
  9
$USERR4
 40
0.0
  9
$USERR5
 40
0.0
  9
$WORLDVIEW
 70
     1
  9
$SHADEDGE
 70
     3
  9
$SHADEDIF
 70
    70
  9
$TILEMODE
 70
     1
  9
$MAXACTVP
 70
    64
  9
$PINSBASE
 10
0.0
 20
0.0
 30
0.0
  9
$PLIMCHECK
 70
     0
  9
$PEXTMIN
 10
1.000000000000000E+20
 20
1.000000000000000E+20
 30
1.000000000000000E+20
  9
$PEXTMAX
 10
-1.000000000000000E+20
 20
-1.000000000000000E+20
 30
-1.000000000000000E+20
  9
$PLIMMIN
 10
-3.17498779296875
 20
-3.174999952316281
  9
$PLIMMAX
 10
293.4970092773438
 20
206.692492723465
  9
$UNITMODE
 70
     0
  9
$VISRETAIN
 70
     1
  9
$PLINEGEN
 70
     0
  9
$PSLTSCALE
 70
     1
  9
$TREEDEPTH
 70
  3020
  9
$CMLSTYLE
  2
Standard
  9
$CMLJUST
 70
     0
  9
$CMLSCALE
 40
20.0
  9
$PROXYGRAPHICS
 70
     1
  9
$MEASUREMENT
 70
     1
  9
$CELWEIGHT
370
    -1
  9
$ENDCAPS
280
     0
  9
$JOINSTYLE
280
     0
  9
$LWDISPLAY
290
     0
  9
$INSUNITS
 70
     4
  9
$HYPERLINKBASE
  1

  9
$STYLESHEET
  1
monochrome.ctb
  9
$XEDIT
290
     1
  9
$CEPSNTYPE
380
     0
  9
$PSTYLEMODE
290
     1
  9
$FINGERPRINTGUID
  2
{83FB3AA1-FF18-4BFE-AFE0-611B71DE056D}
  9
$VERSIONGUID
  2
{E40BC45C-5579-4A52-AE7A-91B8DF185F01}
  9
$EXTNAMES
290
     1
  9
$PSVPSCALE
 40
0.0
  9
$OLESTARTUP
290
     0
  0
ENDSEC
  0
SECTION
  2
CLASSES
  0
CLASS
  1
ACDBDICTIONARYWDFLT
  2
AcDbDictionaryWithDefault
  3
ObjectDBX Classes
 90
        0
280
     0
281
     0
  0
CLASS
  1
ACDBPLACEHOLDER
  2
AcDbPlaceHolder
  3
ObjectDBX Classes
 90
        0
280
     0
281
     0
  0
CLASS
  1
LAYOUT
  2
AcDbLayout
  3
ObjectDBX Classes
 90
        0
280
     0
281
     0
  0
CLASS
  1
AMGSETTINGSOBJ
  2
AmgSettingsObj
  3
"AcadM|Product Description: AutoCAD Mechanical 2000|Company: Autodesk"
 90
        0
280
     0
281
     0
  0
CLASS
  1
ACME_DOCUMENT
  2
AcMeDbDoc
  3
AcMeServices
 90
        0
280
     0
281
     0
  0
CLASS
  1
ACMESCOPE
  2
AcMeScope
  3
AcMeServices
 90
        0
280
     0
281
     0
  0
CLASS
  1
ACMECOMMANDHISTORY
  2
AcMeCommandHistory
  3
AcMeServices
 90
        0
280
     0
281
     0
  0
CLASS
  1
DICTIONARYVAR
  2
AcDbDictionaryVar
  3
ObjectDBX Classes
 90
        0
280
     0
281
     0
  0
CLASS
  1
ACIMSYSVARMAN
  2
AcImSysVarManager
  3
AcMeServices
 90
        0
280
     0
281
     0
  0
CLASS
  1
ACIMREALSYSVAR
  2
AcImRealSysVar
  3
AcMeServices
 90
        0
280
     0
281
     0
  0
CLASS
  1
ACIMINTSYSVAR
  2
AcImIntSysVar
  3
AcMeServices
 90
        0
280
     0
281
     0
  0
CLASS
  1
ACMEDRAWINGMAN
  2
AcMeDrawingMan
  3
AcMeServices
 90
        0
280
     0
281
     0
  0
CLASS
  1
ACMEVIEW
  2
AcMeView
  3
AcMeServices
 90
        0
280
     0
281
     0
  0
CLASS
  1
ACDBENTITYCACHE
  2
AcMeEntityCache
  3
AcMeServices
 90
        0
280
     0
281
     0
  0
CLASS
  1
GSMANAGER
  2
AcMeGSManager
  3
AcMeServices
 90
        0
280
     0
281
     0
  0
CLASS
  1
AMDTINTERNALREACTOR
  2
AmdtInternalReactor
  3
AcMeServices
 90
        0
280
     0
281
     0
  0
CLASS
  1
ACMESTATEMGR
  2
AcMeStateMgr
  3
AcMeServices
 90
        0
280
     0
281
     0
  0
CLASS
  1
ACGREFMASTER
  2
AcGrefMaster
  3
AcAttribServices
 90
        0
280
     0
281
     0
  0
CLASS
  1
ACME_DATABASE
  2
AcMeDbDatabase
  3
AcMeServices
 90
        0
280
     0
281
     0
  0
CLASS
  1
ACRFINSADJUSTERMGR
  2
AcRfInsAdjusterMgr
  3
AcMeServices
 90
        0
280
     0
281
     0
  0
CLASS
  1
ACGREFACADMASTER
  2
AcGrefacadMaster
  3
AcGrefServices
 90
        0
280
     0
281
     0
  0
CLASS
  1
AMIMASTER
  2
AmiMaster
  3
AmiServices
 90
        0
280
     0
281
     0
  0
CLASS
  1
ACMDATADICTIONARY
  2
AcmDataDictionary
  3
"AcmSymBB|Product Description: AutoCAD Mechanical 2004 DX|Company: Autodesk"
 90
        0
280
     0
281
     0
  0
CLASS
  1
ACMDATAENTRYBLOCK
  2
AcmDataEntryBlock
  3
"AcmSymBB|Product Description: AutoCAD Mechanical 2004 DX|Company: Autodesk"
 90
    32768
280
     0
281
     0
  0
CLASS
  1
ACIMSTRSYSVAR
  2
AcImStrSysVar
  3
AcMeServices
 90
        0
280
     0
281
     0
  0
CLASS
  1
ACMSTANDARDISO
  2
AcmStandardISO
  3
"Amdt_StdImp|Product Description: AutoCAD Mechanical 2004 DX|Company: Autodesk"
 90
        0
280
     0
281
     0
  0
CLASS
  1
AMGOBJPROPCFG
  2
AmgObjPropCfg
  3
"AmgLay|Product Description: AutoCAD Mechanical 2000|Company: Autodesk"
 90
        1
280
     0
281
     0
  0
CLASS
  1
AMDTEDGESTANDARDISO
  2
AmdtEdgeStdISO
  3
"Amdt_StdImp|Product Description: AutoCAD Mechanical 2004 DX|Company: Autodesk"
 90
    32768
280
     0
281
     0
  0
CLASS
  1
ACMSURFSTANDARDISO
  2
AcmSurfTextStdISO
  3
"Amdt_StdImp|Product Description: AutoCAD Mechanical 2004 DX|Company: Autodesk"
 90
        0
280
     0
281
     0
  0
CLASS
  1
ACMFCFSTANDARDISO
  2
AcmFCFStdISO
  3
"Amdt_StdImp|Product Description: AutoCAD Mechanical 2004 DX|Company: Autodesk"
 90
        0
280
     0
281
     0
  0
CLASS
  1
ACMWELDSTANDARDISO
  2
AcmWeldingStdISO
  3
"Amdt_StdImp|Product Description: AutoCAD Mechanical 2004 DX|Company: Autodesk"
 90
        0
280
     0
281
     0
  0
CLASS
  1
ACMIDSTANDARDISO
  2
AcmIdStdISO
  3
"Amdt_StdImp|Product Description: AutoCAD Mechanical 2004 DX|Company: Autodesk"
 90
        0
280
     0
281
     0
  0
CLASS
  1
ACMDATUMSTANDARDISO
  2
AcmDatumStdISO
  3
"Amdt_StdImp|Product Description: AutoCAD Mechanical 2004 DX|Company: Autodesk"
 90
        0
280
     0
281
     0
  0
CLASS
  1
ACMBOMSTANDARDISO
  2
AcmBOMStdISO
  3
"Amdt_StdImp|Product Description: AutoCAD Mechanical 2004 DX|Company: Autodesk"
 90
        0
280
     0
281
     0
  0
CLASS
  1
ACMDETAILSTANDARDISO
  2
AmdtDetailSymStdISO
  3
"Amdt_StdImp|Product Description: AutoCAD Mechanical 2004 DX|Company: Autodesk"
 90
        0
280
     0
281
     0
  0
CLASS
  1
ACMSECTIONSTANDARDISO
  2
AmdtSectionSymStdISO
  3
"Amdt_StdImp|Product Description: AutoCAD Mechanical 2004 DX|Company: Autodesk"
 90
        0
280
     0
281
     0
  0
CLASS
  1
ACMCENTERLINESTANDARDISO
  2
AmdtCenterLineStdISO
  3
"Amdt_StdImp|Product Description: AutoCAD Mechanical 2004 DX|Company: Autodesk"
 90
        0
280
     0
281
     0
  0
CLASS
  1
ACAMGLAYSTD
  2
AcAmgLayStd
  3
"AcAmgLayStd|Product Description: AutoCAD Mechanical 2000|Company: Autodesk"
 90
        0
280
     0
281
     0
  0
CLASS
  1
ACAMGDIMSTD
  2
AcAmgDimStd
  3
"AcAmgDimStd|Product Description: AutoCAD Mechanical 2000|Company: Autodesk"
 90
        0
280
     0
281
     0
  0
CLASS
  1
ACAMGTITLESTD
  2
AcAmgTitleStd
  3
"TITLEAPP"
 90
        0
280
     0
281
     0
  0
CLASS
  1
ACAMGFILTERDAT
  2
AcAmgFilterDat
  3
"AcadM|Product Description: AutoCAD Mechanical 2000|Company: Autodesk"
 90
    32768
280
     0
281
     0
  0
CLASS
  1
LAYER_INDEX
  2
AcDbLayerIndex
  3
ObjectDBX Classes
 90
    32768
280
     0
281
     0
  0
CLASS
  1
IDBUFFER
  2
AcDbIdBuffer
  3
ObjectDBX Classes
 90
    32768
280
     0
281
     0
  0
CLASS
  1
PLOTSETTINGS
  2
AcDbPlotSettings
  3
ObjectDBX Classes
 90
        0
280
     0
281
     0
  0
CLASS
  1
AMDTFORMULAUPDATEDISPATCHER
  2
AmdtFormulaUpdateDispatcher
  3
AcMeServices
 90
    32768
280
     0
281
     0
  0
CLASS
  1
ACMSTANDARDANSI
  2
AcmStandardANSI
  3
"Amdt_StdImp|Product Description: AutoCAD Mechanical 2004 DX|Company: Autodesk"
 90
    32768
280
     0
281
     0
  0
CLASS
  1
ACMSURFSTANDARDANSI
  2
AcmSurfTextStdANSI
  3
"Amdt_StdImp|Product Description: AutoCAD Mechanical 2004 DX|Company: Autodesk"
 90
    32768
280
     0
281
     0
  0
CLASS
  1
ACMFCFSTANDARDANSI
  2
AcmFCFStdANSI
  3
"Amdt_StdImp|Product Description: AutoCAD Mechanical 2004 DX|Company: Autodesk"
 90
    32768
280
     0
281
     0
  0
CLASS
  1
ACMWELDSTANDARDANSI
  2
AcmWeldingStdANSI
  3
"Amdt_StdImp|Product Description: AutoCAD Mechanical 2004 DX|Company: Autodesk"
 90
    32768
280
     0
281
     0
  0
CLASS
  1
ACMIDSTANDARDANSI
  2
AcmIdStdANSI
  3
"Amdt_StdImp|Product Description: AutoCAD Mechanical 2004 DX|Company: Autodesk"
 90
    32768
280
     0
281
     0
  0
CLASS
  1
ACMDATUMSTANDARDANSI
  2
AcmDatumStdANSI
  3
"Amdt_StdImp|Product Description: AutoCAD Mechanical 2004 DX|Company: Autodesk"
 90
    32768
280
     0
281
     0
  0
CLASS
  1
ACMBOMSTANDARDANSI
  2
AcmBOMStdANSI
  3
"Amdt_StdImp|Product Description: AutoCAD Mechanical 2004 DX|Company: Autodesk"
 90
    32768
280
     0
281
     0
  0
CLASS
  1
ACMDETAILSTANDARDANSI
  2
AmdtDetailSymStdANSI
  3
"Amdt_StdImp|Product Description: AutoCAD Mechanical 2004 DX|Company: Autodesk"
 90
    32768
280
     0
281
     0
  0
CLASS
  1
ACMSECTIONSTANDARDANSI
  2
AmdtSectionSymStdANSI
  3
"Amdt_StdImp|Product Description: AutoCAD Mechanical 2004 DX|Company: Autodesk"
 90
    32768
280
     0
281
     0
  0
CLASS
  1
ACMCENTERLINESTANDARDANSI
  2
AmdtCenterLineStdANSI
  3
"Amdt_StdImp|Product Description: AutoCAD Mechanical 2004 DX|Company: Autodesk"
 90
    32768
280
     0
281
     0
  0
CLASS
  1
ACMBOM
  2
AcmBom
  3
"AcmSymBB|Product Description: AutoCAD Mechanical 2004 DX|Company: Autodesk"
 90
    32768
280
     0
281
     0
  0
CLASS
  1
ACMDATAENTRYPART
  2
AcmDataEntryPart
  3
"AcmSymBB|Product Description: AutoCAD Mechanical 2004 DX|Company: Autodesk"
 90
    32768
280
     0
281
     0
  0
CLASS
  1
ACMPARTREF
  2
AcmPartRef
  3
"AcmSymBB|Product Description: AutoCAD Mechanical 2004 DX|Company: Autodesk"
 90
    33791
280
     0
281
     1
  0
CLASS
  1
ACDBCIRCARCRES
  2
AcDbCircArcRes
  3
AcGrefServices
 90
    32768
280
     0
281
     0
  0
CLASS
  1
ACMBOMROW
  2
AcmBomRow
  3
"AcmSymBB|Product Description: AutoCAD Mechanical 2004 DX|Company: Autodesk"
 90
    32768
280
     0
281
     0
  0
CLASS
  1
ACMBALLOON
  2
AcmBalloon
  3
"AcmSymBB|Product Description: AutoCAD Mechanical 2004 DX|Company: Autodesk"
 90
    33791
280
     0
281
     1
  0
CLASS
  1
AMDTNOTE
  2
AmdtNote
  3
"AcmSymBB|Product Description: AutoCAD Mechanical 2004 DX|Company: Autodesk"
 90
    33791
280
     0
281
     1
  0
CLASS
  1
STDPART2D
  2
AmgStdPart
  3
"AmgStdPart|Product Description: AutoCAD Mechanical 2000|Company: Autodesk"
 90
    33791
280
     0
281
     1
  0
CLASS
  1
ACDBSTDPARTRES_LINE
  2
AcDbStdPartRes_Line
  3
"AcDbStdPartRes_Line|Product Description: AutoCAD Mechanical 2000|Company: Autodesk"
 90
    32768
280
     0
281
     0
  0
CLASS
  1
ACMDATAENTRY
  2
AcmDataEntry
  3
"AcmSymBB|Product Description: AutoCAD Mechanical 2004 DX|Company: Autodesk"
 90
    32768
280
     0
281
     0
  0
CLASS
  1
ACDBOPPOLYLINERES
  2
AcDbOpPolylineRes
  3
AcGrefServices
 90
    32768
280
     0
281
     0
  0
CLASS
  1
ACMPARTLIST
  2
AcmPartList
  3
"AcmSymBB|Product Description: AutoCAD Mechanical 2004 DX|Company: Autodesk"
 90
    33791
280
     0
281
     1
  0
CLASS
  1
ACDBLINERES
  2
AcDbLineRes
  3
AcGrefServices
 90
    32768
280
     0
281
     0
  0
CLASS
  1
ACRFINSADJ
  2
AcRfInsAdjuster
  3
AcMeServices
 90
    32768
280
     0
281
     0
  0
CLASS
  1
AM_DRAWING_MGR
  2
AcDmDwgMgr
  3
AcMechDwgViewMgmt
 90
        0
280
     0
281
     0
  0
CLASS
  1
AM_DWG_DOCUMENT
  2
AcDmDwgDocument
  3
AcMechDwgViewMgmt
 90
        0
280
     0
281
     0
  0
CLASS
  1
AM_DWG_SHEET
  2
AcDmSheet
  3
AcMechDwgViewMgmt
 90
        0
280
     0
281
     0
  0
CLASS
  1
AM_VIEWDIMPARMAP
  2
AcDmViewDimParMap
  3
AcMechDwgViewMgmt
 90
        0
280
     0
281
     0
  0
CLASS
  1
AM_DWGMGR_NAME
  2
AcDmDwgMgrName
  3
AcMechDwgViewMgmt
 90
        0
280
     0
281
     0
  0
CLASS
  1
AMDTMENUSTATEMGR
  2
AmdtMenuStateMgr
  3
McadcomServices
 90
        0
280
     0
281
     0
  0
CLASS
  1
AMDTMCOMMENUSTATE
  2
AmdtMcomMenuState
  3
McadcomServices
 90
        0
280
     0
281
     0
  0
CLASS
  1
ASAPP
  2
AcAsAppObject
  3
AutoSurfServices
 90
        0
280
     0
281
     0
  0
CLASS
  1
IM_STATIC_MAN
  2
AcImStaticVarManager
  3
AcMeServices
 90
    32768
280
     0
281
     0
  0
CLASS
  1
ACIMDBLSTATICVAR
  2
AcImDblStaticVar
  3
AcMeServices
 90
    32768
280
     0
281
     0
  0
CLASS
  1
ACIMSTRSTATICVAR
  2
AcImStrStaticVar
  3
AcMeServices
 90
    32768
280
     0
281
     0
  0
CLASS
  1
ACIMINTSTATICVAR
  2
AcImIntStaticVar
  3
AcMeServices
 90
    32768
280
     0
281
     0
  0
CLASS
  1
ACASGREFMASTER
  2
AcAsGrefMaster
  3
AutoSurfResolverServices
 90
        0
280
     0
281
     0
  0
CLASS
  1
ACADGREFMODULE
  2
AcAdGrefModule
  3
AdGrefServices
 90
        0
280
     0
281
     0
  0
CLASS
  1
AMDTMAPISURFMOUDULE
  2
AmdtMApiSurfModule
  3
MApiSurfServices
 90
        0
280
     0
281
     0
  0
CLASS
  1
MAPIAMMOUDLE
  2
MApiAmModule
  3
MApiAmServices
 90
        0
280
     0
281
     0
  0
CLASS
  1
AMDTADMENUSTATE
  2
AmdtAdMenuState
  3
DesignerServices
 90
        0
280
     0
281
     0
  0
CLASS
  1
ADAPPL
  2
AcAdAppl
  3
DesignerServices
 90
        0
280
     0
281
     0
  0
CLASS
  1
DEPMGR
  2
AcAdDepMgr
  3
DesignerServices
 90
        0
280
     0
281
     0
  0
CLASS
  1
PARAMMGR
  2
AcAdParamMgr
  3
DesignerServices
 90
        0
280
     0
281
     0
  0
CLASS
  1
PARAMSCOPE
  2
AcAdParamScope
  3
DesignerServices
 90
        0
280
     0
281
     0
  0
CLASS
  1
NAMEDAPPL
  2
AcAdNamedAppl
  3
DesignerServices
 90
        0
280
     0
281
     0
  0
CLASS
  1
ADHNTMPLT
  2
AdHoleNoteTemplateMgr
  3
DesignerServices
 90
    32768
280
     0
281
     0
  0
CLASS
  1
AM_HNTEMPLATE_MGR_NAME
  2
AdHoleNoteTemplateMgrName
  3
DesignerServices
 90
    32768
280
     0
281
     0
  0
CLASS
  1
AMDTDMMENUSTATE
  2
AmdtDmMenuState
  3
AcMechDwgViewMgmt
 90
        0
280
     0
281
     0
  0
CLASS
  1
MAPIADMODULE
  2
MApiAdModule
  3
MApiAdServices
 90
        0
280
     0
281
     0
  0
CLASS
  1
AMDTAMMENUSTATE
  2
AmdtAmMenuState
  3
DesignerAssemblies
 90
        0
280
     0
281
     0
  0
CLASS
  1
ACAMPROJECT
  2
AcAmProject
  3
DesignerAssemblies
 90
        0
280
     0
281
     0
  0
CLASS
  1
ACAMGRCOMPDEF
  2
AcAmGrCompDef
  3
DesignerAssemblies
 90
        0
280
     0
281
     0
  0
CLASS
  1
ACCMCONTEXT
  2
AcCmContext
  3
DesignerAssemblies
 90
        0
280
     0
281
     0
  0
CLASS
  1
ACAMCOMPDEF
  2
AcAmCompDef
  3
DesignerAssemblies
 90
        0
280
     0
281
     0
  0
CLASS
  1
ACAMCOMPDEFMGR
  2
AcAmCompDefMgr
  3
DesignerAssemblies
 90
        0
280
     0
281
     0
  0
CLASS
  1
AMCONTEXTMGR
  2
AcAmContextMgr
  3
DesignerAssemblies
 90
        0
280
     0
281
     0
  0
CLASS
  1
ACAMCONTEXTMODELER
  2
AcAmContextModeler
  3
DesignerAssemblies
 90
        0
280
     0
281
     0
  0
CLASS
  1
CATALOGSTATE
  2
AcAmCatalogState
  3
DesignerAssemblies
 90
        0
280
     0
281
     0
  0
CLASS
  1
ACAMGRCOMPDEFSET
  2
AcAmGrCompDefSet
  3
DesignerAssemblies
 90
        0
280
     0
281
     0
  0
CLASS
  1
AMDTBROWSERDBTAB
  2
AmdtBrowserDbTab
  3
McadcomServices
 90
        0
280
     0
281
     0
  0
CLASS
  1
CBROWSERAPPOBJECT
  2
CBrowserAppObject
  3
McadcomServices
 90
        0
280
     0
281
     0
  0
CLASS
  1
DM_PLACEHOLDER
  2
AcDmSelsetPlaceholder
  3
AcMechDwgViewMgmt
 90
        0
280
     0
281
     0
  0
CLASS
  1
ACMPICKOBJ
  2
AcmPickEnt
  3
"AcmSymBB|Product Description: AutoCAD Mechanical 2004 DX|Company: Autodesk"
 90
    32768
280
     0
281
     1
  0
CLASS
  1
ACMNOTESTANDARDISO
  2
AmdtNoteStdISO
  3
"Amdt_StdImp|Product Description: AutoCAD Mechanical 2004 DX|Company: Autodesk"
 90
        0
280
     0
281
     0
  0
CLASS
  1
ACMNOTESTANDARDANSI
  2
AmdtNoteStdANSI
  3
"Amdt_StdImp|Product Description: AutoCAD Mechanical 2004 DX|Company: Autodesk"
 90
    32768
280
     0
281
     0
  0
CLASS
  1
TABLESTYLE
  2
AcDbTableStyle
  3
ObjectDBX Classes
 90
     2047
280
     0
281
     0
  0
CLASS
  1
ACMTHREADLINESTANDARDISO
  2
AmdtThreadLineStdISO
  3
"Amdt_StdImp|Product Description: AutoCAD Mechanical 2004 DX|Company: Autodesk"
 90
        0
280
     0
281
     0
  0
CLASS
  1
ACMTHREADLINESTANDARDANSI
  2
AmdtThreadLineStdANSI
  3
"Amdt_StdImp|Product Description: AutoCAD Mechanical 2004 DX|Company: Autodesk"
 90
    32768
280
     0
281
     0
  0
CLASS
  1
SORTENTSTABLE
  2
AcDbSortentsTable
  3
ObjectDBX Classes
 90
        0
280
     0
281
     0
  0
CLASS
  1
AMDTNOTETEMPLATEDB
  2
AmdtNoteTemplateDB
  3
AMDT_STDIMP_MODULE_NAME
 90
        0
280
     0
281
     0
  0
CLASS
  1
AMDTACMWBLOCKBOMENTITY
  2
AmdtAcmWblockBomEntity
  3
"AcmSymBB|Product Description: AutoCAD Mechanical 2004 DX|Company: Autodesk"
 90
     1023
280
     0
281
     1
  0
CLASS
  1
MATERIAL
  2
AcDbMaterial
  3
ObjectDBX Classes
 90
        0
280
     0
281
     0
  0
CLASS
  1
VISUALSTYLE
  2
AcDbVisualStyle
  3
ObjectDBX Classes
 90
     4095
280
     0
281
     0
  0
CLASS
  1
ACRFATTGENMGR
  2
AcRfAttGeneralMgr
  3
AcAttribServices
 90
        0
280
     0
281
     0
  0
CLASS
  1
ACRFOBJATTMGR
  2
AcRfObjAttGroupMgr
  3
AcAttribServices
 90
    32768
280
     0
281
     0
  0
CLASS
  1
ACRFMCADAPIATTHOLDER
  2
AcRfMCADAPIAttHolder
  3
AcAttribServices
 90
    32768
280
     0
281
     0
  0
CLASS
  1
AMDTSYSATTR
  2
AmdtSystemAttribute
  3
AcAttribServices
 90
    32768
280
     0
281
     0
  0
CLASS
  1
ACMTAPERSTANDARDISO
  2
AcmTaperStdISO
  3
"Amdt_StdImp|Product Description: AutoCAD Mechanical|Company: Autodesk"
 90
    32768
280
     0
281
     0
  0
CLASS
  1
ACMTAPERSTANDARDANSI
  2
AcmTaperStdANSI
  3
"Amdt_StdImp|Product Description: AutoCAD Mechanical|Company: Autodesk"
 90
    32768
280
     0
281
     0
  0
CLASS
  1
AMDTEDGESTANDARDISO13715
  2
AmdtEdgeStdISO13715
  3
"Amdt_StdImp|Product Description: AutoCAD Mechanical 2004 DX|Company: Autodesk"
 90
        0
280
     0
281
     0
  0
CLASS
  1
ACAMGHOLECHARTSTDISO
  2
AcAmgHoleChartStdISO
  3
ACMSYMBB_MODULE_NAME
 90
        0
280
     0
281
     0
  0
CLASS
  1
ACAMGHOLECHARTSTDANSI
  2
AcAmgHoleChartStdANSI
  3
ACMSYMBB_MODULE_NAME
 90
    32768
280
     0
281
     0
  0
CLASS
  1
CAMSSTRUCTBTNSTATE
  2
StructBtnState
  3
L"DesignerAssemblies"
 90
    32768
280
     0
281
     0
  0
CLASS
  1
ARC_DIMENSION
  2
AcDbArcDimension
  3
ObjectDBX Classes
 90
    33793
280
     0
281
     1
  0
CLASS
  1
DIMASSOC
  2
AcDbDimAssoc
  3
"AcDbDimAssoc|Product Desc:     AcDim ARX App For Dimension|Company:          Autodesk, Inc.|WEB Address:      www.autodesk.com"
 90
        0
280
     0
281
     0
  0
ENDSEC
  0
SECTION
  2
TABLES
  0
TABLE
  2
VPORT
  5
8
330
0
100
AcDbSymbolTable
 70
     3
  0
VPORT
  5
1E237
330
8
100
AcDbSymbolTableRecord
100
AcDbViewportTableRecord
  2
*Active
 70
     0
 10
0.0
 20
0.0
 11
1.0
 21
1.0
 12
926.6696524298048
 22
-272.4647548431195
 13
0.0
 23
0.0
 14
2.5
 24
2.5
 15
10.0
 25
10.0
 16
0.0
 26
0.0
 36
1.0
 17
0.0
 27
0.0
 37
0.0
 40
300.1030551248158
 41
1.641649048625792
 42
50.0
 43
-1370.695619172058
 44
-1370.695619172058
 50
0.0
 51
0.0
 71
    16
 72
   100
 73
     1
 74
     3
 75
     0
 76
     0
 77
     0
 78
     1
281
     0
 65
     0
110
0.0
120
0.0
130
0.0
111
1.0
121
0.0
131
0.0
112
0.0
122
1.0
132
0.0
 79
     0
146
0.0
  0
ENDTAB
  0
TABLE
  2
LTYPE
  5
5
330
0
100
AcDbSymbolTable
 70
    31
  0
LTYPE
  5
14
330
5
100
AcDbSymbolTableRecord
100
AcDbLinetypeTableRecord
  2
ByBlock
 70
     0
  3

 72
    65
 73
     0
 40
0.0
  0
LTYPE
  5
15
330
5
100
AcDbSymbolTableRecord
100
AcDbLinetypeTableRecord
  2
ByLayer
 70
     0
  3

 72
    65
 73
     0
 40
0.0
  0
LTYPE
  5
16
330
5
100
AcDbSymbolTableRecord
100
AcDbLinetypeTableRecord
  2
Continuous
 70
     0
  3
Solid line
 72
    65
 73
     0
 40
0.0
  0
LTYPE
  5
4F
330
5
100
AcDbSymbolTableRecord
100
AcDbLinetypeTableRecord
  2
AM_ISO02W050
 70
     0
  3
__ __ __ __ __ __ __ __ __ __ __ __ __ __ __
 72
    65
 73
     2
 40
7.5
 49
6.0
 74
     0
 49
-1.5
 74
     0
  0
LTYPE
  5
52
330
5
100
AcDbSymbolTableRecord
100
AcDbLinetypeTableRecord
  2
Amconstr
 70
     0
  3
_______________________
 72
    65
 73
     2
 40
9999.0
 49
9999.0
 74
     0
 49
0.0
 74
     0
  0
LTYPE
  5
64
330
5
100
AcDbSymbolTableRecord
100
AcDbLinetypeTableRecord
  2
ACISOWELD
 70
     0
  3
_ _ _ _ _
 72
    65
 73
     2
 40
2.0
 49
2.0
 74
     0
 49
-1.0
 74
     0
  0
LTYPE
  5
65
330
5
100
AcDbSymbolTableRecord
100
AcDbLinetypeTableRecord
  2
ACISOTGB
 70
     0
  3
__ . . __ . .
 72
    65
 73
     6
 40
9.0
 49
4.0
 74
     0
 49
-1.0
 74
     0
 49
1.0
 74
     0
 49
-1.0
 74
     0
 49
1.0
 74
     0
 49
-1.0
 74
     0
  0
LTYPE
  5
66
330
5
100
AcDbSymbolTableRecord
100
AcDbLinetypeTableRecord
  2
ACISOTGL
 70
     0
  3
_ _ _ _ _
 72
    65
 73
     2
 40
3.0
 49
2.0
 74
     0
 49
-1.0
 74
     0
  0
LTYPE
  5
69
330
5
100
AcDbSymbolTableRecord
100
AcDbLinetypeTableRecord
  2
CENTER
 70
     0
  3
__ . __
 72
    65
 73
     4
 40
7.0
 49
4.0
 74
     0
 49
-1.0
 74
     0
 49
1.0
 74
     0
 49
-1.0
 74
     0
  0
LTYPE
  5
A6E
330
5
100
AcDbSymbolTableRecord
100
AcDbLinetypeTableRecord
  2
PHANTOM2
 70
     0
  3
Phantom (.5x) ___ _ _ ___ _ _ ___ _ _ ___ _ _
 72
    65
 73
     6
 40
31.75
 49
15.875
 74
     0
 49
-3.174999999999998
 74
     0
 49
3.174999999999998
 74
     0
 49
-3.174999999999998
 74
     0
 49
3.174999999999998
 74
     0
 49
-3.174999999999998
 74
     0
  0
LTYPE
  5
FA3
330
5
100
AcDbSymbolTableRecord
100
AcDbLinetypeTableRecord
  2
ACANSTGB
 70
     0
  3
__ . . __ . .
 72
    65
 73
     6
 40
0.35433070866
 49
0.15748031496
 74
     0
 49
-0.03937007874
 74
     0
 49
0.03937007874
 74
     0
 49
-0.03937007874
 74
     0
 49
0.03937007874
 74
     0
 49
-0.03937007874
 74
     0
  0
LTYPE
  5
FA4
330
5
100
AcDbSymbolTableRecord
100
AcDbLinetypeTableRecord
  2
ACANSTGL
 70
     0
  3
_ _ _ _ _
 72
    65
 73
     2
 40
0.11811023622
 49
0.07874015748
 74
     0
 49
-0.03937007874
 74
     0
  0
LTYPE
  5
4DED
330
5
100
AcDbSymbolTableRecord
100
AcDbLinetypeTableRecord
  2
中線
 70
     0
  3
___________________
 72
    65
 73
     2
 40
2.0
 49
1.0
 74
     0
 49
1.0
 74
     0
  0
LTYPE
  5
4DF6
330
5
100
AcDbSymbolTableRecord
100
AcDbLinetypeTableRecord
  2
細線
 70
     0
  3
___________________
 72
    65
 73
     2
 40
2.0
 49
1.0
 74
     0
 49
1.0
 74
     0
  0
LTYPE
  5
4DF7
330
5
100
AcDbSymbolTableRecord
100
AcDbLinetypeTableRecord
  2
太線
 70
     0
  3
___________________
 72
    65
 73
     2
 40
2.0
 49
1.0
 74
     0
 49
1.0
 74
     0
  0
LTYPE
  5
4EA7
330
5
100
AcDbSymbolTableRecord
100
AcDbLinetypeTableRecord
  2
文字
 70
     0
  3
_________________
 72
    65
 73
     2
 40
2.0
 49
1.0
 74
     0
 49
1.0
 74
     0
  0
LTYPE
  5
4EA9
330
5
100
AcDbSymbolTableRecord
100
AcDbLinetypeTableRecord
  2
寸法線
 70
     0
  3
________________
 72
    65
 73
     2
 40
2.0
 49
1.0
 74
     0
 49
1.0
 74
     0
  0
LTYPE
  5
4F12
330
5
100
AcDbSymbolTableRecord
100
AcDbLinetypeTableRecord
  2
ハッチング
 70
     0
  3
_________________
 72
    65
 73
     2
 40
2.0
 49
1.0
 74
     0
 49
1.0
 74
     0
  0
LTYPE
  5
5180
330
5
100
AcDbSymbolTableRecord
100
AcDbLinetypeTableRecord
  2
陰線1
 70
     0
  3
__ __ __ __
 72
    65
 73
     2
 40
4.0
 49
2.2
 74
     0
 49
-1.8
 74
     0
  0
LTYPE
  5
5182
330
5
100
AcDbSymbolTableRecord
100
AcDbLinetypeTableRecord
  2
切断線
 70
     0
  3
/\/-/\/-/\/-/\/-/\/-/\/
 72
    65
 73
     2
 40
11.0001
 49
0.0001
 74
     4
 75
   135
340
56
 46
0.04
 50
0.0
 44
0.0
 45
0.0
 49
-11.0
 74
     0
  0
LTYPE
  5
5183
330
5
100
AcDbSymbolTableRecord
100
AcDbLinetypeTableRecord
  2
想像線1
 70
     0
  3
__ __ __ _____ __ __ ____
 72
    65
 73
     6
 40
14.5
 49
6.0
 74
     0
 49
-1.5
 74
     0
 49
2.0
 74
     0
 49
-1.5
 74
     0
 49
2.0
 74
     0
 49
-1.5
 74
     0
  0
LTYPE
  5
5185
330
5
100
AcDbSymbolTableRecord
100
AcDbLinetypeTableRecord
  2
中心線1
 70
     0
  3
___ _ ___ _ ___
 72
    65
 73
     4
 40
18.0
 49
12.0
 74
     0
 49
-2.0
 74
     0
 49
2.0
 74
     0
 49
-2.0
 74
     0
  0
LTYPE
  5
5188
330
5
100
AcDbSymbolTableRecord
100
AcDbLinetypeTableRecord
  2
補助線
 70
     0
  3
______________
 72
    65
 73
     2
 40
2.0
 49
1.0
 74
     0
 49
1.0
 74
     0
  0
LTYPE
  5
139B9
330
5
100
AcDbSymbolTableRecord
100
AcDbLinetypeTableRecord
  2
想像線2
 70
     0
  3
__ _ _ __ _ _ __
 72
    65
 73
     6
 40
6.9
 49
2.5
 74
     0
 49
-0.8
 74
     0
 49
1.0
 74
     0
 49
-0.8
 74
     0
 49
1.0
 74
     0
 49
-0.8
 74
     0
  0
LTYPE
  5
13C99
330
5
100
AcDbSymbolTableRecord
100
AcDbLinetypeTableRecord
  2
AM_ISO08W050
 70
     0
  3
____ . ____ . ____ . ____ . ____ . ____ . ____
 72
    65
 73
     4
 40
18.0
 49
12.0
 74
     0
 49
-1.5
 74
     0
 49
3.0
 74
     0
 49
-1.5
 74
     0
  0
LTYPE
  5
13C9A
330
5
100
AcDbSymbolTableRecord
100
AcDbLinetypeTableRecord
  2
AM_ISO09W050
 70
     0
  3
_____ . . _____ . . _____ . . ____ .. ____
 72
    65
 73
     6
 40
22.5
 49
12.0
 74
     0
 49
-1.5
 74
     0
 49
3.0
 74
     0
 49
-1.5
 74
     0
 49
3.0
 74
     0
 49
-1.5
 74
     0
  0
LTYPE
  5
13C9B
330
5
100
AcDbSymbolTableRecord
100
AcDbLinetypeTableRecord
  2
AM_ISO08W050x2
 70
     0
  3
__ . __ . __ . __ . __ . __
 72
    65
 73
     4
 40
9.0
 49
6.0
 74
     0
 49
-0.75
 74
     0
 49
1.5
 74
     0
 49
-0.75
 74
     0
  0
LTYPE
  5
13C9C
330
5
100
AcDbSymbolTableRecord
100
AcDbLinetypeTableRecord
  2
AM_ISO02W050x2
 70
     0
  3
 _ _ _ _ _ _ _ _ _ _ _ _
 72
    65
 73
     2
 40
3.75
 49
3.0
 74
     0
 49
-0.75
 74
     0
  0
LTYPE
  5
13C9D
330
5
100
AcDbSymbolTableRecord
100
AcDbLinetypeTableRecord
  2
Amzigzag
 70
     0
  3
/\/-/\/-/\/-/\/-/\/-/\/
 72
    65
 73
     2
 40
11.0001
 49
0.0001
 74
     4
 75
   135
340
56
 46
0.04
 50
0.0
 44
0.0
 45
0.0
 49
-11.0
 74
     0
  0
LTYPE
  5
1651E
330
5
100
AcDbSymbolTableRecord
100
AcDbLinetypeTableRecord
  2
HIDDEN
 70
     0
  3
Hidden __ __ __ __ __ __ __ __ __ __ __ __ __ _
 72
    65
 73
     2
 40
9.524999999999996
 49
6.349999999999997
 74
     0
 49
-3.174999999999998
 74
     0
  0
LTYPE
  5
1C00A
330
5
100
AcDbSymbolTableRecord
100
AcDbLinetypeTableRecord
  2
CENTER2
 70
     0
  3
Center (.5x) ___ _ ___ _ ___ _ ___ _ ___ _ ___
 72
    65
 73
     4
 40
1.125
 49
0.75
 74
     0
 49
-0.125
 74
     0
 49
0.125
 74
     0
 49
-0.125
 74
     0
  0
LTYPE
  5
1C00B
330
5
100
AcDbSymbolTableRecord
100
AcDbLinetypeTableRecord
  2
HIDDEN2
 70
     0
  3
Hidden (.5x) _ _ _ _ _ _ _ _ _ _ _ _ _ _ _ _ _
 72
    65
 73
     2
 40
0.1875
 49
0.125
 74
     0
 49
-0.0625
 74
     0
  0
LTYPE
  5
1C00C
330
5
100
AcDbSymbolTableRecord
100
AcDbLinetypeTableRecord
  2
Amzigzag2
 70
     0
  3
/\/-/\/-/\/-/\/-/\/-/\/
 72
    65
 73
     2
 40
0.4401
 49
0.0001
 74
     4
 75
   136
340
1C00D
 46
0.0016
 50
0.0
 44
0.0
 45
0.0
 49
-0.4400000000000003
 74
     0
  0
ENDTAB
  0
TABLE
  2
LAYER
  5
2
102
{ACAD_XDICTIONARY
360
3F95
102
}
330
0
100
AcDbSymbolTable
 70
    29
  0
LAYER
  5
10
330
2
100
AcDbSymbolTableRecord
100
AcDbLayerTableRecord
  2
0
 70
     0
 62
     7
  6
Continuous
370
    -3
390
F
  0
LAYER
  5
6D1
330
2
100
AcDbSymbolTableRecord
100
AcDbLayerTableRecord
  2
Defpoints
 70
     0
 62
     7
  6
Continuous
290
     0
370
    -3
390
F
  0
LAYER
  5
A46
330
2
100
AcDbSymbolTableRecord
100
AcDbLayerTableRecord
  2
size
 70
     0
 62
     5
  6
Continuous
290
     0
370
    30
390
F
  0
LAYER
  5
A47
330
2
100
AcDbSymbolTableRecord
100
AcDbLayerTableRecord
  2
waku
 70
     0
 62
     7
  6
Continuous
370
    40
390
F
  0
LAYER
  5
A48
330
2
100
AcDbSymbolTableRecord
100
AcDbLayerTableRecord
  2
AM_6
 70
     0
 62
     2
  6
文字
370
    18
390
F
  0
LAYER
  5
3A31
330
2
100
AcDbSymbolTableRecord
100
AcDbLayerTableRecord
  2
hyosen1
 70
     0
 62
     1
  6
Continuous
370
    30
390
F
  0
LAYER
  5
5765
330
2
100
AcDbSymbolTableRecord
100
AcDbLayerTableRecord
  2
hyomoji
 70
     0
 62
     2
  6
Continuous
370
    20
390
F
  0
LAYER
  5
591A
330
2
100
AcDbSymbolTableRecord
100
AcDbLayerTableRecord
  2
hyosen2
 70
     0
 62
     1
  6
Continuous
370
    20
390
F
  0
LAYER
  5
5F85
330
2
100
AcDbSymbolTableRecord
100
AcDbLayerTableRecord
  2
AM_0
 70
     0
 62
     7
  6
中線
370
    30
390
F
  0
LAYER
  5
5F86
330
2
100
AcDbSymbolTableRecord
100
AcDbLayerTableRecord
  2
AM_1
 70
     0
 62
    30
  6
太線
370
    40
390
F
  0
LAYER
  5
5F87
330
2
100
AcDbSymbolTableRecord
100
AcDbLayerTableRecord
  2
AM_2
 70
     0
 62
     1
  6
細線
370
    15
390
F
  0
LAYER
  5
5F88
330
2
100
AcDbSymbolTableRecord
100
AcDbLayerTableRecord
  2
AM_3
 70
     0
 62
     6
  6
陰線1
370
    18
390
F
  0
LAYER
  5
5F89
330
2
100
AcDbSymbolTableRecord
100
AcDbLayerTableRecord
  2
AM_4
 70
     0
 62
     3
  6
補助線
370
    15
390
F
  0
LAYER
  5
5F8A
330
2
100
AcDbSymbolTableRecord
100
AcDbLayerTableRecord
  2
AM_5
 70
     0
 62
     3
  6
寸法線
370
    15
390
F
  0
LAYER
  5
5F8B
330
2
100
AcDbSymbolTableRecord
100
AcDbLayerTableRecord
  2
AM_7
 70
     0
 62
     4
  6
中心線1
370
    15
390
F
  0
LAYER
  5
5F8C
330
2
100
AcDbSymbolTableRecord
100
AcDbLayerTableRecord
  2
AM_8
 70
     0
 62
     1
  6
ハッチング
370
    15
390
F
  0
LAYER
  5
5F8D
330
2
100
AcDbSymbolTableRecord
100
AcDbLayerTableRecord
  2
AM_10
 70
     0
 62
     7
  6
切断線
370
    15
390
F
  0
LAYER
  5
642B
330
2
100
AcDbSymbolTableRecord
100
AcDbLayerTableRecord
  2
AM_CL
 70
     0
 62
     1
  6
Amconstr
370
     0
390
F
  0
LAYER
  5
65AF
330
2
100
AcDbSymbolTableRecord
100
AcDbLayerTableRecord
  2
AM_11
 70
     0
 62
     2
  6
想像線1
370
    15
390
F
  0
LAYER
  5
73C2
330
2
100
AcDbSymbolTableRecord
100
AcDbLayerTableRecord
  2
AM_12
 70
     0
 62
     7
  6
Continuous
290
     0
370
    20
390
F
  0
LAYER
  5
E33A
330
2
100
AcDbSymbolTableRecord
100
AcDbLayerTableRecord
  2
PV0001_1
 70
     0
 62
     7
  6
Continuous
370
    -3
390
F
  0
LAYER
  5
F630
330
2
100
AcDbSymbolTableRecord
100
AcDbLayerTableRecord
  2
IS0001D5_1
 70
     0
 62
     7
  6
Continuous
370
    -3
390
F
  0
LAYER
  5
F638
330
2
100
AcDbSymbolTableRecord
100
AcDbLayerTableRecord
  2
SS0001D22475_1
 70
     0
 62
     7
  6
Continuous
370
    -3
390
F
  0
LAYER
  5
11F6B
330
2
100
AcDbSymbolTableRecord
100
AcDbLayerTableRecord
  2
AM_PAREF
 70
     0
 62
     4
  6
Continuous
290
     0
370
    20
390
F
  0
LAYER
  5
13C9E
330
2
100
AcDbSymbolTableRecord
100
AcDbLayerTableRecord
  2
001
 70
     0
 62
     7
  6
Continuous
370
    -3
390
F
  0
LAYER
  5
1552B
330
2
100
AcDbSymbolTableRecord
100
AcDbLayerTableRecord
  2
AM_0N
 70
     0
 62
     7
  6
中線
370
    30
390
F
  0
LAYER
  5
1552F
330
2
100
AcDbSymbolTableRecord
100
AcDbLayerTableRecord
  2
AM_9
 70
     0
 62
  -253
  6
Continuous
370
     0
390
F
  0
LAYER
  5
15533
330
2
100
AcDbSymbolTableRecord
100
AcDbLayerTableRecord
  2
AM_7N
 70
     0
 62
     4
  6
中心線1
370
    15
390
F
  0
LAYER
  5
15535
330
2
100
AcDbSymbolTableRecord
100
AcDbLayerTableRecord
  2
AM_12N
 70
     0
 62
     7
  6
Continuous
290
     0
370
    20
390
F
  0
ENDTAB
  0
TABLE
  2
STYLE
  5
3
330
0
100
AcDbSymbolTable
 70
     9
  0
STYLE
  5
11
330
3
100
AcDbSymbolTableRecord
100
AcDbTextStyleTableRecord
  2
STANDARD
 70
     0
 40
0.0
 41
0.7
 50
0.0
 71
     0
 42
3.2
  3
romans.shx
  4
extfont.shx
  0
STYLE
  5
56
330
3
100
AcDbSymbolTableRecord
100
AcDbTextStyleTableRecord
  2

 70
     1
 40
0.0
 41
1.0
 50
0.0
 71
     0
 42
2.5
  3
ltypeshp.shx
  4

  0
STYLE
  5
58
330
3
100
AcDbSymbolTableRecord
100
AcDbTextStyleTableRecord
  2
ACISOTS
 70
     0
 40
0.0
 41
0.7
 50
0.0
 71
     0
 42
2.5
  3
romans.shx
  4
extfont.shx
  0
STYLE
  5
63
330
3
100
AcDbSymbolTableRecord
100
AcDbTextStyleTableRecord
  2
ACISOGDT
 70
     0
 40
0.0
 41
1.0
 50
0.0
 71
     0
 42
2.5
  3
AMGDT
  4

  0
STYLE
  5
A74
330
3
100
AcDbSymbolTableRecord
100
AcDbTextStyleTableRecord
  2
DIM
 70
     0
 40
0.0
 41
1.0
 50
0.0
 71
     0
 42
2.5
  3
monotxt.shx
  4
extfont.shx
  0
STYLE
  5
FA7
330
3
100
AcDbSymbolTableRecord
100
AcDbTextStyleTableRecord
  2
ACANSTS
 70
     0
 40
1.0
 41
1.0
 50
0.0
 71
     0
 42
0.2
  3
romans.shx
  4
extfont.shx
  0
STYLE
  5
FA8
330
3
100
AcDbSymbolTableRecord
100
AcDbTextStyleTableRecord
  2
ACANSGDT
 70
     0
 40
0.0
 41
1.0
 50
0.0
 71
     0
 42
0.2
  3
amgdtans.shx
  4

  0
STYLE
  5
1C00D
330
3
100
AcDbSymbolTableRecord
100
AcDbTextStyleTableRecord
  2

 70
     1
 40
0.0
 41
1.0
 50
0.0
 71
     0
 42
3.2
  3
genltshp.shx
  4

  0
ENDTAB
  0
TABLE
  2
VIEW
  5
6
330
0
100
AcDbSymbolTable
 70
     6
  0
VIEW
  5
AE1
330
6
100
AcDbSymbolTableRecord
100
AcDbViewTableRecord
  2
AM_VIEW1
 70
     0
 40
144.25
 10
334.3858514422121
 20
116.375
 41
229.7804319371728
 11
0.0
 21
0.0
 31
1.0
 12
0.0
 22
0.0
 32
0.0
 42
50.0
 43
-1370.695619172058
 44
-1370.695619172058
 50
0.0
 71
    16
281
     0
 72
     0
  0
VIEW
  5
AE2
330
6
100
AcDbSymbolTableRecord
100
AcDbViewTableRecord
  2
AM_VIEW2
 70
     0
 40
144.25
 10
513.1054195050393
 20
116.375
 41
229.7804319371728
 11
0.0
 21
0.0
 31
1.0
 12
0.0
 22
0.0
 32
0.0
 42
50.0
 43
-1370.695619172058
 44
-1370.695619172058
 50
0.0
 71
    16
281
     0
 72
     0
  0
VIEW
  5
AE3
330
6
100
AcDbSymbolTableRecord
100
AcDbViewTableRecord
  2
AM_VIEW3
 70
     0
 40
144.25
 10
334.3858514422121
 20
-27.875
 41
229.7804319371728
 11
0.0
 21
0.0
 31
1.0
 12
0.0
 22
0.0
 32
0.0
 42
50.0
 43
-1370.695619172058
 44
-1370.695619172058
 50
0.0
 71
    16
281
     0
 72
     0
  0
VIEW
  5
AE4
330
6
100
AcDbSymbolTableRecord
100
AcDbViewTableRecord
  2
AM_VIEW4
 70
     0
 40
144.25
 10
513.1054195050393
 20
-27.875
 41
229.7804319371728
 11
0.0
 21
0.0
 31
1.0
 12
0.0
 22
0.0
 32
0.0
 42
50.0
 43
-1370.695619172058
 44
-1370.695619172058
 50
0.0
 71
    16
281
     0
 72
     0
  0
VIEW
  5
AE5
330
6
100
AcDbSymbolTableRecord
100
AcDbViewTableRecord
  2
AM_VIEW5
 70
     0
 40
144.25
 10
423.7456354736257
 20
44.24999999999999
 41
229.7804319371728
 11
0.0
 21
0.0
 31
1.0
 12
0.0
 22
0.0
 32
0.0
 42
50.0
 43
-1370.695619172058
 44
-1370.695619172058
 50
0.0
 71
    16
281
     0
 72
     0
  0
VIEW
  5
AE6
330
6
100
AcDbSymbolTableRecord
100
AcDbViewTableRecord
  2
AM_VIEW6
 70
     0
 40
288.497115
 10
423.7456354736257
 20
44.24999999999999
 41
459.5562682657067
 11
0.0
 21
0.0
 31
1.0
 12
0.0
 22
0.0
 32
0.0
 42
50.0
 43
-1370.695619172058
 44
-1370.695619172058
 50
0.0
 71
    16
281
     0
 72
     0
  0
ENDTAB
  0
TABLE
  2
UCS
  5
7
330
0
100
AcDbSymbolTable
 70
     0
  0
ENDTAB
  0
TABLE
  2
APPID
  5
9
330
0
100
AcDbSymbolTable
 70
    56
  0
APPID
  5
12
330
9
100
AcDbSymbolTableRecord
100
AcDbRegAppTableRecord
  2
ACAD
 70
     0
  0
APPID
  5
30
330
9
100
AcDbSymbolTableRecord
100
AcDbRegAppTableRecord
  2
MCAD_NO_VIS
 70
     0
  0
APPID
  5
31
330
9
100
AcDbSymbolTableRecord
100
AcDbRegAppTableRecord
  2
ACAD_TEMP_GRAPHIC
 70
     0
  0
APPID
  5
44
330
9
100
AcDbSymbolTableRecord
100
AcDbRegAppTableRecord
  2
ACATTRIBSERVICES
 70
     0
  0
APPID
  5
7A1
330
9
100
AcDbSymbolTableRecord
100
AcDbRegAppTableRecord
  2
GENIUS_GENDIMSH_14
 70
     0
  0
APPID
  5
A49
330
9
100
AcDbSymbolTableRecord
100
AcDbRegAppTableRecord
  2
GENIUS_GENREC_14
 70
     0
  0
APPID
  5
A4A
330
9
100
AcDbSymbolTableRecord
100
AcDbRegAppTableRecord
  2
GENIUS_GENOBJ-N-REC_13
 70
     0
  0
APPID
  5
A4B
330
9
100
AcDbSymbolTableRecord
100
AcDbRegAppTableRecord
  2
GENIUS_GENODEF_13
 70
     0
  0
APPID
  5
A4C
330
9
100
AcDbSymbolTableRecord
100
AcDbRegAppTableRecord
  2
DCO15
 70
     0
  0
APPID
  5
ADC
330
9
100
AcDbSymbolTableRecord
100
AcDbRegAppTableRecord
  2
GENIUS_GENOLIS_13
 70
     0
  0
APPID
  5
ADD
330
9
100
AcDbSymbolTableRecord
100
AcDbRegAppTableRecord
  2
GENIUS_GENOENT_13
 70
     0
  0
APPID
  5
ADE
330
9
100
AcDbSymbolTableRecord
100
AcDbRegAppTableRecord
  2
GENIUS_GENOBJ-N-TIT_13
 70
     0
  0
APPID
  5
ADF
330
9
100
AcDbSymbolTableRecord
100
AcDbRegAppTableRecord
  2
GENIUS_GENTITLE_13
 70
     0
  0
APPID
  5
AE0
330
9
100
AcDbSymbolTableRecord
100
AcDbRegAppTableRecord
  2
GENIUS_GENOREF_13
 70
     0
  0
APPID
  5
AE7
330
9
100
AcDbSymbolTableRecord
100
AcDbRegAppTableRecord
  2
GENIUS_GENSCREG_15
 70
     0
  0
APPID
  5
AE8
330
9
100
AcDbSymbolTableRecord
100
AcDbRegAppTableRecord
  2
GENIUS_GENOBJ-N-SDF_13
 70
     0
  0
APPID
  5
FAF
330
9
100
AcDbSymbolTableRecord
100
AcDbRegAppTableRecord
  2
GENIUS_GENBLLY_14
 70
     0
  0
APPID
  5
FB0
330
9
100
AcDbSymbolTableRecord
100
AcDbRegAppTableRecord
  2
GENIUS_GENTRA_14
 70
     0
  0
APPID
  5
1285
330
9
100
AcDbSymbolTableRecord
100
AcDbRegAppTableRecord
  2
GENIUS_GENDTOL_13
 70
     0
  0
APPID
  5
142D
330
9
100
AcDbSymbolTableRecord
100
AcDbRegAppTableRecord
  2
GENIUS_GENOBJ-N-CEN_13
 70
     0
  0
APPID
  5
1AB5
330
9
100
AcDbSymbolTableRecord
100
AcDbRegAppTableRecord
  2
GENIUS_GENOBJ-N-CRS_13
 70
     0
  0
APPID
  5
1B36
330
9
100
AcDbSymbolTableRecord
100
AcDbRegAppTableRecord
  2
GENIUS_GENOBJ-N-HTC_13
 70
     0
  0
APPID
  5
1B37
330
9
100
AcDbSymbolTableRecord
100
AcDbRegAppTableRecord
  2
GENIUS_GENHATCH_13
 70
     0
  0
APPID
  5
216D
330
9
100
AcDbSymbolTableRecord
100
AcDbRegAppTableRecord
  2
GENIUS_GENOBJ-N-FIL_13
 70
     0
  0
APPID
  5
2356
330
9
100
AcDbSymbolTableRecord
100
AcDbRegAppTableRecord
  2
GEVID990412420
 70
     0
  0
APPID
  5
2357
330
9
100
AcDbSymbolTableRecord
100
AcDbRegAppTableRecord
  2
GEVDC
 70
     0
  0
APPID
  5
2358
330
9
100
AcDbSymbolTableRecord
100
AcDbRegAppTableRecord
  2
GEVCON
 70
     0
  0
APPID
  5
235B
330
9
100
AcDbSymbolTableRecord
100
AcDbRegAppTableRecord
  2
GEVRADREF
 70
     0
  0
APPID
  5
2360
330
9
100
AcDbSymbolTableRecord
100
AcDbRegAppTableRecord
  2
GENIUS_GENBH_13
 70
     0
  0
APPID
  5
2362
330
9
100
AcDbSymbolTableRecord
100
AcDbRegAppTableRecord
  2
GENIUS_GENOBJ-NBEHI-BHF_13
 70
     0
  0
APPID
  5
2364
330
9
100
AcDbSymbolTableRecord
100
AcDbRegAppTableRecord
  2
GENIUS_GENOBJ-NBEHI-BHB_13
 70
     0
  0
APPID
  5
2379
330
9
100
AcDbSymbolTableRecord
100
AcDbRegAppTableRecord
  2
GENIUS_GENOBJ-F-SCPASSM_13
 70
     0
  0
APPID
  5
3D74
330
9
100
AcDbSymbolTableRecord
100
AcDbRegAppTableRecord
  2
GENIUS_GENDIM_13
 70
     0
  0
APPID
  5
3D76
330
9
100
AcDbSymbolTableRecord
100
AcDbRegAppTableRecord
  2
GENIUS_GE3DTOL_13
 70
     0
  0
APPID
  5
3D9C
330
9
100
AcDbSymbolTableRecord
100
AcDbRegAppTableRecord
  2
AD_DRAW
 70
     0
  0
APPID
  5
3DE8
330
9
100
AcDbSymbolTableRecord
100
AcDbRegAppTableRecord
  2
ASURF_PCURVE_APPNAME
 70
     0
  0
APPID
  5
3DED
330
9
100
AcDbSymbolTableRecord
100
AcDbRegAppTableRecord
  2
AMG_3D2D_5.0
 70
     0
  0
APPID
  5
3E1B
330
9
100
AcDbSymbolTableRecord
100
AcDbRegAppTableRecord
  2
DESIGNERASSEMBLIES
 70
     0
  0
APPID
  5
3E20
330
9
100
AcDbSymbolTableRecord
100
AcDbRegAppTableRecord
  2
ACADM_DIM_EDIT
 70
     0
  0
APPID
  5
3E21
330
9
100
AcDbSymbolTableRecord
100
AcDbRegAppTableRecord
  2
AMDT_DM_ADJ
 70
     0
  0
APPID
  5
4143
330
9
100
AcDbSymbolTableRecord
100
AcDbRegAppTableRecord
  2
GENIUS_GENFIL_13
 70
     0
  0
APPID
  5
4144
330
9
100
AcDbSymbolTableRecord
100
AcDbRegAppTableRecord
  2
GENIUS_GENOBJ-N-CHA_13
 70
     0
  0
APPID
  5
4E17
330
9
100
AcDbSymbolTableRecord
100
AcDbRegAppTableRecord
  2
GEVID1008153417
 70
     0
  0
APPID
  5
4E58
330
9
100
AcDbSymbolTableRecord
100
AcDbRegAppTableRecord
  2
GEVID1008153418
 70
     0
  0
APPID
  5
4E5E
330
9
100
AcDbSymbolTableRecord
100
AcDbRegAppTableRecord
  2
GEVID1008153419
 70
     0
  0
APPID
  5
4E64
330
9
100
AcDbSymbolTableRecord
100
AcDbRegAppTableRecord
  2
GEVID1008153420
 70
     0
  0
APPID
  5
4E75
330
9
100
AcDbSymbolTableRecord
100
AcDbRegAppTableRecord
  2
GEVID1008153421
 70
     0
  0
APPID
  5
4EB7
330
9
100
AcDbSymbolTableRecord
100
AcDbRegAppTableRecord
  2
GENIUS_AMGTXT_16
 70
     0
  0
APPID
  5
7645
330
9
100
AcDbSymbolTableRecord
100
AcDbRegAppTableRecord
  2
GENIUS_GENOBJ-N-DIM_13
 70
     0
  0
APPID
  5
15528
330
9
100
AcDbSymbolTableRecord
100
AcDbRegAppTableRecord
  2
GEVID1113805677
 70
     0
  0
APPID
  5
164EA
330
9
100
AcDbSymbolTableRecord
100
AcDbRegAppTableRecord
  2
ACAD_DSTYLE_DIMARC_LENGTH_SYMBOL
 70
     0
  0
APPID
  5
164EB
330
9
100
AcDbSymbolTableRecord
100
AcDbRegAppTableRecord
  2
ACAD_DSTYLE_DIMJOGGED_JOGANGLE_SYMBOL
 70
     0
  0
APPID
  5
169CF
330
9
100
AcDbSymbolTableRecord
100
AcDbRegAppTableRecord
  2
ACAD_EXEMPT_FROM_CAD_STANDARDS
 70
     0
  0
APPID
  5
16A05
330
9
100
AcDbSymbolTableRecord
100
AcDbRegAppTableRecord
  2
GENIUS_GENCEN_19
 70
     0
  0
APPID
  5
1756F
330
9
100
AcDbSymbolTableRecord
100
AcDbRegAppTableRecord
  2
ACAD_PSEXT
 70
     0
  0
APPID
  5
1BBE4
330
9
100
AcDbSymbolTableRecord
100
AcDbRegAppTableRecord
  2
ACAECLAYERSTANDARD
 70
     0
  0
ENDTAB
  0
TABLE
  2
DIMSTYLE
  5
A
330
0
100
AcDbSymbolTable
 70
    32
100
AcDbDimStyleTable
 71
     3
340
2515
340
E921
340
FA9
  0
DIMSTYLE
105
A76
330
A
100
AcDbSymbolTableRecord
100
AcDbDimStyleTableRecord
  2
STANDARD
 70
     0
 41
3.0
 42
1.0
 43
7.0
 44
2.0
 73
     0
 74
     0
 77
     1
140
2.799999999999998
141
0.0
143
0.0394
147
0.7
171
     4
172
     1
173
     1
176
     3
177
     3
178
     2
271
     3
272
     3
273
     8
274
     4
289
     0
340
A74
341
A66
343
A66
344
A66
  0
DIMSTYLE
105
FA9
330
A
100
AcDbSymbolTableRecord
100
AcDbDimStyleTableRecord
  2
AM_ANSI
 70
     0
  4
mm
 41
0.1
 42
0.05
 43
0.5
 44
0.1
 47
0.1
 48
0.1
 78
     7
 79
     2
140
0.12
141
0.0
146
0.71
147
0.06
176
   256
177
   256
178
     2
274
     4
284
     7
340
11
371
    -1
372
    -1
1001
ACAD_DSTYLE_DIMJOGGED_JOGANGLE_SYMBOL
1070
   384
1040
0.7853981633974483
1001
ACAD_DSTYLE_DIMARC_LENGTH_SYMBOL
1070
   379
1070
     1
  0
DIMSTYLE
105
FAA
330
A
100
AcDbSymbolTableRecord
100
AcDbDimStyleTableRecord
  2
AM_ANSI$3
 70
     0
  4
mm
 41
0.1
 42
0.05
 43
0.5
 44
0.1
 47
0.1
 48
0.1
 78
     7
 79
     2
140
0.12
141
0.0
146
0.71
147
0.06
176
   256
177
   256
178
     2
274
     4
284
     7
288
     1
289
     0
340
11
371
    -1
372
    -1
1001
ACAD_DSTYLE_DIMJOGGED_JOGANGLE_SYMBOL
1070
   384
1040
0.7853981633974483
1001
ACAD_DSTYLE_DIMARC_LENGTH_SYMBOL
1070
   379
1070
     1
  0
DIMSTYLE
105
FAB
330
A
100
AcDbSymbolTableRecord
100
AcDbDimStyleTableRecord
  2
AM_ANSI$4
 70
     0
  4
mm
 41
0.1
 42
0.05
 43
0.5
 44
0.1
 47
0.1
 48
0.1
 78
     7
 79
     2
140
0.12
141
0.0
146
0.71
147
0.06
176
   256
177
   256
178
     2
274
     4
284
     7
288
     1
289
     0
340
11
371
    -1
372
    -1
1001
ACAD_DSTYLE_DIMJOGGED_JOGANGLE_SYMBOL
1070
   384
1040
0.7853981633974483
1001
ACAD_DSTYLE_DIMARC_LENGTH_SYMBOL
1070
   379
1070
     1
  0
DIMSTYLE
105
FAC
330
A
100
AcDbSymbolTableRecord
100
AcDbDimStyleTableRecord
  2
AM_ANSI$7
 70
     0
  4
mm
 41
0.1
 42
0.05
 43
0.5
 44
0.1
 47
0.1
 48
0.1
 78
     7
 79
     2
140
0.24
141
0.0
146
0.71
147
0.06
176
   256
177
   256
178
     2
274
     4
284
     7
340
11
371
    -1
372
    -1
1001
ACAD_DSTYLE_DIMJOGGED_JOGANGLE_SYMBOL
1070
   384
1040
0.7853981633974483
1001
ACAD_DSTYLE_DIMARC_LENGTH_SYMBOL
1070
   379
1070
     1
  0
DIMSTYLE
105
FAD
330
A
100
AcDbSymbolTableRecord
100
AcDbDimStyleTableRecord
  2
AM_ANSI$SF
 70
     0
  4
mm
 41
0.1
 42
0.05
 43
0.5
 44
0.1
 47
0.1
 48
0.1
 75
     1
 76
     1
 78
     7
 79
     2
140
0.12
141
0.0
146
0.71
147
0.06
176
   256
177
   256
178
     2
274
     4
284
     7
340
11
371
    -1
372
    -1
1001
ACAD_DSTYLE_DIMJOGGED_JOGANGLE_SYMBOL
1070
   384
1040
0.7853981633974483
1001
ACAD_DSTYLE_DIMARC_LENGTH_SYMBOL
1070
   379
1070
     1
  0
DIMSTYLE
105
FAE
330
A
100
AcDbSymbolTableRecord
100
AcDbDimStyleTableRecord
  2
AM_ANSI$SH
 70
     0
  4
mm
 41
0.1
 42
0.05
 43
0.5
 44
0.1
 47
0.1
 48
0.1
 75
     1
 76
     1
 78
     7
 79
     2
140
0.12
141
0.0
146
0.71
147
0.06
173
     1
176
   256
177
   256
178
     2
274
     4
284
     7
340
11
343
72
371
    -1
372
    -1
1001
ACAD_DSTYLE_DIMJOGGED_JOGANGLE_SYMBOL
1070
   384
1040
0.7853981633974483
1001
ACAD_DSTYLE_DIMARC_LENGTH_SYMBOL
1070
   379
1070
     1
  0
DIMSTYLE
105
2515
330
A
100
AcDbSymbolTableRecord
100
AcDbDimStyleTableRecord
  2
SYS
 70
     0
  4
"
 41
1.0
 42
1.0
 43
10.0
 44
1.0
 47
0.2
 48
0.2000000002
 71
     1
 73
     0
 74
     0
 77
     1
 78
     8
 79
     2
140
3.5
141
0.0
143
0.0393701
146
0.6
147
1.5
172
     1
176
   256
177
   256
178
     7
271
     2
272
     2
283
     0
284
     8
340
11
341
A66
342
6C4
371
    -1
372
    -1
1001
ACAD_DSTYLE_DIMJOGGED_JOGANGLE_SYMBOL
1070
   384
1040
0.7853981633974483
1001
ACAD_DSTYLE_DIMARC_LENGTH_SYMBOL
1070
   379
1070
     1
  0
DIMSTYLE
105
2516
102
{ACAD_REACTORS
330
1DD07
330
1E11C
102
}
330
A
100
AcDbSymbolTableRecord
100
AcDbDimStyleTableRecord
  2
SYS$3
 70
     0
  4
"
 41
2.0
 42
1.0
 43
10.0
 44
1.0
 47
0.1
 48
0.1
 73
     0
 74
     0
 77
     1
 78
     8
 79
     2
140
3.200000000000001
141
0.0
143
0.0393701
146
0.71
147
1.5
176
   256
177
   256
178
     2
271
     1
272
     1
283
     0
284
     8
288
     1
340
11
342
A66
371
    -1
372
    -1
1001
ACAD_DSTYLE_DIMJOGGED_JOGANGLE_SYMBOL
1070
   384
1040
0.7853981633974483
1001
ACAD_DSTYLE_DIMARC_LENGTH_SYMBOL
1070
   379
1070
     1
  0
DIMSTYLE
105
2517
330
A
100
AcDbSymbolTableRecord
100
AcDbDimStyleTableRecord
  2
SYS$4
 70
     0
  4
"
 41
2.0
 42
1.0
 43
10.0
 44
1.0
 47
0.1
 48
0.1
 73
     0
 74
     0
 77
     1
 78
     8
 79
     2
140
3.2
141
0.0
143
0.0393701
146
0.71
147
1.5
173
     1
176
   256
177
   256
178
     2
271
     2
272
     2
283
     0
284
     8
288
     1
340
11
344
A66
371
    -1
372
    -1
1001
ACAD_DSTYLE_DIMJOGGED_JOGANGLE_SYMBOL
1070
   384
1040
0.7853981633974483
1001
ACAD_DSTYLE_DIMARC_LENGTH_SYMBOL
1070
   379
1070
     1
  0
DIMSTYLE
105
2518
330
A
100
AcDbSymbolTableRecord
100
AcDbDimStyleTableRecord
  2
SYS$6
 70
     0
  4
"
 41
2.0
 42
1.0
 43
10.0
 44
1.0
 47
0.1
 48
0.1
 73
     0
 74
     0
 78
     8
 79
     2
140
3.2
141
0.0
143
0.0393701
146
0.71
147
1.5
172
     1
176
   256
177
   256
178
     2
271
     2
272
     2
283
     0
284
     8
340
11
341
A66
371
    -1
372
    -1
1001
ACAD_DSTYLE_DIMJOGGED_JOGANGLE_SYMBOL
1070
   384
1040
0.7853981633974483
1001
ACAD_DSTYLE_DIMARC_LENGTH_SYMBOL
1070
   379
1070
     1
  0
DIMSTYLE
105
2519
330
A
100
AcDbSymbolTableRecord
100
AcDbDimStyleTableRecord
  2
SYS$7
 70
     0
  4
"
 41
2.0
 42
1.5
 43
10.0
 44
1.0
 47
0.1
 48
0.1
 73
     0
 74
     0
 77
     1
 78
     8
 79
     2
140
3.2
141
0.0
143
0.0393701
146
0.71
147
1.5
172
     1
176
   256
177
   256
178
     2
271
     2
272
     2
283
     0
284
     8
340
11
341
A66
342
A66
371
    -1
372
    -1
1001
ACAD_DSTYLE_DIMJOGGED_JOGANGLE_SYMBOL
1070
   384
1040
0.7853981633974483
1001
ACAD_DSTYLE_DIMARC_LENGTH_SYMBOL
1070
   379
1070
     1
  0
DIMSTYLE
105
251A
330
A
100
AcDbSymbolTableRecord
100
AcDbDimStyleTableRecord
  2
SYS$SF
 70
     0
  4
"
 41
1.0
 42
1.0
 43
10.0
 44
1.0
 47
0.1
 48
0.1
 73
     0
 74
     0
 75
     1
 76
     1
 77
     1
 78
     8
 79
     2
140
3.2
141
0.0
143
0.0393701
146
0.71
147
1.5
172
     1
176
   256
177
   256
178
     2
271
     2
272
     2
283
     0
284
     8
340
11
341
6C4
342
6C4
371
    -1
372
    -1
1001
ACAD_DSTYLE_DIMJOGGED_JOGANGLE_SYMBOL
1070
   384
1040
0.7853981633974483
1001
ACAD_DSTYLE_DIMARC_LENGTH_SYMBOL
1070
   379
1070
     1
  0
DIMSTYLE
105
251B
330
A
100
AcDbSymbolTableRecord
100
AcDbDimStyleTableRecord
  2
SYS$SH
 70
     0
  4
"
 41
1.0
 42
1.0
 43
10.0
 44
1.0
 47
0.1
 48
0.1
 73
     0
 74
     0
 75
     1
 76
     1
 77
     1
 78
     8
 79
     2
140
3.2
141
0.0
143
0.0393701
144
2.0
146
0.71
147
1.5
172
     1
173
     1
176
   256
177
   256
178
     2
271
     2
272
     2
283
     0
284
     8
340
11
341
6C4
343
72
344
6C4
371
    -1
372
    -1
1001
ACAD_DSTYLE_DIMJOGGED_JOGANGLE_SYMBOL
1070
   384
1040
0.7853981633974483
1001
ACAD_DSTYLE_DIMARC_LENGTH_SYMBOL
1070
   379
1070
     1
  0
DIMSTYLE
105
2A59
330
A
100
AcDbSymbolTableRecord
100
AcDbDimStyleTableRecord
  2
SYS$2
 70
     0
  4
"
 41
1.0
 42
1.5
 43
10.0
 44
1.0
 47
0.1
 48
0.1
 73
     0
 74
     0
 77
     1
 78
     8
 79
     2
140
3.2
141
0.0
143
0.0393701
146
0.71
147
1.5
172
     1
176
   256
177
   256
178
     2
271
     2
272
     2
283
     0
284
     8
340
11
342
6C4
371
    -1
372
    -1
1001
ACAD_DSTYLE_DIMJOGGED_JOGANGLE_SYMBOL
1070
   384
1040
0.7853981633974483
1001
ACAD_DSTYLE_DIMARC_LENGTH_SYMBOL
1070
   379
1070
     1
  0
DIMSTYLE
105
2AAB
102
{ACAD_REACTORS
330
1D0C5
330
1D0C8
330
1D0CB
330
1D0CE
330
1D3F4
330
1D3F5
330
1D421
330
1D83C
330
1D83D
330
1D83E
330
1D83F
330
1D840
330
1D845
330
1D86E
330
1D86F
330
1DBAD
330
1DBCF
330
1DC87
102
}
330
A
100
AcDbSymbolTableRecord
100
AcDbDimStyleTableRecord
  2
SYS$0
 70
     0
  4
"
 41
1.0
 42
1.5
 43
10.0
 44
1.0
 47
0.1
 48
0.1
 73
     0
 74
     0
 77
     1
 78
     8
 79
     2
140
3.2
141
0.0
143
0.0393701
146
0.71
147
1.5
172
     1
176
   256
177
   256
178
     2
271
     1
272
     1
283
     0
284
     8
340
11
341
A66
342
6C4
371
    -1
372
    -1
1001
ACAD_DSTYLE_DIMJOGGED_JOGANGLE_SYMBOL
1070
   384
1040
0.7853981633974483
1001
ACAD_DSTYLE_DIMARC_LENGTH_SYMBOL
1070
   379
1070
     1
  0
DIMSTYLE
105
E333
330
A
100
AcDbSymbolTableRecord
100
AcDbDimStyleTableRecord
  2
SYMBOL
 70
     0
  4
"
 41
1.0
 42
1.0
 43
10.0
 44
1.0
 47
0.2
 48
0.2000000002
 71
     1
 73
     0
 74
     0
 77
     1
 78
     8
 79
     2
140
3.5
141
0.0
143
0.0393701
146
0.6
147
1.5
172
     1
176
   256
177
   256
178
     7
271
     2
272
     2
283
     0
284
     8
340
11
341
A66
342
6C4
371
    -1
372
    -1
  0
DIMSTYLE
105
E921
330
A
100
AcDbSymbolTableRecord
100
AcDbDimStyleTableRecord
  2
SYSORG1P25
 70
     0
  4
"
 41
1.0
 42
1.0
 43
10.0
 44
1.0
 47
0.2
 48
0.2000000002
 71
     1
 73
     0
 74
     0
 77
     1
 78
     8
 79
     2
140
3.5
141
0.0
143
0.0393701
144
1.25000317891954
146
0.6
147
1.5
172
     1
176
   256
177
   256
178
     7
271
     2
272
     2
283
     0
284
     8
340
11
341
A66
342
6C4
371
    -1
372
    -1
  0
DIMSTYLE
105
E922
330
A
100
AcDbSymbolTableRecord
100
AcDbDimStyleTableRecord
  2
SYSORG1P25$0
 70
     0
  4
"
 41
1.0
 42
1.5
 43
10.0
 44
1.0
 47
0.1
 48
0.1
 73
     0
 74
     0
 77
     1
 78
     8
 79
     2
140
3.2
141
0.0
143
0.0393701
144
1.25000317891954
146
0.71
147
1.5
172
     1
176
   256
177
   256
178
     2
271
     1
272
     1
283
     0
284
     8
340
11
341
A66
342
6C4
371
    -1
372
    -1
  0
DIMSTYLE
105
F629
330
A
100
AcDbSymbolTableRecord
100
AcDbDimStyleTableRecord
  2
SYSIS0P66667
 70
     0
  4
"
 40
0.6666666666666666
 41
1.0
 42
1.0
 43
10.0
 44
1.0
 47
0.2
 48
0.2000000002
 71
     1
 73
     0
 74
     0
 77
     1
 78
     8
 79
     2
140
3.5
141
0.0
143
0.0393701
144
0.66667
146
0.6
147
1.5
172
     1
176
   256
177
   256
178
     7
271
     2
272
     2
283
     0
284
     8
340
11
341
A66
342
6C4
371
    -1
372
    -1
  0
DIMSTYLE
105
F631
330
A
100
AcDbSymbolTableRecord
100
AcDbDimStyleTableRecord
  2
SYSSS0P8165
 70
     0
  4
"
 40
0.8164964717411271
 41
1.0
 42
1.0
 43
10.0
 44
1.0
 47
0.2
 48
0.2000000002
 71
     1
 73
     0
 74
     0
 77
     1
 78
     8
 79
     2
140
3.5
141
0.0
143
0.0393701
144
0.8164999999999999
146
0.6
147
1.5
172
     1
176
   256
177
   256
178
     7
271
     2
272
     2
283
     0
284
     8
340
11
341
A66
342
6C4
371
    -1
372
    -1
  0
DIMSTYLE
105
139BA
330
A
100
AcDbSymbolTableRecord
100
AcDbDimStyleTableRecord
  2
AM_ISO
 70
     0
  4
"
 41
2.5
 42
1.0
 43
10.0
 44
1.0
 47
0.1
 48
0.1
 73
     0
 74
     0
 77
     1
 78
     8
 79
     2
140
3.5
141
0.0
143
0.0393701
146
0.71
147
1.5
172
     1
176
   256
177
   256
178
     2
271
     2
272
     2
283
     0
284
     8
340
11
371
    -1
372
    -1
1001
ACAD_DSTYLE_DIMJOGGED_JOGANGLE_SYMBOL
1070
   384
1040
0.7853981633974483
1001
ACAD_DSTYLE_DIMARC_LENGTH_SYMBOL
1070
   379
1070
     1
  0
DIMSTYLE
105
13C9F
330
A
100
AcDbSymbolTableRecord
100
AcDbDimStyleTableRecord
  2
AM_ISO$3
 70
     0
  4
"
 41
0.8
 42
1.0
 43
10.0
 44
1.0
 47
0.1
 48
0.1
 73
     0
 77
     1
 78
     8
 79
     2
140
3.2
141
0.0
143
0.0393701
146
0.71
147
0.9999999999999996
176
   256
177
   256
178
     2
271
     2
272
     2
283
     0
284
     8
288
     1
289
     0
340
11
341
6C4
342
6C4
371
    -1
372
    -1
1001
ACAD_DSTYLE_DIMJOGGED_JOGANGLE_SYMBOL
1070
   384
1040
0.7853981633974483
1001
ACAD_DSTYLE_DIMARC_LENGTH_SYMBOL
1070
   379
1070
     1
  0
DIMSTYLE
105
13CA0
330
A
100
AcDbSymbolTableRecord
100
AcDbDimStyleTableRecord
  2
AM_ISO$4
 70
     0
  4
"
 41
0.8
 42
1.0
 43
10.0
 44
1.0
 47
0.1
 48
0.1
 73
     0
 77
     1
 78
     8
 79
     2
140
3.2
141
0.0
143
0.0393701
146
0.71
147
1.0
173
     1
176
   256
177
   256
178
     2
271
     2
272
     2
283
     0
284
     8
288
     1
289
     0
340
11
344
6C4
371
    -1
372
    -1
1001
ACAD_DSTYLE_DIMJOGGED_JOGANGLE_SYMBOL
1070
   384
1040
0.7853981633974483
1001
ACAD_DSTYLE_DIMARC_LENGTH_SYMBOL
1070
   379
1070
     1
  0
DIMSTYLE
105
13CA1
330
A
100
AcDbSymbolTableRecord
100
AcDbDimStyleTableRecord
  2
AM_ISO$6
 70
     0
  4
"
 41
0.8
 42
1.0
 43
10.0
 44
1.0
 47
0.1
 48
0.1
 73
     0
 74
     0
 78
     8
 79
     2
140
3.2
141
0.0
143
0.0393701
146
0.71
147
1.0
172
     1
176
   256
177
   256
178
     2
271
     2
272
     2
283
     0
284
     8
340
11
371
    -1
372
    -1
1001
ACAD_DSTYLE_DIMJOGGED_JOGANGLE_SYMBOL
1070
   384
1040
0.7853981633974483
1001
ACAD_DSTYLE_DIMARC_LENGTH_SYMBOL
1070
   379
1070
     1
  0
DIMSTYLE
105
13CA2
330
A
100
AcDbSymbolTableRecord
100
AcDbDimStyleTableRecord
  2
AM_ISO$7
 70
     0
  4
"
 41
0.8
 42
1.0
 43
10.0
 44
1.0
 47
0.1
 48
0.1
 73
     0
 74
     0
 77
     1
 78
     8
 79
     2
140
3.2
141
0.0
143
0.0393701
146
0.71
147
1.0
172
     1
176
   256
177
   256
178
     2
271
     2
272
     2
283
     0
284
     8
340
11
341
6C4
342
6C4
371
    -1
372
    -1
1001
ACAD_DSTYLE_DIMJOGGED_JOGANGLE_SYMBOL
1070
   384
1040
0.7853981633974483
1001
ACAD_DSTYLE_DIMARC_LENGTH_SYMBOL
1070
   379
1070
     1
  0
DIMSTYLE
105
13CA3
330
A
100
AcDbSymbolTableRecord
100
AcDbDimStyleTableRecord
  2
AM_ISO$SF
 70
     0
  4
"
 41
0.8
 42
1.0
 43
10.0
 44
1.0
 47
0.1
 48
0.1
 73
     0
 74
     0
 75
     1
 76
     1
 77
     1
 78
     8
 79
     2
140
3.2
141
0.0
143
0.0393701
146
0.71
147
1.0
172
     1
176
   256
177
   256
178
     2
271
     2
272
     2
283
     0
284
     8
340
11
341
6C4
342
6C4
371
    -1
372
    -1
1001
ACAD_DSTYLE_DIMJOGGED_JOGANGLE_SYMBOL
1070
   384
1040
0.7853981633974483
1001
ACAD_DSTYLE_DIMARC_LENGTH_SYMBOL
1070
   379
1070
     1
  0
DIMSTYLE
105
13CA4
330
A
100
AcDbSymbolTableRecord
100
AcDbDimStyleTableRecord
  2
AM_ISO$SH
 70
     0
  4
"
 41
0.8
 42
1.0
 43
10.0
 44
1.0
 47
0.1
 48
0.1
 73
     0
 74
     0
 75
     1
 76
     1
 77
     1
 78
     8
 79
     2
140
3.2
141
0.0
143
0.0393701
144
2.0
146
0.71
147
1.0
172
     1
176
   256
177
   256
178
     2
271
     2
272
     2
283
     0
284
     8
340
11
341
6C4
342
6C4
371
    -1
372
    -1
1001
ACAD_DSTYLE_DIMJOGGED_JOGANGLE_SYMBOL
1070
   384
1040
0.7853981633974483
1001
ACAD_DSTYLE_DIMARC_LENGTH_SYMBOL
1070
   379
1070
     1
  0
DIMSTYLE
105
13CA5
330
A
100
AcDbSymbolTableRecord
100
AcDbDimStyleTableRecord
  2
AM_ISO$0
 70
     0
  4
"
 41
0.8
 42
1.0
 43
10.0
 44
1.0
 47
0.1
 48
0.1
 73
     0
 74
     0
 77
     1
 78
     8
 79
     2
140
3.2
141
0.0
143
0.0393701
146
0.71
147
0.9999999999999996
172
     1
176
   256
177
   256
178
     2
271
     2
272
     2
283
     0
284
     8
340
11
341
6C4
342
6C4
371
    -1
372
    -1
1001
ACAD_DSTYLE_DIMJOGGED_JOGANGLE_SYMBOL
1070
   384
1040
0.7853981633974483
1001
ACAD_DSTYLE_DIMARC_LENGTH_SYMBOL
1070
   379
1070
     1
  0
DIMSTYLE
105
13CA6
330
A
100
AcDbSymbolTableRecord
100
AcDbDimStyleTableRecord
  2
AM_ISO$2
 70
     0
  4
"
 41
0.8
 42
1.0
 43
10.0
 44
1.0
 47
0.1
 48
0.1
 73
     0
 74
     0
 77
     3
 78
     8
 79
     2
140
3.200000000000001
141
0.0
143
0.0393701
146
0.71
147
0.9999999999999996
172
     1
176
   256
177
   256
178
     2
271
     2
272
     2
283
     0
284
     8
340
11
341
6C4
342
6C4
371
    -1
372
    -1
1001
ACAD_DSTYLE_DIMJOGGED_JOGANGLE_SYMBOL
1070
   384
1040
0.7853981633974483
1001
ACAD_DSTYLE_DIMARC_LENGTH_SYMBOL
1070
   379
1070
     1
  0
DIMSTYLE
105
1C00E
330
A
100
AcDbSymbolTableRecord
100
AcDbDimStyleTableRecord
  2
DIMSTYLE
 70
     0
 41
1.0
 42
2.54
 44
2.54
 73
     0
 74
     0
140
3.2
147
1.6
173
     1
279
     2
340
11
  0
ENDTAB
  0
TABLE
  2
BLOCK_RECORD
  5
1
330
0
100
AcDbSymbolTable
 70
    26
  0
BLOCK_RECORD
  5
1F
102
{ACAD_XDICTIONARY
360
8A
102
}
330
1
100
AcDbSymbolTableRecord
100
AcDbBlockTableRecord
  2
*Model_Space
340
22
  0
BLOCK_RECORD
  5
1B
330
1
100
AcDbSymbolTableRecord
100
AcDbBlockTableRecord
  2
*Paper_Space
340
1E
  0
BLOCK_RECORD
  5
23
330
1
100
AcDbSymbolTableRecord
100
AcDbBlockTableRecord
  2
*Paper_Space0
340
26
  0
BLOCK_RECORD
  5
72
330
1
100
AcDbSymbolTableRecord
100
AcDbBlockTableRecord
  2
GENAXEH
340
0
  0
BLOCK_RECORD
  5
6C4
330
1
100
AcDbSymbolTableRecord
100
AcDbBlockTableRecord
  2
_Dot
340
0
102
{BLKREFS
331
1E009
331
1E00A
331
1E012
331
1E013
331
1E01B
331
1E01C
331
1E024
331
1E025
331
1E02D
331
1E02E
331
1E036
331
1E037
331
1E03F
331
1E040
331
1E048
331
1E049
331
1E051
331
1E052
331
1E05B
331
1E05C
331
1E064
331
1E065
331
1E06D
331
1E06E
331
1E076
331
1E077
331
1E07F
331
1E080
331
1E0C3
331
1E0C4
331
1E0CC
331
1E0CD
331
1E0D5
331
1E0D6
331
1E0F0
331
1E0F1
102
}
  0
BLOCK_RECORD
  5
A66
330
1
100
AcDbSymbolTableRecord
100
AcDbBlockTableRecord
  2
_OPEN30
340
0
102
{BLKREFS
331
1E088
331
1E146
102
}
  0
BLOCK_RECORD
  5
1D0D8
330
1
100
AcDbSymbolTableRecord
100
AcDbBlockTableRecord
  2
*D4
340
0
  0
BLOCK_RECORD
  5
1D0E2
330
1
100
AcDbSymbolTableRecord
100
AcDbBlockTableRecord
  2
*D5
340
0
  0
BLOCK_RECORD
  5
1D0EC
330
1
100
AcDbSymbolTableRecord
100
AcDbBlockTableRecord
  2
*D6
340
0
  0
BLOCK_RECORD
  5
1D0F6
330
1
100
AcDbSymbolTableRecord
100
AcDbBlockTableRecord
  2
*D7
340
0
  0
BLOCK_RECORD
  5
1D497
330
1
100
AcDbSymbolTableRecord
100
AcDbBlockTableRecord
  2
*D8
340
0
  0
BLOCK_RECORD
  5
1D4A1
330
1
100
AcDbSymbolTableRecord
100
AcDbBlockTableRecord
  2
*D9
340
0
  0
BLOCK_RECORD
  5
1D56F
330
1
100
AcDbSymbolTableRecord
100
AcDbBlockTableRecord
  2
*D10
340
0
  0
BLOCK_RECORD
  5
1D876
330
1
100
AcDbSymbolTableRecord
100
AcDbBlockTableRecord
  2
*D11
340
0
  0
BLOCK_RECORD
  5
1D880
330
1
100
AcDbSymbolTableRecord
100
AcDbBlockTableRecord
  2
*D12
340
0
  0
BLOCK_RECORD
  5
1D88A
330
1
100
AcDbSymbolTableRecord
100
AcDbBlockTableRecord
  2
*D13
340
0
  0
BLOCK_RECORD
  5
1D894
330
1
100
AcDbSymbolTableRecord
100
AcDbBlockTableRecord
  2
*D14
340
0
  0
BLOCK_RECORD
  5
1D89E
330
1
100
AcDbSymbolTableRecord
100
AcDbBlockTableRecord
  2
*D15
340
0
  0
BLOCK_RECORD
  5
1D8D0
330
1
100
AcDbSymbolTableRecord
100
AcDbBlockTableRecord
  2
*D16
340
0
  0
BLOCK_RECORD
  5
1D8F8
330
1
100
AcDbSymbolTableRecord
100
AcDbBlockTableRecord
  2
*D17
340
0
  0
BLOCK_RECORD
  5
1D903
330
1
100
AcDbSymbolTableRecord
100
AcDbBlockTableRecord
  2
*D18
340
0
  0
BLOCK_RECORD
  5
1DBAE
330
1
100
AcDbSymbolTableRecord
100
AcDbBlockTableRecord
  2
*D19
340
0
  0
BLOCK_RECORD
  5
1DBD0
330
1
100
AcDbSymbolTableRecord
100
AcDbBlockTableRecord
  2
*D20
340
0
  0
BLOCK_RECORD
  5
1DC88
330
1
100
AcDbSymbolTableRecord
100
AcDbBlockTableRecord
  2
*D21
340
0
  0
BLOCK_RECORD
  5
1DD08
330
1
100
AcDbSymbolTableRecord
100
AcDbBlockTableRecord
  2
*D22
340
0
  0
BLOCK_RECORD
  5
1E11D
330
1
100
AcDbSymbolTableRecord
100
AcDbBlockTableRecord
  2
*D23
340
0
  0
ENDTAB
  0
ENDSEC
  0
SECTION
  2
BLOCKS
  0
BLOCK
  5
20
330
1F
100
AcDbEntity
  8
0
100
AcDbBlockBegin
  2
*Model_Space
 70
     0
 10
0.0
 20
0.0
 30
0.0
  3
*Model_Space
  1

  0
ENDBLK
  5
21
330
1F
100
AcDbEntity
  8
0
100
AcDbBlockEnd
  0
BLOCK
  5
1C
330
1B
100
AcDbEntity
 67
     1
  8
0
100
AcDbBlockBegin
  2
*Paper_Space
 70
     0
 10
0.0
 20
0.0
 30
0.0
  3
*Paper_Space
  1

  0
ENDBLK
  5
1D
330
1B
100
AcDbEntity
 67
     1
  8
0
100
AcDbBlockEnd
  0
BLOCK
  5
24
330
23
100
AcDbEntity
 67
     1
  8
0
100
AcDbBlockBegin
  2
*Paper_Space0
 70
     0
 10
0.0
 20
0.0
 30
0.0
  3
*Paper_Space0
  1

  0
ENDBLK
  5
25
330
23
100
AcDbEntity
 67
     1
  8
0
100
AcDbBlockEnd
  0
BLOCK
  5
74
330
72
100
AcDbEntity
  8
0
100
AcDbBlockBegin
  2
GENAXEH
 70
     0
 10
0.0
 20
0.0
 30
0.0
  3
GENAXEH
  1

  0
LINE
  5
73
330
72
100
AcDbEntity
  8
0
100
AcDbLine
 10
-1.0
 20
0.0
 30
0.0
 11
1.0
 21
0.0
 31
0.0
  0
ENDBLK
  5
75
330
72
100
AcDbEntity
  8
0
100
AcDbBlockEnd
  0
BLOCK
  5
6C7
330
6C4
100
AcDbEntity
  8
0
100
AcDbBlockBegin
  2
_Dot
 70
     0
 10
0.0
 20
0.0
 30
0.0
  3
_Dot
  1

  0
LWPOLYLINE
  5
6C5
330
6C4
100
AcDbEntity
  8
0
  6
ByBlock
 62
     0
100
AcDbPolyline
 90
        2
 70
     1
 43
0.5
 10
-0.25
 20
0.0
 42
1.0
 10
0.25
 20
0.0
 42
1.0
  0
LINE
  5
6C6
330
6C4
100
AcDbEntity
  8
0
  6
ByBlock
 62
     0
370
    -2
100
AcDbLine
 10
-0.5
 20
0.0
 30
0.0
 11
-1.0
 21
0.0
 31
0.0
  0
ENDBLK
  5
6C8
330
6C4
100
AcDbEntity
  8
0
100
AcDbBlockEnd
  0
BLOCK
  5
A6A
330
A66
100
AcDbEntity
  8
0
100
AcDbBlockBegin
  2
_OPEN30
 70
     0
 10
0.0
 20
0.0
 30
0.0
  3
_OPEN30
  1

  0
LINE
  5
A67
330
A66
100
AcDbEntity
  8
0
  6
ByBlock
 62
     0
100
AcDbLine
 10
-1.0
 20
0.26794919
 30
0.0
 11
0.0
 21
0.0
 31
0.0
  0
LINE
  5
A68
330
A66
100
AcDbEntity
  8
0
  6
ByBlock
 62
     0
100
AcDbLine
 10
0.0
 20
0.0
 30
0.0
 11
-1.0
 21
-0.26794919
 31
0.0
  0
LINE
  5
A69
330
A66
100
AcDbEntity
  8
0
  6
ByBlock
 62
     0
100
AcDbLine
 10
0.0
 20
0.0
 30
0.0
 11
-1.0
 21
0.0
 31
0.0
  0
ENDBLK
  5
A6B
330
A66
100
AcDbEntity
  8
0
100
AcDbBlockEnd
  0
BLOCK
  5
1D104
330
1D0D8
100
AcDbEntity
  8
0
100
AcDbBlockBegin
  2
*D4
 70
     1
 10
0.0
 20
0.0
 30
0.0
  3
*D4
  1

  0
LINE
  5
1E0C0
330
1D0D8
100
AcDbEntity
  8
AM_5
 48
1.01
100
AcDbLine
 10
783.2950479950816
 20
-331.3323371944094
 30
0.0
 11
783.2950479950816
 21
-342.8323371944094
 31
0.0
  0
LINE
  5
1E0C1
330
1D0D8
100
AcDbEntity
  8
AM_5
 48
1.01
100
AcDbLine
 10
808.2950479950017
 20
-331.3323371944094
 30
0.0
 11
808.2950479950017
 21
-342.8323371944094
 31
0.0
  0
LINE
  5
1E0C2
330
1D0D8
100
AcDbEntity
  8
AM_5
 48
1.01
100
AcDbLine
 10
784.2950479950816
 20
-341.8323371944094
 30
0.0
 11
807.2950479950018
 21
-341.8323371944094
 31
0.0
  0
INSERT
  5
1E0C3
330
1D0D8
100
AcDbEntity
  8
AM_5
 48
1.01
100
AcDbBlockReference
  2
_Dot
 10
783.2950479950816
 20
-341.8323371944094
 30
0.0
 50
180.0
  0
INSERT
  5
1E0C4
330
1D0D8
100
AcDbEntity
  8
AM_5
 48
1.01
100
AcDbBlockReference
  2
_Dot
 10
808.2950479950017
 20
-341.8323371944094
 30
0.0
  0
MTEXT
  5
1E0C5
330
1D0D8
100
AcDbEntity
  8
AM_5
 62
     2
 48
1.01
100
AcDbMText
 10
795.7950479950416
 20
-338.7323371944094
 30
0.0
 40
3.2
 41
0.0
 71
     5
 72
     1
  1
25
 73
     1
 44
1.0
1001
ACAD
1000
MTEXTBEGIN
1070
    73
1070
     1
1070
    44
1040
1.0
1070
    74
1070
     0
1000
MTEXTEND
  0
POINT
  5
1E0C6
330
1D0D8
100
AcDbEntity
  8
Defpoints
 62
     0
 48
1.01
100
AcDbPoint
 10
783.2950479950816
 20
-329.8323371944094
 30
0.0
  0
POINT
  5
1E0C7
330
1D0D8
100
AcDbEntity
  8
Defpoints
 62
     0
 48
1.01
100
AcDbPoint
 10
808.2950479950017
 20
-329.8323371944094
 30
0.0
  0
POINT
  5
1E0C8
330
1D0D8
100
AcDbEntity
  8
Defpoints
 62
     0
 48
1.01
100
AcDbPoint
 10
808.2950479950017
 20
-341.8323371944094
 30
0.0
  0
ENDBLK
  5
1D105
330
1D0D8
100
AcDbEntity
  8
0
100
AcDbBlockEnd
  0
BLOCK
  5
1D106
330
1D0E2
100
AcDbEntity
  8
0
100
AcDbBlockBegin
  2
*D5
 70
     1
 10
0.0
 20
0.0
 30
0.0
  3
*D5
  1

  0
LINE
  5
1E0C9
330
1D0E2
100
AcDbEntity
  8
AM_5
 48
1.01
100
AcDbLine
 10
773.2950479950816
 20
-331.2323371944064
 30
0.0
 11
773.2950479950816
 21
-352.8323371944097
 31
0.0
  0
LINE
  5
1E0CA
330
1D0E2
100
AcDbEntity
  8
AM_5
 48
1.01
100
AcDbLine
 10
818.2950479943567
 20
-331.2323371944064
 30
0.0
 11
818.2950479943567
 21
-352.8323371944097
 31
0.0
  0
LINE
  5
1E0CB
330
1D0E2
100
AcDbEntity
  8
AM_5
 48
1.01
100
AcDbLine
 10
774.2950479950816
 20
-351.8323371944096
 30
0.0
 11
817.2950479943565
 21
-351.8323371944096
 31
0.0
  0
INSERT
  5
1E0CC
330
1D0E2
100
AcDbEntity
  8
AM_5
 48
1.01
100
AcDbBlockReference
  2
_Dot
 10
773.2950479950816
 20
-351.8323371944096
 30
0.0
 50
180.0
  0
INSERT
  5
1E0CD
330
1D0E2
100
AcDbEntity
  8
AM_5
 48
1.01
100
AcDbBlockReference
  2
_Dot
 10
818.2950479943567
 20
-351.8323371944096
 30
0.0
  0
MTEXT
  5
1E0CE
330
1D0E2
100
AcDbEntity
  8
AM_5
 62
     2
 48
1.01
100
AcDbMText
 10
795.7950479947192
 20
-348.7323371944096
 30
0.0
 40
3.2
 41
0.0
 71
     5
 72
     1
  1
45
 73
     1
 44
1.0
1001
ACAD
1000
MTEXTBEGIN
1070
    73
1070
     1
1070
    44
1040
1.0
1070
    74
1070
     0
1000
MTEXTEND
  0
POINT
  5
1E0CF
330
1D0E2
100
AcDbEntity
  8
Defpoints
 62
     0
 48
1.01
100
AcDbPoint
 10
773.2950479950816
 20
-329.7323371944063
 30
0.0
  0
POINT
  5
1E0D0
330
1D0E2
100
AcDbEntity
  8
Defpoints
 62
     0
 48
1.01
100
AcDbPoint
 10
818.2950479943567
 20
-329.7323371944063
 30
0.0
  0
POINT
  5
1E0D1
330
1D0E2
100
AcDbEntity
  8
Defpoints
 62
     0
 48
1.01
100
AcDbPoint
 10
818.2950479943567
 20
-351.8323371944096
 30
0.0
  0
ENDBLK
  5
1D107
330
1D0E2
100
AcDbEntity
  8
0
100
AcDbBlockEnd
  0
BLOCK
  5
1D108
330
1D0EC
100
AcDbEntity
  8
0
100
AcDbBlockBegin
  2
*D6
 70
     1
 10
0.0
 20
0.0
 30
0.0
  3
*D6
  1

  0
LINE
  5
1E0D2
330
1D0EC
100
AcDbEntity
  8
AM_5
 48
1.01
100
AcDbLine
 10
771.7950479950816
 20
-329.7323371944063
 30
0.0
 11
760.2950479950816
 21
-329.7323371944063
 31
0.0
  0
LINE
  5
1E0D3
330
1D0EC
100
AcDbEntity
  8
AM_5
 48
1.01
100
AcDbLine
 10
771.7950479950816
 20
-317.9323371944071
 30
0.0
 11
760.2950479950816
 21
-317.9323371944071
 31
0.0
  0
LINE
  5
1E0D4
330
1D0EC
100
AcDbEntity
  8
AM_5
 48
1.01
100
AcDbLine
 10
761.2950479950816
 20
-328.7323371944063
 30
0.0
 11
761.2950479950816
 21
-318.9323371944071
 31
0.0
  0
INSERT
  5
1E0D5
330
1D0EC
100
AcDbEntity
  8
AM_5
 48
1.01
100
AcDbBlockReference
  2
_Dot
 10
761.2950479950816
 20
-329.7323371944063
 30
0.0
 50
270.0
  0
INSERT
  5
1E0D6
330
1D0EC
100
AcDbEntity
  8
AM_5
 48
1.01
100
AcDbBlockReference
  2
_Dot
 10
761.2950479950816
 20
-317.9323371944071
 30
0.0
 50
90.0
  0
MTEXT
  5
1E0D7
330
1D0EC
100
AcDbEntity
  8
AM_5
 62
     2
 48
1.01
100
AcDbMText
 10
758.1950479950818
 20
-323.8323371944066
 30
0.0
 40
3.2
 41
0.0
 71
     5
 72
     1
  1
11.8
 11
0.0000000000000001
 21
1.0
 31
0.0
 73
     1
 44
1.0
1001
ACAD
1000
MTEXTBEGIN
1070
    73
1070
     1
1070
    44
1040
1.0
1070
    74
1070
     0
1000
MTEXTEND
  0
POINT
  5
1E0D8
330
1D0EC
100
AcDbEntity
  8
Defpoints
 62
     0
 48
1.01
100
AcDbPoint
 10
773.2950479950816
 20
-329.7323371944063
 30
0.0
  0
POINT
  5
1E0D9
330
1D0EC
100
AcDbEntity
  8
Defpoints
 62
     0
 48
1.01
100
AcDbPoint
 10
773.2950479950816
 20
-317.9323371944071
 30
0.0
  0
POINT
  5
1E0DA
330
1D0EC
100
AcDbEntity
  8
Defpoints
 62
     0
 48
1.01
100
AcDbPoint
 10
761.2950479950816
 20
-317.9323371944071
 30
0.0
  0
ENDBLK
  5
1D109
330
1D0EC
100
AcDbEntity
  8
0
100
AcDbBlockEnd
  0
BLOCK
  5
1D10A
330
1D0F6
100
AcDbEntity
  8
0
100
AcDbBlockBegin
  2
*D7
 70
     1
 10
0.0
 20
0.0
 30
0.0
  3
*D7
  1

  0
LINE
  5
1E0EB
330
1D0F6
100
AcDbEntity
  8
AM_5
 48
1.01
100
AcDbLine
 10
819.7950479943566
 20
-299.4507815860012
 30
0.0
 11
831.2950489943569
 21
-299.4507815860012
 31
0.0
  0
LINE
  5
1E0EC
330
1D0F6
100
AcDbEntity
  8
AM_5
 48
1.01
100
AcDbLine
 10
819.7950479943566
 20
-297.4507815860011
 30
0.0
 11
831.2950489943569
 21
-297.4507815860011
 31
0.0
  0
LINE
  5
1E0ED
330
1D0F6
100
AcDbEntity
  8
AM_5
 48
1.01
100
AcDbLine
 10
830.2950489943569
 20
-300.4507815860011
 30
0.0
 11
830.2950489943569
 21
-301.4507815860012
 31
0.0
  0
LINE
  5
1E0EE
330
1D0F6
100
AcDbEntity
  8
AM_5
 48
1.01
100
AcDbLine
 10
830.2950489943569
 20
-296.4507815860011
 30
0.0
 11
830.2950489943569
 21
-290.9574482526678
 31
0.0
  0
LINE
  5
1E0EF
330
1D0F6
100
AcDbEntity
  8
AM_5
 48
1.01
100
AcDbLine
 10
830.2950489943569
 20
-299.4507815860012
 30
0.0
 11
830.2950489943569
 21
-297.4507815860011
 31
0.0
  0
INSERT
  5
1E0F0
330
1D0F6
100
AcDbEntity
  8
AM_5
 48
1.01
100
AcDbBlockReference
  2
_Dot
 10
830.2950489943569
 20
-299.4507815860012
 30
0.0
 50
90.0
  0
INSERT
  5
1E0F1
330
1D0F6
100
AcDbEntity
  8
AM_5
 48
1.01
100
AcDbBlockReference
  2
_Dot
 10
830.2950489943569
 20
-297.4507815860011
 30
0.0
 50
270.0
  0
MTEXT
  5
1E0F2
330
1D0F6
100
AcDbEntity
  8
AM_5
 62
     2
 48
1.01
100
AcDbMText
 10
827.195048994357
 20
-293.2041149193344
 30
0.0
 40
3.2
 41
0.0
 71
     5
 72
     1
  1
2
 11
0.0000000000000001
 21
1.0
 31
0.0
 73
     1
 44
1.0
1001
ACAD
1000
MTEXTBEGIN
1070
    73
1070
     1
1070
    44
1040
1.0
1070
    74
1070
     0
1000
MTEXTEND
  0
POINT
  5
1E0F3
330
1D0F6
100
AcDbEntity
  8
Defpoints
 62
     0
 48
1.01
100
AcDbPoint
 10
818.2950479943567
 20
-299.4507815860012
 30
0.0
  0
POINT
  5
1E0F4
330
1D0F6
100
AcDbEntity
  8
Defpoints
 62
     0
 48
1.01
100
AcDbPoint
 10
818.2950479943567
 20
-297.4507815860011
 30
0.0
  0
POINT
  5
1E0F5
330
1D0F6
100
AcDbEntity
  8
Defpoints
 62
     0
 48
1.01
100
AcDbPoint
 10
830.2950489943569
 20
-297.4507815860011
 30
0.0
  0
ENDBLK
  5
1D10B
330
1D0F6
100
AcDbEntity
  8
0
100
AcDbBlockEnd
  0
BLOCK
  5
1D5A1
330
1D497
100
AcDbEntity
  8
0
100
AcDbBlockBegin
  2
*D8
 70
     1
 10
0.0
 20
0.0
 30
0.0
  3
*D8
  1

  0
LINE
  5
1E006
330
1D497
100
AcDbEntity
  8
AM_5
 48
1.01
100
AcDbLine
 10
894.6011206867952
 20
-299.3323371943579
 30
0.0
 11
906.1011216967957
 21
-299.332337194358
 31
0.0
  0
LINE
  5
1E007
330
1D497
100
AcDbEntity
  8
AM_5
 48
1.01
100
AcDbLine
 10
894.6011206867963
 20
-308.3323371943461
 30
0.0
 11
906.1011216967957
 21
-308.3323371943462
 31
0.0
  0
LINE
  5
1E008
330
1D497
100
AcDbEntity
  8
AM_5
 48
1.01
100
AcDbLine
 10
905.1011216967957
 20
-300.332337194358
 30
0.0
 11
905.1011216967957
 21
-307.3323371943462
 31
0.0
  0
INSERT
  5
1E009
330
1D497
100
AcDbEntity
  8
AM_5
 48
1.01
100
AcDbBlockReference
  2
_Dot
 10
905.1011216967957
 20
-299.332337194358
 30
0.0
 50
90.0
  0
INSERT
  5
1E00A
330
1D497
100
AcDbEntity
  8
AM_5
 48
1.01
100
AcDbBlockReference
  2
_Dot
 10
905.1011216967957
 20
-308.3323371943462
 30
0.0
 50
270.0
  0
MTEXT
  5
1E00B
330
1D497
100
AcDbEntity
  8
AM_5
 62
     2
 48
1.01
100
AcDbMText
 10
902.0011216967956
 20
-303.8323371943519
 30
0.0
 40
3.2
 41
0.0
 71
     5
 72
     1
  1
9
 11
0.0000000000000001
 21
1.0
 31
0.0
 73
     1
 44
1.0
1001
ACAD
1000
MTEXTBEGIN
1070
    73
1070
     1
1070
    44
1040
1.0
1070
    74
1070
     0
1000
MTEXTEND
  0
POINT
  5
1E00C
330
1D497
100
AcDbEntity
  8
Defpoints
 62
     0
 48
1.01
100
AcDbPoint
 10
893.1011206867951
 20
-299.3323371943579
 30
0.0
  0
POINT
  5
1E00D
330
1D497
100
AcDbEntity
  8
Defpoints
 62
     0
 48
1.01
100
AcDbPoint
 10
893.1011206867962
 20
-308.3323371943461
 30
0.0
  0
POINT
  5
1E00E
330
1D497
100
AcDbEntity
  8
Defpoints
 62
     0
 48
1.01
100
AcDbPoint
 10
905.1011216967957
 20
-308.3323371943462
 30
0.0
  0
ENDBLK
  5
1D5A2
330
1D497
100
AcDbEntity
  8
0
100
AcDbBlockEnd
  0
BLOCK
  5
1D5A3
330
1D4A1
100
AcDbEntity
  8
0
100
AcDbBlockBegin
  2
*D9
 70
     1
 10
0.0
 20
0.0
 30
0.0
  3
*D9
  1

  0
LINE
  5
1E00F
330
1D4A1
100
AcDbEntity
  8
AM_5
 48
1.01
100
AcDbLine
 10
894.6011206867952
 20
-297.3323371943589
 30
0.0
 11
916.1011216967956
 21
-297.3323371943589
 31
0.0
  0
LINE
  5
1E010
330
1D4A1
100
AcDbEntity
  8
AM_5
 48
1.01
100
AcDbLine
 10
894.6011206867947
 20
-308.3323371943461
 30
0.0
 11
916.1011216967956
 21
-308.3323371943462
 31
0.0
  0
LINE
  5
1E011
330
1D4A1
100
AcDbEntity
  8
AM_5
 48
1.01
100
AcDbLine
 10
915.1011216967956
 20
-298.3323371943588
 30
0.0
 11
915.1011216967956
 21
-307.3323371943462
 31
0.0
  0
INSERT
  5
1E012
330
1D4A1
100
AcDbEntity
  8
AM_5
 48
1.01
100
AcDbBlockReference
  2
_Dot
 10
915.1011216967956
 20
-297.3323371943589
 30
0.0
 50
90.0
  0
INSERT
  5
1E013
330
1D4A1
100
AcDbEntity
  8
AM_5
 48
1.01
100
AcDbBlockReference
  2
_Dot
 10
915.1011216967956
 20
-308.3323371943462
 30
0.0
 50
270.0
  0
MTEXT
  5
1E014
330
1D4A1
100
AcDbEntity
  8
AM_5
 62
     2
 48
1.01
100
AcDbMText
 10
912.0011216967958
 20
-302.8323371943524
 30
0.0
 40
3.2
 41
0.0
 71
     5
 72
     1
  1
11
 11
0.0000000000000001
 21
1.0
 31
0.0
 73
     1
 44
1.0
1001
ACAD
1000
MTEXTBEGIN
1070
    73
1070
     1
1070
    44
1040
1.0
1070
    74
1070
     0
1000
MTEXTEND
  0
POINT
  5
1E015
330
1D4A1
100
AcDbEntity
  8
Defpoints
 62
     0
 48
1.01
100
AcDbPoint
 10
893.1011206867951
 20
-297.3323371943589
 30
0.0
  0
POINT
  5
1E016
330
1D4A1
100
AcDbEntity
  8
Defpoints
 62
     0
 48
1.01
100
AcDbPoint
 10
893.1011206867946
 20
-308.3323371943461
 30
0.0
  0
POINT
  5
1E017
330
1D4A1
100
AcDbEntity
  8
Defpoints
 62
     0
 48
1.01
100
AcDbPoint
 10
915.1011216967956
 20
-308.3323371943462
 30
0.0
  0
ENDBLK
  5
1D5A4
330
1D4A1
100
AcDbEntity
  8
0
100
AcDbBlockEnd
  0
BLOCK
  5
1D5B1
330
1D56F
100
AcDbEntity
  8
0
100
AcDbBlockBegin
  2
*D10
 70
     1
 10
0.0
 20
0.0
 30
0.0
  3
*D10
  1

  0
LINE
  5
1E018
330
1D56F
100
AcDbEntity
  8
AM_5
 48
1.01
100
AcDbLine
 10
873.1011206867963
 20
-297.8323371943579
 30
0.0
 11
873.1011206867963
 21
-283.3323361843588
 31
0.0
  0
LINE
  5
1E019
330
1D56F
100
AcDbEntity
  8
AM_5
 48
1.01
100
AcDbLine
 10
893.1011206867951
 20
-295.8323371943588
 30
0.0
 11
893.1011206867951
 21
-283.3323361843588
 31
0.0
  0
LINE
  5
1E01A
330
1D56F
100
AcDbEntity
  8
AM_5
 48
1.01
100
AcDbLine
 10
874.1011206867963
 20
-284.3323361843588
 30
0.0
 11
892.1011206867952
 21
-284.3323361843588
 31
0.0
  0
INSERT
  5
1E01B
330
1D56F
100
AcDbEntity
  8
AM_5
 48
1.01
100
AcDbBlockReference
  2
_Dot
 10
873.1011206867963
 20
-284.3323361843588
 30
0.0
 50
180.0
  0
INSERT
  5
1E01C
330
1D56F
100
AcDbEntity
  8
AM_5
 48
1.01
100
AcDbBlockReference
  2
_Dot
 10
893.1011206867951
 20
-284.3323361843588
 30
0.0
  0
MTEXT
  5
1E01D
330
1D56F
100
AcDbEntity
  8
AM_5
 62
     2
 48
1.01
100
AcDbMText
 10
883.1011206867957
 20
-281.2323361843588
 30
0.0
 40
3.2
 41
0.0
 71
     5
 72
     1
  1
20
 73
     1
 44
1.0
1001
ACAD
1000
MTEXTBEGIN
1070
    73
1070
     1
1070
    44
1040
1.0
1070
    74
1070
     0
1000
MTEXTEND
  0
POINT
  5
1E01E
330
1D56F
100
AcDbEntity
  8
Defpoints
 62
     0
 48
1.01
100
AcDbPoint
 10
873.1011206867963
 20
-299.3323371943579
 30
0.0
  0
POINT
  5
1E01F
330
1D56F
100
AcDbEntity
  8
Defpoints
 62
     0
 48
1.01
100
AcDbPoint
 10
893.1011206867951
 20
-297.3323371943589
 30
0.0
  0
POINT
  5
1E020
330
1D56F
100
AcDbEntity
  8
Defpoints
 62
     0
 48
1.01
100
AcDbPoint
 10
893.1011206867951
 20
-284.3323361843588
 30
0.0
  0
ENDBLK
  5
1D5B2
330
1D56F
100
AcDbEntity
  8
0
100
AcDbBlockEnd
  0
BLOCK
  5
1D9B3
330
1D876
100
AcDbEntity
  8
0
100
AcDbBlockBegin
  2
*D11
 70
     1
 10
0.0
 20
0.0
 30
0.0
  3
*D11
  1

  0
LINE
  5
1E021
330
1D876
100
AcDbEntity
  8
AM_5
 48
1.01
100
AcDbLine
 10
1008.458211212931
 20
-332.7324596277955
 30
0.0
 11
1008.458211212931
 21
-344.2324596277956
 31
0.0
  0
LINE
  5
1E022
330
1D876
100
AcDbEntity
  8
AM_5
 48
1.01
100
AcDbLine
 10
1033.45821121293
 20
-332.7324596277955
 30
0.0
 11
1033.45821121293
 21
-344.2324596277956
 31
0.0
  0
LINE
  5
1E023
330
1D876
100
AcDbEntity
  8
AM_5
 48
1.01
100
AcDbLine
 10
1009.458211212931
 20
-343.2324596277955
 30
0.0
 11
1032.45821121293
 21
-343.2324596277955
 31
0.0
  0
INSERT
  5
1E024
330
1D876
100
AcDbEntity
  8
AM_5
 48
1.01
100
AcDbBlockReference
  2
_Dot
 10
1008.458211212931
 20
-343.2324596277955
 30
0.0
 50
180.0
  0
INSERT
  5
1E025
330
1D876
100
AcDbEntity
  8
AM_5
 48
1.01
100
AcDbBlockReference
  2
_Dot
 10
1033.45821121293
 20
-343.2324596277955
 30
0.0
  0
MTEXT
  5
1E026
330
1D876
100
AcDbEntity
  8
AM_5
 62
     2
 48
1.01
100
AcDbMText
 10
1020.95821121293
 20
-340.1324596277955
 30
0.0
 40
3.2
 41
0.0
 71
     5
 72
     1
  1
25
 73
     1
 44
1.0
1001
ACAD
1000
MTEXTBEGIN
1070
    73
1070
     1
1070
    44
1040
1.0
1070
    74
1070
     0
1000
MTEXTEND
  0
POINT
  5
1E027
330
1D876
100
AcDbEntity
  8
Defpoints
 62
     0
 48
1.01
100
AcDbPoint
 10
1008.458211212931
 20
-331.2324596277957
 30
0.0
  0
POINT
  5
1E028
330
1D876
100
AcDbEntity
  8
Defpoints
 62
     0
 48
1.01
100
AcDbPoint
 10
1033.45821121293
 20
-331.2324596277957
 30
0.0
  0
POINT
  5
1E029
330
1D876
100
AcDbEntity
  8
Defpoints
 62
     0
 48
1.01
100
AcDbPoint
 10
1033.45821121293
 20
-343.2324596277955
 30
0.0
  0
ENDBLK
  5
1D9B4
330
1D876
100
AcDbEntity
  8
0
100
AcDbBlockEnd
  0
BLOCK
  5
1D9B5
330
1D880
100
AcDbEntity
  8
0
100
AcDbBlockBegin
  2
*D12
 70
     1
 10
0.0
 20
0.0
 30
0.0
  3
*D12
  1

  0
LINE
  5
1E02A
330
1D880
100
AcDbEntity
  8
AM_5
 48
1.01
100
AcDbLine
 10
998.4582112129301
 20
-330.8323371944095
 30
0.0
 11
998.4582112129301
 21
-354.232459627801
 31
0.0
  0
LINE
  5
1E02B
330
1D880
100
AcDbEntity
  8
AM_5
 48
1.01
100
AcDbLine
 10
1043.45821121293
 20
-330.8323371944086
 30
0.0
 11
1043.45821121293
 21
-354.232459627801
 31
0.0
  0
LINE
  5
1E02C
330
1D880
100
AcDbEntity
  8
AM_5
 48
1.01
100
AcDbLine
 10
999.45821121293
 20
-353.232459627801
 30
0.0
 11
1042.45821121293
 21
-353.232459627801
 31
0.0
  0
INSERT
  5
1E02D
330
1D880
100
AcDbEntity
  8
AM_5
 48
1.01
100
AcDbBlockReference
  2
_Dot
 10
998.4582112129301
 20
-353.232459627801
 30
0.0
 50
180.0
  0
INSERT
  5
1E02E
330
1D880
100
AcDbEntity
  8
AM_5
 48
1.01
100
AcDbBlockReference
  2
_Dot
 10
1043.45821121293
 20
-353.232459627801
 30
0.0
  0
MTEXT
  5
1E02F
330
1D880
100
AcDbEntity
  8
AM_5
 62
     2
 48
1.01
100
AcDbMText
 10
1020.95821121293
 20
-350.132459627801
 30
0.0
 40
3.2
 41
0.0
 71
     5
 72
     1
  1
45
 73
     1
 44
1.0
1001
ACAD
1000
MTEXTBEGIN
1070
    73
1070
     1
1070
    44
1040
1.0
1070
    74
1070
     0
1000
MTEXTEND
  0
POINT
  5
1E030
330
1D880
100
AcDbEntity
  8
Defpoints
 62
     0
 48
1.01
100
AcDbPoint
 10
998.4582112129301
 20
-329.3323371944095
 30
0.0
  0
POINT
  5
1E031
330
1D880
100
AcDbEntity
  8
Defpoints
 62
     0
 48
1.01
100
AcDbPoint
 10
1043.45821121293
 20
-329.3323371944086
 30
0.0
  0
POINT
  5
1E032
330
1D880
100
AcDbEntity
  8
Defpoints
 62
     0
 48
1.01
100
AcDbPoint
 10
1043.45821121293
 20
-353.232459627801
 30
0.0
  0
ENDBLK
  5
1D9B6
330
1D880
100
AcDbEntity
  8
0
100
AcDbBlockEnd
  0
BLOCK
  5
1D9B7
330
1D88A
100
AcDbEntity
  8
0
100
AcDbBlockBegin
  2
*D13
 70
     1
 10
0.0
 20
0.0
 30
0.0
  3
*D13
  1

  0
LINE
  5
1E033
330
1D88A
100
AcDbEntity
  8
AM_5
 48
1.01
100
AcDbLine
 10
957.4233856425168
 20
-299.8323371942676
 30
0.0
 11
957.4233856425168
 21
-270.0887848087274
 31
0.0
  0
LINE
  5
1E034
330
1D88A
100
AcDbEntity
  8
AM_5
 48
1.01
100
AcDbLine
 10
1084.493036782963
 20
-299.8323371943622
 30
0.0
 11
1084.493036782963
 21
-270.0887848087274
 31
0.0
  0
LINE
  5
1E035
330
1D88A
100
AcDbEntity
  8
AM_5
 48
1.01
100
AcDbLine
 10
958.423385642517
 20
-271.0887848087274
 30
0.0
 11
1083.493036782962
 21
-271.0887848087274
 31
0.0
  0
INSERT
  5
1E036
330
1D88A
100
AcDbEntity
  8
AM_5
 48
1.01
100
AcDbBlockReference
  2
_Dot
 10
957.4233856425168
 20
-271.0887848087274
 30
0.0
 50
180.0
  0
INSERT
  5
1E037
330
1D88A
100
AcDbEntity
  8
AM_5
 48
1.01
100
AcDbBlockReference
  2
_Dot
 10
1084.493036782963
 20
-271.0887848087274
 30
0.0
  0
MTEXT
  5
1E038
330
1D88A
100
AcDbEntity
  8
AM_5
 62
     2
 48
1.01
100
AcDbMText
 10
1020.958211212739
 20
-267.9887848087274
 30
0.0
 40
3.2
 41
0.0
 71
     5
 72
     1
  1
127
 73
     1
 44
1.0
1001
ACAD
1000
MTEXTBEGIN
1070
    73
1070
     1
1070
    44
1040
1.0
1070
    74
1070
     0
1000
MTEXTEND
  0
POINT
  5
1E039
330
1D88A
100
AcDbEntity
  8
Defpoints
 62
     0
 48
1.01
100
AcDbPoint
 10
957.4233856425168
 20
-301.3323371942676
 30
0.0
  0
POINT
  5
1E03A
330
1D88A
100
AcDbEntity
  8
Defpoints
 62
     0
 48
1.01
100
AcDbPoint
 10
1084.493036782963
 20
-301.3323371943622
 30
0.0
  0
POINT
  5
1E03B
330
1D88A
100
AcDbEntity
  8
Defpoints
 62
     0
 48
1.01
100
AcDbPoint
 10
1084.493036782963
 20
-271.0887848087274
 30
0.0
  0
ENDBLK
  5
1D9B8
330
1D88A
100
AcDbEntity
  8
0
100
AcDbBlockEnd
  0
BLOCK
  5
1D9B9
330
1D894
100
AcDbEntity
  8
0
100
AcDbBlockBegin
  2
*D14
 70
     1
 10
0.0
 20
0.0
 30
0.0
  3
*D14
  1

  0
LINE
  5
1E03C
330
1D894
100
AcDbEntity
  8
AM_5
 48
1.01
100
AcDbLine
 10
1006.958211212931
 20
-295.8323371942767
 30
0.0
 11
1006.958211212931
 21
-282.532336194268
 31
0.0
  0
LINE
  5
1E03D
330
1D894
100
AcDbEntity
  8
AM_5
 48
1.01
100
AcDbLine
 10
978.077659697216
 20
-306.2857003880797
 30
0.0
 11
978.077659697216
 21
-282.532336194268
 31
0.0
  0
LINE
  5
1E03E
330
1D894
100
AcDbEntity
  8
AM_5
 48
1.01
100
AcDbLine
 10
1005.958211212931
 20
-283.532336194268
 30
0.0
 11
979.0776596972161
 21
-283.532336194268
 31
0.0
  0
INSERT
  5
1E03F
330
1D894
100
AcDbEntity
  8
AM_5
 48
1.01
100
AcDbBlockReference
  2
_Dot
 10
1006.958211212931
 20
-283.532336194268
 30
0.0
  0
INSERT
  5
1E040
330
1D894
100
AcDbEntity
  8
AM_5
 48
1.01
100
AcDbBlockReference
  2
_Dot
 10
978.077659697216
 20
-283.532336194268
 30
0.0
 50
180.0
  0
MTEXT
  5
1E041
330
1D894
100
AcDbEntity
  8
AM_5
 62
     2
 48
1.01
100
AcDbMText
 10
992.5179354550737
 20
-280.432336194268
 30
0.0
 40
3.2
 41
0.0
 71
     5
 72
     1
  1
35.4
 73
     1
 44
1.0
1001
ACAD
1000
MTEXTBEGIN
1070
    73
1070
     1
1070
    44
1040
1.0
1070
    74
1070
     0
1000
MTEXTEND
  0
POINT
  5
1E042
330
1D894
100
AcDbEntity
  8
Defpoints
 62
     0
 48
1.01
100
AcDbPoint
 10
1006.958211212931
 20
-297.3323371942767
 30
0.0
  0
POINT
  5
1E043
330
1D894
100
AcDbEntity
  8
Defpoints
 62
     0
 48
1.01
100
AcDbPoint
 10
978.077659697216
 20
-307.7857003880796
 30
0.0
  0
POINT
  5
1E044
330
1D894
100
AcDbEntity
  8
Defpoints
 62
     0
 48
1.01
100
AcDbPoint
 10
978.077659697216
 20
-283.532336194268
 30
0.0
  0
ENDBLK
  5
1D9BA
330
1D894
100
AcDbEntity
  8
0
100
AcDbBlockEnd
  0
BLOCK
  5
1D9BB
330
1D89E
100
AcDbEntity
  8
0
100
AcDbBlockBegin
  2
*D15
 70
     1
 10
0.0
 20
0.0
 30
0.0
  3
*D15
  1

  0
LINE
  5
1E045
330
1D89E
100
AcDbEntity
  8
AM_5
 48
1.01
100
AcDbLine
 10
1006.958211212931
 20
-295.8323371942767
 30
0.0
 11
1006.958211212931
 21
-282.532336194268
 31
0.0
  0
LINE
  5
1E046
330
1D89E
100
AcDbEntity
  8
AM_5
 48
1.01
100
AcDbLine
 10
1034.958211212849
 20
-295.8323371942531
 30
0.0
 11
1034.958211212849
 21
-282.532336194268
 31
0.0
  0
LINE
  5
1E047
330
1D89E
100
AcDbEntity
  8
AM_5
 48
1.01
100
AcDbLine
 10
1007.958211212931
 20
-283.532336194268
 30
0.0
 11
1033.958211212849
 21
-283.532336194268
 31
0.0
  0
INSERT
  5
1E048
330
1D89E
100
AcDbEntity
  8
AM_5
 48
1.01
100
AcDbBlockReference
  2
_Dot
 10
1006.958211212931
 20
-283.532336194268
 30
0.0
 50
180.0
  0
INSERT
  5
1E049
330
1D89E
100
AcDbEntity
  8
AM_5
 48
1.01
100
AcDbBlockReference
  2
_Dot
 10
1034.958211212849
 20
-283.532336194268
 30
0.0
  0
MTEXT
  5
1E04A
330
1D89E
100
AcDbEntity
  8
AM_5
 62
     2
 48
1.01
100
AcDbMText
 10
1020.95821121289
 20
-280.432336194268
 30
0.0
 40
3.2
 41
0.0
 71
     5
 72
     1
  1
28
 73
     1
 44
1.0
1001
ACAD
1000
MTEXTBEGIN
1070
    73
1070
     1
1070
    44
1040
1.0
1070
    74
1070
     0
1000
MTEXTEND
  0
POINT
  5
1E04B
330
1D89E
100
AcDbEntity
  8
Defpoints
 62
     0
 48
1.01
100
AcDbPoint
 10
1006.958211212931
 20
-297.3323371942767
 30
0.0
  0
POINT
  5
1E04C
330
1D89E
100
AcDbEntity
  8
Defpoints
 62
     0
 48
1.01
100
AcDbPoint
 10
1034.958211212849
 20
-297.3323371942531
 30
0.0
  0
POINT
  5
1E04D
330
1D89E
100
AcDbEntity
  8
Defpoints
 62
     0
 48
1.01
100
AcDbPoint
 10
1034.958211212849
 20
-283.532336194268
 30
0.0
  0
ENDBLK
  5
1D9BC
330
1D89E
100
AcDbEntity
  8
0
100
AcDbBlockEnd
  0
BLOCK
  5
1D9C5
330
1D8D0
100
AcDbEntity
  8
0
100
AcDbBlockBegin
  2
*D16
 70
     1
 10
0.0
 20
0.0
 30
0.0
  3
*D16
  1

  0
LINE
  5
1E04E
330
1D8D0
100
AcDbEntity
  8
AM_5
 48
1.01
100
AcDbLine
 10
1034.958211212849
 20
-295.8323371942532
 30
0.0
 11
1034.958211212849
 21
-282.532336194268
 31
0.0
  0
LINE
  5
1E04F
330
1D8D0
100
AcDbEntity
  8
AM_5
 48
1.01
100
AcDbLine
 10
1063.838762728645
 20
-306.2857003880797
 30
0.0
 11
1063.838762728645
 21
-282.532336194268
 31
0.0
  0
LINE
  5
1E050
330
1D8D0
100
AcDbEntity
  8
AM_5
 48
1.01
100
AcDbLine
 10
1035.958211212849
 20
-283.532336194268
 30
0.0
 11
1062.838762728645
 21
-283.532336194268
 31
0.0
  0
INSERT
  5
1E051
330
1D8D0
100
AcDbEntity
  8
AM_5
 48
1.01
100
AcDbBlockReference
  2
_Dot
 10
1034.958211212849
 20
-283.532336194268
 30
0.0
 50
180.0
  0
INSERT
  5
1E052
330
1D8D0
100
AcDbEntity
  8
AM_5
 48
1.01
100
AcDbBlockReference
  2
_Dot
 10
1063.838762728645
 20
-283.532336194268
 30
0.0
  0
MTEXT
  5
1E053
330
1D8D0
100
AcDbEntity
  8
AM_5
 62
     2
 48
1.01
100
AcDbMText
 10
1049.398486970747
 20
-280.432336194268
 30
0.0
 40
3.2
 41
0.0
 71
     5
 72
     1
  1
35.4
 73
     1
 44
1.0
1001
ACAD
1000
MTEXTBEGIN
1070
    73
1070
     1
1070
    44
1040
1.0
1070
    74
1070
     0
1000
MTEXTEND
  0
POINT
  5
1E054
330
1D8D0
100
AcDbEntity
  8
Defpoints
 62
     0
 48
1.01
100
AcDbPoint
 10
1034.958211212849
 20
-297.3323371942532
 30
0.0
  0
POINT
  5
1E055
330
1D8D0
100
AcDbEntity
  8
Defpoints
 62
     0
 48
1.01
100
AcDbPoint
 10
1063.838762728645
 20
-307.7857003880796
 30
0.0
  0
POINT
  5
1E056
330
1D8D0
100
AcDbEntity
  8
Defpoints
 62
     0
 48
1.01
100
AcDbPoint
 10
1063.838762728645
 20
-283.532336194268
 30
0.0
  0
ENDBLK
  5
1D9C6
330
1D8D0
100
AcDbEntity
  8
0
100
AcDbBlockEnd
  0
BLOCK
  5
1D9CD
330
1D8F8
100
AcDbEntity
  8
0
100
AcDbBlockBegin
  2
*D17
 70
     1
 10
0.0
 20
0.0
 30
0.0
  3
*D17
  1

  0
LINE
  5
1E057
330
1D8F8
100
AcDbEntity
  8
AM_5
 48
1.01
100
AcDbLine
 10
998.9582112129296
 20
-331.3323371944095
 30
0.0
 11
946.6942033469477
 21
-331.3323371944095
 31
0.0
  0
LINE
  5
1E058
330
1D8F8
100
AcDbEntity
  8
AM_5
 48
1.01
100
AcDbLine
 10
999.5580887795441
 20
-323.8323371944095
 30
0.0
 11
946.6942033469477
 21
-323.8323371944095
 31
0.0
  0
LINE
  5
1E059
330
1D8F8
100
AcDbEntity
  8
AM_5
 48
1.01
100
AcDbLine
 10
947.6942033469477
 20
-330.3323371944095
 30
0.0
 11
947.6942033469477
 21
-324.8323371944095
 31
0.0
  0
LINE
  5
1E05A
330
1D8F8
100
AcDbEntity
  8
AM_5
 48
1.01
100
AcDbLine
 10
947.6942033469477
 20
-323.8323371944095
 30
0.0
 11
947.6942033469477
 21
-315.1390038610762
 31
0.0
  0
INSERT
  5
1E05B
330
1D8F8
100
AcDbEntity
  8
AM_5
 48
1.01
100
AcDbBlockReference
  2
_Dot
 10
947.6942033469477
 20
-331.3323371944095
 30
0.0
 50
270.0
  0
INSERT
  5
1E05C
330
1D8F8
100
AcDbEntity
  8
AM_5
 48
1.01
100
AcDbBlockReference
  2
_Dot
 10
947.6942033469477
 20
-323.8323371944095
 30
0.0
 50
90.0
  0
MTEXT
  5
1E05D
330
1D8F8
100
AcDbEntity
  8
AM_5
 62
     2
 48
1.01
100
AcDbMText
 10
944.5942033469476
 20
-318.9856705277426
 30
0.0
 40
3.2
 41
0.0
 71
     5
 72
     1
  1
7.5
 11
0.0000000000000001
 21
1.0
 31
0.0
 73
     1
 44
1.0
1001
ACAD
1000
MTEXTBEGIN
1070
    73
1070
     1
1070
    44
1040
1.0
1070
    74
1070
     0
1000
MTEXTEND
  0
POINT
  5
1E05E
330
1D8F8
100
AcDbEntity
  8
Defpoints
 62
     0
 48
1.01
100
AcDbPoint
 10
1000.45821121293
 20
-331.3323371944095
 30
0.0
  0
POINT
  5
1E05F
330
1D8F8
100
AcDbEntity
  8
Defpoints
 62
     0
 48
1.01
100
AcDbPoint
 10
1001.058088779544
 20
-323.8323371944095
 30
0.0
  0
POINT
  5
1E060
330
1D8F8
100
AcDbEntity
  8
Defpoints
 62
     0
 48
1.01
100
AcDbPoint
 10
947.6942033469477
 20
-323.8323371944095
 30
0.0
  0
ENDBLK
  5
1D9CE
330
1D8F8
100
AcDbEntity
  8
0
100
AcDbBlockEnd
  0
BLOCK
  5
1D9CF
330
1D903
100
AcDbEntity
  8
0
100
AcDbBlockBegin
  2
*D18
 70
     1
 10
0.0
 20
0.0
 30
0.0
  3
*D18
  1

  0
LINE
  5
1E061
330
1D903
100
AcDbEntity
  8
AM_5
 48
1.01
100
AcDbLine
 10
998.9582112129296
 20
-331.3323371944095
 30
0.0
 11
936.6942033469474
 21
-331.3323371944095
 31
0.0
  0
LINE
  5
1E062
330
1D903
100
AcDbEntity
  8
AM_5
 48
1.01
100
AcDbLine
 10
996.9582112129316
 20
-297.3323371942848
 30
0.0
 11
936.6942033469474
 21
-297.3323371942848
 31
0.0
  0
LINE
  5
1E063
330
1D903
100
AcDbEntity
  8
AM_5
 48
1.01
100
AcDbLine
 10
937.6942033469472
 20
-330.3323371944095
 30
0.0
 11
937.6942033469472
 21
-298.3323371942848
 31
0.0
  0
INSERT
  5
1E064
330
1D903
100
AcDbEntity
  8
AM_5
 48
1.01
100
AcDbBlockReference
  2
_Dot
 10
937.6942033469472
 20
-331.3323371944095
 30
0.0
 50
270.0
  0
INSERT
  5
1E065
330
1D903
100
AcDbEntity
  8
AM_5
 48
1.01
100
AcDbBlockReference
  2
_Dot
 10
937.6942033469472
 20
-297.3323371942848
 30
0.0
 50
90.0
  0
MTEXT
  5
1E066
330
1D903
100
AcDbEntity
  8
AM_5
 62
     2
 48
1.01
100
AcDbMText
 10
934.5942033469476
 20
-314.332337194347
 30
0.0
 40
3.2
 41
0.0
 71
     5
 72
     1
  1
34
 11
0.0000000000000001
 21
1.0
 31
0.0
 73
     1
 44
1.0
1001
ACAD
1000
MTEXTBEGIN
1070
    73
1070
     1
1070
    44
1040
1.0
1070
    74
1070
     0
1000
MTEXTEND
  0
POINT
  5
1E067
330
1D903
100
AcDbEntity
  8
Defpoints
 62
     0
 48
1.01
100
AcDbPoint
 10
1000.45821121293
 20
-331.3323371944095
 30
0.0
  0
POINT
  5
1E068
330
1D903
100
AcDbEntity
  8
Defpoints
 62
     0
 48
1.01
100
AcDbPoint
 10
998.4582112129317
 20
-297.3323371942848
 30
0.0
  0
POINT
  5
1E069
330
1D903
100
AcDbEntity
  8
Defpoints
 62
     0
 48
1.01
100
AcDbPoint
 10
937.6942033469472
 20
-297.3323371942848
 30
0.0
  0
ENDBLK
  5
1D9D0
330
1D903
100
AcDbEntity
  8
0
100
AcDbBlockEnd
  0
BLOCK
  5
1DBE6
330
1DBAE
100
AcDbEntity
  8
0
100
AcDbBlockBegin
  2
*D19
 70
     1
 10
0.0
 20
0.0
 30
0.0
  3
*D19
  1

  0
LINE
  5
1E06A
330
1DBAE
100
AcDbEntity
  8
AM_5
100
AcDbLine
 10
997.0076235326621
 20
-209.8627632002141
 30
0.0
 11
946.6942033465635
 21
-209.8627632002141
 31
0.0
  0
LINE
  5
1E06B
330
1DBAE
100
AcDbEntity
  8
AM_5
100
AcDbLine
 10
953.8521832037938
 20
-232.8627632001814
 30
0.0
 11
946.6942033465635
 21
-232.8627632001814
 31
0.0
  0
LINE
  5
1E06C
330
1DBAE
100
AcDbEntity
  8
AM_5
100
AcDbLine
 10
947.6942033465634
 20
-210.8627632002141
 30
0.0
 11
947.6942033465634
 21
-231.8627632001814
 31
0.0
  0
INSERT
  5
1E06D
330
1DBAE
100
AcDbEntity
  8
AM_5
100
AcDbBlockReference
  2
_Dot
 10
947.6942033465634
 20
-209.8627632002141
 30
0.0
 50
90.0
  0
INSERT
  5
1E06E
330
1DBAE
100
AcDbEntity
  8
AM_5
100
AcDbBlockReference
  2
_Dot
 10
947.6942033465634
 20
-232.8627632001814
 30
0.0
 50
270.0
  0
MTEXT
  5
1E06F
330
1DBAE
100
AcDbEntity
  8
AM_5
 62
     2
100
AcDbMText
 10
944.5942033465634
 20
-221.3627632001976
 30
0.0
 40
3.2
 41
0.0
 71
     5
 72
     1
  1
23
 11
0.0000000000000001
 21
1.0
 31
0.0
 73
     1
 44
1.0
1001
ACAD
1000
MTEXTBEGIN
1070
    73
1070
     1
1070
    44
1040
1.0
1070
    74
1070
     0
1000
MTEXTEND
  0
POINT
  5
1E070
330
1DBAE
100
AcDbEntity
  8
Defpoints
 62
     0
100
AcDbPoint
 10
998.5076235326619
 20
-209.8627632002141
 30
0.0
  0
POINT
  5
1E071
330
1DBAE
100
AcDbEntity
  8
Defpoints
 62
     0
100
AcDbPoint
 10
955.3521832037937
 20
-232.8627632001814
 30
0.0
  0
POINT
  5
1E072
330
1DBAE
100
AcDbEntity
  8
Defpoints
 62
     0
100
AcDbPoint
 10
947.6942033465634
 20
-232.8627632001814
 30
0.0
  0
ENDBLK
  5
1DBE7
330
1DBAE
100
AcDbEntity
  8
0
100
AcDbBlockEnd
  0
BLOCK
  5
1DBE8
330
1DBD0
100
AcDbEntity
  8
0
100
AcDbBlockBegin
  2
*D20
 70
     1
 10
0.0
 20
0.0
 30
0.0
  3
*D20
  1

  0
LINE
  5
1E073
330
1DBD0
100
AcDbEntity
  8
AM_5
100
AcDbLine
 10
958.1942033471191
 20
-242.8627632002842
 30
0.0
 11
936.6942033469559
 21
-242.8627632002842
 31
0.0
  0
LINE
  5
1E074
330
1DBD0
100
AcDbEntity
  8
AM_5
100
AcDbLine
 10
997.0076235326621
 20
-209.8627632002141
 30
0.0
 11
936.6942033469559
 21
-209.8627632002141
 31
0.0
  0
LINE
  5
1E075
330
1DBD0
100
AcDbEntity
  8
AM_5
100
AcDbLine
 10
937.6942033469559
 20
-241.8627632002842
 30
0.0
 11
937.6942033469559
 21
-210.8627632002141
 31
0.0
  0
INSERT
  5
1E076
330
1DBD0
100
AcDbEntity
  8
AM_5
100
AcDbBlockReference
  2
_Dot
 10
937.6942033469559
 20
-242.8627632002842
 30
0.0
 50
270.0
  0
INSERT
  5
1E077
330
1DBD0
100
AcDbEntity
  8
AM_5
100
AcDbBlockReference
  2
_Dot
 10
937.6942033469559
 20
-209.8627632002141
 30
0.0
 50
90.0
  0
MTEXT
  5
1E078
330
1DBD0
100
AcDbEntity
  8
AM_5
 62
     2
100
AcDbMText
 10
934.594203346956
 20
-226.362763200249
 30
0.0
 40
3.2
 41
0.0
 71
     5
 72
     1
  1
33
 11
0.0000000000000001
 21
1.0
 31
0.0
 73
     1
 44
1.0
1001
ACAD
1000
MTEXTBEGIN
1070
    73
1070
     1
1070
    44
1040
1.0
1070
    74
1070
     0
1000
MTEXTEND
  0
POINT
  5
1E079
330
1DBD0
100
AcDbEntity
  8
Defpoints
 62
     0
100
AcDbPoint
 10
959.6942033471194
 20
-242.8627632002842
 30
0.0
  0
POINT
  5
1E07A
330
1DBD0
100
AcDbEntity
  8
Defpoints
 62
     0
100
AcDbPoint
 10
998.5076235326619
 20
-209.8627632002141
 30
0.0
  0
POINT
  5
1E07B
330
1DBD0
100
AcDbEntity
  8
Defpoints
 62
     0
100
AcDbPoint
 10
937.6942033469559
 20
-209.8627632002141
 30
0.0
  0
ENDBLK
  5
1DBE9
330
1DBD0
100
AcDbEntity
  8
0
100
AcDbBlockEnd
  0
BLOCK
  5
1DC9F
330
1DC88
100
AcDbEntity
  8
0
100
AcDbBlockBegin
  2
*D21
 70
     1
 10
0.0
 20
0.0
 30
0.0
  3
*D21
  1

  0
LINE
  5
1E07C
330
1DC88
100
AcDbEntity
  8
AM_5
100
AcDbLine
 10
999.0076235326602
 20
-217.8627632002151
 30
0.0
 11
956.6942033465137
 21
-217.862763200215
 31
0.0
  0
LINE
  5
1E07D
330
1DC88
100
AcDbEntity
  8
AM_5
100
AcDbLine
 10
995.5076235326622
 20
-209.8627632002141
 30
0.0
 11
956.6942033465137
 21
-209.8627632002141
 31
0.0
  0
LINE
  5
1E07E
330
1DC88
100
AcDbEntity
  8
AM_5
100
AcDbLine
 10
957.6942033465137
 20
-216.862763200215
 30
0.0
 11
957.6942033465137
 21
-210.8627632002141
 31
0.0
  0
INSERT
  5
1E07F
330
1DC88
100
AcDbEntity
  8
AM_5
100
AcDbBlockReference
  2
_Dot
 10
957.6942033465137
 20
-217.862763200215
 30
0.0
 50
270.0
  0
INSERT
  5
1E080
330
1DC88
100
AcDbEntity
  8
AM_5
100
AcDbBlockReference
  2
_Dot
 10
957.6942033465137
 20
-209.8627632002141
 30
0.0
 50
90.0
  0
MTEXT
  5
1E081
330
1DC88
100
AcDbEntity
  8
AM_5
 62
     2
100
AcDbMText
 10
954.5942033465134
 20
-213.8627632002144
 30
0.0
 40
3.2
 41
0.0
 71
     5
 72
     1
  1
8
 11
0.0000000000000001
 21
1.0
 31
0.0
 73
     1
 44
1.0
1001
ACAD
1000
MTEXTBEGIN
1070
    73
1070
     1
1070
    44
1040
1.0
1070
    74
1070
     0
1000
MTEXTEND
  0
POINT
  5
1E082
330
1DC88
100
AcDbEntity
  8
Defpoints
 62
     0
100
AcDbPoint
 10
1000.507623532659
 20
-217.8627632002151
 30
0.0
  0
POINT
  5
1E083
330
1DC88
100
AcDbEntity
  8
Defpoints
 62
     0
100
AcDbPoint
 10
997.0076235326621
 20
-209.8627632002141
 30
0.0
  0
POINT
  5
1E084
330
1DC88
100
AcDbEntity
  8
Defpoints
 62
     0
100
AcDbPoint
 10
957.6942033465137
 20
-209.8627632002141
 30
0.0
  0
ENDBLK
  5
1DCA0
330
1DC88
100
AcDbEntity
  8
0
100
AcDbBlockEnd
  0
BLOCK
  5
1DD2D
330
1DD08
100
AcDbEntity
  8
0
100
AcDbBlockBegin
  2
*D22
 70
     1
 10
0.0
 20
0.0
 30
0.0
  3
*D22
  1

  0
LINE
  5
1E085
330
1DD08
100
AcDbEntity
  8
AM_5
100
AcDbLine
 10
1062.308642020478
 20
-332.1245870390032
 30
0.0
 11
1049.18197535381
 21
-332.1245870390033
 31
0.0
  0
LINE
  5
1E086
330
1DD08
100
AcDbEntity
  8
AM_5
100
AcDbLine
 10
1049.18197535381
 20
-332.1245870390033
 30
0.0
 11
1037.129024848188
 21
-325.7682161305119
 31
0.0
  0
MTEXT
  5
1E087
330
1DD08
100
AcDbEntity
  8
AM_5
 62
     2
100
AcDbMText
 10
1056.495308687145
 20
-329.0245870390032
 30
0.0
 40
3.200000000000001
 41
0.0
 71
     5
 72
     1
  1
2-\U+22054.3
 73
     1
 44
1.0
1001
ACAD
1000
MTEXTBEGIN
1070
    73
1070
     1
1070
    44
1040
1.0
1070
    74
1070
     0
1000
MTEXTEND
  0
INSERT
  5
1E088
330
1DD08
100
AcDbEntity
  8
AM_5
100
AcDbBlockReference
  2
_OPEN30
 10
1035.359958036016
 20
-324.8352624263695
 30
0.0
 41
2.0
 42
2.0
 43
2.0
 50
152.1941566791662
  0
POINT
  5
1E089
330
1DD08
100
AcDbEntity
  8
Defpoints
 62
     0
100
AcDbPoint
 10
1035.359958036016
 20
-324.8352624263695
 30
0.0
  0
POINT
  5
1E08A
330
1DD08
100
AcDbEntity
  8
Defpoints
 62
     0
100
AcDbPoint
 10
1031.556464389847
 20
-322.8294119624636
 30
0.0
  0
ENDBLK
  5
1DD2E
330
1DD08
100
AcDbEntity
  8
0
100
AcDbBlockEnd
  0
BLOCK
  5
1E14E
330
1E11D
100
AcDbEntity
  8
0
100
AcDbBlockBegin
  2
*D23
 70
     1
 10
0.0
 20
0.0
 30
0.0
  3
*D23
  1

  0
LINE
  5
1E143
330
1E11D
100
AcDbEntity
  8
AM_5
100
AcDbLine
 10
753.5150619735248
 20
-311.694090975402
 30
0.0
 11
772.1457286401918
 21
-311.6940909754021
 31
0.0
  0
LINE
  5
1E144
330
1E11D
100
AcDbEntity
  8
AM_5
100
AcDbLine
 10
772.1457286401918
 20
-311.6940909754021
 30
0.0
 11
780.5891712281987
 21
-320.8864534692016
 31
0.0
  0
MTEXT
  5
1E145
330
1E11D
100
AcDbEntity
  8
AM_5
 62
     2
100
AcDbMText
 10
762.0803953068582
 20
-308.594090975402
 30
0.0
 40
3.200000000000001
 41
0.0
 71
     5
 72
     1
  1
2-M4タップ
 73
     1
 44
1.0
1001
ACAD
1000
MTEXTBEGIN
1070
    73
1070
     1
1070
    44
1040
1.0
1070
    74
1070
     0
1000
MTEXTEND
  0
INSERT
  5
1E146
330
1E11D
100
AcDbEntity
  8
AM_5
100
AcDbBlockReference
  2
_OPEN30
 10
781.9421096116403
 20
-322.3593953318056
 30
0.0
 41
2.0
 42
2.0
 43
2.0
 50
312.5683455575085
  0
POINT
  5
1E147
330
1E11D
100
AcDbEntity
  8
Defpoints
 62
     0
100
AcDbPoint
 10
781.9421096116403
 20
-322.3593953318056
 30
0.0
  0
POINT
  5
1E148
330
1E11D
100
AcDbEntity
  8
Defpoints
 62
     0
100
AcDbPoint
 10
784.647986378523
 20
-325.3052790570133
 30
0.0
  0
ENDBLK
  5
1E14F
330
1E11D
100
AcDbEntity
  8
0
100
AcDbBlockEnd
  0
ENDSEC
  0
SECTION
  2
ENTITIES
  0
AMDTACMWBLOCKBOMENTITY
  5
1B1F0
330
1F
100
AcDbEntity
  8
AM_5
 48
1.01
 92
        8
310
0800000000000000
  0
AMDTACMWBLOCKBOMENTITY
  5
1B1F1
330
1F
100
AcDbEntity
  8
AM_5
 48
1.01
 92
        8
310
0800000000000000
  0
AMDTACMWBLOCKBOMENTITY
  5
1B1F2
330
1F
100
AcDbEntity
  8
AM_5
 48
1.01
 92
        8
310
0800000000000000
  0
AMDTACMWBLOCKBOMENTITY
  5
1B1F3
330
1F
100
AcDbEntity
  8
AM_5
 48
1.01
 92
        8
310
0800000000000000
  0
AMDTACMWBLOCKBOMENTITY
  5
1B1F4
330
1F
100
AcDbEntity
  8
AM_5
 48
1.01
 92
        8
310
0800000000000000
  0
AMDTACMWBLOCKBOMENTITY
  5
1B1F5
330
1F
100
AcDbEntity
  8
AM_5
 48
1.01
 92
        8
310
0800000000000000
  0
AMDTACMWBLOCKBOMENTITY
  5
1B1F6
330
1F
100
AcDbEntity
  8
AM_5
 48
1.01
 92
        8
310
0800000000000000
  0
AMDTACMWBLOCKBOMENTITY
  5
1B1F7
330
1F
100
AcDbEntity
  8
AM_5
 48
1.01
 92
        8
310
0800000000000000
  0
AMDTACMWBLOCKBOMENTITY
  5
1B1F8
330
1F
100
AcDbEntity
  8
AM_5
 48
1.01
 92
        8
310
0800000000000000
  0
AMDTACMWBLOCKBOMENTITY
  5
1B1F9
330
1F
100
AcDbEntity
  8
AM_5
 48
1.01
 92
        8
310
0800000000000000
  0
LINE
  5
1C0AA
330
1F
100
AcDbEntity
  8
0
  6
Continuous
 62
     7
100
AcDbLine
 10
1111.614186521806
 20
-134.5620284009599
 30
0.0
 11
1111.614186521806
 21
-407.5620284009596
 31
0.0
  0
LINE
  5
1C0AB
330
1F
100
AcDbEntity
  8
0
  6
Continuous
 62
     7
100
AcDbLine
 10
730.6141865218059
 20
-407.5620284009596
 30
0.0
 11
1111.614186521806
 21
-407.5620284009596
 31
0.0
  0
LINE
  5
1C0AC
330
1F
100
AcDbEntity
  8
0
  6
Continuous
 62
     7
100
AcDbLine
 10
730.6141865218059
 20
-134.5620284009599
 30
0.0
 11
1111.614186521806
 21
-134.5620284009599
 31
0.0
  0
LINE
  5
1C0AD
330
1F
100
AcDbEntity
  8
0
  6
Continuous
 62
     7
100
AcDbLine
 10
730.6141865218059
 20
-134.5620284009599
 30
0.0
 11
730.6141865218059
 21
-407.5620284009596
 31
0.0
  0
LINE
  5
1C0AE
330
1F
100
AcDbEntity
  8
AM_2
100
AcDbLine
 10
750.6141865218059
 20
-134.5620284009599
 30
0.0
 11
750.6141865218059
 21
-222.5620284009599
 31
0.0
  0
LINE
  5
1C0AF
330
1F
100
AcDbEntity
  8
AM_2
100
AcDbLine
 10
730.6141865218059
 20
-142.5620284009599
 30
0.0
 11
840.6141865218057
 21
-142.5620284009599
 31
0.0
  0
LINE
  5
1C0B0
330
1F
100
AcDbEntity
  8
AM_2
100
AcDbLine
 10
730.6141865218059
 20
-150.5620284009599
 30
0.0
 11
840.6141865218057
 21
-150.5620284009599
 31
0.0
  0
LINE
  5
1C0B1
330
1F
100
AcDbEntity
  8
AM_2
100
AcDbLine
 10
730.6141865218059
 20
-158.5620284009599
 30
0.0
 11
840.6141865218057
 21
-158.5620284009599
 31
0.0
  0
LINE
  5
1C0B2
330
1F
100
AcDbEntity
  8
AM_2
100
AcDbLine
 10
730.6141865218059
 20
-166.5620284009599
 30
0.0
 11
840.6141865218057
 21
-166.5620284009599
 31
0.0
  0
LINE
  5
1C0B3
330
1F
100
AcDbEntity
  8
AM_2
100
AcDbLine
 10
750.6141865218059
 20
-182.5620284009599
 30
0.0
 11
840.6141865218057
 21
-182.5620284009599
 31
0.0
  0
LINE
  5
1C0B4
330
1F
100
AcDbEntity
  8
AM_2
100
AcDbLine
 10
750.6141865218059
 20
-190.5620284009598
 30
0.0
 11
840.6141865218057
 21
-190.5620284009598
 31
0.0
  0
LINE
  5
1C0B5
330
1F
100
AcDbEntity
  8
AM_2
100
AcDbLine
 10
730.6141865218059
 20
-198.5620284009599
 30
0.0
 11
840.6141865218057
 21
-198.5620284009599
 31
0.0
  0
LINE
  5
1C0B6
330
1F
100
AcDbEntity
  8
AM_2
100
AcDbLine
 10
750.6141865218059
 20
-206.5620284009599
 30
0.0
 11
840.6141865218057
 21
-206.5620284009599
 31
0.0
  0
LINE
  5
1C0B7
330
1F
100
AcDbEntity
  8
AM_2
100
AcDbLine
 10
750.6141865218059
 20
-214.5620284009599
 30
0.0
 11
840.6141865218057
 21
-214.5620284009599
 31
0.0
  0
LINE
  5
1C0B8
330
1F
100
AcDbEntity
  8
AM_0
100
AcDbLine
 10
730.6141865218059
 20
-222.5620284009599
 30
0.0
 11
840.6141865218057
 21
-222.5620284009599
 31
0.0
  0
LINE
  5
1C0BB
330
1F
100
AcDbEntity
  8
AM_0
100
AcDbLine
 10
840.6141865218057
 20
-134.5620284009599
 30
0.0
 11
840.6141865218057
 21
-222.5620284009599
 31
0.0
  0
LINE
  5
1C0BC
330
1F
100
AcDbEntity
  8
AM_2
100
AcDbLine
 10
730.6141865218059
 20
-174.5620284009599
 30
0.0
 11
840.6141865218057
 21
-174.5620284009599
 31
0.0
  0
LINE
  5
1C0BD
330
1F
100
AcDbEntity
  8
AM_2
100
AcDbLine
 10
750.6141865218059
 20
-182.5620284009599
 30
0.0
 11
840.6141865218057
 21
-182.5620284009599
 31
0.0
  0
TEXT
  5
1C0FB
330
1F
100
AcDbEntity
  8
0
  6
Continuous
 62
     7
 48
1.01
100
AcDbText
 10
753.4711865218057
 20
-204.1620284009599
 30
0.0
 40
3.2
  1
 
 41
0.8444834799999998
100
AcDbText
  0
TEXT
  5
1C0FC
330
1F
100
AcDbEntity
  8
AM_6
 48
1.01
100
AcDbText
 10
736.2711865218059
 20
-140.1620284009599
 30
0.0
 40
3.2
  1
品　名
 41
0.85537027
100
AcDbText
  0
TEXT
  5
1C0FD
330
1F
100
AcDbEntity
  8
AM_6
 48
1.01
100
AcDbText
 10
736.2711865218059
 20
-148.1620284009599
 30
0.0
 40
3.2
  1
品　番
 41
0.85537027
100
AcDbText
  0
TEXT
  5
1C0FE
330
1F
100
AcDbEntity
  8
AM_6
 48
1.01
100
AcDbText
 10
753.4711865218057
 20
-212.1620284009599
 30
0.0
 40
3.2
  1
＊
 41
0.90047268
100
AcDbText
  0
TEXT
  5
1C0FF
330
1F
100
AcDbEntity
  8
AM_6
 48
1.01
100
AcDbText
 10
753.4711865218057
 20
-220.1620284009599
 30
0.0
 40
3.2
  1
＊
 41
0.90047268
100
AcDbText
  0
TEXT
  5
1C100
330
1F
100
AcDbEntity
  8
AM_6
 48
1.01
100
AcDbText
 10
736.2711865218059
 20
-156.1620284009599
 30
0.0
 40
3.2
  1
材　質
 41
0.85537027
100
AcDbText
  0
TEXT
  5
1C101
330
1F
100
AcDbEntity
  8
AM_6
 48
1.01
100
AcDbText
 10
736.2711865218059
 20
-164.1620284009599
 30
0.0
 40
3.2
  1
仕上げ
 41
0.85537027
100
AcDbText
  0
TEXT
  5
1C102
330
1F
100
AcDbEntity
  8
AM_6
 48
1.01
100
AcDbText
 10
753.4711865218057
 20
-196.1620284009599
 30
0.0
 40
3.2
  1
＊
 41
0.90047268
100
AcDbText
  0
TEXT
  5
1C103
330
1F
100
AcDbEntity
  8
AM_6
 48
1.01
100
AcDbText
 10
753.4711865218057
 20
-188.1620284009598
 30
0.0
 40
3.2
  1
＊
 41
0.90047268
100
AcDbText
  0
TEXT
  5
1C104
330
1F
100
AcDbEntity
  8
AM_6
 48
1.01
100
AcDbText
 10
733.0711865218058
 20
-180.1620284009599
 30
0.0
 40
3.2
  1
セットビス
 41
0.84892707
100
AcDbText
  0
TEXT
  5
1C105
330
1F
100
AcDbEntity
  8
AM_6
 48
1.01
100
AcDbText
 10
753.4711865218057
 20
-180.1620284009599
 30
0.0
 40
3.2
  1
＊
 41
0.90047268
100
AcDbText
  0
TEXT
  5
1C106
330
1F
100
AcDbEntity
  8
AM_6
 48
1.01
100
AcDbText
 10
737.8711865218057
 20
-204.1620284009599
 30
0.0
 40
3.2
  1
備考
 41
0.8643907499999999
100
AcDbText
  0
TEXT
  5
1C107
330
1F
100
AcDbEntity
  8
AM_6
 48
1.01
100
AcDbText
 10
734.6711865218057
 20
-172.1620284009599
 30
0.0
 40
3.2
  1
左右勝手
 41
0.8512700499999999
100
AcDbText
  0
MTEXT
  5
1D0AE
330
1F
100
AcDbEntity
  8
AM_6
 48
1.01
100
AcDbMText
 10
750.6141865218057
 20
-202.5620284009599
 30
0.0
 40
3.2
 41
90.0
 71
     4
 72
     5
  1
　レール取付け用プレートナット付き。
 73
     1
 44
1.0
1001
ACAD
1000
ACAD_MTEXT_DEFINED_HEIGHT_BEGIN
1070
    46
1040
0.0
1000
ACAD_MTEXT_DEFINED_HEIGHT_END
1000
MTEXTBEGIN
1070
    73
1070
     1
1070
    44
1040
1.0
1070
    74
1070
     0
1000
MTEXTEND
  0
MTEXT
  5
1D0AF
330
1F
100
AcDbEntity
  8
AM_6
 48
1.01
100
AcDbMText
 10
750.6141865218057
 20
-162.5620284009597
 30
0.0
 40
3.2
 41
90.0
 71
     4
 72
     5
  1
　有色クロメート
 73
     1
 44
1.0
1001
ACAD
1000
ACAD_MTEXT_DEFINED_HEIGHT_BEGIN
1070
    46
1040
0.0
1000
ACAD_MTEXT_DEFINED_HEIGHT_END
1000
MTEXTBEGIN
1070
    73
1070
     1
1070
    44
1040
1.0
1070
    74
1070
     0
1000
MTEXTEND
  0
MTEXT
  5
1D0B0
330
1F
100
AcDbEntity
  8
AM_6
 48
1.01
100
AcDbMText
 10
750.6141865218057
 20
-154.5620284009598
 30
0.0
 40
3.2
 41
90.0
 71
     4
 72
     5
  1
　スチール
 73
     1
 44
1.0
1001
ACAD
1000
ACAD_MTEXT_DEFINED_HEIGHT_BEGIN
1070
    46
1040
0.0
1000
ACAD_MTEXT_DEFINED_HEIGHT_END
1000
MTEXTBEGIN
1070
    73
1070
     1
1070
    44
1040
1.0
1070
    74
1070
     0
1000
MTEXTEND
  0
MTEXT
  5
1D0B1
330
1F
100
AcDbEntity
  8
AM_6
 48
1.01
100
AcDbMText
 10
750.6141865218057
 20
-146.5620284009599
 30
0.0
 40
3.2
 41
90.0
 71
     4
 72
     5
  1
　AC-04
 73
     1
 44
1.0
1001
ACAD
1000
ACAD_MTEXT_DEFINED_HEIGHT_BEGIN
1070
    46
1040
0.0
1000
ACAD_MTEXT_DEFINED_HEIGHT_END
1000
MTEXTBEGIN
1070
    73
1070
     1
1070
    44
1040
1.0
1070
    74
1070
     0
1000
MTEXTEND
  0
MTEXT
  5
1D0B2
330
1F
100
AcDbEntity
  8
AM_6
 48
1.01
100
AcDbMText
 10
750.6141865218057
 20
-138.5620284009599
 30
0.0
 40
3.2
 41
90.0
 71
     4
 72
     5
  1
　上吊引戸用全開ストッパー
 73
     1
 44
1.0
1001
ACAD
1000
ACAD_MTEXT_DEFINED_HEIGHT_BEGIN
1070
    46
1040
0.0
1000
ACAD_MTEXT_DEFINED_HEIGHT_END
1000
MTEXTBEGIN
1070
    73
1070
     1
1070
    44
1040
1.0
1070
    74
1070
     0
1000
MTEXTEND
  0
LWPOLYLINE
  5
1D0B4
102
{ACAD_REACTORS
330
1D0CA
330
1D0CD
102
}
330
1F
100
AcDbEntity
  8
AM_0
 48
1.01
100
AcDbPolyline
 90
        4
 70
     1
 43
0.0
 10
773.2950479950816
 20
-317.9323371944071
 10
818.2950479943567
 20
-317.9323371944071
 10
818.2950479943567
 20
-329.7323371944063
 10
773.2950479950816
 20
-329.7323371944063
1001
GENIUS_GENREC_14
1002
{
1000
PYDIR
1011
773.2950479950816
1021
-329.7323371944063
1031
0.0
1002
}
1002
{
1000
PXDIR
1011
818.2950479943567
1021
-317.9323371944071
1031
0.0
1002
}
1002
{
1000
PORI
1011
773.2950479950816
1021
-317.9323371944071
1031
0.0
1002
}
1002
{
1000
PINS
1011
773.2950479950816
1021
-317.9323371944071
1031
0.0
1002
}
1002
{
1000
PINS2
1011
818.2950479943567
1021
-329.7323371944063
1031
0.0
1002
}
1002
{
1000
C
1070
     1
1002
}
1001
GENIUS_GENODEF_13
1002
{
1000
HIER
1070
     0
1002
}
1002
{
1000
MANEDIT
1070
     0
1002
}
1002
{
1000
NOSEL
1070
     0
1002
}
1002
{
1000
BEHIND
1070
     0
1002
}
1002
{
1000
OTHER
1070
     0
1002
}
1002
{
1000
REACTOR
1002
}
1001
GENIUS_GENOBJ-N-REC_13
1002
{
1000
OWNER
1000
GEN
1002
}
  0
LINE
  5
1D0B5
330
1F
100
AcDbEntity
  8
AM_7
100
AcDbLine
 10
769.2950479950816
 20
-323.8323371944095
 30
0.0
 11
822.2950479943566
 21
-323.8323371944095
 31
0.0
1001
GENIUS_GENOBJ-N-CEN_13
1002
{
1000
OWNER
1000
GEN
1002
}
1001
GENIUS_GENODEF_13
1002
{
1000
HIER
1070
     0
1002
}
1002
{
1000
MANEDIT
1070
     0
1002
}
1002
{
1000
NOSEL
1070
     0
1002
}
1002
{
1000
BEHIND
1070
     0
1002
}
1002
{
1000
OTHER
1070
     0
1002
}
1002
{
1000
REACTOR
1002
}
1001
GENIUS_GENCEN_19
1002
{
1040
4.0
1002
}
  0
CIRCLE
  5
1D0B6
330
1F
100
AcDbEntity
  8
AM_2
 48
0.4
100
AcDbCircle
 10
783.2950479950816
 20
-323.8323371944095
 30
0.0
 40
2.0
  0
CIRCLE
  5
1D0B7
330
1F
100
AcDbEntity
  8
AM_0
 48
0.4
100
AcDbCircle
 10
783.2950479950816
 20
-323.8323371944095
 30
0.0
 40
1.5
  0
CIRCLE
  5
1D0B8
330
1F
100
AcDbEntity
  8
AM_2
 48
0.4
100
AcDbCircle
 10
808.2950479950017
 20
-323.8323371944095
 30
0.0
 40
2.0
  0
CIRCLE
  5
1D0B9
330
1F
100
AcDbEntity
  8
AM_0
 48
0.4
100
AcDbCircle
 10
808.2950479950017
 20
-323.8323371944095
 30
0.0
 40
1.5
  0
LINE
  5
1D0BA
330
1F
100
AcDbEntity
  8
AM_7
 48
0.989999999999965
100
AcDbLine
 10
795.7950479947192
 20
-313.9323371944071
 30
0.0
 11
795.7950479947192
 21
-333.7323371944064
 31
0.0
1001
GENIUS_GENOBJ-N-CEN_13
1002
{
1000
OWNER
1000
GEN
1002
}
1001
GENIUS_GENODEF_13
1002
{
1000
HIER
1070
     0
1002
}
1002
{
1000
MANEDIT
1070
     0
1002
}
1002
{
1000
NOSEL
1070
     0
1002
}
1002
{
1000
BEHIND
1070
     0
1002
}
1002
{
1000
OTHER
1070
     0
1002
}
1002
{
1000
REACTOR
1002
}
1001
GENIUS_GENCEN_19
1002
{
1040
4.0
1002
}
  0
LINE
  5
1D0BB
102
{ACAD_REACTORS
330
1D0C7
102
}
330
1F
100
AcDbEntity
  8
AM_7
 48
0.5999999999999944
100
AcDbLine
 10
783.2950479950816
 20
-329.8323371944094
 30
0.0
 11
783.2950479950816
 21
-317.8323371944095
 31
0.0
1001
GENIUS_GENOBJ-N-CEN_13
1002
{
1000
OWNER
1000
GEN
1002
}
1001
GENIUS_GENODEF_13
1002
{
1000
HIER
1070
     0
1002
}
1002
{
1000
MANEDIT
1070
     0
1002
}
1002
{
1000
NOSEL
1070
     0
1002
}
1002
{
1000
BEHIND
1070
     0
1002
}
1002
{
1000
OTHER
1070
     0
1002
}
1002
{
1000
REACTOR
1002
}
1001
GENIUS_GENCEN_19
1002
{
1040
4.0
1002
}
  0
LINE
  5
1D0BC
102
{ACAD_REACTORS
330
1D0C7
102
}
330
1F
100
AcDbEntity
  8
AM_7
 48
0.5999999999999944
100
AcDbLine
 10
808.2950479950017
 20
-329.8323371944094
 30
0.0
 11
808.2950479950017
 21
-317.8323371944095
 31
0.0
1001
GENIUS_GENODEF_13
1002
{
1000
HIER
1070
     0
1002
}
1002
{
1000
MANEDIT
1070
     0
1002
}
1002
{
1000
NOSEL
1070
     0
1002
}
1002
{
1000
BEHIND
1070
     0
1002
}
1002
{
1000
OTHER
1070
     0
1002
}
1002
{
1000
REACTOR
1002
}
1001
GENIUS_GENOBJ-N-CEN_13
1002
{
1000
OWNER
1000
GEN
1002
}
1001
GENIUS_GENCEN_19
1002
{
1040
4.0
1002
}
  0
LINE
  5
1D0BD
330
1F
100
AcDbEntity
  8
AM_0
 48
0.15
100
AcDbLine
 10
773.2950479950816
 20
-299.4507815860012
 30
0.0
 11
773.2950479950816
 21
-297.4507815860011
 31
0.0
  0
LINE
  5
1D0BE
102
{ACAD_REACTORS
330
1D0D0
102
}
330
1F
100
AcDbEntity
  8
AM_0
100
AcDbLine
 10
773.2950479950816
 20
-297.4507815860011
 30
0.0
 11
818.2950479943567
 21
-297.4507815860011
 31
0.0
  0
LINE
  5
1D0BF
330
1F
100
AcDbEntity
  8
AM_0
 48
0.15
100
AcDbLine
 10
818.2950479943567
 20
-297.4507815860011
 30
0.0
 11
818.2950479943567
 21
-299.4507815860012
 31
0.0
  0
LINE
  5
1D0C0
102
{ACAD_REACTORS
330
1D0D0
102
}
330
1F
100
AcDbEntity
  8
AM_0
100
AcDbLine
 10
818.2950479943567
 20
-299.4507815860012
 30
0.0
 11
773.2950479950816
 21
-299.4507815860012
 31
0.0
  0
LINE
  5
1D0C1
330
1F
100
AcDbEntity
  8
AM_7
 48
0.4999999999999986
100
AcDbLine
 10
795.7950479947192
 20
-303.4507815860012
 30
0.0
 11
795.7950479947192
 21
-293.4507815860012
 31
0.0
1001
GENIUS_GENOBJ-N-CEN_13
1002
{
1000
OWNER
1000
GEN
1002
}
1001
GENIUS_GENODEF_13
1002
{
1000
HIER
1070
     0
1002
}
1002
{
1000
MANEDIT
1070
     0
1002
}
1002
{
1000
NOSEL
1070
     0
1002
}
1002
{
1000
BEHIND
1070
     0
1002
}
1002
{
1000
OTHER
1070
     0
1002
}
1002
{
1000
REACTOR
1002
}
1001
GENIUS_GENCEN_19
1002
{
1040
4.0
1002
}
  0
DIMENSION
  5
1D0C5
102
{ACAD_XDICTIONARY
360
1D0C6
102
}
102
{ACAD_REACTORS
330
1D0C7
102
}
330
1F
100
AcDbEntity
  8
AM_5
 48
1.01
100
AcDbDimension
  2
*D4
 10
808.2950479950017
 20
-341.8323371944094
 30
0.0
 11
795.7950479950416
 21
-338.7323371944094
 31
0.0
 70
    32
 71
     5
 42
24.99999999991997
  3
SYS$0
100
AcDbAlignedDimension
 13
783.2950479950816
 23
-329.8323371944094
 33
0.0
 14
808.2950479950017
 24
-329.8323371944094
 34
0.0
100
AcDbRotatedDimension
  0
DIMENSION
  5
1D0C8
102
{ACAD_XDICTIONARY
360
1D0C9
102
}
102
{ACAD_REACTORS
330
1D0CA
102
}
330
1F
100
AcDbEntity
  8
AM_5
 48
1.01
100
AcDbDimension
  2
*D5
 10
818.2950479943567
 20
-351.8323371944096
 30
0.0
 11
795.7950479947192
 21
-348.7323371944096
 31
0.0
 70
    32
 71
     5
 42
44.99999999927513
  3
SYS$0
100
AcDbAlignedDimension
 13
773.2950479950816
 23
-329.7323371944063
 33
0.0
 14
818.2950479943567
 24
-329.7323371944063
 34
0.0
100
AcDbRotatedDimension
  0
DIMENSION
  5
1D0CB
102
{ACAD_XDICTIONARY
360
1D0CC
102
}
102
{ACAD_REACTORS
330
1D0CD
102
}
330
1F
100
AcDbEntity
  8
AM_5
 48
1.01
100
AcDbDimension
  2
*D6
 10
761.2950479950816
 20
-317.9323371944071
 30
0.0
 11
758.1950479950818
 21
-323.8323371944066
 31
0.0
 70
    32
 71
     5
 42
11.79999999999933
  3
SYS$0
100
AcDbAlignedDimension
 13
773.2950479950816
 23
-329.7323371944063
 33
0.0
 14
773.2950479950816
 24
-317.9323371944071
 34
0.0
 50
90.0
100
AcDbRotatedDimension
  0
DIMENSION
  5
1D0CE
102
{ACAD_XDICTIONARY
360
1D0CF
102
}
102
{ACAD_REACTORS
330
1D0D0
102
}
330
1F
100
AcDbEntity
  8
AM_5
 48
1.01
100
AcDbDimension
  2
*D7
 10
830.2950489943569
 20
-297.4507815860011
 30
0.0
 11
827.195048994357
 21
-293.2041149193344
 31
0.0
 70
    32
 71
     5
 42
2.0
  3
SYS$0
100
AcDbAlignedDimension
 13
818.2950479943567
 23
-299.4507815860012
 33
0.0
 14
818.2950479943567
 24
-297.4507815860011
 34
0.0
 50
90.0
100
AcDbRotatedDimension
  0
MTEXT
  5
1D0D1
330
1F
100
AcDbEntity
  8
AM_6
 48
1.01
100
AcDbMText
 10
787.4877654022636
 20
-356.7036163250277
 30
0.0
 40
3.2
 41
44.40685725661614
 71
     1
 72
     5
  1
{\Lプレートナット}
 73
     1
 44
1.0
1001
ACAD
1000
MTEXTBEGIN
1070
    73
1070
     1
1070
    44
1040
1.0
1070
    74
1070
     0
1000
MTEXTEND
  0
LINE
  5
1D32D
330
1F
100
AcDbEntity
  8
AM_0
 48
0.4499999999994089
100
AcDbLine
 10
893.1011206867951
 20
-308.3323371943461
 30
0.0
 11
893.1011206867951
 21
-299.3323371943579
 31
0.0
  0
LINE
  5
1D32E
102
{ACAD_REACTORS
330
1D423
102
}
330
1F
100
AcDbEntity
  8
AM_0
 48
0.4499999999994089
100
AcDbLine
 10
873.1011206867943
 20
-308.3323371943461
 30
0.0
 11
873.1011206867963
 21
-299.3323371943579
 31
0.0
  0
LINE
  5
1D32F
330
1F
100
AcDbEntity
  8
AM_0
100
AcDbLine
 10
862.1011206867953
 20
-299.3323371943588
 30
0.0
 11
862.1011206867953
 21
-331.3323371943497
 31
0.0
  0
LINE
  5
1D330
330
1F
100
AcDbEntity
  8
AM_0
100
AcDbLine
 10
860.1011206867944
 20
-299.3323371943588
 30
0.0
 11
860.1011206867951
 21
-331.3323371943497
 31
0.0
  0
LINE
  5
1D331
330
1F
100
AcDbEntity
  8
AM_0
100
AcDbLine
 10
893.1011206867962
 20
-308.3323371943461
 30
0.0
 11
873.1011206867963
 21
-308.3323371943461
 31
0.0
  0
LINE
  5
1D332
330
1F
100
AcDbEntity
  8
AM_0
 48
0.15
100
AcDbLine
 10
862.1011206867953
 20
-331.3323371943497
 30
0.0
 11
860.1011206867951
 21
-331.3323371943497
 31
0.0
  0
LINE
  5
1D333
330
1F
100
AcDbEntity
  8
AM_0
100
AcDbLine
 10
893.1011206867951
 20
-299.3323371943588
 30
0.0
 11
862.1011206867953
 21
-299.3323371943588
 31
0.0
  0
LINE
  5
1D334
330
1F
100
AcDbEntity
  8
AM_0
 48
0.8
100
AcDbLine
 10
891.1011206867952
 20
-301.3323371944689
 30
0.0
 11
875.1011206867952
 21
-301.3323371944716
 31
0.0
  0
LINE
  5
1D335
330
1F
100
AcDbEntity
  8
AM_0
 48
0.7999999999999547
100
AcDbLine
 10
891.1011206867952
 20
-300.3926445736833
 30
0.0
 11
875.1011206867962
 21
-300.3926445736825
 31
0.0
  0
LINE
  5
1D336
102
{ACAD_REACTORS
330
1D423
102
}
330
1F
100
AcDbEntity
  8
AM_0
100
AcDbLine
 10
893.1011206867951
 20
-297.3323371943589
 30
0.0
 11
862.1011206867946
 21
-297.3323371943589
 31
0.0
  0
ARC
  5
1D337
330
1F
100
AcDbEntity
  8
AM_0
 48
0.3
100
AcDbCircle
 10
862.1011206867946
 20
-299.3323371943588
 30
0.0
 40
2.0
100
AcDbArc
 50
90.0
 51
180.0
1001
GENIUS_GENOBJ-N-FIL_13
1002
{
1000
OWNER
1000
GEN
1002
}
1001
GENIUS_GENODEF_13
1002
{
1000
HIER
1070
     0
1002
}
1002
{
1000
MANEDIT
1070
     0
1002
}
1002
{
1000
NOSEL
1070
     0
1002
}
1002
{
1000
BEHIND
1070
     0
1002
}
1002
{
1000
OTHER
1070
     0
1002
}
1002
{
1000
REACTOR
1002
}
  0
LINE
  5
1D338
330
1F
100
AcDbEntity
  8
AM_0
 48
0.15
100
AcDbLine
 10
893.1011206867951
 20
-297.3323371943589
 30
0.0
 11
893.1011206867951
 21
-299.3323371943588
 31
0.0
  0
LINE
  5
1D3E5
330
1F
100
AcDbEntity
  8
AM_7
100
AcDbLine
 10
872.6611893845003
 20
-323.8323371944031
 30
0.0
 11
851.5410519890904
 21
-323.8323371944095
 31
0.0
1001
GENIUS_GENOBJ-N-CEN_13
1002
{
1000
OWNER
1000
GEN
1002
}
1001
GENIUS_GENODEF_13
1002
{
1000
HIER
1070
     0
1002
}
1002
{
1000
MANEDIT
1070
     0
1002
}
1002
{
1000
NOSEL
1070
     0
1002
}
1002
{
1000
BEHIND
1070
     0
1002
}
1002
{
1000
OTHER
1070
     0
1002
}
1002
{
1000
REACTOR
1002
}
  0
ARC
  5
1D3E6
330
1F
100
AcDbEntity
  8
AM_0
 48
0.3
100
AcDbCircle
 10
891.1011206867952
 20
-303.3323371944689
 30
0.0
 40
2.0
100
AcDbArc
 50
0.0
 51
90.0
1001
GENIUS_GENOBJ-N-FIL_13
1002
{
1000
OWNER
1000
GEN
1002
}
1001
GENIUS_GENODEF_13
1002
{
1000
HIER
1070
     0
1002
}
1002
{
1000
MANEDIT
1070
     0
1002
}
1002
{
1000
NOSEL
1070
     0
1002
}
1002
{
1000
BEHIND
1070
     0
1002
}
1002
{
1000
OTHER
1070
     0
1002
}
1002
{
1000
REACTOR
1002
}
  0
ARC
  5
1D3E7
330
1F
100
AcDbEntity
  8
AM_0
 48
0.3
100
AcDbCircle
 10
875.1011206867952
 20
-303.3323371944716
 30
0.0
 40
2.0
100
AcDbArc
 50
90.0
 51
180.0
1001
GENIUS_GENODEF_13
1002
{
1000
HIER
1070
     0
1002
}
1002
{
1000
MANEDIT
1070
     0
1002
}
1002
{
1000
NOSEL
1070
     0
1002
}
1002
{
1000
BEHIND
1070
     0
1002
}
1002
{
1000
OTHER
1070
     0
1002
}
1002
{
1000
REACTOR
1002
}
1001
GENIUS_GENOBJ-N-FIL_13
1002
{
1000
OWNER
1000
GEN
1002
}
  0
ARC
  5
1D3E8
330
1F
100
AcDbEntity
  8
AM_0
 48
0.3
100
AcDbCircle
 10
875.1011206867962
 20
-302.3926445736825
 30
0.0
 40
2.0
100
AcDbArc
 50
90.0
 51
180.0
1001
GENIUS_GENOBJ-N-FIL_13
1002
{
1000
OWNER
1000
GEN
1002
}
1001
GENIUS_GENODEF_13
1002
{
1000
HIER
1070
     0
1002
}
1002
{
1000
MANEDIT
1070
     0
1002
}
1002
{
1000
NOSEL
1070
     0
1002
}
1002
{
1000
BEHIND
1070
     0
1002
}
1002
{
1000
OTHER
1070
     0
1002
}
1002
{
1000
REACTOR
1002
}
  0
ARC
  5
1D3E9
330
1F
100
AcDbEntity
  8
AM_0
 48
0.3
100
AcDbCircle
 10
891.1011206867952
 20
-302.3926445736834
 30
0.0
 40
2.0
100
AcDbArc
 50
0.0
 51
90.0
1001
GENIUS_GENODEF_13
1002
{
1000
HIER
1070
     0
1002
}
1002
{
1000
MANEDIT
1070
     0
1002
}
1002
{
1000
NOSEL
1070
     0
1002
}
1002
{
1000
BEHIND
1070
     0
1002
}
1002
{
1000
OTHER
1070
     0
1002
}
1002
{
1000
REACTOR
1002
}
1001
GENIUS_GENOBJ-N-FIL_13
1002
{
1000
OWNER
1000
GEN
1002
}
  0
DIMENSION
  5
1D3F4
330
1F
100
AcDbEntity
  8
AM_5
 48
1.01
100
AcDbDimension
  2
*D8
 10
905.1011216967957
 20
-308.3323371943462
 30
0.0
 11
902.0011216967956
 21
-303.8323371943519
 31
0.0
 70
    32
 71
     5
 42
8.999999999988174
  3
SYS$0
100
AcDbAlignedDimension
 13
893.1011206867951
 23
-299.3323371943579
 33
0.0
 14
893.1011206867962
 24
-308.3323371943461
 34
0.0
 50
90.0
100
AcDbRotatedDimension
1001
ACAD
1000
DSTYLE
1002
{
1070
    47
1040
0.2
1070
    48
1040
0.2
1070
   173
1070
     1
1002
}
  0
DIMENSION
  5
1D3F5
330
1F
100
AcDbEntity
  8
AM_5
 48
1.01
100
AcDbDimension
  2
*D9
 10
915.1011216967956
 20
-308.3323371943462
 30
0.0
 11
912.0011216967958
 21
-302.8323371943524
 31
0.0
 70
    32
 71
     5
 42
10.99999999998725
  3
SYS$0
100
AcDbAlignedDimension
 13
893.1011206867951
 23
-297.3323371943589
 33
0.0
 14
893.1011206867946
 24
-308.3323371943461
 34
0.0
 50
90.0
100
AcDbRotatedDimension
1001
ACAD
1000
DSTYLE
1002
{
1070
    47
1040
0.2
1070
    48
1040
0.2
1070
   173
1070
     1
1002
}
  0
LINE
  5
1D405
330
1F
100
AcDbEntity
  8
0
  6
Continuous
 62
     7
 48
0.1749999999998181
100
AcDbLine
 10
876.3017083671405
 20
-296.3323371943588
 30
0.0
 11
879.8017083671366
 21
-296.3323371943607
 31
0.0
  0
ARC
  5
1D406
330
1F
100
AcDbEntity
  8
AM_0
 48
0.3
100
AcDbCircle
 10
879.8017083671361
 20
-297.3323371943616
 30
0.0
 40
1.0
100
AcDbArc
 50
0.0000000000521102
 51
89.99999999973944
1001
GENIUS_GENOBJ-N-FIL_13
1002
{
1000
OWNER
1000
GEN
1002
}
1001
GENIUS_GENODEF_13
1002
{
1000
HIER
1070
     0
1002
}
1002
{
1000
MANEDIT
1070
     0
1002
}
1002
{
1000
NOSEL
1070
     0
1002
}
1002
{
1000
BEHIND
1070
     0
1002
}
1002
{
1000
OTHER
1070
     0
1002
}
1002
{
1000
REACTOR
1002
}
  0
ARC
  5
1D407
330
1F
100
AcDbEntity
  8
AM_0
 48
0.3
100
AcDbCircle
 10
876.3017083671396
 20
-297.3323371943589
 30
0.0
 40
1.0
100
AcDbArc
 50
89.99999999994789
 51
179.9999999999479
1001
GENIUS_GENODEF_13
1002
{
1000
HIER
1070
     0
1002
}
1002
{
1000
MANEDIT
1070
     0
1002
}
1002
{
1000
NOSEL
1070
     0
1002
}
1002
{
1000
BEHIND
1070
     0
1002
}
1002
{
1000
OTHER
1070
     0
1002
}
1002
{
1000
REACTOR
1002
}
1001
GENIUS_GENOBJ-N-FIL_13
1002
{
1000
OWNER
1000
GEN
1002
}
  0
LINE
  5
1D420
330
1F
100
AcDbEntity
  8
AM_7
 48
0.9499999999993631
100
AcDbLine
 10
883.1011206867962
 20
-312.3323371943461
 30
0.0
 11
883.1011206867962
 21
-293.3323371943588
 31
0.0
1001
GENIUS_GENODEF_13
1002
{
1000
HIER
1070
     0
1002
}
1002
{
1000
MANEDIT
1070
     0
1002
}
1002
{
1000
NOSEL
1070
     0
1002
}
1002
{
1000
BEHIND
1070
     0
1002
}
1002
{
1000
OTHER
1070
     0
1002
}
1002
{
1000
REACTOR
1002
}
1001
GENIUS_GENOBJ-N-CEN_13
1002
{
1000
OWNER
1000
GEN
1002
}
1001
GENIUS_GENCEN_19
1002
{
1040
4.0
1002
}
  0
DIMENSION
  5
1D421
102
{ACAD_XDICTIONARY
360
1D422
102
}
102
{ACAD_REACTORS
330
1D423
102
}
330
1F
100
AcDbEntity
  8
AM_5
 48
1.01
100
AcDbDimension
  2
*D10
 10
893.1011206867951
 20
-284.3323361843588
 30
0.0
 11
883.1011206867957
 21
-281.2323361843588
 31
0.0
 70
    32
 71
     5
 42
19.99999999999909
  3
SYS$0
100
AcDbAlignedDimension
 13
873.1011206867963
 23
-299.3323371943579
 33
0.0
 14
893.1011206867951
 24
-297.3323371943589
 34
0.0
100
AcDbRotatedDimension
  0
LINE
  5
1D793
330
1F
100
AcDbEntity
  8
0
  6
Continuous
 62
     7
100
AcDbLine
 10
1041.45821121293
 20
-331.3323371944086
 30
0.0
 11
1000.45821121293
 21
-331.3323371944095
 31
0.0
  0
ARC
  5
1D794
330
1F
100
AcDbEntity
  8
0
  6
Continuous
 62
     7
 48
0.3
100
AcDbCircle
 10
1041.45821121293
 20
-329.3323371944086
 30
0.0
 40
2.0
100
AcDbArc
 50
270.0
 51
0.0
1001
GENIUS_GENODEF_13
1002
{
1000
HIER
1070
     0
1002
}
1002
{
1000
MANEDIT
1070
     0
1002
}
1002
{
1000
NOSEL
1070
     0
1002
}
1002
{
1000
BEHIND
1070
     0
1002
}
1002
{
1000
OTHER
1070
     0
1002
}
1002
{
1000
REACTOR
1002
}
1001
GENIUS_GENOBJ-N-FIL_13
1002
{
1000
OWNER
1000
GEN
1002
}
  0
LINE
  5
1D795
330
1F
100
AcDbEntity
  8
AM_0
100
AcDbLine
 10
1043.45821121293
 20
-300.3323371943185
 30
0.0
 11
998.4582112129317
 21
-300.3323371942658
 31
0.0
  0
LINE
  5
1D796
330
1F
100
AcDbEntity
  8
0
  6
Continuous
 62
     7
 48
0.15
100
AcDbLine
 10
998.4582112129317
 20
-297.3323371942848
 30
0.0
 11
998.4582112129317
 21
-299.3323371942848
 31
0.0
  0
LINE
  5
1D797
330
1F
100
AcDbEntity
  8
AM_3
 48
0.15
100
AcDbLine
 10
998.4582112129317
 20
-299.3323371942848
 30
0.0
 11
998.4582112129317
 21
-300.3323371942758
 31
0.0
  0
LINE
  5
1D798
330
1F
100
AcDbEntity
  8
0
  6
Continuous
 62
     7
100
AcDbLine
 10
998.4582112129317
 20
-300.3323371942758
 30
0.0
 11
998.4582112129301
 21
-329.3323371944095
 31
0.0
  0
LINE
  5
1D799
330
1F
100
AcDbEntity
  8
0
  6
Continuous
 62
     7
 48
0.15
100
AcDbLine
 10
1043.458211212932
 20
-297.3323371942458
 30
0.0
 11
1043.458211212932
 21
-299.3323371942476
 31
0.0
  0
LINE
  5
1D79A
330
1F
100
AcDbEntity
  8
AM_3
 48
0.15
100
AcDbLine
 10
1043.458211212932
 20
-299.3323371942476
 30
0.0
 11
1043.458211212932
 21
-300.3323371943066
 31
0.0
  0
LINE
  5
1D79B
330
1F
100
AcDbEntity
  8
0
  6
Continuous
 62
     7
100
AcDbLine
 10
1043.458211212932
 20
-300.3323371943066
 30
0.0
 11
1043.45821121293
 21
-329.3323371944086
 31
0.0
  0
LINE
  5
1D79D
330
1F
100
AcDbEntity
  8
AM_7
 48
0.740012243338606
100
AcDbLine
 10
1008.458211212931
 20
-331.2324596277957
 30
0.0
 11
1008.458211212931
 21
-316.4322147610235
 31
0.0
1001
GENIUS_GENOBJ-N-CEN_13
1002
{
1000
OWNER
1000
GEN
1002
}
1001
GENIUS_GENODEF_13
1002
{
1000
HIER
1070
     0
1002
}
1002
{
1000
MANEDIT
1070
     0
1002
}
1002
{
1000
NOSEL
1070
     0
1002
}
1002
{
1000
BEHIND
1070
     0
1002
}
1002
{
1000
OTHER
1070
     0
1002
}
1002
{
1000
REACTOR
1002
}
  0
ARC
  5
1D79E
330
1F
100
AcDbEntity
  8
0
  6
Continuous
 62
     7
 48
0.3
100
AcDbCircle
 10
1000.45821121293
 20
-329.3323371944095
 30
0.0
 40
2.0
100
AcDbArc
 50
180.0
 51
270.0
  0
LINE
  5
1D7A1
330
1F
100
AcDbEntity
  8
AM_7
 48
0.740012243338606
100
AcDbLine
 10
1001.058088779544
 20
-323.8323371944095
 30
0.0
 11
1015.858333646316
 21
-323.8323371944095
 31
0.0
1001
GENIUS_GENOBJ-N-CEN_13
1002
{
1000
OWNER
1000
GEN
1002
}
1001
GENIUS_GENODEF_13
1002
{
1000
HIER
1070
     0
1002
}
1002
{
1000
MANEDIT
1070
     0
1002
}
1002
{
1000
NOSEL
1070
     0
1002
}
1002
{
1000
BEHIND
1070
     0
1002
}
1002
{
1000
OTHER
1070
     0
1002
}
1002
{
1000
REACTOR
1002
}
  0
LINE
  5
1D7B1
330
1F
100
AcDbEntity
  8
AM_7
 48
0.740012243338606
100
AcDbLine
 10
1033.45821121293
 20
-331.2324596277957
 30
0.0
 11
1033.45821121293
 21
-316.4322147610235
 31
0.0
1001
GENIUS_GENOBJ-N-CEN_13
1002
{
1000
OWNER
1000
GEN
1002
}
1001
GENIUS_GENODEF_13
1002
{
1000
HIER
1070
     0
1002
}
1002
{
1000
MANEDIT
1070
     0
1002
}
1002
{
1000
NOSEL
1070
     0
1002
}
1002
{
1000
BEHIND
1070
     0
1002
}
1002
{
1000
OTHER
1070
     0
1002
}
1002
{
1000
REACTOR
1002
}
  0
LINE
  5
1D7B2
330
1F
100
AcDbEntity
  8
AM_7
 48
0.740012243338606
100
AcDbLine
 10
1026.058088779542
 20
-323.8323371944095
 30
0.0
 11
1040.858333646314
 21
-323.8323371944095
 31
0.0
1001
GENIUS_GENOBJ-N-CEN_13
1002
{
1000
OWNER
1000
GEN
1002
}
1001
GENIUS_GENODEF_13
1002
{
1000
HIER
1070
     0
1002
}
1002
{
1000
MANEDIT
1070
     0
1002
}
1002
{
1000
NOSEL
1070
     0
1002
}
1002
{
1000
BEHIND
1070
     0
1002
}
1002
{
1000
OTHER
1070
     0
1002
}
1002
{
1000
REACTOR
1002
}
  0
LINE
  5
1D7C3
330
1F
100
AcDbEntity
  8
0
  6
Continuous
 62
     7
100
AcDbLine
 10
1043.458211212932
 20
-297.3323371942458
 30
0.0
 11
998.4582112129317
 21
-297.3323371942848
 31
0.0
  0
LINE
  5
1D7C4
330
1F
100
AcDbEntity
  8
0
  6
Continuous
 62
     7
 48
0.1749999999998181
100
AcDbLine
 10
1015.257623532586
 20
-296.3323371942713
 30
0.0
 11
1011.757623532589
 21
-296.3323371942731
 31
0.0
  0
LINE
  5
1D7C5
330
1F
100
AcDbEntity
  8
0
  6
Continuous
 62
     7
100
AcDbLine
 10
1057.226160405172
 20
-299.3323371942358
 30
0.0
 11
984.690262020287
 21
-299.3323371942967
 31
0.0
  0
LINE
  5
1D7C6
330
1F
100
AcDbEntity
  8
0
  6
Continuous
 62
     7
100
AcDbLine
 10
1057.226160405177
 20
-300.3323371943158
 30
0.0
 11
984.6902620202897
 21
-300.3323371942676
 31
0.0
  0
LINE
  5
1D7C7
330
1F
100
AcDbEntity
  8
0
  6
Continuous
 62
     7
 48
0.3349999999999454
100
AcDbLine
 10
1016.80821121293
 20
-301.6323371942887
 30
0.0
 11
1010.108211212931
 21
-301.6323371942832
 31
0.0
  0
LINE
  5
1D7C8
330
1F
100
AcDbEntity
  8
AM_7
 48
0.740012243338606
100
AcDbLine
 10
1028.458211212931
 20
-306.3325820610423
 30
0.0
 11
1028.458211212931
 21
-291.5323371942701
 31
0.0
1001
GENIUS_GENOBJ-N-CEN_13
1002
{
1000
OWNER
1000
GEN
1002
}
1001
GENIUS_GENODEF_13
1002
{
1000
HIER
1070
     0
1002
}
1002
{
1000
MANEDIT
1070
     0
1002
}
1002
{
1000
NOSEL
1070
     0
1002
}
1002
{
1000
BEHIND
1070
     0
1002
}
1002
{
1000
OTHER
1070
     0
1002
}
1002
{
1000
REACTOR
1002
}
  0
LINE
  5
1D7C9
330
1F
100
AcDbEntity
  8
AM_7
 48
0.740012243338606
100
AcDbLine
 10
1013.458211212931
 20
-306.3325820610423
 30
0.0
 11
1013.458211212931
 21
-291.5323371942701
 31
0.0
1001
GENIUS_GENOBJ-N-CEN_13
1002
{
1000
OWNER
1000
GEN
1002
}
1001
GENIUS_GENODEF_13
1002
{
1000
HIER
1070
     0
1002
}
1002
{
1000
MANEDIT
1070
     0
1002
}
1002
{
1000
NOSEL
1070
     0
1002
}
1002
{
1000
BEHIND
1070
     0
1002
}
1002
{
1000
OTHER
1070
     0
1002
}
1002
{
1000
REACTOR
1002
}
  0
LINE
  5
1D7CA
330
1F
100
AcDbEntity
  8
0
  6
Continuous
 62
     7
 48
0.3175426480541355
100
AcDbLine
 10
982.0921858089347
 20
-300.8323371942704
 30
0.0
 11
978.9167593283933
 21
-306.3323371942676
 31
0.0
  0
LINE
  5
1D7CB
330
1F
100
AcDbEntity
  8
0
  6
Continuous
 62
     7
 48
0.3175426480543551
100
AcDbLine
 10
982.9582112127216
 20
-301.3323371942659
 30
0.0
 11
979.7827847321794
 21
-306.8323371942676
 31
0.0
  0
LINE
  5
1D7CC
330
1F
100
AcDbEntity
  8
0
  6
Continuous
 62
     7
 48
0.9968824929508471
100
AcDbLine
 10
976.5006682341743
 20
-307.2117224358396
 30
0.0
 11
957.7654057858424
 21
-300.392644573483
 31
0.0
  0
LINE
  5
1D7CD
330
1F
100
AcDbEntity
  8
0
  6
Continuous
 62
     7
 48
0.9968824929506915
100
AcDbLine
 10
976.1586480908452
 20
-308.1514150566251
 30
0.0
 11
957.4233856425168
 21
-301.3323371942676
 31
0.0
  0
ARC
  5
1D7CE
330
1F
100
AcDbEntity
  8
0
  6
Continuous
 62
     7
 48
0.3
100
AcDbCircle
 10
977.1847085208252
 20
-305.3323371942676
 30
0.0
 40
2.0
100
AcDbArc
 50
250.0000000000035
 51
329.9999999999871
  0
ARC
  5
1D7CF
330
1F
100
AcDbEntity
  8
0
  6
Continuous
 62
     7
 48
0.3
100
AcDbCircle
 10
977.1847085208252
 20
-305.3323371942676
 30
0.0
 40
3.0
100
AcDbArc
 50
250.0000000000035
 51
329.9999999999871
  0
LINE
  5
1D7D0
330
1F
100
AcDbEntity
  8
0
  6
Continuous
 62
     7
 48
0.15
100
AcDbLine
 10
957.7654057858424
 20
-300.392644573483
 30
0.0
 11
957.4233856425168
 21
-301.3323371942676
 31
0.0
  0
ARC
  5
1D7D1
330
1F
100
AcDbEntity
  8
0
  6
Continuous
 62
     7
 48
0.3
100
AcDbCircle
 10
984.6902620202897
 20
-302.3323371942676
 30
0.0
 40
2.0
100
AcDbArc
 50
90.0
 51
149.9999999999871
  0
ARC
  5
1D7D2
330
1F
100
AcDbEntity
  8
0
  6
Continuous
 62
     7
 48
0.3
100
AcDbCircle
 10
984.6902620202897
 20
-302.3323371942676
 30
0.0
 40
3.0
100
AcDbArc
 50
90.0
 51
149.9999999999871
  0
LINE
  5
1D7D3
330
1F
100
AcDbEntity
  8
0
  6
Continuous
 62
     7
 48
0.15
100
AcDbLine
 10
1006.958211212931
 20
-299.3323371942767
 30
0.0
 11
1006.958211212931
 21
-297.3323371942767
 31
0.0
1001
GENIUS_GENOBJ-N-CEN_13
1002
{
1000
OWNER
1000
GEN
1002
}
1001
GENIUS_GENODEF_13
1002
{
1000
HIER
1070
     0
1002
}
1002
{
1000
MANEDIT
1070
     0
1002
}
1002
{
1000
NOSEL
1070
     0
1002
}
1002
{
1000
BEHIND
1070
     0
1002
}
1002
{
1000
OTHER
1070
     0
1002
}
1002
{
1000
REACTOR
1002
}
  0
LINE
  5
1D7D4
330
1F
100
AcDbEntity
  8
0
  6
Continuous
 62
     7
 48
0.317542648054252
100
AcDbLine
 10
1059.824236616533
 20
-300.8323371943295
 30
0.0
 11
1062.999663097068
 21
-306.3323371943331
 31
0.0
  0
LINE
  5
1D7D5
330
1F
100
AcDbEntity
  8
0
  6
Continuous
 62
     7
 48
0.3175426480543762
100
AcDbLine
 10
1058.958211212745
 20
-301.3323371943276
 30
0.0
 11
1062.133637693282
 21
-306.8323371943331
 31
0.0
  0
LINE
  5
1D7D6
330
1F
100
AcDbEntity
  8
0
  6
Continuous
 62
     7
 48
0.9968824929514529
100
AcDbLine
 10
1065.415754191286
 20
-307.2117224359096
 30
0.0
 11
1084.151016639641
 21
-300.3926445735776
 31
0.0
  0
LINE
  5
1D7D7
330
1F
100
AcDbEntity
  8
0
  6
Continuous
 62
     7
 48
0.996882492951515
100
AcDbLine
 10
1065.757774334609
 20
-308.1514150566979
 30
0.0
 11
1084.493036782963
 21
-301.3323371943622
 31
0.0
  0
ARC
  5
1D7D8
330
1F
100
AcDbEntity
  8
0
  6
Continuous
 62
     7
 48
0.3
100
AcDbCircle
 10
1064.731713904636
 20
-305.3323371943367
 30
0.0
 40
2.0
100
AcDbArc
 50
209.9999999999395
 51
289.9999999999333
  0
ARC
  5
1D7D9
330
1F
100
AcDbEntity
  8
0
  6
Continuous
 62
     7
 48
0.3
100
AcDbCircle
 10
1064.731713904636
 20
-305.3323371943367
 30
0.0
 40
3.0
100
AcDbArc
 50
209.9999999999395
 51
289.9999999999333
  0
LINE
  5
1D7DA
330
1F
100
AcDbEntity
  8
0
  6
Continuous
 62
     7
 48
0.15
100
AcDbLine
 10
1034.958211212849
 20
-297.3323371942531
 30
0.0
 11
1034.958211212849
 21
-299.3323371942894
 31
0.0
  0
ARC
  5
1D7DB
330
1F
100
AcDbEntity
  8
0
  6
Continuous
 62
     7
 48
0.3
100
AcDbCircle
 10
1057.226160405175
 20
-302.3323371943258
 30
0.0
 40
2.0
100
AcDbArc
 50
29.99999999993951
 51
89.99999999989578
  0
ARC
  5
1D7DC
330
1F
100
AcDbEntity
  8
0
  6
Continuous
 62
     7
 48
0.3
100
AcDbCircle
 10
1057.226160405175
 20
-302.3323371943258
 30
0.0
 40
3.0
100
AcDbArc
 50
29.99999999993951
 51
89.99999999989578
  0
LINE
  5
1D7DD
330
1F
100
AcDbEntity
  8
0
  6
Continuous
 62
     7
 48
0.15
100
AcDbLine
 10
1084.493036782963
 20
-301.3323371943622
 30
0.0
 11
1084.151016639641
 21
-300.3926445735776
 31
0.0
  0
LINE
  5
1D7DE
330
1F
100
AcDbEntity
  8
0
  6
Continuous
 62
     7
100
AcDbLine
 10
959.3521832037938
 20
-222.8627632001814
 30
0.0
 11
1007.007623532588
 21
-222.8627632001814
 31
0.0
  0
LINE
  5
1D7DF
330
1F
100
AcDbEntity
  8
0
  6
Continuous
 62
     7
100
AcDbLine
 10
959.3521832037938
 20
-242.8627632001814
 30
0.0
 11
1082.66306386111
 21
-242.8627632001814
 31
0.0
  0
LINE
  5
1D7E0
330
1F
100
AcDbEntity
  8
0
  6
Continuous
 62
     7
 48
0.8000000000051386
100
AcDbLine
 10
957.4727979622283
 20
-224.8627632001814
 30
0.0
 11
957.4727979622283
 21
-240.8627632002842
 31
0.0
  0
POLYLINE
  5
1D7E1
330
1F
100
AcDbEntity
  8
0
  6
Continuous
 62
     7
 48
1.01
100
AcDb2dPolyline
 66
     1
 10
0.0
 20
0.0
 30
0.0
 70
     2
  0
VERTEX
  5
1D7E2
330
1D7E1
100
AcDbEntity
  8
0
  6
Continuous
 62
     3
 48
1.01
100
AcDbVertex
100
AcDb2dVertex
 10
957.4727979622283
 20
-240.8627632002842
 30
0.0
 42
0.0927601414711162
  0
VERTEX
  5
1D7E3
330
1D7E1
100
AcDbEntity
  8
0
  6
Continuous
 62
     3
 48
1.01
100
AcDbVertex
100
AcDb2dVertex
 10
957.6158576454067
 20
-241.628130065014
 30
0.0
 42
0.0954912486063659
  0
VERTEX
  5
1D7E4
330
1D7E1
100
AcDbEntity
  8
0
  6
Continuous
 62
     3
 48
1.01
100
AcDbVertex
100
AcDb2dVertex
 10
958.0232571550212
 20
-242.2769767626575
 30
0.0
 42
0.1001153029097224
  0
VERTEX
  5
1D7E5
330
1D7E1
100
AcDbEntity
  8
0
  6
Continuous
 62
     3
 48
1.01
100
AcDbVertex
100
AcDb2dVertex
 10
958.6329736088153
 20
-242.7105222653069
 30
0.0
 42
0.1040281407978247
  0
VERTEX
  5
1D7E6
330
1D7E1
100
AcDbEntity
  8
0
  6
Continuous
 62
     3
 48
1.01
100
AcDbVertex
100
AcDb2dVertex
 10
959.3521832037938
 20
-242.8627632002842
 30
0.0
  0
SEQEND
  5
1D7E7
330
1D7E1
100
AcDbEntity
  8
0
  6
Continuous
 62
     3
 48
1.01
  0
POLYLINE
  5
1D7E8
330
1F
100
AcDbEntity
  8
0
  6
Continuous
 62
     7
 48
1.01
100
AcDb2dPolyline
 66
     1
 10
0.0
 20
0.0
 30
0.0
 70
     2
  0
VERTEX
  5
1D7E9
330
1D7E8
100
AcDbEntity
  8
0
  6
Continuous
 62
     3
 48
1.01
100
AcDbVertex
100
AcDb2dVertex
 10
959.3521832037938
 20
-222.8627632001814
 30
0.0
 42
0.1045462442499042
  0
VERTEX
  5
1D7EA
330
1D7E8
100
AcDbEntity
  8
0
  6
Continuous
 62
     3
 48
1.01
100
AcDbVertex
100
AcDb2dVertex
 10
958.6329736088153
 20
-223.0150041351587
 30
0.0
 42
0.1012814770065807
  0
VERTEX
  5
1D7EB
330
1D7E8
100
AcDbEntity
  8
0
  6
Continuous
 62
     3
 48
1.01
100
AcDbVertex
100
AcDb2dVertex
 10
958.0232571550212
 20
-223.4485496378081
 30
0.0
 42
0.0965516151438187
  0
VERTEX
  5
1D7EC
330
1D7E8
100
AcDbEntity
  8
0
  6
Continuous
 62
     3
 48
1.01
100
AcDbVertex
100
AcDb2dVertex
 10
957.6158576454067
 20
-224.0973963354515
 30
0.0
 42
0.0931718628270645
  0
VERTEX
  5
1D7ED
330
1D7E8
100
AcDbEntity
  8
0
  6
Continuous
 62
     3
 48
1.01
100
AcDbVertex
100
AcDb2dVertex
 10
957.4727979622283
 20
-224.8627632001814
 30
0.0
  0
SEQEND
  5
1D7EE
330
1D7E8
100
AcDbEntity
  8
0
  6
Continuous
 62
     3
 48
1.01
  0
LINE
  5
1D7EF
330
1F
100
AcDbEntity
  8
0
  6
Continuous
 62
     7
100
AcDbLine
 10
1035.007623532513
 20
-222.8627632001814
 30
0.0
 11
1082.66306386111
 21
-222.8627632001814
 31
0.0
  0
LINE
  5
1D7F0
330
1F
100
AcDbEntity
  8
0
  6
Continuous
 62
     7
100
AcDbLine
 10
1007.007623532591
 20
-240.8627632002232
 30
0.0
 11
1007.007623532585
 21
-217.8627632002223
 31
0.0
  0
LINE
  5
1D7F1
330
1F
100
AcDbEntity
  8
0
  6
Continuous
 62
     7
100
AcDbLine
 10
1035.007623532523
 20
-240.8627632002414
 30
0.0
 11
1035.007623532508
 21
-217.8627632002442
 31
0.0
  0
LINE
  5
1D7F2
330
1F
100
AcDbEntity
  8
0
  6
Continuous
 62
     7
100
AcDbLine
 10
1010.007623532344
 20
-242.8627632002232
 30
0.0
 11
1033.007623532521
 21
-242.8627632002423
 31
0.0
  0
ARC
  5
1D7F3
330
1F
100
AcDbEntity
  8
0
  6
Continuous
 62
     7
 48
0.3066941737927119
100
AcDbCircle
 10
1009.883920864488
 20
-239.7983172023629
 30
0.0
 40
3.066941737927117
100
AcDbArc
 50
200.3082579587693
 51
272.3116069849601
  0
ARC
  5
1D7F4
330
1F
100
AcDbEntity
  8
0
  6
Continuous
 62
     7
 48
0.3
100
AcDbCircle
 10
1033.007623532523
 20
-240.8627632002423
 30
0.0
 40
2.0
100
AcDbArc
 50
270.0
 51
0.0
  0
LINE
  5
1D7F5
330
1F
100
AcDbEntity
  8
AM_3
100
AcDbLine
 10
1007.007623532588
 20
-222.8627632001814
 30
0.0
 11
1035.007623532513
 21
-222.8627632001814
 31
0.0
  0
LINE
  5
1D7F6
330
1F
100
AcDbEntity
  8
0
  6
Continuous
 62
     7
100
AcDbLine
 10
998.5076235326619
 20
-209.8627632002141
 30
0.0
 11
1043.507623532582
 21
-209.8627632002514
 31
0.0
  0
LINE
  5
1D7F7
330
1F
100
AcDbEntity
  8
0
  6
Continuous
 62
     7
 48
0.3249999999962256
100
AcDbLine
 10
1000.507623532659
 20
-217.8627632002151
 30
0.0
 11
1007.007623532585
 21
-217.8627632002214
 31
0.0
  0
LINE
  5
1D7F8
330
1F
100
AcDbEntity
  8
0
  6
Continuous
 62
     7
 48
0.3250000000035016
100
AcDbLine
 10
1035.007623532509
 20
-217.8627632002442
 30
0.0
 11
1041.507623532579
 21
-217.8627632002487
 31
0.0
  0
LINE
  5
1D7F9
330
1F
100
AcDbEntity
  8
0
  6
Continuous
 62
     7
 48
0.8000000000051386
100
AcDbLine
 10
1084.542449102676
 20
-224.8627632001814
 30
0.0
 11
1084.542449102676
 21
-240.8627632002842
 31
0.0
  0
POLYLINE
  5
1D7FA
330
1F
100
AcDbEntity
  8
0
  6
Continuous
 62
     7
 48
1.01
100
AcDb2dPolyline
 66
     1
 10
0.0
 20
0.0
 30
0.0
 70
     2
  0
VERTEX
  5
1D7FB
330
1D7FA
100
AcDbEntity
  8
0
  6
Continuous
 62
     3
 48
1.01
100
AcDbVertex
100
AcDb2dVertex
 10
1082.66306386111
 20
-242.8627632002842
 30
0.0
 42
0.1045462442499042
  0
VERTEX
  5
1D7FC
330
1D7FA
100
AcDbEntity
  8
0
  6
Continuous
 62
     3
 48
1.01
100
AcDbVertex
100
AcDb2dVertex
 10
1083.382273456089
 20
-242.7105222653069
 30
0.0
 42
0.1012814770065807
  0
VERTEX
  5
1D7FD
330
1D7FA
100
AcDbEntity
  8
0
  6
Continuous
 62
     3
 48
1.01
100
AcDbVertex
100
AcDb2dVertex
 10
1083.991989909883
 20
-242.2769767626575
 30
0.0
 42
0.0965516151438187
  0
VERTEX
  5
1D7FE
330
1D7FA
100
AcDbEntity
  8
0
  6
Continuous
 62
     3
 48
1.01
100
AcDbVertex
100
AcDb2dVertex
 10
1084.399389419496
 20
-241.628130065014
 30
0.0
 42
0.0931718628270645
  0
VERTEX
  5
1D7FF
330
1D7FA
100
AcDbEntity
  8
0
  6
Continuous
 62
     3
 48
1.01
100
AcDbVertex
100
AcDb2dVertex
 10
1084.542449102676
 20
-240.8627632002842
 30
0.0
  0
SEQEND
  5
1D800
330
1D7FA
100
AcDbEntity
  8
0
  6
Continuous
 62
     3
 48
1.01
  0
POLYLINE
  5
1D801
330
1F
100
AcDbEntity
  8
0
  6
Continuous
 62
     7
 48
1.01
100
AcDb2dPolyline
 66
     1
 10
0.0
 20
0.0
 30
0.0
 70
     2
  0
VERTEX
  5
1D802
330
1D801
100
AcDbEntity
  8
0
  6
Continuous
 62
     3
 48
1.01
100
AcDbVertex
100
AcDb2dVertex
 10
1084.542449102676
 20
-224.8627632001814
 30
0.0
 42
0.0927601414711162
  0
VERTEX
  5
1D803
330
1D801
100
AcDbEntity
  8
0
  6
Continuous
 62
     3
 48
1.01
100
AcDbVertex
100
AcDb2dVertex
 10
1084.399389419496
 20
-224.0973963354515
 30
0.0
 42
0.0954912486063659
  0
VERTEX
  5
1D804
330
1D801
100
AcDbEntity
  8
0
  6
Continuous
 62
     3
 48
1.01
100
AcDbVertex
100
AcDb2dVertex
 10
1083.991989909883
 20
-223.4485496378081
 30
0.0
 42
0.1001153029097224
  0
VERTEX
  5
1D805
330
1D801
100
AcDbEntity
  8
0
  6
Continuous
 62
     3
 48
1.01
100
AcDbVertex
100
AcDb2dVertex
 10
1083.382273456089
 20
-223.0150041351587
 30
0.0
 42
0.1040281407978247
  0
VERTEX
  5
1D806
330
1D801
100
AcDbEntity
  8
0
  6
Continuous
 62
     3
 48
1.01
100
AcDbVertex
100
AcDb2dVertex
 10
1082.66306386111
 20
-222.8627632001814
 30
0.0
  0
SEQEND
  5
1D807
330
1D801
100
AcDbEntity
  8
0
  6
Continuous
 62
     3
 48
1.01
  0
LINE
  5
1D80D
330
1F
100
AcDbEntity
  8
AM_7
 48
0.4716558444705698
100
AcDbLine
 10
1008.791065087881
 20
-227.8627632001814
 30
0.0
 11
1018.224181977292
 21
-227.8627632001814
 31
0.0
1001
GENIUS_GENOREF_13
1005
1D875
  0
LINE
  5
1D80E
330
1F
100
AcDbEntity
  8
AM_7
 48
0.4716558444705698
100
AcDbLine
 10
1023.791065087435
 20
-227.8627632001814
 30
0.0
 11
1033.224181976847
 21
-227.8627632001814
 31
0.0
1001
GENIUS_GENOREF_13
1005
1D874
  0
LINE
  5
1D80F
330
1F
100
AcDbEntity
  8
AM_3
100
AcDbLine
 10
998.5076235326614
 20
-211.8627632002132
 30
0.0
 11
1043.507623532581
 21
-211.8627632002514
 31
0.0
  0
ARC
  5
1D815
330
1F
100
AcDbEntity
  8
AM_3
 48
0.5667999999997121
100
AcDbCircle
 10
1033.507623531984
 20
-208.6947632002454
 30
0.0
 40
5.667999999997119
100
AcDbArc
 50
326.0183534160159
 51
326.0183534160159
  0
LINE
  5
1D816
330
1F
100
AcDbEntity
  8
0
  6
Continuous
 62
     7
 48
0.8000000000051386
100
AcDbLine
 10
957.8148181055537
 20
-224.8627632001814
 30
0.0
 11
957.8148181055537
 21
-240.8627632002842
 31
0.0
  0
POLYLINE
  5
1D817
330
1F
100
AcDbEntity
  8
0
  6
Continuous
 62
     7
 48
1.01
100
AcDb2dPolyline
 66
     1
 10
0.0
 20
0.0
 30
0.0
 70
     2
  0
VERTEX
  5
1D818
330
1D817
100
AcDbEntity
  8
0
  6
Continuous
 62
     3
 48
1.01
100
AcDbVertex
100
AcDb2dVertex
 10
957.8148181055537
 20
-240.8627632002842
 30
0.0
 42
0.0927601414711162
  0
VERTEX
  5
1D819
330
1D817
100
AcDbEntity
  8
0
  6
Continuous
 62
     3
 48
1.01
100
AcDbVertex
100
AcDb2dVertex
 10
957.9578777887322
 20
-241.628130065014
 30
0.0
 42
0.0954912486063659
  0
VERTEX
  5
1D81A
330
1D817
100
AcDbEntity
  8
0
  6
Continuous
 62
     3
 48
1.01
100
AcDbVertex
100
AcDb2dVertex
 10
958.3652772983466
 20
-242.2769767626575
 30
0.0
 42
0.1001153029097224
  0
VERTEX
  5
1D81B
330
1D817
100
AcDbEntity
  8
0
  6
Continuous
 62
     3
 48
1.01
100
AcDbVertex
100
AcDb2dVertex
 10
958.9749937521407
 20
-242.7105222653069
 30
0.0
 42
0.1040281407978247
  0
VERTEX
  5
1D81C
330
1D817
100
AcDbEntity
  8
0
  6
Continuous
 62
     3
 48
1.01
100
AcDbVertex
100
AcDb2dVertex
 10
959.6942033471194
 20
-242.8627632002842
 30
0.0
  0
SEQEND
  5
1D81D
330
1D817
100
AcDbEntity
  8
0
  6
Continuous
 62
     3
 48
1.01
  0
POLYLINE
  5
1D81E
330
1F
100
AcDbEntity
  8
0
  6
Continuous
 62
     7
 48
1.01
100
AcDb2dPolyline
 66
     1
 10
0.0
 20
0.0
 30
0.0
 70
     2
  0
VERTEX
  5
1D81F
330
1D81E
100
AcDbEntity
  8
0
  6
Continuous
 62
     3
 48
1.01
100
AcDbVertex
100
AcDb2dVertex
 10
959.6942033471194
 20
-222.8627632001814
 30
0.0
 42
0.1045462442499042
  0
VERTEX
  5
1D820
330
1D81E
100
AcDbEntity
  8
0
  6
Continuous
 62
     3
 48
1.01
100
AcDbVertex
100
AcDb2dVertex
 10
958.9749937521407
 20
-223.0150041351587
 30
0.0
 42
0.1012814770065807
  0
VERTEX
  5
1D821
330
1D81E
100
AcDbEntity
  8
0
  6
Continuous
 62
     3
 48
1.01
100
AcDbVertex
100
AcDb2dVertex
 10
958.3652772983466
 20
-223.4485496378081
 30
0.0
 42
0.0965516151438187
  0
VERTEX
  5
1D822
330
1D81E
100
AcDbEntity
  8
0
  6
Continuous
 62
     3
 48
1.01
100
AcDbVertex
100
AcDb2dVertex
 10
957.9578777887322
 20
-224.0973963354515
 30
0.0
 42
0.0931718628270645
  0
VERTEX
  5
1D823
330
1D81E
100
AcDbEntity
  8
0
  6
Continuous
 62
     3
 48
1.01
100
AcDbVertex
100
AcDb2dVertex
 10
957.8148181055537
 20
-224.8627632001814
 30
0.0
  0
SEQEND
  5
1D824
330
1D81E
100
AcDbEntity
  8
0
  6
Continuous
 62
     3
 48
1.01
  0
LINE
  5
1D825
330
1F
100
AcDbEntity
  8
0
  6
Continuous
 62
     7
 48
0.8000000000051386
100
AcDbLine
 10
1084.200428959354
 20
-224.8627632001814
 30
0.0
 11
1084.200428959354
 21
-240.8627632002842
 31
0.0
  0
POLYLINE
  5
1D826
330
1F
100
AcDbEntity
  8
0
  6
Continuous
 62
     7
 48
1.01
100
AcDb2dPolyline
 66
     1
 10
0.0
 20
0.0
 30
0.0
 70
     2
  0
VERTEX
  5
1D827
330
1D826
100
AcDbEntity
  8
0
  6
Continuous
 62
     3
 48
1.01
100
AcDbVertex
100
AcDb2dVertex
 10
1082.321043717788
 20
-242.8627632002842
 30
0.0
 42
0.1045462442499042
  0
VERTEX
  5
1D828
330
1D826
100
AcDbEntity
  8
0
  6
Continuous
 62
     3
 48
1.01
100
AcDbVertex
100
AcDb2dVertex
 10
1083.040253312767
 20
-242.7105222653069
 30
0.0
 42
0.1012814770065807
  0
VERTEX
  5
1D829
330
1D826
100
AcDbEntity
  8
0
  6
Continuous
 62
     3
 48
1.01
100
AcDbVertex
100
AcDb2dVertex
 10
1083.649969766561
 20
-242.2769767626575
 30
0.0
 42
0.0965516151438187
  0
VERTEX
  5
1D82A
330
1D826
100
AcDbEntity
  8
0
  6
Continuous
 62
     3
 48
1.01
100
AcDbVertex
100
AcDb2dVertex
 10
1084.057369276174
 20
-241.628130065014
 30
0.0
 42
0.0931718628270645
  0
VERTEX
  5
1D82B
330
1D826
100
AcDbEntity
  8
0
  6
Continuous
 62
     3
 48
1.01
100
AcDbVertex
100
AcDb2dVertex
 10
1084.200428959354
 20
-240.8627632002842
 30
0.0
  0
SEQEND
  5
1D82C
330
1D826
100
AcDbEntity
  8
0
  6
Continuous
 62
     3
 48
1.01
  0
POLYLINE
  5
1D82D
330
1F
100
AcDbEntity
  8
0
  6
Continuous
 62
     7
 48
1.01
100
AcDb2dPolyline
 66
     1
 10
0.0
 20
0.0
 30
0.0
 70
     2
  0
VERTEX
  5
1D82E
330
1D82D
100
AcDbEntity
  8
0
  6
Continuous
 62
     3
 48
1.01
100
AcDbVertex
100
AcDb2dVertex
 10
1084.200428959354
 20
-224.8627632001814
 30
0.0
 42
0.0927601414711162
  0
VERTEX
  5
1D82F
330
1D82D
100
AcDbEntity
  8
0
  6
Continuous
 62
     3
 48
1.01
100
AcDbVertex
100
AcDb2dVertex
 10
1084.057369276174
 20
-224.0973963354515
 30
0.0
 42
0.0954912486063659
  0
VERTEX
  5
1D830
330
1D82D
100
AcDbEntity
  8
0
  6
Continuous
 62
     3
 48
1.01
100
AcDbVertex
100
AcDb2dVertex
 10
1083.649969766561
 20
-223.4485496378081
 30
0.0
 42
0.1001153029097224
  0
VERTEX
  5
1D831
330
1D82D
100
AcDbEntity
  8
0
  6
Continuous
 62
     3
 48
1.01
100
AcDbVertex
100
AcDb2dVertex
 10
1083.040253312767
 20
-223.0150041351587
 30
0.0
 42
0.1040281407978247
  0
VERTEX
  5
1D832
330
1D82D
100
AcDbEntity
  8
0
  6
Continuous
 62
     3
 48
1.01
100
AcDbVertex
100
AcDb2dVertex
 10
1082.321043717788
 20
-222.8627632001814
 30
0.0
  0
SEQEND
  5
1D833
330
1D82D
100
AcDbEntity
  8
0
  6
Continuous
 62
     3
 48
1.01
  0
LINE
  5
1D834
330
1F
100
AcDbEntity
  8
AM_3
 48
0.15
100
AcDbLine
 10
1031.357623531985
 20
-209.8627632002423
 30
0.0
 11
1031.357623531985
 21
-211.8627632002423
 31
0.0
  0
LINE
  5
1D835
330
1F
100
AcDbEntity
  8
AM_3
 48
0.15
100
AcDbLine
 10
1035.657623531984
 20
-209.8627632002423
 30
0.0
 11
1035.657623531984
 21
-211.8627632002423
 31
0.0
  0
LINE
  5
1D836
330
1F
100
AcDbEntity
  8
AM_3
 48
0.15
100
AcDbLine
 10
1006.357623532065
 20
-209.862763200235
 30
0.0
 11
1006.357623532065
 21
-211.862763200235
 31
0.0
  0
LINE
  5
1D837
330
1F
100
AcDbEntity
  8
AM_3
 48
0.15
100
AcDbLine
 10
1010.657623532064
 20
-209.862763200235
 30
0.0
 11
1010.657623532064
 21
-211.862763200235
 31
0.0
  0
LINE
  5
1D838
330
1F
100
AcDbEntity
  8
AM_CL
  6
Continuous
 48
0.9999999999999543
100
AcDbLine
 10
978.1270720168713
 20
-242.8627632001814
 30
0.0
 11
978.1270720168718
 21
-222.8627632001823
 31
0.0
  0
LINE
  5
1D839
330
1F
100
AcDbEntity
  8
AM_CL
  6
Continuous
 48
0.9999999999999543
100
AcDbLine
 10
983.0076235323947
 20
-242.8627632001814
 30
0.0
 11
983.0076235323947
 21
-222.8627632001823
 31
0.0
  0
LINE
  5
1D83A
330
1F
100
AcDbEntity
  8
AM_CL
  6
Continuous
 48
0.9999999999999543
100
AcDbLine
 10
1063.888175048245
 20
-242.8627632001659
 30
0.0
 11
1063.888175048236
 21
-222.8627632001669
 31
0.0
  0
LINE
  5
1D83B
330
1F
100
AcDbEntity
  8
AM_CL
  6
Continuous
 48
0.9999999999999543
100
AcDbLine
 10
1059.007623532721
 20
-242.8627632001678
 30
0.0
 11
1059.007623532714
 21
-222.8627632001687
 31
0.0
  0
DIMENSION
  5
1D83C
330
1F
100
AcDbEntity
  8
AM_5
 48
1.01
100
AcDbDimension
  2
*D11
 10
1033.45821121293
 20
-343.2324596277955
 30
0.0
 11
1020.95821121293
 21
-340.1324596277955
 31
0.0
 70
    32
  1
<>
 71
     5
 42
24.99999999999818
  3
SYS$0
100
AcDbAlignedDimension
 13
1008.458211212931
 23
-331.2324596277957
 33
0.0
 14
1033.45821121293
 24
-331.2324596277957
 34
0.0
100
AcDbRotatedDimension
1001
ACAD
1000
DSTYLE
1002
{
1070
    47
1040
0.2
1070
    48
1040
0.2
1070
   173
1070
     1
1002
}
  0
DIMENSION
  5
1D83D
330
1F
100
AcDbEntity
  8
AM_5
 48
1.01
100
AcDbDimension
  2
*D12
 10
1043.45821121293
 20
-353.232459627801
 30
0.0
 11
1020.95821121293
 21
-350.132459627801
 31
0.0
 70
    32
  1
<>
 71
     5
 42
45.0
  3
SYS$0
100
AcDbAlignedDimension
 13
998.4582112129301
 23
-329.3323371944095
 33
0.0
 14
1043.45821121293
 24
-329.3323371944086
 34
0.0
100
AcDbRotatedDimension
1001
ACAD
1000
DSTYLE
1002
{
1070
    47
1040
0.2
1070
    48
1040
0.2
1070
   173
1070
     1
1002
}
  0
DIMENSION
  5
1D83E
330
1F
100
AcDbEntity
  8
AM_5
 48
1.01
100
AcDbDimension
  2
*D13
 10
1084.493036782963
 20
-271.0887848087274
 30
0.0
 11
1020.958211212739
 21
-267.9887848087274
 31
0.0
 70
    32
  1
127
 71
     5
 42
127.0696511404458
  3
SYS$0
100
AcDbAlignedDimension
 13
957.4233856425168
 23
-301.3323371942676
 33
0.0
 14
1084.493036782963
 24
-301.3323371943622
 34
0.0
100
AcDbRotatedDimension
1001
ACAD
1000
DSTYLE
1002
{
1070
    47
1040
0.2
1070
    48
1040
0.2
1070
   173
1070
     1
1002
}
  0
DIMENSION
  5
1D83F
330
1F
100
AcDbEntity
  8
AM_5
 48
1.01
100
AcDbDimension
  2
*D14
 10
978.077659697216
 20
-283.532336194268
 30
0.0
 11
992.5179354550737
 21
-280.432336194268
 31
0.0
 70
    32
  1
35.4
 71
     5
 42
28.88055151571462
  3
SYS$0
100
AcDbAlignedDimension
 13
1006.958211212931
 23
-297.3323371942767
 33
0.0
 14
978.077659697216
 24
-307.7857003880796
 34
0.0
100
AcDbRotatedDimension
1001
ACAD
1000
DSTYLE
1002
{
1070
    47
1040
0.2
1070
    48
1040
0.2
1070
   173
1070
     1
1002
}
  0
DIMENSION
  5
1D840
330
1F
100
AcDbEntity
  8
AM_5
 48
1.01
100
AcDbDimension
  2
*D15
 10
1034.958211212849
 20
-283.532336194268
 30
0.0
 11
1020.95821121289
 21
-280.432336194268
 31
0.0
 70
    32
  1
<>
 71
     5
 42
27.99999999991815
  3
SYS$0
100
AcDbAlignedDimension
 13
1006.958211212931
 23
-297.3323371942767
 33
0.0
 14
1034.958211212849
 24
-297.3323371942531
 34
0.0
100
AcDbRotatedDimension
1001
ACAD
1000
DSTYLE
1002
{
1070
    47
1040
0.2
1070
    48
1040
0.2
1070
   173
1070
     1
1002
}
  0
DIMENSION
  5
1D845
330
1F
100
AcDbEntity
  8
AM_5
 48
1.01
100
AcDbDimension
  2
*D16
 10
1063.838762728645
 20
-283.532336194268
 30
0.0
 11
1049.398486970747
 21
-280.432336194268
 31
0.0
 70
    32
  1
35.4
 71
     5
 42
28.88055151579647
  3
SYS$0
100
AcDbAlignedDimension
 13
1034.958211212849
 23
-297.3323371942532
 33
0.0
 14
1063.838762728645
 24
-307.7857003880796
 34
0.0
 50
180.0
100
AcDbRotatedDimension
1001
ACAD
1000
DSTYLE
1002
{
1070
    47
1040
0.2
1070
    48
1040
0.2
1070
   173
1070
     1
1002
}
  0
LINE
  5
1D846
330
1F
100
AcDbEntity
  8
AM_7
100
AcDbLine
 10
955.3521832037937
 20
-232.8627632001814
 30
0.0
 11
1086.66306386111
 21
-232.8627632001814
 31
0.0
1001
GENIUS_GENODEF_13
1002
{
1000
HIER
1070
     0
1002
}
1002
{
1000
MANEDIT
1070
     0
1002
}
1002
{
1000
NOSEL
1070
     0
1002
}
1002
{
1000
BEHIND
1070
     0
1002
}
1002
{
1000
OTHER
1070
     0
1002
}
1002
{
1000
REACTOR
1002
}
1001
GENIUS_GENOBJ-N-CEN_13
1002
{
1000
OWNER
1000
GEN
1002
}
1001
GENIUS_GENCEN_19
1002
{
1040
4.0
1002
}
  0
CIRCLE
  5
1D847
330
1F
100
AcDbEntity
  8
AM_3
 48
0.4
100
AcDbCircle
 10
1013.507623532587
 20
-227.8627632001814
 30
0.0
 40
2.0
  0
CIRCLE
  5
1D848
330
1F
100
AcDbEntity
  8
AM_3
 48
0.4
100
AcDbCircle
 10
1013.507623532587
 20
-227.8627632001814
 30
0.0
 40
2.1
  0
CIRCLE
  5
1D849
330
1F
100
AcDbEntity
  8
AM_3
 48
0.4
100
AcDbCircle
 10
1013.507623532587
 20
-227.8627632001814
 30
0.0
 40
3.6
  0
CIRCLE
  5
1D84A
330
1F
100
AcDbEntity
  8
AM_0
 48
0.4
100
AcDbCircle
 10
1013.507623532587
 20
-227.8627632001814
 30
0.0
 40
2.75
  0
CIRCLE
  5
1D84B
330
1F
100
AcDbEntity
  8
AM_3
 48
0.4
100
AcDbCircle
 10
1028.50762353214
 20
-227.8627632001814
 30
0.0
 40
2.0
  0
CIRCLE
  5
1D84C
330
1F
100
AcDbEntity
  8
AM_3
 48
0.4
100
AcDbCircle
 10
1028.50762353214
 20
-227.8627632001814
 30
0.0
 40
2.1
  0
CIRCLE
  5
1D84D
330
1F
100
AcDbEntity
  8
AM_3
 48
0.4
100
AcDbCircle
 10
1028.50762353214
 20
-227.8627632001814
 30
0.0
 40
3.6
  0
CIRCLE
  5
1D84E
330
1F
100
AcDbEntity
  8
AM_0
 48
0.4
100
AcDbCircle
 10
1028.50762353214
 20
-227.8627632001814
 30
0.0
 40
2.75
  0
LINE
  5
1D84F
330
1F
100
AcDbEntity
  8
AM_3
 48
0.15
100
AcDbLine
 10
1011.407623532669
 20
-297.3323371944104
 30
0.0
 11
1011.407623532669
 21
-300.3323371942867
 31
0.0
  0
LINE
  5
1D850
330
1F
100
AcDbEntity
  8
AM_3
 48
0.15
100
AcDbLine
 10
1015.60762353267
 20
-297.332337194414
 30
0.0
 11
1015.60762353267
 21
-300.3323371942876
 31
0.0
  0
LINE
  5
1D851
330
1F
100
AcDbEntity
  8
AM_3
 48
0.1500000000005912
100
AcDbLine
 10
1011.507623532587
 20
-297.332337194274
 30
0.0
 11
1011.507623532587
 21
-300.3323371942858
 31
0.0
  0
LINE
  5
1D852
330
1F
100
AcDbEntity
  8
AM_3
 48
0.1500000000009095
100
AcDbLine
 10
1015.507623532586
 20
-297.3323371942703
 30
0.0
 11
1015.507623532586
 21
-300.3323371942885
 31
0.0
  0
ARC
  5
1D853
330
1F
100
AcDbEntity
  8
AM_0
 48
0.3
100
AcDbCircle
 10
1011.75762353259
 20
-297.332337194274
 30
0.0
 40
1.0
100
AcDbArc
 50
90.00000000026053
 51
179.9999999999479
1001
GENIUS_GENOBJ-N-FIL_13
1002
{
1000
OWNER
1000
GEN
1002
}
1001
GENIUS_GENODEF_13
1002
{
1000
HIER
1070
     0
1002
}
1002
{
1000
MANEDIT
1070
     0
1002
}
1002
{
1000
NOSEL
1070
     0
1002
}
1002
{
1000
BEHIND
1070
     0
1002
}
1002
{
1000
OTHER
1070
     0
1002
}
1002
{
1000
REACTOR
1002
}
  0
ARC
  5
1D854
330
1F
100
AcDbEntity
  8
AM_0
 48
0.3
100
AcDbCircle
 10
1015.257623532586
 20
-297.3323371942712
 30
0.0
 40
1.0
100
AcDbArc
 50
0.0000000000521102
 51
90.00000000005213
1001
GENIUS_GENODEF_13
1002
{
1000
HIER
1070
     0
1002
}
1002
{
1000
MANEDIT
1070
     0
1002
}
1002
{
1000
NOSEL
1070
     0
1002
}
1002
{
1000
BEHIND
1070
     0
1002
}
1002
{
1000
OTHER
1070
     0
1002
}
1002
{
1000
REACTOR
1002
}
1001
GENIUS_GENOBJ-N-FIL_13
1002
{
1000
OWNER
1000
GEN
1002
}
  0
LINE
  5
1D855
330
1F
100
AcDbEntity
  8
0
  6
Continuous
 62
     7
 48
0.1749999999998181
100
AcDbLine
 10
1030.257623532585
 20
-296.3323371942585
 30
0.0
 11
1026.757623532589
 21
-296.3323371942603
 31
0.0
  0
LINE
  5
1D856
330
1F
100
AcDbEntity
  8
AM_3
 48
0.15
100
AcDbLine
 10
1026.407623532669
 20
-297.3323371943977
 30
0.0
 11
1026.407623532669
 21
-300.332337194274
 31
0.0
  0
LINE
  5
1D857
330
1F
100
AcDbEntity
  8
AM_3
 48
0.15
100
AcDbLine
 10
1030.607623532669
 20
-297.3323371944013
 30
0.0
 11
1030.607623532669
 21
-300.3323371942749
 31
0.0
  0
LINE
  5
1D858
330
1F
100
AcDbEntity
  8
AM_3
 48
0.1500000000005912
100
AcDbLine
 10
1026.507623532586
 20
-297.3323371942612
 30
0.0
 11
1026.507623532586
 21
-300.3323371942731
 31
0.0
  0
LINE
  5
1D859
330
1F
100
AcDbEntity
  8
AM_3
 48
0.1500000000009095
100
AcDbLine
 10
1030.507623532586
 20
-297.3323371942576
 30
0.0
 11
1030.507623532586
 21
-300.3323371942758
 31
0.0
  0
ARC
  5
1D85A
330
1F
100
AcDbEntity
  8
AM_0
 48
0.3
100
AcDbCircle
 10
1026.75762353259
 20
-297.3323371942612
 30
0.0
 40
1.0
100
AcDbArc
 50
90.00000000026053
 51
179.9999999999479
1001
GENIUS_GENOBJ-N-FIL_13
1002
{
1000
OWNER
1000
GEN
1002
}
1001
GENIUS_GENODEF_13
1002
{
1000
HIER
1070
     0
1002
}
1002
{
1000
MANEDIT
1070
     0
1002
}
1002
{
1000
NOSEL
1070
     0
1002
}
1002
{
1000
BEHIND
1070
     0
1002
}
1002
{
1000
OTHER
1070
     0
1002
}
1002
{
1000
REACTOR
1002
}
  0
ARC
  5
1D85B
330
1F
100
AcDbEntity
  8
AM_0
 48
0.3
100
AcDbCircle
 10
1030.257623532587
 20
-297.3323371942585
 30
0.0
 40
1.0
100
AcDbArc
 50
0.0000000000521102
 51
90.00000000005213
1001
GENIUS_GENODEF_13
1002
{
1000
HIER
1070
     0
1002
}
1002
{
1000
MANEDIT
1070
     0
1002
}
1002
{
1000
NOSEL
1070
     0
1002
}
1002
{
1000
BEHIND
1070
     0
1002
}
1002
{
1000
OTHER
1070
     0
1002
}
1002
{
1000
REACTOR
1002
}
1001
GENIUS_GENOBJ-N-FIL_13
1002
{
1000
OWNER
1000
GEN
1002
}
  0
LINE
  5
1D85C
330
1F
100
AcDbEntity
  8
AM_7
 48
0.4716558444705698
100
AcDbLine
 10
1013.507623532587
 20
-223.1462047554757
 30
0.0
 11
1013.507623532587
 21
-232.5793216448871
 31
0.0
1001
GENIUS_GENOREF_13
1005
1D873
  0
LINE
  5
1D85D
330
1F
100
AcDbEntity
  8
AM_7
 48
0.4716558444705698
100
AcDbLine
 10
1028.50762353214
 20
-223.1462047554757
 30
0.0
 11
1028.50762353214
 21
-232.5793216448871
 31
0.0
1001
GENIUS_GENOREF_13
1005
1D872
  0
ARC
  5
1D860
330
1F
100
AcDbEntity
  8
AM_0
 48
0.3
100
AcDbCircle
 10
1010.108211212931
 20
-300.9823371942845
 30
0.0
 40
0.6500000000005457
100
AcDbArc
 50
90.0
 51
270.0
  0
ARC
  5
1D861
330
1F
100
AcDbEntity
  8
AM_0
 48
0.3
100
AcDbCircle
 10
1016.80821121293
 20
-300.98233719429
 30
0.0
 40
0.6500000000005457
100
AcDbArc
 50
270.0
 51
90.0
  0
LINE
  5
1D862
330
1F
100
AcDbEntity
  8
0
  6
Continuous
 62
     7
 48
0.3349999999999454
100
AcDbLine
 10
1031.80821121293
 20
-301.6323371942987
 30
0.0
 11
1025.108211212931
 21
-301.6323371942933
 31
0.0
  0
ARC
  5
1D863
330
1F
100
AcDbEntity
  8
AM_0
 48
0.3
100
AcDbCircle
 10
1025.108211212931
 20
-300.9823371942945
 30
0.0
 40
0.6500000000005457
100
AcDbArc
 50
90.0
 51
270.0
  0
ARC
  5
1D864
330
1F
100
AcDbEntity
  8
AM_0
 48
0.3
100
AcDbCircle
 10
1031.80821121293
 20
-300.9823371943
 30
0.0
 40
0.6500000000005457
100
AcDbArc
 50
270.0
 51
90.0
  0
LINE
  5
1D866
330
1F
100
AcDbEntity
  8
AM_7
100
AcDbLine
 10
1021.007623532558
 20
-244.8627632002196
 30
0.0
 11
1021.007623532551
 21
-201.6269104234658
 31
0.0
1001
GENIUS_GENODEF_13
1002
{
1000
HIER
1070
     0
1002
}
1002
{
1000
MANEDIT
1070
     0
1002
}
1002
{
1000
NOSEL
1070
     0
1002
}
1002
{
1000
BEHIND
1070
     0
1002
}
1002
{
1000
OTHER
1070
     0
1002
}
1002
{
1000
REACTOR
1002
}
1001
GENIUS_GENOBJ-N-CEN_13
1002
{
1000
OWNER
1000
GEN
1002
}
1001
GENIUS_GENCEN_19
1002
{
1040
4.0
1002
}
  0
LINE
  5
1D867
330
1F
100
AcDbEntity
  8
AM_0
 48
0.3000000000000455
100
AcDbLine
 10
998.5076235326619
 20
-209.8627632002141
 30
0.0
 11
998.5076235326619
 21
-215.8627632002151
 31
0.0
  0
ARC
  5
1D868
330
1F
100
AcDbEntity
  8
AM_0
 48
0.3
100
AcDbCircle
 10
1000.507623532662
 20
-215.8627632002151
 30
0.0
 40
2.0
100
AcDbArc
 50
180.0
 51
269.9999999999479
1001
GENIUS_GENODEF_13
1002
{
1000
HIER
1070
     0
1002
}
1002
{
1000
MANEDIT
1070
     0
1002
}
1002
{
1000
NOSEL
1070
     0
1002
}
1002
{
1000
BEHIND
1070
     0
1002
}
1002
{
1000
OTHER
1070
     0
1002
}
1002
{
1000
REACTOR
1002
}
1001
GENIUS_GENOBJ-N-FIL_13
1002
{
1000
OWNER
1000
GEN
1002
}
  0
LINE
  5
1D869
330
1F
100
AcDbEntity
  8
AM_0
 48
0.2999999999998636
100
AcDbLine
 10
1043.507623532581
 20
-215.8627632002487
 30
0.0
 11
1043.507623532582
 21
-209.8627632002514
 31
0.0
  0
ARC
  5
1D86A
330
1F
100
AcDbEntity
  8
AM_0
 48
0.3
100
AcDbCircle
 10
1041.507623532581
 20
-215.8627632002487
 30
0.0
 40
2.0
100
AcDbArc
 50
269.9999999999479
 51
0.0
1001
GENIUS_GENODEF_13
1002
{
1000
HIER
1070
     0
1002
}
1002
{
1000
MANEDIT
1070
     0
1002
}
1002
{
1000
NOSEL
1070
     0
1002
}
1002
{
1000
BEHIND
1070
     0
1002
}
1002
{
1000
OTHER
1070
     0
1002
}
1002
{
1000
REACTOR
1002
}
1001
GENIUS_GENOBJ-N-FIL_13
1002
{
1000
OWNER
1000
GEN
1002
}
  0
DIMENSION
  5
1D86E
330
1F
100
AcDbEntity
  8
AM_5
 48
1.01
100
AcDbDimension
  2
*D17
 10
947.6942033469477
 20
-323.8323371944095
 30
0.0
 11
944.5942033469476
 21
-318.9856705277426
 31
0.0
 70
    32
 71
     5
 42
7.5
  3
SYS$0
100
AcDbAlignedDimension
 13
1000.45821121293
 23
-331.3323371944095
 33
0.0
 14
1001.058088779544
 24
-323.8323371944095
 34
0.0
 50
90.0
100
AcDbRotatedDimension
1001
ACAD
1000
DSTYLE
1002
{
1070
    47
1040
0.2
1070
    48
1040
0.2
1070
   173
1070
     1
1070
   179
1070
     1
1002
}
  0
DIMENSION
  5
1D86F
330
1F
100
AcDbEntity
  8
AM_5
 48
1.01
100
AcDbDimension
  2
*D18
 10
937.6942033469472
 20
-297.3323371942848
 30
0.0
 11
934.5942033469476
 21
-314.332337194347
 31
0.0
 70
    32
 71
     5
 42
34.0000000001246
  3
SYS$0
100
AcDbAlignedDimension
 13
1000.45821121293
 23
-331.3323371944095
 33
0.0
 14
998.4582112129317
 24
-297.3323371942848
 34
0.0
 50
90.0
100
AcDbRotatedDimension
1001
ACAD
1000
DSTYLE
1002
{
1070
    47
1040
0.2
1070
    48
1040
0.2
1070
   173
1070
     1
1070
   179
1070
     1
1002
}
  0
POINT
  5
1D872
330
1F
100
AcDbEntity
  8
0
 60
     1
100
AcDbPoint
 10
-6177.586660473497
 20
-8187.095526695619
 30
0.0
1001
GENIUS_GENOENT_13
1002
{
1000
MYREF
1005
1D872
1002
}
1002
{
1000
GRP
1005
0
1002
}
1001
GENIUS_GENOBJ-N-CRS_13
1002
{
1000
OWNER
1000
GEN
1002
}
1001
GENIUS_GENOLIS_13
1002
{
1000
ENT
1005
1D85D
1005
0
1005
0
1005
0
1002
}
1001
GENIUS_GENODEF_13
1002
{
1000
HIER
1070
    10
1002
}
1002
{
1000
MANEDIT
1070
     1
1002
}
1002
{
1000
NOSEL
1070
     0
1002
}
1002
{
1000
BEHIND
1070
     0
1002
}
1002
{
1000
OTHER
1070
     0
1002
}
1002
{
1000
REACTOR
1002
}
  0
POINT
  5
1D873
330
1F
100
AcDbEntity
  8
0
 60
     1
100
AcDbPoint
 10
-6192.586660473049
 20
-8187.095526695619
 30
0.0
1001
GENIUS_GENOENT_13
1002
{
1000
MYREF
1005
1D873
1002
}
1002
{
1000
GRP
1005
0
1002
}
1001
GENIUS_GENOBJ-N-CRS_13
1002
{
1000
OWNER
1000
GEN
1002
}
1001
GENIUS_GENOLIS_13
1002
{
1000
ENT
1005
1D85C
1005
0
1005
0
1005
0
1002
}
1001
GENIUS_GENODEF_13
1002
{
1000
HIER
1070
    10
1002
}
1002
{
1000
MANEDIT
1070
     1
1002
}
1002
{
1000
NOSEL
1070
     0
1002
}
1002
{
1000
BEHIND
1070
     0
1002
}
1002
{
1000
OTHER
1070
     0
1002
}
1002
{
1000
REACTOR
1002
}
  0
POINT
  5
1D874
330
1F
100
AcDbEntity
  8
0
 60
     1
100
AcDbPoint
 10
-6177.586660473497
 20
-8187.095526695619
 30
0.0
1001
GENIUS_GENOENT_13
1002
{
1000
MYREF
1005
1D874
1002
}
1002
{
1000
GRP
1005
0
1002
}
1001
GENIUS_GENOBJ-N-CRS_13
1002
{
1000
OWNER
1000
GEN
1002
}
1001
GENIUS_GENOLIS_13
1002
{
1000
ENT
1005
1D80E
1005
0
1005
0
1005
0
1002
}
1001
GENIUS_GENODEF_13
1002
{
1000
HIER
1070
    10
1002
}
1002
{
1000
MANEDIT
1070
     1
1002
}
1002
{
1000
NOSEL
1070
     0
1002
}
1002
{
1000
BEHIND
1070
     0
1002
}
1002
{
1000
OTHER
1070
     0
1002
}
1002
{
1000
REACTOR
1002
}
  0
POINT
  5
1D875
330
1F
100
AcDbEntity
  8
0
 60
     1
100
AcDbPoint
 10
-6192.586660473049
 20
-8187.095526695619
 30
0.0
1001
GENIUS_GENOENT_13
1002
{
1000
MYREF
1005
1D875
1002
}
1002
{
1000
GRP
1005
0
1002
}
1001
GENIUS_GENOBJ-N-CRS_13
1002
{
1000
OWNER
1000
GEN
1002
}
1001
GENIUS_GENOLIS_13
1002
{
1000
ENT
1005
1D80D
1005
0
1005
0
1005
0
1002
}
1001
GENIUS_GENODEF_13
1002
{
1000
HIER
1070
    10
1002
}
1002
{
1000
MANEDIT
1070
     1
1002
}
1002
{
1000
NOSEL
1070
     0
1002
}
1002
{
1000
BEHIND
1070
     0
1002
}
1002
{
1000
OTHER
1070
     0
1002
}
1002
{
1000
REACTOR
1002
}
  0
LINE
  5
1D9DB
330
1F
100
AcDbEntity
  8
AM_7
  6
AM_ISO08W050x2
 48
0.4
100
AcDbLine
 10
1008.507623532064
 20
-206.8627632002351
 30
0.0
 11
1008.507623532064
 21
-214.8627632002351
 31
0.0
1001
GENIUS_GENODEF_13
1002
{
1000
HIER
1070
     0
1002
}
1002
{
1000
MANEDIT
1070
     0
1002
}
1002
{
1000
NOSEL
1070
     0
1002
}
1002
{
1000
BEHIND
1070
     0
1002
}
1002
{
1000
OTHER
1070
     0
1002
}
1002
{
1000
REACTOR
1002
}
1001
GENIUS_GENOBJ-N-CEN_13
1002
{
1000
OWNER
1000
GEN
1002
}
1001
GENIUS_GENCEN_19
1002
{
1040
3.0
1002
}
  0
LINE
  5
1D9E3
330
1F
100
AcDbEntity
  8
AM_7
  6
AM_ISO08W050x2
 48
0.4
100
AcDbLine
 10
1033.507623531984
 20
-206.8627632002423
 30
0.0
 11
1033.507623531984
 21
-214.8627632002424
 31
0.0
1001
GENIUS_GENODEF_13
1002
{
1000
HIER
1070
     0
1002
}
1002
{
1000
MANEDIT
1070
     0
1002
}
1002
{
1000
NOSEL
1070
     0
1002
}
1002
{
1000
BEHIND
1070
     0
1002
}
1002
{
1000
OTHER
1070
     0
1002
}
1002
{
1000
REACTOR
1002
}
1001
GENIUS_GENOBJ-N-CEN_13
1002
{
1000
OWNER
1000
GEN
1002
}
1001
GENIUS_GENCEN_19
1002
{
1040
3.0
1002
}
  0
CIRCLE
  5
1DB6A
330
1F
100
AcDbEntity
  8
AM_0
 48
0.4
100
AcDbCircle
 10
1008.458211212935
 20
-323.8323371944168
 30
0.0
 40
2.149999999999999
  0
CIRCLE
  5
1DB6B
330
1F
100
AcDbEntity
  8
AM_0
 48
0.4
100
AcDbCircle
 10
1033.458211212932
 20
-323.8323371944168
 30
0.0
 40
2.149999999999999
  0
DIMENSION
  5
1DBAD
330
1F
100
AcDbEntity
  8
AM_5
100
AcDbDimension
  2
*D19
 10
947.6942033465634
 20
-232.8627632001814
 30
0.0
 11
944.5942033465634
 21
-221.3627632001976
 31
0.0
 70
    32
 71
     5
 42
22.99999999996729
  3
SYS$0
100
AcDbAlignedDimension
 13
998.5076235326619
 23
-209.8627632002141
 33
0.0
 14
955.3521832037937
 24
-232.8627632001814
 34
0.0
 50
89.99999999995237
100
AcDbRotatedDimension
1001
ACAD
1000
DSTYLE
1002
{
1070
    48
1040
0.2
1070
   173
1070
     1
1070
   271
1070
     1
1070
   272
1070
     1
1002
}
  0
DIMENSION
  5
1DBCF
330
1F
100
AcDbEntity
  8
AM_5
100
AcDbDimension
  2
*D20
 10
937.6942033469559
 20
-209.8627632002141
 30
0.0
 11
934.594203346956
 21
-226.362763200249
 31
0.0
 70
    32
 71
     5
 42
33.00000000007006
  3
SYS$0
100
AcDbAlignedDimension
 13
959.6942033471194
 23
-242.8627632002842
 33
0.0
 14
998.5076235326619
 24
-209.8627632002141
 34
0.0
 50
90.0
100
AcDbRotatedDimension
1001
ACAD
1000
DSTYLE
1002
{
1070
    48
1040
0.2
1070
   173
1070
     1
1070
   271
1070
     1
1070
   272
1070
     1
1002
}
  0
DIMENSION
  5
1DC87
330
1F
100
AcDbEntity
  8
AM_5
100
AcDbDimension
  2
*D21
 10
957.6942033465137
 20
-209.8627632002141
 30
0.0
 11
954.5942033465134
 21
-213.8627632002144
 31
0.0
 70
    32
 71
     5
 42
8.000000000000909
  3
SYS$0
100
AcDbAlignedDimension
 13
1000.507623532659
 23
-217.8627632002151
 33
0.0
 14
997.0076235326621
 24
-209.8627632002141
 34
0.0
 50
89.99999999994383
100
AcDbRotatedDimension
1001
ACAD
1000
DSTYLE
1002
{
1070
    48
1040
0.2
1070
   173
1070
     1
1070
   271
1070
     1
1070
   272
1070
     1
1002
}
  0
LINE
  5
1DCF3
330
1F
100
AcDbEntity
  8
AM_0
100
AcDbLine
 10
868.1011206867944
 20
-297.3323371943589
 30
0.0
 11
868.1011206867946
 21
-299.3323371943588
 31
0.0
  0
DIMENSION
  5
1DD07
330
1F
100
AcDbEntity
  8
AM_5
100
AcDbDimension
  2
*D22
 10
1031.556464389847
 20
-322.8294119624636
 30
0.0
 11
1056.495308687145
 21
-332.1245870390033
 31
0.0
 70
   163
  1
2-<>
 71
     5
 42
4.299999999999727
  3
SYS$3
100
AcDbDiametricDimension
 15
1035.359958036016
 25
-324.8352624263695
 35
0.0
 40
0.0
1001
ACAD
1000
DSTYLE
1002
{
1070
    48
1040
0.2
1070
    74
1070
     1
1070
   173
1070
     1
1002
}
  0
DIMENSION
  5
1E11C
330
1F
100
AcDbEntity
  8
AM_5
100
AcDbDimension
  2
*D23
 10
784.647986378523
 20
-325.3052790570133
 30
0.0
 11
762.0803953068582
 21
-311.694090975402
 31
0.0
 70
   163
  1
2-M4タップ
 71
     5
 42
4.0
  3
SYS$3
100
AcDbDiametricDimension
 15
781.9421096116403
 25
-322.3593953318056
 35
0.0
 40
0.0
1001
ACAD
1000
DSTYLE
1002
{
1070
    48
1040
0.2
1070
    74
1070
     1
1070
   173
1070
     1
1002
}
  0
TEXT
  5
1E206
330
1F
100
AcDbEntity
  8
AM_6
 48
1.01
100
AcDbText
 10
753.4711865218057
 20
-172.1620284009599
 30
0.0
 40
3.2
  1
＊
 41
0.90047268
100
AcDbText
  0
ENDSEC
  0
SECTION
  2
OBJECTS
  0
DICTIONARY
  5
C
330
0
100
AcDbDictionary
281
     1
  3
ACAD_2007HEADERVARS_RT
350
1CF8E
  3
ACAD_COLOR
350
164C8
  3
ACAD_GROUP
350
D
  3
ACAD_LAYOUT
350
1A
  3
ACAD_MATERIAL
350
164C7
  3
ACAD_MLINESTYLE
350
17
  3
ACAD_PLOTSETTINGS
350
19
  3
ACAD_PLOTSTYLENAME
350
E
  3
ACAD_TABLESTYLE
350
164C9
  3
ACAD_VISUALSTYLE
350
1BDA3
  3
AcAsAppObject
350
3DA1
  3
ACASGREF_MASTER
350
3DE9
  3
ACDBHEADERROUNDTRIPXREC
350
1E239
  3
AcDbVariableDictionary
350
34
  3
AcmDictionary
350
47
  3
AD_GREF_MODULE
350
3DEA
  3
AD_MAPI_MODULE
350
3E06
  3
AMG
350
2B
  3
AMGSNAPSETTINGS
350
7D
  3
ASE_INDEX_DICTIONARY
350
12397
  3
DWGPROPS
350
1E238
  3
MAPISURF_MODULE
350
3DEB
  3
SAKAE_DICT
350
F639
  0
DICTIONARY
  5
3F95
330
2
100
AcDbDictionary
280
     1
281
     1
  3
ACAD_LAYERFILTERS
360
3F98
  3
ACAD_LAYERSTATES
360
3F96
  0
DICTIONARY
  5
8A
330
1F
100
AcDbDictionary
280
     1
281
     1
  3
ACAD_SORTENTS
360
169EE
  0
DICTIONARY
  5
1D0C6
330
1D0C5
100
AcDbDictionary
280
     1
281
     1
  3
ACAD_DIMASSOC
360
1D0C7
  0
DICTIONARY
  5
1D0C9
330
1D0C8
100
AcDbDictionary
280
     1
281
     1
  3
ACAD_DIMASSOC
360
1D0CA
  0
DICTIONARY
  5
1D0CC
330
1D0CB
100
AcDbDictionary
280
     1
281
     1
  3
ACAD_DIMASSOC
360
1D0CD
  0
DICTIONARY
  5
1D0CF
330
1D0CE
100
AcDbDictionary
280
     1
281
     1
  3
ACAD_DIMASSOC
360
1D0D0
  0
DICTIONARY
  5
1D422
330
1D421
100
AcDbDictionary
280
     1
281
     1
  3
ACAD_DIMASSOC
360
1D423
  0
DICTIONARY
  5
1CF8E
102
{ACAD_REACTORS
330
C
102
}
330
C
100
AcDbDictionary
281
     1
  3
DIMARCSYM
350
1CF8F
  0
DICTIONARY
  5
164C8
102
{ACAD_REACTORS
330
C
102
}
330
C
100
AcDbDictionary
281
     1
  0
DICTIONARY
  5
D
102
{ACAD_REACTORS
330
C
102
}
330
C
100
AcDbDictionary
281
     1
  0
DICTIONARY
  5
1A
102
{ACAD_REACTORS
330
C
102
}
330
C
100
AcDbDictionary
281
     1
  3
Model
350
22
  3
ﾚｲｱｳﾄ1
350
1E
  3
ﾚｲｱｳﾄ2
350
26
  0
DICTIONARY
  5
164C7
102
{ACAD_REACTORS
330
C
102
}
330
C
100
AcDbDictionary
281
     1
  3
ByBlock
350
1BDA2
  3
ByLayer
350
1BDA1
  3
Global
350
1BBE5
  0
DICTIONARY
  5
17
102
{ACAD_REACTORS
330
C
102
}
330
C
100
AcDbDictionary
281
     1
  3
Standard
350
18
  0
DICTIONARY
  5
19
102
{ACAD_REACTORS
330
C
102
}
330
C
100
AcDbDictionary
281
     1
  3
3100
350
1649A
  3
3101
350
1649B
  3
3200
350
1649C
  3
3201
350
1649D
  0
ACDBDICTIONARYWDFLT
  5
E
102
{ACAD_REACTORS
330
C
102
}
330
C
100
AcDbDictionary
281
     1
  3
Normal
350
F
100
AcDbDictionaryWithDefault
340
F
  0
DICTIONARY
  5
164C9
102
{ACAD_REACTORS
330
C
102
}
330
C
100
AcDbDictionary
281
     1
  3
Standard
350
164CA
  0
DICTIONARY
  5
1BDA3
102
{ACAD_REACTORS
330
C
102
}
330
C
100
AcDbDictionary
281
     1
  3
2dWireframe
350
1BDA9
  3
3D Hidden
350
1BDAB
  3
3dWireframe
350
1BDAA
  3
Basic
350
1BDA8
  3
Brighten
350
1BDAF
  3
ColorChange
350
1BDB3
  3
Conceptual
350
1BDAC
  3
Dim
350
1BDAE
  3
Facepattern
350
1BDB2
  3
Flat
350
1BDA4
  3
FlatWithEdges
350
1BDA5
  3
Gouraud
350
1BDA6
  3
GouraudWithEdges
350
1BDA7
  3
Linepattern
350
1BDB1
  3
Realistic
350
1BDAD
  3
Thicken
350
1BDB0
  0
ACAD_PROXY_OBJECT
  5
3DA1
102
{ACAD_REACTORS
330
C
102
}
330
C
100
AcDbProxyObject
 90
      499
 91
      576
 95
       23
 70
     0
 93
       10
310
4040
 94
        0
1001
ACAD
1000
AcRTDxfName
1000
ASAPP
1000
AcRTDxfName
1000
ASAPP
1000
AcRTDxfName
1000
ASAPP
1000
AcRTDxfName
1000
ASAPP
1000
AcRTDxfName
1000
ASAPP
1000
AcRTDxfName
1000
ASAPP
1000
AcRTDxfName
1000
ASAPP
  0
ACAD_PROXY_OBJECT
  5
3DE9
102
{ACAD_REACTORS
330
C
102
}
330
C
100
AcDbProxyObject
 90
      499
 91
      581
 95
       23
 70
     0
 93
       34
310
0100004040
 94
        0
1001
ACAD
1000
AcRTDxfName
1000
ACASGREFMASTER
1000
AcRTDxfName
1000
ACASGREFMASTER
1000
AcRTDxfName
1000
ACASGREFMASTER
1000
AcRTDxfName
1000
ACASGREFMASTER
1000
AcRTDxfName
1000
ACASGREFMASTER
1000
AcRTDxfName
1000
ACASGREFMASTER
1000
AcRTDxfName
1000
ACASGREFMASTER
  0
DICTIONARY
  5
1E239
102
{ACAD_REACTORS
330
C
102
}
330
C
100
AcDbDictionary
281
     1
  0
DICTIONARY
  5
34
102
{ACAD_REACTORS
330
C
102
}
330
C
100
AcDbDictionary
281
     1
  3
CTABLESTYLE
350
16525
  3
DIMASSOC
350
D350
  3
INDEXCTL
350
35
  3
PROJECTNAME
350
1E174
  3
SORTENTS
350
194C
  0
DICTIONARY
  5
47
102
{ACAD_REACTORS
330
C
102
}
330
C
100
AcDbDictionary
281
     1
  3
AcmBOM
350
7E8
  3
AcmStdDictionary
350
4C
  3
AMDTSECTSYM_ARROWCOLOR
350
164E9
  0
ACAD_PROXY_OBJECT
  5
3DEA
102
{ACAD_REACTORS
330
C
102
}
330
C
100
AcDbProxyObject
 90
      499
 91
      582
 95
       23
 70
     0
 93
      114
310
000000438000000000000000000027
 94
        0
1001
ACAD
1000
AcRTDxfName
1000
ACADGREFMODULE
1000
AcRTDxfName
1000
ACADGREFMODULE
1000
AcRTDxfName
1000
ACADGREFMODULE
1000
AcRTDxfName
1000
ACADGREFMODULE
1000
AcRTDxfName
1000
ACADGREFMODULE
1000
AcRTDxfName
1000
ACADGREFMODULE
1000
AcRTDxfName
1000
ACADGREFMODULE
  0
ACAD_PROXY_OBJECT
  5
3E06
102
{ACAD_REACTORS
330
C
102
}
330
C
100
AcDbProxyObject
 90
      499
 91
      594
 95
       23
 70
     0
 93
       34
310
05000044C0
 94
        0
1001
ACAD
1000
AcRTDxfName
1000
MAPIADMODULE
1000
AcRTDxfName
1000
MAPIADMODULE
1000
AcRTDxfName
1000
MAPIADMODULE
1000
AcRTDxfName
1000
MAPIADMODULE
1000
AcRTDxfName
1000
MAPIADMODULE
1000
AcRTDxfName
1000
MAPIADMODULE
1000
AcRTDxfName
1000
MAPIADMODULE
  0
DICTIONARY
  5
2B
102
{ACAD_REACTORS
330
C
102
}
330
C
100
AcDbDictionary
281
     1
  0
DICTIONARY
  5
7D
102
{ACAD_REACTORS
330
C
102
}
330
C
100
AcDbDictionary
281
     1
  0
DICTIONARY
  5
12397
102
{ACAD_REACTORS
330
C
102
}
330
C
100
AcDbDictionary
281
     1
  3
ASEBlockHierarchyIndexRecord
350
12398
1001
DCO15
1040
1516634736.952999
  0
XRECORD
  5
1E238
102
{ACAD_REACTORS
330
C
102
}
330
C
100
AcDbXrecord
280
     1
  1
DWGPROPS COOKIE
  2

  3

  4

  6

  7

  8
Administrator
  9

300
AmdtFileType=84
301
=
302
=
303
=
304
=
305
=
306
=
307
=
308
=
309
=
 40
18.31866956018518
 41
2452002.615067627
 42
2454263.649911019
  1

 90
        1
  0
ACAD_PROXY_OBJECT
  5
3DEB
102
{ACAD_REACTORS
330
C
102
}
330
C
100
AcDbProxyObject
 90
      499
 91
      583
 95
       23
 70
     0
 93
        8
310
047E
 94
        0
1001
ACAD
1000
AcRTDxfName
1000
AMDTMAPISURFMOUDULE
1000
AcRTDxfName
1000
AMDTMAPISURFMOUDULE
1000
AcRTDxfName
1000
AMDTMAPISURFMOUDULE
1000
AcRTDxfName
1000
AMDTMAPISURFMOUDULE
1000
AcRTDxfName
1000
AMDTMAPISURFMOUDULE
1000
AcRTDxfName
1000
AMDTMAPISURFMOUDULE
1000
AcRTDxfName
1000
AMDTMAPISURFMOUDULE
  0
DICTIONARY
  5
F639
102
{ACAD_REACTORS
330
C
102
}
330
C
100
AcDbDictionary
281
     1
  3
XREC1
350
F63A
  0
DICTIONARY
  5
3F98
102
{ACAD_REACTORS
330
3F95
102
}
330
3F95
100
AcDbDictionary
280
     1
281
     1
  0
DICTIONARY
  5
3F96
102
{ACAD_REACTORS
330
3F95
102
}
330
3F95
100
AcDbDictionary
281
     1
  3
20011210
350
3FB7
  0
SORTENTSTABLE
  5
169EE
102
{ACAD_REACTORS
330
8A
102
}
330
8A
100
AcDbSortentsTable
330
1F
331
1B1F1
  5
1B1F6
331
1D0B0
  5
1D0B0
331
1B1F9
  5
1B86D
331
1D0B8
  5
1D0B8
331
1C0B1
  5
1C0B1
331
1D83E
  5
1D83F
331
1D846
  5
1D847
331
1D7CA
  5
1D7CB
331
1D801
  5
1D80D
331
1D850
  5
1D851
331
1D858
  5
1D859
331
1D7D2
  5
1D7D3
331
1D860
  5
1D861
331
1D7DA
  5
1D7DB
331
1D793
  5
1D794
331
1D330
  5
1D330
331
1D338
  5
1D339
331
1C101
  5
1C101
331
1D86E
  5
1D86F
331
1D79B
  5
1D79D
331
1D7F2
  5
1D7F3
331
1D7FA
  5
1D801
331
1D849
  5
1D84A
331
1D7C3
  5
1D7C4
331
1B1F2
  5
1B1F7
331
1D0B1
  5
1D0B1
331
1C0AA
  5
1C0AA
331
1D0B9
  5
1D0B9
331
1D0D1
  5
1D0D1
331
1C0B2
  5
1C0B2
331
1D83F
  5
1D840
331
1D847
  5
1D848
331
1D851
  5
1D852
331
1D7CB
  5
1D7CC
331
1D859
  5
1D85A
331
1D7D3
  5
1D7D4
331
1D7DB
  5
1D7DC
331
1D861
  5
1D862
331
1D794
  5
1D795
331
1D331
  5
1D332
331
1C102
  5
1C102
331
1D86F
  5
1D9DB
331
1D0C0
  5
1D0C0
331
1D0C8
  5
1D0C8
331
1DBCF
  5
1DC1F
331
1D7F3
  5
1D7F4
331
1D84A
  5
1D84B
331
1D7C4
  5
1D7C5
331
1B1F3
  5
1B1F8
331
1D0B2
  5
1D0B2
331
1C0AB
  5
1C0AB
331
1D0BA
  5
1D0BA
331
1C0B3
  5
1C0B3
331
1D420
  5
1D421
331
1D838
  5
1D839
331
1D840
  5
1D845
331
1D7CC
  5
1D7CD
331
1D3E5
  5
1D3E6
331
1D852
  5
1D853
331
1D85A
  5
1D85B
331
1D7D4
  5
1D7D5
331
1D862
  5
1D863
331
1D405
  5
1D406
331
1D7DC
  5
1D7DD
331
1D795
  5
1D796
331
1C0BB
  5
1C0BB
331
1D332
  5
1D333
331
1C0FB
  5
1C0FB
331
1C103
  5
1C103
331
1D868
  5
1D869
331
1D0C1
  5
1D0C1
331
1D79D
  5
1D79E
331
1DB6A
  5
1DB6B
331
1D7F4
  5
1D7F5
331
1D84B
  5
1D84C
331
1D7C5
  5
1D7C6
331
1B1F4
  5
1B1F9
331
1C0AC
  5
1C0AC
331
1D0BB
  5
1D0BB
331
1C0B4
  5
1C0B4
331
1D421
  5
1D424
331
1D839
  5
1D83A
331
1D853
  5
1D854
331
1D3E6
  5
1D3E7
331
1D7CD
  5
1D7CE
331
1D85B
  5
1D85C
331
1D7D5
  5
1D7D6
331
1D7DD
  5
1D7DE
331
1D406
  5
1D407
331
1D863
  5
1D864
331
1D796
  5
1D797
331
1D9DB
  5
1D9E3
331
1C0BC
  5
1C0BC
331
1C0FC
  5
1C0FC
331
1D333
  5
1D334
331
1C104
  5
1C104
331
1D869
  5
1D86A
331
1D79E
  5
1D7A1
331
1D9E3
  5
1DB6A
331
1DB6B
  5
1DBAD
331
1D7F5
  5
1D7F6
331
1D834
  5
1D835
331
1DCF3
  5
1D331
331
1D84C
  5
1D84D
331
1D7C6
  5
1D7C7
331
1B1F5
  5
1B861
331
1D0B4
  5
1D0B4
331
1C0AD
  5
1C0AD
331
1D0BC
  5
1D0BC
331
1C0B5
  5
1C0B5
331
1D83A
  5
1D83B
331
1D7CE
  5
1D7CF
331
1D3E7
  5
1D3E8
331
1D854
  5
1D855
331
1D85C
  5
1D85D
331
1D7D6
  5
1D7D7
331
1D80D
  5
1D80E
331
1D815
  5
1D816
331
1D864
  5
1D866
331
1D407
  5
1D408
331
1D7DE
  5
1D7DF
331
1D797
  5
1D798
331
1C0BD
  5
1C0BD
331
1D334
  5
1D335
331
1C0FD
  5
1C0FD
331
1C105
  5
1C105
331
1D86A
  5
1D86E
331
1D0CB
  5
1D0CB
331
1D825
  5
1D826
331
1D7F6
  5
1D7F7
331
1D82D
  5
1D834
331
1D835
  5
1D836
331
1D84D
  5
1D84E
331
1D7C7
  5
1D7C8
331
1B1F6
  5
1B862
331
1D0B5
  5
1D0B5
331
1D0BD
  5
1D0BD
331
1C0AE
  5
1C0AE
331
1DC87
  5
1DCF3
331
1C0B6
  5
1C0B6
331
1D83B
  5
1D83C
331
1D855
  5
1D856
331
1D3E8
  5
1D3E9
331
1D7CF
  5
1D7D0
331
1D80E
  5
1D80F
331
1D85D
  5
1D860
331
1D7D7
  5
1D7D8
331
1D7DF
  5
1D7E0
331
1D816
  5
1D817
331
1D81E
  5
1D825
331
1D32D
  5
1D32D
331
1C0FE
  5
1C0FE
331
1D335
  5
1D336
331
1C106
  5
1C106
331
1D798
  5
1D799
331
1D826
  5
1D82D
331
1D7EF
  5
1D7F0
331
1D7F7
  5
1D7F8
331
1D836
  5
1D837
331
1D84E
  5
1D84F
331
1D0AE
  5
1D0AE
331
1B1F7
  5
1B86B
331
1D0B6
  5
1D0B6
331
1C0AF
  5
1C0AF
331
1D0BE
  5
1D0BE
331
1C0B7
  5
1C0B7
331
1D3F4
  5
1D3F5
331
1D83C
  5
1D83D
331
1D7C8
  5
1D7C9
331
1D7D0
  5
1D7D1
331
1D3E9
  5
1D3EA
331
1D856
  5
1D857
331
1D7D8
  5
1D7D9
331
1D80F
  5
1D815
331
1D817
  5
1D81E
331
1D866
  5
1D867
331
1D7E0
  5
1D7E1
331
1D32E
  5
1D32E
331
1D336
  5
1D337
331
1C0FF
  5
1C0FF
331
1C107
  5
1C107
331
1D0C5
  5
1D0C5
331
1D799
  5
1D79A
331
1D7E8
  5
1D7EF
331
1D7F0
  5
1D7F1
331
1D7A1
  5
1D7B1
331
1D7B1
  5
1D7B2
331
1D7F8
  5
1D7F9
331
1D837
  5
1D838
331
1D84F
  5
1D850
331
1B1F0
  5
1B1F5
331
1B1F8
  5
1B86C
331
1D0AF
  5
1D0AF
331
1D0B7
  5
1D0B7
331
1D0BF
  5
1D0BF
331
1C0B0
  5
1C0B0
331
1D3F5
  5
1D3F6
331
1D83D
  5
1D83E
331
1D845
  5
1D846
331
1D7C9
  5
1D7CA
331
1D857
  5
1D858
331
1D7D1
  5
1D7D2
331
1D7D9
  5
1D7DA
331
1D7E1
  5
1D7E8
331
1D867
  5
1D868
331
1C0B8
  5
1C0B8
331
1D32F
  5
1D32F
331
1D337
  5
1D338
331
1C100
  5
1C100
331
1DBAD
  5
1DBCF
331
1D0CE
  5
1D0CE
331
1D79A
  5
1D79B
331
1D7F1
  5
1D7F2
331
1D7B2
  5
1D7C3
331
1D7F9
  5
1D7FA
331
1D848
  5
1D849
  0
DIMASSOC
  5
1D0C7
102
{ACAD_REACTORS
330
1D0C6
102
}
330
1D0C6
100
AcDbDimAssoc
330
1D0C5
 90
        3
 70
     0
 71
     0
  1
AcDbOsnapPointRef
 72
    13
331
1D0BB
 73
     0
 91
        0
 40
0.0
 10
0.0
 20
0.0
 30
2.000000000000000E+50
 75
     0
  1
AcDbOsnapPointRef
 72
    13
331
1D0BC
 73
     0
 91
        0
 40
0.0
 10
0.0
 20
0.0
 30
2.000000000000000E+50
 75
     0
  0
DIMASSOC
  5
1D0CA
102
{ACAD_REACTORS
330
1D0C9
102
}
330
1D0C9
100
AcDbDimAssoc
330
1D0C8
 90
        3
 70
     0
 71
     0
  1
AcDbOsnapPointRef
 72
     1
331
1D0B4
 73
     2
 91
        3
 40
0.0
 10
0.0
 20
0.0
 30
2.000000000000000E+50
 75
     0
  1
AcDbOsnapPointRef
 72
     1
331
1D0B4
 73
     2
 91
        2
 40
0.0
 10
0.0
 20
0.0
 30
2.000000000000000E+50
 75
     0
  0
DIMASSOC
  5
1D0CD
102
{ACAD_REACTORS
330
1D0CC
102
}
330
1D0CC
100
AcDbDimAssoc
330
1D0CB
 90
        3
 70
     0
 71
     0
  1
AcDbOsnapPointRef
 72
     1
331
1D0B4
 73
     2
 91
        3
 40
0.0
 10
0.0
 20
0.0
 30
2.000000000000000E+50
 75
     0
  1
AcDbOsnapPointRef
 72
     1
331
1D0B4
 73
     2
 91
        4
 40
0.0
 10
0.0
 20
0.0
 30
2.000000000000000E+50
 75
     0
  0
DIMASSOC
  5
1D0D0
102
{ACAD_REACTORS
330
1D0CF
102
}
330
1D0CF
100
AcDbDimAssoc
330
1D0CE
 90
        3
 70
     0
 71
     0
  1
AcDbOsnapPointRef
 72
    13
331
1D0C0
 73
     0
 91
        0
 40
0.0
 10
0.0
 20
0.0
 30
2.000000000000000E+50
 75
     0
  1
AcDbOsnapPointRef
 72
     1
331
1D0BE
 73
     0
 91
        0
 40
0.0
 10
0.0
 20
0.0
 30
2.000000000000000E+50
 75
     0
  0
DIMASSOC
  5
1D423
102
{ACAD_REACTORS
330
1D422
102
}
330
1D422
100
AcDbDimAssoc
330
1D421
 90
        3
 70
     0
 71
     0
  1
AcDbOsnapPointRef
 72
     1
331
1D32E
 73
     0
 91
        0
 40
0.0
 10
0.0
 20
0.0
 30
2.000000000000000E+50
 75
     0
  1
AcDbOsnapPointRef
 72
    13
331
1D336
 73
     0
 91
        0
 40
0.0
 10
0.0
 20
0.0
 30
2.000000000000000E+50
 75
     0
  0
XRECORD
  5
1CF8F
102
{ACAD_REACTORS
330
1CF8E
102
}
330
1CF8E
100
AcDbXrecord
280
     1
 70
     1
  0
LAYOUT
  5
22
102
{ACAD_XDICTIONARY
360
1E23C
102
}
102
{ACAD_REACTORS
330
1A
102
}
330
1A
100
AcDbPlotSettings
  1

  2
FX DocuWide 2050/2051
  4
A3
  6
AM_VIEW1
 40
3.174999952316284
 41
3.174999952316284
 42
3.17498779296875
 43
3.17498779296875
 44
296.989501953125
 45
419.9889831542968
 46
8.81975710392021
 47
16.31949770450586
 48
730.6141865218059
 49
-407.5620284009595
140
1111.614186521806
141
-134.5620284009599
142
1.0
143
1.0
 70
  3764
 72
     1
 73
     1
 74
     4
  7
monochrome.ctb
 75
    16
147
1.0
148
-730.6141865218059
149
407.5620284009595
100
AcDbLayout
  1
Model
 70
     1
 71
     0
 10
0.0
 20
0.0
 11
12.0
 21
9.0
 12
0.0
 22
0.0
 32
0.0
 14
0.0
 24
0.0
 34
0.0
 15
0.0
 25
0.0
 35
0.0
146
0.0
 13
0.0
 23
0.0
 33
0.0
 16
1.0
 26
0.0
 36
0.0
 17
0.0
 27
1.0
 37
0.0
 76
     0
330
1F
1001
ACAD_PSEXT
1000
FX DocuWide 2050/2051
1000
FX DocuWide 2050/2051
1000
IP_192.168.2.203
1000

1070
     0
  0
LAYOUT
  5
1E
102
{ACAD_XDICTIONARY
360
1E23A
102
}
102
{ACAD_REACTORS
330
1A
102
}
330
1A
100
AcDbPlotSettings
  1

  2
\\ML370\XEROX
  4
A4
  6

 40
3.174999952316281
 41
3.174999952316281
 42
3.175003051757812
 43
3.17498779296875
 44
209.8674926757813
 45
296.6719970703125
 46
0.0
 47
0.0
 48
0.0
 49
0.0
140
0.0
141
0.0
142
1.0
143
1.0
 70
   688
 72
     1
 73
     1
 74
     5
  7
monochrome.ctb
 75
    16
147
1.0
148
0.0
149
0.0
100
AcDbLayout
  1
ﾚｲｱｳﾄ1
 70
     1
 71
     1
 10
-3.17498779296875
 20
-3.174999952316281
 11
293.4970092773438
 21
206.692492723465
 12
0.0
 22
0.0
 32
0.0
 14
1.000000000000000E+20
 24
1.000000000000000E+20
 34
1.000000000000000E+20
 15
-1.000000000000000E+20
 25
-1.000000000000000E+20
 35
-1.000000000000000E+20
146
0.0
 13
0.0
 23
0.0
 33
0.0
 16
1.0
 26
0.0
 36
0.0
 17
0.0
 27
1.0
 37
0.0
 76
     0
330
1B
  0
LAYOUT
  5
26
102
{ACAD_XDICTIONARY
360
1E23E
102
}
102
{ACAD_REACTORS
330
1A
102
}
330
1A
100
AcDbPlotSettings
  1

  2
\\ML370\XEROX
  4

  6

 40
0.0
 41
0.0
 42
0.0
 43
0.0
 44
0.0
 45
0.0
 46
0.0
 47
0.0
 48
0.0
 49
0.0
140
0.0
141
0.0
142
1.0
143
1.0
 70
   688
 72
     0
 73
     0
 74
     5
  7
monochrome.ctb
 75
    16
147
1.0
148
0.0
149
0.0
100
AcDbLayout
  1
ﾚｲｱｳﾄ2
 70
     1
 71
     2
 10
0.0
 20
0.0
 11
12.0
 21
9.0
 12
0.0
 22
0.0
 32
0.0
 14
0.0
 24
0.0
 34
0.0
 15
0.0
 25
0.0
 35
0.0
146
0.0
 13
0.0
 23
0.0
 33
0.0
 16
1.0
 26
0.0
 36
0.0
 17
0.0
 27
1.0
 37
0.0
 76
     0
330
23
  0
MATERIAL
  5
1BDA2
102
{ACAD_XDICTIONARY
360
1BEE1
102
}
102
{ACAD_REACTORS
330
164C7
102
}
330
164C7
100
AcDbMaterial
  1
ByBlock
  0
MATERIAL
  5
1BDA1
102
{ACAD_XDICTIONARY
360
1BEDF
102
}
102
{ACAD_REACTORS
330
164C7
102
}
330
164C7
100
AcDbMaterial
  1
ByLayer
  0
MATERIAL
  5
1BBE5
102
{ACAD_XDICTIONARY
360
1BEDD
102
}
102
{ACAD_REACTORS
330
164C7
102
}
330
164C7
100
AcDbMaterial
  1
Global
  0
MLINESTYLE
  5
18
102
{ACAD_REACTORS
330
17
102
}
330
17
100
AcDbMlineStyle
  2
STANDARD
 70
     0
  3

 62
   256
 51
90.0
 52
90.0
 71
     2
 49
0.5
 62
   256
  6
BYLAYER
 49
-0.5
 62
   256
  6
BYLAYER
  0
PLOTSETTINGS
  5
1649A
102
{ACAD_XDICTIONARY
360
1E240
102
}
102
{ACAD_REACTORS
330
19
102
}
330
19
100
AcDbPlotSettings
  1
3100
  2
RICOH imagio Wide 7040e RP-GL/2
  4
A3
  6
AM_VIEW1
 40
5.069416522979736
 41
7.22842264175415
 42
5.238739013671875
 43
7.05908203125
 44
419.9889831542968
 45
296.9683227539062
 46
-5.16
 47
-7.16
 48
-227.2796935839621
 49
-444.984231628589
140
192.7203064160378
141
-147.984231628589
142
1.0
143
1.0
 70
  1716
 72
     1
 73
     0
 74
     4
  7
monochrome.ctb
 75
    16
147
1.0
148
227.2796935839621
149
444.984231628589
  0
PLOTSETTINGS
  5
1649B
102
{ACAD_XDICTIONARY
360
1E242
102
}
102
{ACAD_REACTORS
330
19
102
}
330
19
100
AcDbPlotSettings
  1
3101
  2
RICOH imagio Wide 7040e RP-GL/2
  4
A3
  6
AM_VIEW1
 40
5.069416522979736
 41
7.22842264175415
 42
5.238739013671875
 43
7.05908203125
 44
419.9889831542968
 45
296.9683227539062
 46
-5.16
 47
-7.16
 48
-227.2796935839623
 49
-759.8366747873004
140
192.7203064160377
141
-462.8366747873005
142
1.0
143
1.0
 70
  1716
 72
     1
 73
     0
 74
     4
  7
monochrome.ctb
 75
    16
147
1.0
148
227.2796935839623
149
759.8366747873004
  0
PLOTSETTINGS
  5
1649C
102
{ACAD_XDICTIONARY
360
1E244
102
}
102
{ACAD_REACTORS
330
19
102
}
330
19
100
AcDbPlotSettings
  1
3200
  2
RICOH imagio Wide 7040e RP-GL/2
  4
A3
  6
AM_VIEW1
 40
5.069416522979736
 41
7.22842264175415
 42
5.238739013671875
 43
7.05908203125
 44
419.9889831542968
 45
296.9683227539062
 46
-5.16
 47
-7.16
 48
219.4956354736256
 49
-444.9842316285891
140
639.4956354736256
141
-147.9842316285891
142
1.0
143
1.0
 70
  1716
 72
     1
 73
     0
 74
     4
  7
monochrome.ctb
 75
    16
147
1.0
148
-219.4956354736256
149
444.9842316285891
  0
PLOTSETTINGS
  5
1649D
102
{ACAD_XDICTIONARY
360
1E246
102
}
102
{ACAD_REACTORS
330
19
102
}
330
19
100
AcDbPlotSettings
  1
3201
  2
RICOH imagio Wide 7040e RP-GL/2
  4
A3
  6
AM_VIEW1
 40
5.069416522979736
 41
7.22842264175415
 42
5.238739013671875
 43
7.05908203125
 44
419.9889831542968
 45
296.9683227539062
 46
-5.16
 47
-7.16
 48
219.4956354736255
 49
-759.8366747873005
140
639.4956354736255
141
-462.8366747873005
142
1.0
143
1.0
 70
  1716
 72
     1
 73
     0
 74
     4
  7
monochrome.ctb
 75
    16
147
1.0
148
-219.4956354736255
149
759.8366747873005
  0
ACDBPLACEHOLDER
  5
F
102
{ACAD_REACTORS
330
E
102
}
330
E
  0
TABLESTYLE
  5
164CA
102
{ACAD_XDICTIONARY
360
1CF9E
102
}
102
{ACAD_REACTORS
330
164C9
102
}
330
164C9
100
AcDbTableStyle
  3
Standard
 70
     0
 71
     0
 40
1.5
 41
1.5
280
     0
281
     0
  7
STANDARD
140
4.5
170
     2
 62
     0
 63
     7
283
     0
274
    -2
284
     1
 64
     0
275
    -2
285
     1
 65
     0
276
    -2
286
     1
 66
     0
277
    -2
287
     1
 67
     0
278
    -2
288
     1
 68
     0
279
    -2
289
     1
 69
     0
  7
STANDARD
140
6.0
170
     5
 62
     0
 63
     7
283
     0
274
    -2
284
     1
 64
     0
275
    -2
285
     1
 65
     0
276
    -2
286
     1
 66
     0
277
    -2
287
     1
 67
     0
278
    -2
288
     1
 68
     0
279
    -2
289
     1
 69
     0
  7
STANDARD
140
4.5
170
     5
 62
     0
 63
     7
283
     0
274
    -2
284
     1
 64
     0
275
    -2
285
     1
 65
     0
276
    -2
286
     1
 66
     0
277
    -2
287
     1
 67
     0
278
    -2
288
     1
 68
     0
279
    -2
289
     1
 69
     0
  0
VISUALSTYLE
  5
1BDA9
102
{ACAD_REACTORS
330
1BDA3
102
}
330
1BDA3
100
AcDbVisualStyle
  2
2dWireframe
 70
     4
 71
     0
 72
     2
 73
     0
 90
        0
 40
-0.6
 41
-30.0
 62
     5
 63
     7
 74
     1
 91
        4
 64
     7
 65
   257
 75
     1
175
     1
 42
1.0
 92
        0
 66
   257
 43
1.0
 76
     1
 77
     6
 78
     2
 67
     7
 79
     5
170
     0
171
     0
290
     0
174
     0
 93
        1
 44
0.0
173
     0
291
     0
 45
0.0
1001
ACAD
1000
AcDbSavedByObjectVersion
1070
     0
1000
AcDbSavedByObjectVersion
1070
     0
1000
AcDbSavedByObjectVersion
1070
     0
1000
AcDbSavedByObjectVersion
1070
     0
1000
AcDbSavedByObjectVersion
1070
     0
1001
ACAD
1001
ACAD
1000
AcRTDxfName
1000
VISUALSTYLE
  0
VISUALSTYLE
  5
1BDAB
102
{ACAD_REACTORS
330
1BDA3
102
}
330
1BDA3
100
AcDbVisualStyle
  2
3D Hidden
 70
     6
 71
     1
 72
     2
 73
     2
 90
        0
 40
-0.6
 41
-30.0
 62
     5
 63
     7
 74
     2
 91
        2
 64
     7
 65
   257
 75
     2
175
     1
 42
40.0
 92
        0
 66
   257
 43
1.0
 76
     1
 77
     6
 78
     2
 67
     7
 79
     3
170
     0
171
     0
290
     0
174
     0
 93
        1
 44
0.0
173
     0
291
     0
 45
0.0
1001
ACAD
1000
AcDbSavedByObjectVersion
1070
     0
1000
AcDbSavedByObjectVersion
1070
     0
1000
AcDbSavedByObjectVersion
1070
     0
1000
AcDbSavedByObjectVersion
1070
     0
1000
AcDbSavedByObjectVersion
1070
     0
1001
ACAD
1001
ACAD
1000
AcRTDxfName
1000
VISUALSTYLE
  0
VISUALSTYLE
  5
1BDAA
102
{ACAD_REACTORS
330
1BDA3
102
}
330
1BDA3
100
AcDbVisualStyle
  2
3dWireframe
 70
     5
 71
     0
 72
     2
 73
     0
 90
        0
 40
-0.6
 41
-30.0
 62
     5
 63
     7
 74
     1
 91
        4
 64
     7
 65
   257
 75
     1
175
     1
 42
1.0
 92
        0
 66
   257
 43
1.0
 76
     1
 77
     6
 78
     2
 67
     7
 79
     5
170
     0
171
     0
290
     0
174
     0
 93
        1
 44
0.0
173
     0
291
     0
 45
0.0
1001
ACAD
1000
AcDbSavedByObjectVersion
1070
     0
1000
AcDbSavedByObjectVersion
1070
     0
1000
AcDbSavedByObjectVersion
1070
     0
1000
AcDbSavedByObjectVersion
1070
     0
1000
AcDbSavedByObjectVersion
1070
     0
1001
ACAD
1001
ACAD
1000
AcRTDxfName
1000
VISUALSTYLE
  0
VISUALSTYLE
  5
1BDA8
102
{ACAD_REACTORS
330
1BDA3
102
}
330
1BDA3
100
AcDbVisualStyle
  2
Basic
 70
     7
 71
     1
 72
     0
 73
     1
 90
        0
 40
-0.6
 41
-30.0
 62
     5
 63
     7
 74
     0
 91
        4
 64
     7
 65
   257
 75
     1
175
     1
 42
1.0
 92
        8
 66
     7
 43
1.0
 76
     1
 77
     6
 78
     2
 67
     7
 79
     5
170
     0
171
     0
290
     0
174
     0
 93
        1
 44
0.0
173
     0
291
     1
 45
0.0
1001
ACAD
1000
AcDbSavedByObjectVersion
1070
     0
1000
AcDbSavedByObjectVersion
1070
     0
1000
AcDbSavedByObjectVersion
1070
     0
1000
AcDbSavedByObjectVersion
1070
     0
1000
AcDbSavedByObjectVersion
1070
     0
1001
ACAD
1001
ACAD
1000
AcRTDxfName
1000
VISUALSTYLE
  0
VISUALSTYLE
  5
1BDAF
102
{ACAD_REACTORS
330
1BDA3
102
}
330
1BDA3
100
AcDbVisualStyle
  2
Brighten
 70
    12
 71
     2
 72
     2
 73
     0
 90
        0
 40
-0.6
 41
-30.0
 62
     5
 63
     7
 74
     1
 91
        4
 64
     7
 65
   257
 75
     1
175
     1
 42
1.0
 92
        8
 66
     7
 43
1.0
 76
     1
 77
     6
 78
     2
 67
     7
 79
     5
170
     0
171
     0
290
     0
174
     0
 93
        1
 44
50.0
173
     0
291
     1
 45
0.0
1001
ACAD
1000
AcDbSavedByObjectVersion
1070
     0
1000
AcDbSavedByObjectVersion
1070
     0
1000
AcDbSavedByObjectVersion
1070
     0
1000
AcDbSavedByObjectVersion
1070
     0
1000
AcDbSavedByObjectVersion
1070
     0
1001
ACAD
1001
ACAD
1000
AcRTDxfName
1000
VISUALSTYLE
  0
VISUALSTYLE
  5
1BDB3
102
{ACAD_REACTORS
330
1BDA3
102
}
330
1BDA3
100
AcDbVisualStyle
  2
ColorChange
 70
    16
 71
     2
 72
     2
 73
     3
 90
        0
 40
-0.6
 41
-30.0
 62
     5
 63
     8
 74
     1
 91
        4
 64
     7
 65
   257
 75
     1
175
     1
 42
1.0
 92
        8
 66
     8
 43
1.0
 76
     1
 77
     6
 78
     2
 67
     7
 79
     5
170
     0
171
     0
290
     0
174
     0
 93
        1
 44
0.0
173
     0
291
     1
 45
0.0
1001
ACAD
1000
AcDbSavedByObjectVersion
1070
     0
1000
AcDbSavedByObjectVersion
1070
     0
1000
AcDbSavedByObjectVersion
1070
     0
1000
AcDbSavedByObjectVersion
1070
     0
1000
AcDbSavedByObjectVersion
1070
     0
1001
ACAD
1001
ACAD
1000
AcRTDxfName
1000
VISUALSTYLE
  0
VISUALSTYLE
  5
1BDAC
102
{ACAD_REACTORS
330
1BDA3
102
}
330
1BDA3
100
AcDbVisualStyle
  2
Conceptual
 70
     9
 71
     3
 72
     2
 73
     0
 90
        0
 40
-0.6
 41
-30.0
 62
     5
 63
     7
 74
     2
 91
        2
 64
     7
 65
   257
 75
     1
175
     1
 42
40.0
 92
        8
 66
     7
 43
1.0
 76
     1
 77
     6
 78
     2
 67
     7
 79
     3
170
     0
171
     0
290
     0
174
     0
 93
        1
 44
0.0
173
     0
291
     0
 45
0.0
1001
ACAD
1000
AcDbSavedByObjectVersion
1070
     0
1000
AcDbSavedByObjectVersion
1070
     0
1000
AcDbSavedByObjectVersion
1070
     0
1000
AcDbSavedByObjectVersion
1070
     0
1000
AcDbSavedByObjectVersion
1070
     0
1001
ACAD
1001
ACAD
1000
AcRTDxfName
1000
VISUALSTYLE
  0
VISUALSTYLE
  5
1BDAE
102
{ACAD_REACTORS
330
1BDA3
102
}
330
1BDA3
100
AcDbVisualStyle
  2
Dim
 70
    11
 71
     2
 72
     2
 73
     0
 90
        0
 40
-0.6
 41
-30.0
 62
     5
 63
     7
 74
     1
 91
        4
 64
     7
 65
   257
 75
     1
175
     1
 42
1.0
 92
        8
 66
     7
 43
1.0
 76
     1
 77
     6
 78
     2
 67
     7
 79
     5
170
     0
171
     0
290
     0
174
     0
 93
        1
 44
-50.0
173
     0
291
     1
 45
0.0
1001
ACAD
1000
AcDbSavedByObjectVersion
1070
     0
1000
AcDbSavedByObjectVersion
1070
     0
1000
AcDbSavedByObjectVersion
1070
     0
1000
AcDbSavedByObjectVersion
1070
     0
1000
AcDbSavedByObjectVersion
1070
     0
1001
ACAD
1001
ACAD
1000
AcRTDxfName
1000
VISUALSTYLE
  0
VISUALSTYLE
  5
1BDB2
102
{ACAD_REACTORS
330
1BDA3
102
}
330
1BDA3
100
AcDbVisualStyle
  2
Facepattern
 70
    15
 71
     2
 72
     2
 73
     0
 90
        0
 40
-0.6
 41
-30.0
 62
     5
 63
     7
 74
     1
 91
        4
 64
     7
 65
   257
 75
     1
175
     1
 42
1.0
 92
        8
 66
     7
 43
1.0
 76
     1
 77
     6
 78
     2
 67
     7
 79
     5
170
     0
171
     0
290
     0
174
     0
 93
        1
 44
0.0
173
     0
291
     1
 45
0.0
1001
ACAD
1000
AcDbSavedByObjectVersion
1070
     0
1000
AcDbSavedByObjectVersion
1070
     0
1000
AcDbSavedByObjectVersion
1070
     0
1000
AcDbSavedByObjectVersion
1070
     0
1000
AcDbSavedByObjectVersion
1070
     0
1001
ACAD
1001
ACAD
1000
AcRTDxfName
1000
VISUALSTYLE
  0
VISUALSTYLE
  5
1BDA4
102
{ACAD_REACTORS
330
1BDA3
102
}
330
1BDA3
100
AcDbVisualStyle
  2
Flat
 70
     0
 71
     2
 72
     1
 73
     1
 90
        2
 40
-0.6
 41
30.0
 62
     5
 63
     7
 74
     0
 91
        4
 64
     7
 65
   257
 75
     1
175
     1
 42
1.0
 92
        8
 66
     7
 43
1.0
 76
     1
 77
     6
 78
     2
 67
     7
 79
     5
170
     0
171
     0
290
     0
174
     0
 93
       13
 44
0.0
173
     0
291
     1
 45
0.0
1001
ACAD
1000
AcDbSavedByObjectVersion
1070
     0
1000
AcDbSavedByObjectVersion
1070
     0
1000
AcDbSavedByObjectVersion
1070
     0
1000
AcDbSavedByObjectVersion
1070
     0
1000
AcDbSavedByObjectVersion
1070
     0
1001
ACAD
1001
ACAD
1000
AcRTDxfName
1000
VISUALSTYLE
  0
VISUALSTYLE
  5
1BDA5
102
{ACAD_REACTORS
330
1BDA3
102
}
330
1BDA3
100
AcDbVisualStyle
  2
FlatWithEdges
 70
     1
 71
     2
 72
     1
 73
     1
 90
        2
 40
-0.6
 41
30.0
 62
     5
 63
     7
 74
     1
 91
        4
 64
     7
 65
   257
 75
     1
175
     1
 42
1.0
 92
        0
 66
   257
 43
1.0
 76
     1
 77
     6
 78
     2
 67
     7
 79
     5
170
     0
171
     0
290
     0
174
     0
 93
       13
 44
0.0
173
     0
291
     1
 45
0.0
1001
ACAD
1000
AcDbSavedByObjectVersion
1070
     0
1000
AcDbSavedByObjectVersion
1070
     0
1000
AcDbSavedByObjectVersion
1070
     0
1000
AcDbSavedByObjectVersion
1070
     0
1000
AcDbSavedByObjectVersion
1070
     0
1001
ACAD
1001
ACAD
1000
AcRTDxfName
1000
VISUALSTYLE
  0
VISUALSTYLE
  5
1BDA6
102
{ACAD_REACTORS
330
1BDA3
102
}
330
1BDA3
100
AcDbVisualStyle
  2
Gouraud
 70
     2
 71
     2
 72
     2
 73
     1
 90
        2
 40
-0.6
 41
30.0
 62
     5
 63
     7
 74
     0
 91
        4
 64
     7
 65
   257
 75
     1
175
     1
 42
1.0
 92
        0
 66
     7
 43
1.0
 76
     1
 77
     6
 78
     2
 67
     7
 79
     5
170
     0
171
     0
290
     0
174
     0
 93
       13
 44
0.0
173
     0
291
     1
 45
0.0
1001
ACAD
1000
AcDbSavedByObjectVersion
1070
     0
1000
AcDbSavedByObjectVersion
1070
     0
1000
AcDbSavedByObjectVersion
1070
     0
1000
AcDbSavedByObjectVersion
1070
     0
1000
AcDbSavedByObjectVersion
1070
     0
1001
ACAD
1001
ACAD
1000
AcRTDxfName
1000
VISUALSTYLE
  0
VISUALSTYLE
  5
1BDA7
102
{ACAD_REACTORS
330
1BDA3
102
}
330
1BDA3
100
AcDbVisualStyle
  2
GouraudWithEdges
 70
     3
 71
     2
 72
     2
 73
     1
 90
        2
 40
-0.6
 41
30.0
 62
     5
 63
     7
 74
     1
 91
        4
 64
     7
 65
   257
 75
     1
175
     1
 42
1.0
 92
        0
 66
   257
 43
1.0
 76
     1
 77
     6
 78
     2
 67
     7
 79
     5
170
     0
171
     0
290
     0
174
     0
 93
       13
 44
0.0
173
     0
291
     1
 45
0.0
1001
ACAD
1000
AcDbSavedByObjectVersion
1070
     0
1000
AcDbSavedByObjectVersion
1070
     0
1000
AcDbSavedByObjectVersion
1070
     0
1000
AcDbSavedByObjectVersion
1070
     0
1000
AcDbSavedByObjectVersion
1070
     0
1001
ACAD
1001
ACAD
1000
AcRTDxfName
1000
VISUALSTYLE
  0
VISUALSTYLE
  5
1BDB1
102
{ACAD_REACTORS
330
1BDA3
102
}
330
1BDA3
100
AcDbVisualStyle
  2
Linepattern
 70
    14
 71
     2
 72
     2
 73
     0
 90
        0
 40
-0.6
 41
-30.0
 62
     5
 63
     7
 74
     1
 91
        4
 64
     7
 65
   257
 75
     7
175
     7
 42
1.0
 92
        8
 66
     7
 43
1.0
 76
     1
 77
     6
 78
     2
 67
     7
 79
     5
170
     0
171
     0
290
     0
174
     0
 93
        1
 44
0.0
173
     0
291
     1
 45
0.0
1001
ACAD
1000
AcDbSavedByObjectVersion
1070
     0
1000
AcDbSavedByObjectVersion
1070
     0
1000
AcDbSavedByObjectVersion
1070
     0
1000
AcDbSavedByObjectVersion
1070
     0
1000
AcDbSavedByObjectVersion
1070
     0
1001
ACAD
1001
ACAD
1000
AcRTDxfName
1000
VISUALSTYLE
  0
VISUALSTYLE
  5
1BDAD
102
{ACAD_REACTORS
330
1BDA3
102
}
330
1BDA3
100
AcDbVisualStyle
  2
Realistic
 70
     8
 71
     2
 72
     2
 73
     0
 90
        0
 40
-0.6
 41
-30.0
 62
     5
 63
     7
 74
     1
 91
        0
 64
     7
 65
   257
 75
     1
175
     1
 42
1.0
 92
        8
 66
     8
 43
1.0
 76
     1
 77
     6
 78
     2
 67
     7
 79
     5
170
     0
171
     0
290
     0
174
     0
 93
       13
 44
0.0
173
     0
291
     0
 45
0.0
1001
ACAD
1000
AcDbSavedByObjectVersion
1070
     0
1000
AcDbSavedByObjectVersion
1070
     0
1000
AcDbSavedByObjectVersion
1070
     0
1000
AcDbSavedByObjectVersion
1070
     0
1000
AcDbSavedByObjectVersion
1070
     0
1001
ACAD
1001
ACAD
1000
AcRTDxfName
1000
VISUALSTYLE
  0
VISUALSTYLE
  5
1BDB0
102
{ACAD_REACTORS
330
1BDA3
102
}
330
1BDA3
100
AcDbVisualStyle
  2
Thicken
 70
    13
 71
     2
 72
     2
 73
     0
 90
        0
 40
-0.6
 41
-30.0
 62
     5
 63
     7
 74
     1
 91
        4
 64
     7
 65
   257
 75
     1
175
     1
 42
1.0
 92
       12
 66
     7
 43
1.0
 76
     1
 77
     6
 78
     2
 67
     7
 79
     5
170
     0
171
     0
290
     0
174
     0
 93
        1
 44
0.0
173
     0
291
     1
 45
0.0
1001
ACAD
1000
AcDbSavedByObjectVersion
1070
     0
1000
AcDbSavedByObjectVersion
1070
     0
1000
AcDbSavedByObjectVersion
1070
     0
1000
AcDbSavedByObjectVersion
1070
     0
1000
AcDbSavedByObjectVersion
1070
     0
1001
ACAD
1001
ACAD
1000
AcRTDxfName
1000
VISUALSTYLE
  0
DICTIONARYVAR
  5
16525
102
{ACAD_REACTORS
330
34
102
}
330
34
100
DictionaryVariables
280
     0
  1
STANDARD
  0
DICTIONARYVAR
  5
D350
102
{ACAD_REACTORS
330
34
102
}
330
34
100
DictionaryVariables
280
     0
  1
1
  0
DICTIONARYVAR
  5
35
102
{ACAD_REACTORS
330
34
102
}
330
34
100
DictionaryVariables
280
     0
  1
0
  0
DICTIONARYVAR
  5
1E174
102
{ACAD_REACTORS
330
34
102
}
330
34
100
DictionaryVariables
280
     0
  1

  0
DICTIONARYVAR
  5
194C
102
{ACAD_REACTORS
330
34
102
}
330
34
100
DictionaryVariables
280
     0
  1
96
  0
DICTIONARY
  5
7E8
102
{ACAD_REACTORS
330
47
102
}
330
47
100
AcDbDictionary
281
     1
  0
DICTIONARY
  5
4C
102
{ACAD_REACTORS
330
47
102
}
330
47
100
AcDbDictionary
281
     1
  0
XRECORD
  5
164E9
102
{ACAD_REACTORS
330
47
102
}
330
47
100
AcDbXrecord
280
     1
 90
-1023410169
  0
XRECORD
  5
12398
102
{ACAD_REACTORS
330
12397
102
}
330
12397
100
AcDbXrecord
280
     1
330
0
330
0
330
0
330
0
330
0
330
0
330
0
330
0
330
0
330
0
330
0
330
0
330
0
330
0
330
0
330
0
330
0
330
0
330
0
330
0
330
0
330
0
330
0
330
0
330
0
330
0
330
0
330
0
330
0
330
0
330
0
330
0
330
0
330
0
330
0
330
0
330
0
330
0
330
0
330
0
330
0
330
0
330
0
330
0
330
0
330
0
330
0
330
0
330
0
330
0
330
0
330
0
330
0
330
0
330
0
330
0
330
0
330
0
330
0
330
0
330
0
330
0
330
0
330
0
330
0
330
0
330
0
330
0
330
0
330
0
330
0
330
0
330
0
330
0
330
0
330
0
330
0
330
0
330
0
330
0
330
0
330
0
330
0
330
0
330
0
330
0
330
0
330
0
330
0
330
0
330
0
330
0
330
0
330
0
330
0
330
0
330
0
330
0
330
0
330
0
330
0
330
0
330
0
330
0
330
0
330
0
330
0
330
0
330
0
330
0
330
0
  0
XRECORD
  5
F63A
102
{ACAD_REACTORS
330
F639
102
}
330
F639
100
AcDbXrecord
280
     1
  1
PV
 40
1.0
 50
-12089.40947726037
 51
-5729.577951308232
 52
9740.282517223997
 53
9912.169855763243
  0
XRECORD
  5
3FB7
102
{ACAD_REACTORS
330
3F96
102
}
330
3F96
100
AcDbXrecord
280
     1
 91
        3
330
A47
 90
        8
 62
     7
370
    40
331
16
  1
Color_7
330
A46
 90
        0
 62
    14
370
    -3
331
16
  1
Color_14
330
3A31
 90
        8
 62
     7
370
    20
331
16
  1
Color_7
330
6D1
 90
        0
 62
     7
370
    -3
331
16
  1
Color_7
330
0
 90
        8
 62
     7
370
    50
331
16
  1
Color_7
330
A48
 90
        8
 62
     2
370
    35
331
16
  1
Color_2
330
0
 90
        8
 62
     7
370
    -3
331
16
  1
Color_7
330
10
 90
        8
 62
     7
370
    -3
331
16
  1
Color_7
  0
DICTIONARY
  5
1E23C
330
22
100
AcDbDictionary
280
     1
281
     1
  3
ACAD_XREC_ROUNDTRIP
360
1E23D
  0
DICTIONARY
  5
1E23A
330
1E
100
AcDbDictionary
280
     1
281
     1
  3
ACAD_XREC_ROUNDTRIP
360
1E23B
  0
DICTIONARY
  5
1E23E
330
26
100
AcDbDictionary
280
     1
281
     1
  3
ACAD_XREC_ROUNDTRIP
360
1E23F
  0
DICTIONARY
  5
1BEE1
330
1BDA2
100
AcDbDictionary
280
     1
281
     1
  3
ACAD_XREC_ROUNDTRIP
360
1BEE2
  0
DICTIONARY
  5
1BEDF
330
1BDA1
100
AcDbDictionary
280
     1
281
     1
  3
ACAD_XREC_ROUNDTRIP
360
1BEE0
  0
DICTIONARY
  5
1BEDD
330
1BBE5
100
AcDbDictionary
280
     1
281
     1
  3
ACAD_XREC_ROUNDTRIP
360
1BEDE
  0
DICTIONARY
  5
1E240
330
1649A
100
AcDbDictionary
280
     1
281
     1
  3
ACAD_XREC_ROUNDTRIP
360
1E241
  0
DICTIONARY
  5
1E242
330
1649B
100
AcDbDictionary
280
     1
281
     1
  3
ACAD_XREC_ROUNDTRIP
360
1E243
  0
DICTIONARY
  5
1E244
330
1649C
100
AcDbDictionary
280
     1
281
     1
  3
ACAD_XREC_ROUNDTRIP
360
1E245
  0
DICTIONARY
  5
1E246
330
1649D
100
AcDbDictionary
280
     1
281
     1
  3
ACAD_XREC_ROUNDTRIP
360
1E247
  0
DICTIONARY
  5
1CF9E
330
164CA
100
AcDbDictionary
280
     1
281
     1
  3
ACAD_XREC_ROUNDTRIP
360
1CF9F
  0
XRECORD
  5
1E23D
102
{ACAD_REACTORS
330
1E23C
102
}
330
1E23C
100
AcDbXrecord
280
     1
102
SHADEPLOT
 70
     0
102
SHADEPLOTRESLEVEL
 70
     2
102
SHADEPLOTCUSTOMDPI
 70
   300
  0
XRECORD
  5
1E23B
102
{ACAD_REACTORS
330
1E23A
102
}
330
1E23A
100
AcDbXrecord
280
     1
102
SHADEPLOT
 70
     0
102
SHADEPLOTRESLEVEL
 70
     2
102
SHADEPLOTCUSTOMDPI
 70
   300
  0
XRECORD
  5
1E23F
102
{ACAD_REACTORS
330
1E23E
102
}
330
1E23E
100
AcDbXrecord
280
     1
102
SHADEPLOT
 70
     0
102
SHADEPLOTRESLEVEL
 70
     2
102
SHADEPLOTCUSTOMDPI
 70
   300
  0
XRECORD
  5
1BEE2
102
{ACAD_REACTORS
330
1BEE1
102
}
330
1BEE1
100
AcDbXrecord
280
     1
102
MATERIAL
148
0.0
149
0.0
149
0.0
 93
        0
 94
       63
282
     0
 72
     1
 77
     1
171
     1
175
     1
179
     1
273
     0
  0
XRECORD
  5
1BEE0
102
{ACAD_REACTORS
330
1BEDF
102
}
330
1BEDF
100
AcDbXrecord
280
     1
102
MATERIAL
148
0.0
149
0.0
149
0.0
 93
        0
 94
       63
282
     0
 72
     1
 77
     1
171
     1
175
     1
179
     1
273
     0
  0
XRECORD
  5
1BEDE
102
{ACAD_REACTORS
330
1BEDD
102
}
330
1BEDD
100
AcDbXrecord
280
     1
102
MATERIAL
148
0.0
149
0.0
149
0.0
 93
        0
 94
       63
282
     0
 72
     1
 77
     1
171
     1
175
     1
179
     1
273
     0
  0
XRECORD
  5
1E241
102
{ACAD_REACTORS
330
1E240
102
}
330
1E240
100
AcDbXrecord
280
     1
102
SHADEPLOT
 70
     0
102
SHADEPLOTRESLEVEL
 70
     2
102
SHADEPLOTCUSTOMDPI
 70
   300
  0
XRECORD
  5
1E243
102
{ACAD_REACTORS
330
1E242
102
}
330
1E242
100
AcDbXrecord
280
     1
102
SHADEPLOT
 70
     0
102
SHADEPLOTRESLEVEL
 70
     2
102
SHADEPLOTCUSTOMDPI
 70
   300
  0
XRECORD
  5
1E245
102
{ACAD_REACTORS
330
1E244
102
}
330
1E244
100
AcDbXrecord
280
     1
102
SHADEPLOT
 70
     0
102
SHADEPLOTRESLEVEL
 70
     2
102
SHADEPLOTCUSTOMDPI
 70
   300
  0
XRECORD
  5
1E247
102
{ACAD_REACTORS
330
1E246
102
}
330
1E246
100
AcDbXrecord
280
     1
102
SHADEPLOT
 70
     0
102
SHADEPLOTRESLEVEL
 70
     2
102
SHADEPLOTCUSTOMDPI
 70
   300
  0
XRECORD
  5
1CF9F
102
{ACAD_REACTORS
330
1CF9E
102
}
330
1CF9E
100
AcDbXrecord
280
     1
102
ACAD_ROUNDTRIP_PRE2007_TABLESTYLE
 90
        4
 91
        0
  1

 92
        4
 93
        0
  2

 94
        4
 95
        0
  3

  0
ENDSEC
  0
EOF
