  0
SECTION
  2
HEADER
  9
$ACADVER
  1
AC1015
  9
$ACADMAINTVER
 70
    20
  9
$DWGCODEPAGE
  3
ANSI_932
  9
$INSBASE
 10
0.0
 20
0.0
 30
0.0
  9
$EXTMIN
 10
0.0
 20
0.0
 30
0.0
  9
$EXTMAX
 10
594.0
 20
420.0
 30
0.0
  9
$LIMMIN
 10
0.0
 20
0.0
  9
$LIMMAX
 10
594.0
 20
420.0
  9
$ORTHOMODE
 70
     0
  9
$REGENMODE
 70
     1
  9
$FILLMODE
 70
     1
  9
$QTEXTMODE
 70
     0
  9
$MIRRTEXT
 70
     0
  9
$LTSCALE
 40
1.0
  9
$ATTMODE
 70
     1
  9
$TEXTSIZE
 40
3.2
  9
$TRACEWID
 40
1.0
  9
$TEXTSTYLE
  7
STANDARD
  9
$CLAYER
  8
AM_2
  9
$CELTYPE
  6
ByLayer
  9
$CECOLOR
 62
   256
  9
$CELTSCALE
 40
1.0
  9
$DISPSILH
 70
     0
  9
$DIMSCALE
 40
1.0
  9
$DIMASZ
 40
1.0
  9
$DIMEXO
 40
1.0
  9
$DIMDLI
 40
10.0
  9
$DIMRND
 40
0.0
  9
$DIMDLE
 40
0.0
  9
$DIMEXE
 40
1.0
  9
$DIMTP
 40
0.1
  9
$DIMTM
 40
0.1
  9
$DIMTXT
 40
3.5
  9
$DIMCEN
 40
0.0
  9
$DIMTSZ
 40
0.0
  9
$DIMTOL
 70
     0
  9
$DIMLIM
 70
     0
  9
$DIMTIH
 70
     0
  9
$DIMTOH
 70
     0
  9
$DIMSE1
 70
     0
  9
$DIMSE2
 70
     0
  9
$DIMTAD
 70
     1
  9
$DIMZIN
 70
     8
  9
$DIMBLK
  1

  9
$DIMASO
 70
     1
  9
$DIMSHO
 70
     1
  9
$DIMPOST
  1

  9
$DIMAPOST
  1
"
  9
$DIMALT
 70
     0
  9
$DIMALTD
 70
     2
  9
$DIMALTF
 40
0.0393701
  9
$DIMLFAC
 40
1.0
  9
$DIMTOFL
 70
     1
  9
$DIMTVP
 40
0.0
  9
$DIMTIX
 70
     0
  9
$DIMSOXD
 70
     0
  9
$DIMSAH
 70
     0
  9
$DIMBLK1
  1

  9
$DIMBLK2
  1

  9
$DIMSTYLE
  2
SYS
  9
$DIMCLRD
 70
   256
  9
$DIMCLRE
 70
   256
  9
$DIMCLRT
 70
     7
  9
$DIMTFAC
 40
0.71
  9
$DIMGAP
 40
1.5
  9
$DIMJUST
 70
     0
  9
$DIMSD1
 70
     0
  9
$DIMSD2
 70
     0
  9
$DIMTOLJ
 70
     0
  9
$DIMTZIN
 70
     8
  9
$DIMALTZ
 70
     0
  9
$DIMALTTZ
 70
     0
  9
$DIMUPT
 70
     0
  9
$DIMDEC
 70
     2
  9
$DIMTDEC
 70
     2
  9
$DIMALTU
 70
     2
  9
$DIMALTTD
 70
     2
  9
$DIMTXSTY
  7
STANDARD
  9
$DIMAUNIT
 70
     0
  9
$DIMADEC
 70
     0
  9
$DIMALTRND
 40
0.0
  9
$DIMAZIN
 70
     2
  9
$DIMDSEP
 70
    46
  9
$DIMATFIT
 70
     3
  9
$DIMFRAC
 70
     0
  9
$DIMLDRBLK
  1

  9
$DIMLUNIT
 70
     2
  9
$DIMLWD
 70
    -1
  9
$DIMLWE
 70
    -1
  9
$DIMTMOVE
 70
     0
  9
$LUNITS
 70
     2
  9
$LUPREC
 70
     2
  9
$SKETCHINC
 40
1.0
  9
$FILLETRAD
 40
0.0
  9
$AUNITS
 70
     0
  9
$AUPREC
 70
     0
  9
$MENU
  1
.
  9
$ELEVATION
 40
0.0
  9
$PELEVATION
 40
0.0
  9
$THICKNESS
 40
0.0
  9
$LIMCHECK
 70
     0
  9
$CHAMFERA
 40
0.0
  9
$CHAMFERB
 40
0.0
  9
$CHAMFERC
 40
20.0
  9
$CHAMFERD
 40
0.0
  9
$SKPOLY
 70
     0
  9
$TDCREATE
 40
2455831.751787465
  9
$TDUCREATE
 40
2455831.376787465
  9
$TDUPDATE
 40
2456030.718235313
  9
$TDUUPDATE
 40
2456030.343235313
  9
$TDINDWG
 40
0.0528275116
  9
$TDUSRTIMER
 40
0.0528247917
  9
$USRTIMER
 70
     1
  9
$ANGBASE
 50
0.0
  9
$ANGDIR
 70
     0
  9
$PDMODE
 70
     0
  9
$PDSIZE
 40
-3.0
  9
$PLINEWID
 40
0.0
  9
$SPLFRAME
 70
     0
  9
$SPLINETYPE
 70
     6
  9
$SPLINESEGS
 70
     8
  9
$HANDSEED
  5
E222
  9
$SURFTAB1
 70
     6
  9
$SURFTAB2
 70
     6
  9
$SURFTYPE
 70
     6
  9
$SURFU
 70
     6
  9
$SURFV
 70
     6
  9
$UCSBASE
  2

  9
$UCSNAME
  2

  9
$UCSORG
 10
0.0
 20
0.0
 30
0.0
  9
$UCSXDIR
 10
1.0
 20
0.0
 30
0.0
  9
$UCSYDIR
 10
0.0
 20
1.0
 30
0.0
  9
$UCSORTHOREF
  2

  9
$UCSORTHOVIEW
 70
     0
  9
$UCSORGTOP
 10
0.0
 20
0.0
 30
0.0
  9
$UCSORGBOTTOM
 10
0.0
 20
0.0
 30
0.0
  9
$UCSORGLEFT
 10
0.0
 20
0.0
 30
0.0
  9
$UCSORGRIGHT
 10
0.0
 20
0.0
 30
0.0
  9
$UCSORGFRONT
 10
0.0
 20
0.0
 30
0.0
  9
$UCSORGBACK
 10
0.0
 20
0.0
 30
0.0
  9
$PUCSBASE
  2

  9
$PUCSNAME
  2

  9
$PUCSORG
 10
0.0
 20
0.0
 30
0.0
  9
$PUCSXDIR
 10
1.0
 20
0.0
 30
0.0
  9
$PUCSYDIR
 10
0.0
 20
1.0
 30
0.0
  9
$PUCSORTHOREF
  2

  9
$PUCSORTHOVIEW
 70
     0
  9
$PUCSORGTOP
 10
0.0
 20
0.0
 30
0.0
  9
$PUCSORGBOTTOM
 10
0.0
 20
0.0
 30
0.0
  9
$PUCSORGLEFT
 10
0.0
 20
0.0
 30
0.0
  9
$PUCSORGRIGHT
 10
0.0
 20
0.0
 30
0.0
  9
$PUCSORGFRONT
 10
0.0
 20
0.0
 30
0.0
  9
$PUCSORGBACK
 10
0.0
 20
0.0
 30
0.0
  9
$USERI1
 70
     0
  9
$USERI2
 70
     0
  9
$USERI3
 70
     0
  9
$USERI4
 70
     0
  9
$USERI5
 70
     0
  9
$USERR1
 40
0.0
  9
$USERR2
 40
0.0
  9
$USERR3
 40
0.0
  9
$USERR4
 40
0.0
  9
$USERR5
 40
0.0
  9
$WORLDVIEW
 70
     1
  9
$SHADEDGE
 70
     3
  9
$SHADEDIF
 70
    70
  9
$TILEMODE
 70
     1
  9
$MAXACTVP
 70
    64
  9
$PINSBASE
 10
0.0
 20
0.0
 30
0.0
  9
$PLIMCHECK
 70
     0
  9
$PEXTMIN
 10
1.000000000000000E+20
 20
1.000000000000000E+20
 30
1.000000000000000E+20
  9
$PEXTMAX
 10
-1.000000000000000E+20
 20
-1.000000000000000E+20
 30
-1.000000000000000E+20
  9
$PLIMMIN
 10
-3.17498779296875
 20
-3.174999952316283
  9
$PLIMMAX
 10
293.4970092773438
 20
206.692492723465
  9
$UNITMODE
 70
     0
  9
$VISRETAIN
 70
     1
  9
$PLINEGEN
 70
     0
  9
$PSLTSCALE
 70
     1
  9
$TREEDEPTH
 70
  3020
  9
$CMLSTYLE
  2
Standard
  9
$CMLJUST
 70
     0
  9
$CMLSCALE
 40
20.0
  9
$PROXYGRAPHICS
 70
     1
  9
$MEASUREMENT
 70
     1
  9
$CELWEIGHT
370
    -1
  9
$ENDCAPS
280
     0
  9
$JOINSTYLE
280
     0
  9
$LWDISPLAY
290
     0
  9
$INSUNITS
 70
     4
  9
$HYPERLINKBASE
  1

  9
$STYLESHEET
  1
MONOCHROME.CTB
  9
$XEDIT
290
     1
  9
$CEPSNTYPE
380
     0
  9
$PSTYLEMODE
290
     1
  9
$FINGERPRINTGUID
  2
{E935F462-9313-4160-B5D2-4171B9D813FF}
  9
$VERSIONGUID
  2
{62720AB3-CC5C-451D-9860-F624E778F67E}
  9
$EXTNAMES
290
     1
  9
$PSVPSCALE
 40
0.0
  9
$OLESTARTUP
290
     0
  0
ENDSEC
  0
SECTION
  2
CLASSES
  0
CLASS
  1
ACDBDICTIONARYWDFLT
  2
AcDbDictionaryWithDefault
  3
ObjectDBX Classes
 90
        0
280
     0
281
     0
  0
CLASS
  1
ACDBPLACEHOLDER
  2
AcDbPlaceHolder
  3
ObjectDBX Classes
 90
        0
280
     0
281
     0
  0
CLASS
  1
LAYOUT
  2
AcDbLayout
  3
ObjectDBX Classes
 90
        0
280
     0
281
     0
  0
CLASS
  1
AMGSETTINGSOBJ
  2
AmgSettingsObj
  3
"AcadM|Product Description: AutoCAD Mechanical|Company: Autodesk"
 90
        0
280
     0
281
     0
  0
CLASS
  1
ACME_DOCUMENT
  2
AcMeDbDoc
  3
AcMeServices
 90
        0
280
     0
281
     0
  0
CLASS
  1
ACMESCOPE
  2
AcMeScope
  3
AcMeServices
 90
        0
280
     0
281
     0
  0
CLASS
  1
ACMECOMMANDHISTORY
  2
AcMeCommandHistory
  3
AcMeServices
 90
        0
280
     0
281
     0
  0
CLASS
  1
DICTIONARYVAR
  2
AcDbDictionaryVar
  3
ObjectDBX Classes
 90
        0
280
     0
281
     0
  0
CLASS
  1
ACIMSYSVARMAN
  2
AcImSysVarManager
  3
AcMeServices
 90
        0
280
     0
281
     0
  0
CLASS
  1
ACIMREALSYSVAR
  2
AcImRealSysVar
  3
AcMeServices
 90
        0
280
     0
281
     0
  0
CLASS
  1
ACIMINTSYSVAR
  2
AcImIntSysVar
  3
AcMeServices
 90
        0
280
     0
281
     0
  0
CLASS
  1
ACMEDRAWINGMAN
  2
AcMeDrawingMan
  3
AcMeServices
 90
        0
280
     0
281
     0
  0
CLASS
  1
ACMEVIEW
  2
AcMeView
  3
AcMeServices
 90
        0
280
     0
281
     0
  0
CLASS
  1
ACDBENTITYCACHE
  2
AcMeEntityCache
  3
AcMeServices
 90
        0
280
     0
281
     0
  0
CLASS
  1
GSMANAGER
  2
AcMeGSManager
  3
AcMeServices
 90
        0
280
     0
281
     0
  0
CLASS
  1
AMDTINTERNALREACTOR
  2
AmdtInternalReactor
  3
AcMeServices
 90
        0
280
     0
281
     0
  0
CLASS
  1
ACMESTATEMGR
  2
AcMeStateMgr
  3
AcMeServices
 90
        0
280
     0
281
     0
  0
CLASS
  1
ACGREFMASTER
  2
AcGrefMaster
  3
AcAttribServices
 90
        0
280
     0
281
     0
  0
CLASS
  1
ACME_DATABASE
  2
AcMeDbDatabase
  3
AcMeServices
 90
        0
280
     0
281
     0
  0
CLASS
  1
ACRFINSADJUSTERMGR
  2
AcRfInsAdjusterMgr
  3
AcMeServices
 90
        0
280
     0
281
     0
  0
CLASS
  1
ACGREFACADMASTER
  2
AcGrefacadMaster
  3
AcGrefServices
 90
        0
280
     0
281
     0
  0
CLASS
  1
AMIMASTER
  2
AmiMaster
  3
AmiServices
 90
        0
280
     0
281
     0
  0
CLASS
  1
ACMDATADICTIONARY
  2
AcmDataDictionary
  3
"AcmSymBB|Product Description: AutoCAD Mechanical|Company: Autodesk"
 90
        0
280
     0
281
     0
  0
CLASS
  1
ACMDATAENTRYBLOCK
  2
AcmDataEntryBlock
  3
"AcmSymBB|Product Description: AutoCAD Mechanical|Company: Autodesk"
 90
    32768
280
     0
281
     0
  0
CLASS
  1
ACIMSTRSYSVAR
  2
AcImStrSysVar
  3
AcMeServices
 90
        0
280
     0
281
     0
  0
CLASS
  1
ACMSTANDARDISO
  2
AcmStandardISO
  3
"Amdt_StdImp|Product Description: AutoCAD Mechanical|Company: Autodesk"
 90
        0
280
     0
281
     0
  0
CLASS
  1
AMGOBJPROPCFG
  2
AmgObjPropCfg
  3
"AmgLay|Product Description: AutoCAD Mechanical|Company: Autodesk"
 90
        1
280
     0
281
     0
  0
CLASS
  1
AMDTEDGESTANDARDISO
  2
AmdtEdgeStdISO
  3
"Amdt_StdImp|Product Description: AutoCAD Mechanical|Company: Autodesk"
 90
    32768
280
     0
281
     0
  0
CLASS
  1
ACMSURFSTANDARDISO
  2
AcmSurfTextStdISO
  3
"Amdt_StdImp|Product Description: AutoCAD Mechanical|Company: Autodesk"
 90
        0
280
     0
281
     0
  0
CLASS
  1
ACMFCFSTANDARDISO
  2
AcmFCFStdISO
  3
"Amdt_StdImp|Product Description: AutoCAD Mechanical|Company: Autodesk"
 90
        0
280
     0
281
     0
  0
CLASS
  1
ACMWELDSTANDARDISO
  2
AcmWeldingStdISO
  3
"Amdt_StdImp|Product Description: AutoCAD Mechanical|Company: Autodesk"
 90
        0
280
     0
281
     0
  0
CLASS
  1
ACMIDSTANDARDISO
  2
AcmIdStdISO
  3
"Amdt_StdImp|Product Description: AutoCAD Mechanical|Company: Autodesk"
 90
        0
280
     0
281
     0
  0
CLASS
  1
ACMDATUMSTANDARDISO
  2
AcmDatumStdISO
  3
"Amdt_StdImp|Product Description: AutoCAD Mechanical|Company: Autodesk"
 90
        0
280
     0
281
     0
  0
CLASS
  1
ACMBOMSTANDARDISO
  2
AcmBOMStdISO
  3
"Amdt_StdImp|Product Description: AutoCAD Mechanical|Company: Autodesk"
 90
        0
280
     0
281
     0
  0
CLASS
  1
ACMDETAILSTANDARDISO
  2
AmdtDetailSymStdISO
  3
"Amdt_StdImp|Product Description: AutoCAD Mechanical|Company: Autodesk"
 90
        0
280
     0
281
     0
  0
CLASS
  1
ACMSECTIONSTANDARDISO
  2
AmdtSectionSymStdISO
  3
"Amdt_StdImp|Product Description: AutoCAD Mechanical|Company: Autodesk"
 90
        0
280
     0
281
     0
  0
CLASS
  1
ACMCENTERLINESTANDARDISO
  2
AmdtCenterLineStdISO
  3
"Amdt_StdImp|Product Description: AutoCAD Mechanical|Company: Autodesk"
 90
        0
280
     0
281
     0
  0
CLASS
  1
ACAMGLAYSTD
  2
AcAmgLayStd
  3
"AmgLay|Product Description: AutoCAD Mechanical|Company: Autodesk"
 90
        0
280
     0
281
     0
  0
CLASS
  1
ACAMGDIMSTD
  2
AcAmgDimStd
  3
"AmgDim|Product Description: AutoCAD Mechanical|Company: Autodesk"
 90
        0
280
     0
281
     0
  0
CLASS
  1
ACAMGTITLESTD
  2
AcAmgTitleStd
  3
"AmgTitle|Product Description: AutoCAD Mechanical|Company: Autodesk"
 90
        0
280
     0
281
     0
  0
CLASS
  1
ACAMGFILTERDAT
  2
AcAmgFilterDat
  3
"AcadM|Product Description: AutoCAD Mechanical|Company: Autodesk"
 90
    32768
280
     0
281
     0
  0
CLASS
  1
LAYER_INDEX
  2
AcDbLayerIndex
  3
ObjectDBX Classes
 90
    32768
280
     0
281
     0
  0
CLASS
  1
IDBUFFER
  2
AcDbIdBuffer
  3
ObjectDBX Classes
 90
    32768
280
     0
281
     0
  0
CLASS
  1
PLOTSETTINGS
  2
AcDbPlotSettings
  3
ObjectDBX Classes
 90
    32768
280
     0
281
     0
  0
CLASS
  1
AMDTFORMULAUPDATEDISPATCHER
  2
AmdtFormulaUpdateDispatcher
  3
AcMeServices
 90
    32768
280
     0
281
     0
  0
CLASS
  1
ACMSTANDARDANSI
  2
AcmStandardANSI
  3
"Amdt_StdImp|Product Description: AutoCAD Mechanical|Company: Autodesk"
 90
    32768
280
     0
281
     0
  0
CLASS
  1
ACMSURFSTANDARDANSI
  2
AcmSurfTextStdANSI
  3
"Amdt_StdImp|Product Description: AutoCAD Mechanical|Company: Autodesk"
 90
    32768
280
     0
281
     0
  0
CLASS
  1
ACMFCFSTANDARDANSI
  2
AcmFCFStdANSI
  3
"Amdt_StdImp|Product Description: AutoCAD Mechanical|Company: Autodesk"
 90
    32768
280
     0
281
     0
  0
CLASS
  1
ACMWELDSTANDARDANSI
  2
AcmWeldingStdANSI
  3
"Amdt_StdImp|Product Description: AutoCAD Mechanical|Company: Autodesk"
 90
    32768
280
     0
281
     0
  0
CLASS
  1
ACMIDSTANDARDANSI
  2
AcmIdStdANSI
  3
"Amdt_StdImp|Product Description: AutoCAD Mechanical|Company: Autodesk"
 90
    32768
280
     0
281
     0
  0
CLASS
  1
ACMDATUMSTANDARDANSI
  2
AcmDatumStdANSI
  3
"Amdt_StdImp|Product Description: AutoCAD Mechanical|Company: Autodesk"
 90
    32768
280
     0
281
     0
  0
CLASS
  1
ACMBOMSTANDARDANSI
  2
AcmBOMStdANSI
  3
"Amdt_StdImp|Product Description: AutoCAD Mechanical|Company: Autodesk"
 90
    32768
280
     0
281
     0
  0
CLASS
  1
ACMDETAILSTANDARDANSI
  2
AmdtDetailSymStdANSI
  3
"Amdt_StdImp|Product Description: AutoCAD Mechanical|Company: Autodesk"
 90
    32768
280
     0
281
     0
  0
CLASS
  1
ACMSECTIONSTANDARDANSI
  2
AmdtSectionSymStdANSI
  3
"Amdt_StdImp|Product Description: AutoCAD Mechanical|Company: Autodesk"
 90
    32768
280
     0
281
     0
  0
CLASS
  1
ACMCENTERLINESTANDARDANSI
  2
AmdtCenterLineStdANSI
  3
"Amdt_StdImp|Product Description: AutoCAD Mechanical|Company: Autodesk"
 90
    32768
280
     0
281
     0
  0
CLASS
  1
ACMBOM
  2
AcmBom
  3
"AcmSymBB|Product Description: AutoCAD Mechanical|Company: Autodesk"
 90
    32768
280
     0
281
     0
  0
CLASS
  1
ACMDATAENTRYPART
  2
AcmDataEntryPart
  3
"AcmSymBB|Product Description: AutoCAD Mechanical|Company: Autodesk"
 90
    32768
280
     0
281
     0
  0
CLASS
  1
ACMPARTREF
  2
AcmPartRef
  3
"AcmSymBB|Product Description: AutoCAD Mechanical|Company: Autodesk"
 90
    35839
280
     0
281
     1
  0
CLASS
  1
ACDBCIRCARCRES
  2
AcDbCircArcRes
  3
AcGrefServices
 90
    32768
280
     0
281
     0
  0
CLASS
  1
ACMBOMROW
  2
AcmBomRow
  3
"AcmSymBB|Product Description: AutoCAD Mechanical|Company: Autodesk"
 90
    32768
280
     0
281
     0
  0
CLASS
  1
ACMBALLOON
  2
AcmBalloon
  3
"AcmSymBB|Product Description: AutoCAD Mechanical|Company: Autodesk"
 90
    35839
280
     0
281
     1
  0
CLASS
  1
AMDTNOTE
  2
AmdtNote
  3
"AcmSymBB|Product Description: AutoCAD Mechanical|Company: Autodesk"
 90
    35839
280
     0
281
     1
  0
CLASS
  1
STDPART2D
  2
AmgStdPart
  3
"g3vace|Class: AmgStdPart|Product Description: AutoCAD Mechanical|Company: Autodesk"
 90
    35839
280
     0
281
     1
  0
CLASS
  1
ACDBSTDPARTRES_LINE
  2
AcDbStdPartRes_Line
  3
"g3vace|Class: AcDbStdPartRes_Line|Product Description: AutoCAD Mechanical|Company: Autodesk"
 90
    32768
280
     0
281
     0
  0
CLASS
  1
ACMDATAENTRY
  2
AcmDataEntry
  3
"AcmSymBB|Product Description: AutoCAD Mechanical|Company: Autodesk"
 90
    32768
280
     0
281
     0
  0
CLASS
  1
ACDBOPPOLYLINERES
  2
AcDbOpPolylineRes
  3
AcGrefServices
 90
    32768
280
     0
281
     0
  0
CLASS
  1
ACMPARTLIST
  2
AcmPartList
  3
"AcmSymBB|Product Description: AutoCAD Mechanical|Company: Autodesk"
 90
    35839
280
     0
281
     1
  0
CLASS
  1
ACDBLINERES
  2
AcDbLineRes
  3
AcGrefServices
 90
    32768
280
     0
281
     0
  0
CLASS
  1
ACRFINSADJ
  2
AcRfInsAdjuster
  3
AcMeServices
 90
    32768
280
     0
281
     0
  0
CLASS
  1
AM_DRAWING_MGR
  2
AcDmDwgMgr
  3
AcMechDwgViewMgmt
 90
        0
280
     0
281
     0
  0
CLASS
  1
AM_DWG_DOCUMENT
  2
AcDmDwgDocument
  3
AcMechDwgViewMgmt
 90
        0
280
     0
281
     0
  0
CLASS
  1
AM_DWG_SHEET
  2
AcDmSheet
  3
AcMechDwgViewMgmt
 90
        0
280
     0
281
     0
  0
CLASS
  1
AM_VIEWDIMPARMAP
  2
AcDmViewDimParMap
  3
AcMechDwgViewMgmt
 90
        0
280
     0
281
     0
  0
CLASS
  1
AM_DWGMGR_NAME
  2
AcDmDwgMgrName
  3
AcMechDwgViewMgmt
 90
        0
280
     0
281
     0
  0
CLASS
  1
AMDTMENUSTATEMGR
  2
AmdtMenuStateMgr
  3
McadcomServices
 90
        0
280
     0
281
     0
  0
CLASS
  1
AMDTMCOMMENUSTATE
  2
AmdtMcomMenuState
  3
McadcomServices
 90
        0
280
     0
281
     0
  0
CLASS
  1
ASAPP
  2
AcAsAppObject
  3
AutoSurfServices
 90
        0
280
     0
281
     0
  0
CLASS
  1
IM_STATIC_MAN
  2
AcImStaticVarManager
  3
AcMeServices
 90
    32768
280
     0
281
     0
  0
CLASS
  1
ACIMDBLSTATICVAR
  2
AcImDblStaticVar
  3
AcMeServices
 90
    32768
280
     0
281
     0
  0
CLASS
  1
ACIMSTRSTATICVAR
  2
AcImStrStaticVar
  3
AcMeServices
 90
    32768
280
     0
281
     0
  0
CLASS
  1
ACIMINTSTATICVAR
  2
AcImIntStaticVar
  3
AcMeServices
 90
    32768
280
     0
281
     0
  0
CLASS
  1
ACASGREFMASTER
  2
AcAsGrefMaster
  3
AutoSurfResolverServices
 90
        0
280
     0
281
     0
  0
CLASS
  1
ACADGREFMODULE
  2
AcAdGrefModule
  3
AdGrefServices
 90
        0
280
     0
281
     0
  0
CLASS
  1
AMDTMAPISURFMOUDULE
  2
AmdtMApiSurfModule
  3
MApiSurfServices
 90
        0
280
     0
281
     0
  0
CLASS
  1
MAPIAMMOUDLE
  2
MApiAmModule
  3
MApiAmServices
 90
        0
280
     0
281
     0
  0
CLASS
  1
AMDTADMENUSTATE
  2
AmdtAdMenuState
  3
DesignerServices
 90
        0
280
     0
281
     0
  0
CLASS
  1
ADAPPL
  2
AcAdAppl
  3
DesignerServices
 90
        0
280
     0
281
     0
  0
CLASS
  1
DEPMGR
  2
AcAdDepMgr
  3
DesignerServices
 90
        0
280
     0
281
     0
  0
CLASS
  1
PARAMMGR
  2
AcAdParamMgr
  3
DesignerServices
 90
        0
280
     0
281
     0
  0
CLASS
  1
PARAMSCOPE
  2
AcAdParamScope
  3
DesignerServices
 90
        0
280
     0
281
     0
  0
CLASS
  1
NAMEDAPPL
  2
AcAdNamedAppl
  3
DesignerServices
 90
        0
280
     0
281
     0
  0
CLASS
  1
ADHNTMPLT
  2
AdHoleNoteTemplateMgr
  3
DesignerServices
 90
    32768
280
     0
281
     0
  0
CLASS
  1
AM_HNTEMPLATE_MGR_NAME
  2
AdHoleNoteTemplateMgrName
  3
DesignerServices
 90
    32768
280
     0
281
     0
  0
CLASS
  1
AMDTDMMENUSTATE
  2
AmdtDmMenuState
  3
AcMechDwgViewMgmt
 90
        0
280
     0
281
     0
  0
CLASS
  1
MAPIADMODULE
  2
MApiAdModule
  3
MApiAdServices
 90
        0
280
     0
281
     0
  0
CLASS
  1
AMDTAMMENUSTATE
  2
AmdtAmMenuState
  3
DesignerAssemblies
 90
        0
280
     0
281
     0
  0
CLASS
  1
ACAMPROJECT
  2
AcAmProject
  3
DesignerAssemblies
 90
        0
280
     0
281
     0
  0
CLASS
  1
ACAMGRCOMPDEF
  2
AcAmGrCompDef
  3
DesignerAssemblies
 90
        0
280
     0
281
     0
  0
CLASS
  1
ACCMCONTEXT
  2
AcCmContext
  3
DesignerAssemblies
 90
        0
280
     0
281
     0
  0
CLASS
  1
ACAMCOMPDEF
  2
AcAmCompDef
  3
DesignerAssemblies
 90
        0
280
     0
281
     0
  0
CLASS
  1
ACAMCOMPDEFMGR
  2
AcAmCompDefMgr
  3
DesignerAssemblies
 90
        0
280
     0
281
     0
  0
CLASS
  1
AMCONTEXTMGR
  2
AcAmContextMgr
  3
DesignerAssemblies
 90
        0
280
     0
281
     0
  0
CLASS
  1
ACAMCONTEXTMODELER
  2
AcAmContextModeler
  3
DesignerAssemblies
 90
        0
280
     0
281
     0
  0
CLASS
  1
CATALOGSTATE
  2
AcAmCatalogState
  3
DesignerAssemblies
 90
        0
280
     0
281
     0
  0
CLASS
  1
ACAMGRCOMPDEFSET
  2
AcAmGrCompDefSet
  3
DesignerAssemblies
 90
        0
280
     0
281
     0
  0
CLASS
  1
AMDTBROWSERDBTAB
  2
AmdtBrowserDbTab
  3
McadcomServices
 90
        0
280
     0
281
     0
  0
CLASS
  1
CBROWSERAPPOBJECT
  2
CBrowserAppObject
  3
McadcomServices
 90
        0
280
     0
281
     0
  0
CLASS
  1
DM_PLACEHOLDER
  2
AcDmSelsetPlaceholder
  3
AcMechDwgViewMgmt
 90
        0
280
     0
281
     0
  0
CLASS
  1
ACMPICKOBJ
  2
AcmPickEnt
  3
"AcmSymBB|Product Description: AutoCAD Mechanical|Company: Autodesk"
 90
    32768
280
     0
281
     1
  0
CLASS
  1
ACMNOTESTANDARDISO
  2
AmdtNoteStdISO
  3
"Amdt_StdImp|Product Description: AutoCAD Mechanical|Company: Autodesk"
 90
        0
280
     0
281
     0
  0
CLASS
  1
ACMNOTESTANDARDANSI
  2
AmdtNoteStdANSI
  3
"Amdt_StdImp|Product Description: AutoCAD Mechanical|Company: Autodesk"
 90
    32768
280
     0
281
     0
  0
CLASS
  1
ACMTHREADLINESTANDARDISO
  2
AmdtThreadLineStdISO
  3
"Amdt_StdImp|Product Description: AutoCAD Mechanical|Company: Autodesk"
 90
        0
280
     0
281
     0
  0
CLASS
  1
ACMTHREADLINESTANDARDANSI
  2
AmdtThreadLineStdANSI
  3
"Amdt_StdImp|Product Description: AutoCAD Mechanical|Company: Autodesk"
 90
    32768
280
     0
281
     0
  0
CLASS
  1
TABLESTYLE
  2
AcDbTableStyle
  3
ObjectDBX Classes
 90
     4095
280
     0
281
     0
  0
CLASS
  1
SORTENTSTABLE
  2
AcDbSortentsTable
  3
ObjectDBX Classes
 90
        0
280
     0
281
     0
  0
CLASS
  1
MATERIAL
  2
AcDbMaterial
  3
ObjectDBX Classes
 90
     1024
280
     0
281
     0
  0
CLASS
  1
VISUALSTYLE
  2
AcDbVisualStyle
  3
ObjectDBX Classes
 90
     4095
280
     0
281
     0
  0
CLASS
  1
ACRFATTGENMGR
  2
AcRfAttGeneralMgr
  3
AcAttribServices
 90
    32768
280
     0
281
     0
  0
CLASS
  1
ACRFOBJATTMGR
  2
AcRfObjAttGroupMgr
  3
AcAttribServices
 90
    32768
280
     0
281
     0
  0
CLASS
  1
ACRFMCADAPIATTHOLDER
  2
AcRfMCADAPIAttHolder
  3
AcAttribServices
 90
    32768
280
     0
281
     0
  0
CLASS
  1
AMDTSYSATTR
  2
AmdtSystemAttribute
  3
AcAttribServices
 90
    32768
280
     0
281
     0
  0
CLASS
  1
ACMTAPERSTANDARDISO
  2
AcmTaperStdISO
  3
"Amdt_StdImp|Product Description: AutoCAD Mechanical|Company: Autodesk"
 90
        0
280
     0
281
     0
  0
CLASS
  1
CAMSSTRUCTBTNSTATE
  2
StructBtnState
  3
L"DesignerAssemblies"
 90
    32768
280
     0
281
     0
  0
CLASS
  1
DIMASSOC
  2
AcDbDimAssoc
  3
"AcDbDimAssoc|Product Desc:     AcDim ARX App For Dimension|Company:          Autodesk, Inc.|WEB Address:      www.autodesk.com"
 90
    32768
280
     0
281
     0
  0
CLASS
  1
AMDTNOTETEMPLATEDB
  2
AmdtNoteTemplateDB
  3
AMDT_STDIMP_MODULE_NAME
 90
        0
280
     0
281
     0
  0
CLASS
  1
ACMTAPERSTANDARDANSI
  2
AcmTaperStdANSI
  3
"Amdt_StdImp|Product Description: AutoCAD Mechanical|Company: Autodesk"
 90
    32768
280
     0
281
     0
  0
CLASS
  1
ACAMGHOLECHARTSTDANSI
  2
AcAmgHoleChartStdANSI
  3
ACMSYMBB_MODULE_NAME
 90
    32768
280
     0
281
     0
  0
CLASS
  1
AMDTEDGESTANDARDISO13715
  2
AmdtEdgeStdISO13715
  3
"Amdt_StdImp|Product Description: AutoCAD Mechanical|Company: Autodesk"
 90
        0
280
     0
281
     0
  0
CLASS
  1
ACAMGHOLECHARTSTDISO
  2
AcAmgHoleChartStdISO
  3
ACMSYMBB_MODULE_NAME
 90
        0
280
     0
281
     0
  0
ENDSEC
  0
SECTION
  2
TABLES
  0
TABLE
  2
VPORT
  5
8
330
0
100
AcDbSymbolTable
 70
     1
  0
VPORT
  5
B0EC
330
8
100
AcDbSymbolTableRecord
100
AcDbViewportTableRecord
  2
*Active
 70
     0
 10
0.0
 20
0.0
 11
1.0
 21
1.0
 12
474.7320291741486
 22
209.9964904065336
 13
0.0
 23
0.0
 14
2.5
 24
2.5
 15
10.0
 25
10.0
 16
0.0
 26
0.0
 36
1.0
 17
0.0
 27
0.0
 37
0.0
 40
466.1386812724823
 41
2.04325699745547
 42
50.0
 43
-1370.695619172058
 44
-1370.695619172058
 50
0.0
 51
0.0
 71
    16
 72
   100
 73
     1
 74
     3
 75
     0
 76
     0
 77
     0
 78
     0
281
     0
 65
     0
110
0.0
120
0.0
130
0.0
111
1.0
121
0.0
131
0.0
112
0.0
122
1.0
132
0.0
 79
     0
146
0.0
  0
ENDTAB
  0
TABLE
  2
LTYPE
  5
5
330
0
100
AcDbSymbolTable
 70
    33
  0
LTYPE
  5
14
330
5
100
AcDbSymbolTableRecord
100
AcDbLinetypeTableRecord
  2
ByBlock
 70
     0
  3

 72
    65
 73
     0
 40
0.0
  0
LTYPE
  5
15
330
5
100
AcDbSymbolTableRecord
100
AcDbLinetypeTableRecord
  2
ByLayer
 70
     0
  3

 72
    65
 73
     0
 40
0.0
  0
LTYPE
  5
16
330
5
100
AcDbSymbolTableRecord
100
AcDbLinetypeTableRecord
  2
Continuous
 70
     0
  3
Solid line
 72
    65
 73
     0
 40
0.0
  0
LTYPE
  5
4F
330
5
100
AcDbSymbolTableRecord
100
AcDbLinetypeTableRecord
  2
AM_ISO02W050
 70
     0
  3
__ __ __ __ __ __ __ __ __ __ __ __ __ __ __
 72
    65
 73
     2
 40
7.5
 49
6.0
 74
     0
 49
-1.5
 74
     0
  0
LTYPE
  5
52
330
5
100
AcDbSymbolTableRecord
100
AcDbLinetypeTableRecord
  2
Amconstr
 70
     0
  3
_______________________
 72
    65
 73
     2
 40
9999.0
 49
9999.0
 74
     0
 49
0.0
 74
     0
  0
LTYPE
  5
64
330
5
100
AcDbSymbolTableRecord
100
AcDbLinetypeTableRecord
  2
ACISOWELD
 70
     0
  3
_ _ _ _ _
 72
    65
 73
     2
 40
2.0
 49
2.0
 74
     0
 49
-1.0
 74
     0
  0
LTYPE
  5
65
330
5
100
AcDbSymbolTableRecord
100
AcDbLinetypeTableRecord
  2
ACISOTGB
 70
     0
  3
__ . . __ . .
 72
    65
 73
     6
 40
9.0
 49
4.0
 74
     0
 49
-1.0
 74
     0
 49
1.0
 74
     0
 49
-1.0
 74
     0
 49
1.0
 74
     0
 49
-1.0
 74
     0
  0
LTYPE
  5
66
330
5
100
AcDbSymbolTableRecord
100
AcDbLinetypeTableRecord
  2
ACISOTGL
 70
     0
  3
_ _ _ _ _
 72
    65
 73
     2
 40
3.0
 49
2.0
 74
     0
 49
-1.0
 74
     0
  0
LTYPE
  5
69
330
5
100
AcDbSymbolTableRecord
100
AcDbLinetypeTableRecord
  2
CENTER
 70
     0
  3
__ . __
 72
    65
 73
     4
 40
7.0
 49
4.0
 74
     0
 49
-1.0
 74
     0
 49
1.0
 74
     0
 49
-1.0
 74
     0
  0
LTYPE
  5
A6E
330
5
100
AcDbSymbolTableRecord
100
AcDbLinetypeTableRecord
  2
PHANTOM2
 70
     0
  3
Phantom (.5x) ___ _ _ ___ _ _ ___ _ _ ___ _ _
 72
    65
 73
     6
 40
31.75
 49
15.875
 74
     0
 49
-3.174999999999998
 74
     0
 49
3.174999999999998
 74
     0
 49
-3.174999999999998
 74
     0
 49
3.174999999999998
 74
     0
 49
-3.174999999999998
 74
     0
  0
LTYPE
  5
4DED
330
5
100
AcDbSymbolTableRecord
100
AcDbLinetypeTableRecord
  2
中線
 70
     0
  3
___________________
 72
    65
 73
     2
 40
2.0
 49
1.0
 74
     0
 49
1.0
 74
     0
  0
LTYPE
  5
4DF6
330
5
100
AcDbSymbolTableRecord
100
AcDbLinetypeTableRecord
  2
細線
 70
     0
  3
___________________
 72
    65
 73
     2
 40
2.0
 49
1.0
 74
     0
 49
1.0
 74
     0
  0
LTYPE
  5
4DF7
330
5
100
AcDbSymbolTableRecord
100
AcDbLinetypeTableRecord
  2
太線
 70
     0
  3
___________________
 72
    65
 73
     2
 40
2.0
 49
1.0
 74
     0
 49
1.0
 74
     0
  0
LTYPE
  5
4EA7
330
5
100
AcDbSymbolTableRecord
100
AcDbLinetypeTableRecord
  2
文字
 70
     0
  3
_________________
 72
    65
 73
     2
 40
2.0
 49
1.0
 74
     0
 49
1.0
 74
     0
  0
LTYPE
  5
4EA9
330
5
100
AcDbSymbolTableRecord
100
AcDbLinetypeTableRecord
  2
寸法線
 70
     0
  3
________________
 72
    65
 73
     2
 40
2.0
 49
1.0
 74
     0
 49
1.0
 74
     0
  0
LTYPE
  5
4F12
330
5
100
AcDbSymbolTableRecord
100
AcDbLinetypeTableRecord
  2
ハッチング
 70
     0
  3
_________________
 72
    65
 73
     2
 40
2.0
 49
1.0
 74
     0
 49
1.0
 74
     0
  0
LTYPE
  5
5180
330
5
100
AcDbSymbolTableRecord
100
AcDbLinetypeTableRecord
  2
陰線1
 70
     0
  3
__ __ __ __
 72
    65
 73
     2
 40
4.0
 49
2.2
 74
     0
 49
-1.8
 74
     0
  0
LTYPE
  5
5182
330
5
100
AcDbSymbolTableRecord
100
AcDbLinetypeTableRecord
  2
切断線
 70
     0
  3
/\/-/\/-/\/-/\/-/\/-/\/
 72
    65
 73
     2
 40
11.0001
 49
0.0001
 74
     4
 75
   135
340
56
 46
0.04
 50
0.0
 44
0.0
 45
0.0
 49
-11.0
 74
     0
  0
LTYPE
  5
5183
330
5
100
AcDbSymbolTableRecord
100
AcDbLinetypeTableRecord
  2
想像線1
 70
     0
  3
__ __ __ _____ __ __ ____
 72
    65
 73
     6
 40
14.5
 49
6.0
 74
     0
 49
-1.5
 74
     0
 49
2.0
 74
     0
 49
-1.5
 74
     0
 49
2.0
 74
     0
 49
-1.5
 74
     0
  0
LTYPE
  5
5185
330
5
100
AcDbSymbolTableRecord
100
AcDbLinetypeTableRecord
  2
中心線1
 70
     0
  3
___ _ ___ _ ___
 72
    65
 73
     4
 40
18.0
 49
12.0
 74
     0
 49
-2.0
 74
     0
 49
2.0
 74
     0
 49
-2.0
 74
     0
  0
LTYPE
  5
5188
330
5
100
AcDbSymbolTableRecord
100
AcDbLinetypeTableRecord
  2
補助線
 70
     0
  3
______________
 72
    65
 73
     2
 40
2.0
 49
1.0
 74
     0
 49
1.0
 74
     0
  0
LTYPE
  5
6427
330
5
100
AcDbSymbolTableRecord
100
AcDbLinetypeTableRecord
  2
HIDDEN
 70
     0
  3
Hidden __ __ __ __ __ __ __ __ __ __ __ __ __ _
 72
    65
 73
     2
 40
0.375
 49
0.25
 74
     0
 49
-0.125
 74
     0
  0
LTYPE
  5
AC81
330
5
100
AcDbSymbolTableRecord
100
AcDbLinetypeTableRecord
  2
破断線
 70
     0
  3
/\/-/\/-/\/-/\/-/\/-/\/
 72
    65
 73
     2
 40
0.4401
 49
0.0001
 74
     4
 75
   136
340
AC80
 46
0.0016
 50
0.0
 44
0.0
 45
0.0
 49
-0.4400000000000002
 74
     0
  0
LTYPE
  5
AC9E
330
5
100
AcDbSymbolTableRecord
100
AcDbLinetypeTableRecord
  2
Amzigzag
 70
     0
  3
/\/-/\/-/\/-/\/-/\/-/\/
 72
    65
 73
     2
 40
11.0001
 49
0.0001
 74
     4
 75
   135
340
56
 46
0.04
 50
0.0
 44
0.0
 45
0.0
 49
-11.0
 74
     0
  0
LTYPE
  5
AF0F
330
5
100
AcDbSymbolTableRecord
100
AcDbLinetypeTableRecord
  2
genzigzag
 70
     0
  3
/\/-/\/-/\/-/\/-/\/-/\/
 72
    65
 73
     2
 40
12.0001
 49
0.0001
 74
     4
 75
   135
340
AC80
 46
2.0
 50
0.0
 44
0.0
 45
0.0
 49
-12.0
 74
     0
  0
LTYPE
  5
AF95
330
5
100
AcDbSymbolTableRecord
100
AcDbLinetypeTableRecord
  2
AM_ISO08W050
 70
     0
  3
____ . ____ . ____ . ____ . ____ . ____ . ____
 72
    65
 73
     4
 40
18.0
 49
12.0
 74
     0
 49
-1.5
 74
     0
 49
3.0
 74
     0
 49
-1.5
 74
     0
  0
LTYPE
  5
AF96
330
5
100
AcDbSymbolTableRecord
100
AcDbLinetypeTableRecord
  2
AM_ISO09W050
 70
     0
  3
_____ . . _____ . . _____ . . ____ .. ____
 72
    65
 73
     6
 40
22.5
 49
12.0
 74
     0
 49
-1.5
 74
     0
 49
3.0
 74
     0
 49
-1.5
 74
     0
 49
3.0
 74
     0
 49
-1.5
 74
     0
  0
LTYPE
  5
AF97
330
5
100
AcDbSymbolTableRecord
100
AcDbLinetypeTableRecord
  2
AM_ISO08W050x2
 70
     0
  3
__ . __ . __ . __ . __ . __
 72
    65
 73
     4
 40
9.0
 49
6.0
 74
     0
 49
-0.75
 74
     0
 49
1.5
 74
     0
 49
-0.75
 74
     0
  0
LTYPE
  5
AF98
330
5
100
AcDbSymbolTableRecord
100
AcDbLinetypeTableRecord
  2
AM_ISO02W050x2
 70
     0
  3
 _ _ _ _ _ _ _ _ _ _ _ _
 72
    65
 73
     2
 40
3.75
 49
3.0
 74
     0
 49
-0.75
 74
     0
  0
LTYPE
  5
B6FC
330
5
100
AcDbSymbolTableRecord
100
AcDbLinetypeTableRecord
  2
CENTER2
 70
     0
  3
Center (.5x) ___ _ ___ _ ___ _ ___ _ ___ _ ___
 72
    65
 73
     4
 40
1.125
 49
0.75
 74
     0
 49
-0.125
 74
     0
 49
0.125
 74
     0
 49
-0.125
 74
     0
  0
LTYPE
  5
B6FD
330
5
100
AcDbSymbolTableRecord
100
AcDbLinetypeTableRecord
  2
HIDDEN2
 70
     0
  3
Hidden (.5x) _ _ _ _ _ _ _ _ _ _ _ _ _ _ _ _ _
 72
    65
 73
     2
 40
0.1875
 49
0.125
 74
     0
 49
-0.0625
 74
     0
  0
LTYPE
  5
B6FE
330
5
100
AcDbSymbolTableRecord
100
AcDbLinetypeTableRecord
  2
Amzigzag2
 70
     0
  3
/\/-/\/-/\/-/\/-/\/-/\/
 72
    65
 73
     2
 40
0.4401
 49
0.0001
 74
     4
 75
   136
340
AC80
 46
0.0016
 50
0.0
 44
0.0
 45
0.0
 49
-0.4400000000000002
 74
     0
  0
LTYPE
  5
B6FF
330
5
100
AcDbSymbolTableRecord
100
AcDbLinetypeTableRecord
  2
ACANSTGB
 70
     0
  3
__ . . __ . .
 72
    65
 73
     6
 40
0.35433070866
 49
0.15748031496
 74
     0
 49
-0.03937007874
 74
     0
 49
0.03937007874
 74
     0
 49
-0.03937007874
 74
     0
 49
0.03937007874
 74
     0
 49
-0.03937007874
 74
     0
  0
LTYPE
  5
B700
330
5
100
AcDbSymbolTableRecord
100
AcDbLinetypeTableRecord
  2
ACANSTGL
 70
     0
  3
_ _ _ _ _
 72
    65
 73
     2
 40
0.11811023622
 49
0.07874015748
 74
     0
 49
-0.03937007874
 74
     0
  0
LTYPE
  5
C5FB
330
5
100
AcDbSymbolTableRecord
100
AcDbLinetypeTableRecord
  2
PHANTOM
 70
     0
  3
_____ _ _ _____ _ _ _____ _ _ _____ _ _ ____  
 72
    65
 73
     6
 40
15.5
 49
8.0
 74
     0
 49
-1.5
 74
     0
 49
1.5
 74
     0
 49
-1.5
 74
     0
 49
1.5
 74
     0
 49
-1.5
 74
     0
  0
ENDTAB
  0
TABLE
  2
LAYER
  5
2
102
{ACAD_XDICTIONARY
360
3F95
102
}
330
0
100
AcDbSymbolTable
 70
    21
  0
LAYER
  5
10
330
2
100
AcDbSymbolTableRecord
100
AcDbLayerTableRecord
  2
0
 70
     0
 62
     7
  6
Continuous
370
    -3
390
F
  0
LAYER
  5
6D1
330
2
100
AcDbSymbolTableRecord
100
AcDbLayerTableRecord
  2
Defpoints
 70
     0
 62
     7
  6
Continuous
290
     0
370
    -3
390
F
  0
LAYER
  5
5F85
330
2
100
AcDbSymbolTableRecord
100
AcDbLayerTableRecord
  2
AM_0
 70
     0
 62
     7
  6
中線
370
    30
390
F
1001
AcAecLayerStandard
1000

1000

  0
LAYER
  5
AC9F
330
2
100
AcDbSymbolTableRecord
100
AcDbLayerTableRecord
  2
size
 70
     0
 62
     5
  6
Continuous
290
     0
370
    25
390
F
  0
LAYER
  5
ACA0
330
2
100
AcDbSymbolTableRecord
100
AcDbLayerTableRecord
  2
waku
 70
     0
 62
     7
  6
Continuous
370
    35
390
F
  0
LAYER
  5
ACA1
330
2
100
AcDbSymbolTableRecord
100
AcDbLayerTableRecord
  2
AM_6
 70
     0
 62
     2
  6
文字
370
    13
390
F
1001
AcAecLayerStandard
1000

1000

  0
LAYER
  5
ACC8
330
2
100
AcDbSymbolTableRecord
100
AcDbLayerTableRecord
  2
hyomoji
 70
     0
 62
     2
  6
Continuous
370
    13
390
F
  0
LAYER
  5
ACC9
330
2
100
AcDbSymbolTableRecord
100
AcDbLayerTableRecord
  2
hyosen1
 70
     0
 62
     1
  6
Continuous
370
    25
390
F
  0
LAYER
  5
ACCA
330
2
100
AcDbSymbolTableRecord
100
AcDbLayerTableRecord
  2
hyosen2
 70
     0
 62
     1
  6
Continuous
370
    13
390
F
  0
LAYER
  5
AD60
330
2
100
AcDbSymbolTableRecord
100
AcDbLayerTableRecord
  2
AM_1
 70
     0
 62
    30
  6
太線
370
    40
390
F
1001
AcAecLayerStandard
1000

1000

  0
LAYER
  5
AD64
330
2
100
AcDbSymbolTableRecord
100
AcDbLayerTableRecord
  2
AM_2
 70
     0
 62
     1
  6
細線
370
    13
390
F
1001
AcAecLayerStandard
1000

1000

  0
LAYER
  5
AD67
330
2
100
AcDbSymbolTableRecord
100
AcDbLayerTableRecord
  2
AM_3
 70
     0
 62
     6
  6
陰線1
370
    13
390
F
1001
AcAecLayerStandard
1000

1000

  0
LAYER
  5
AD68
330
2
100
AcDbSymbolTableRecord
100
AcDbLayerTableRecord
  2
AM_5
 70
     0
 62
     3
  6
寸法線
370
    13
390
F
1001
AcAecLayerStandard
1000

1000

  0
LAYER
  5
AD69
330
2
100
AcDbSymbolTableRecord
100
AcDbLayerTableRecord
  2
AM_7
 70
     0
 62
     4
  6
中心線1
370
    13
390
F
1001
AcAecLayerStandard
1000

1000

  0
LAYER
  5
AD6A
330
2
100
AcDbSymbolTableRecord
100
AcDbLayerTableRecord
  2
AM_8
 70
     0
 62
     1
  6
ハッチング
370
    13
390
F
1001
AcAecLayerStandard
1000

1000

  0
LAYER
  5
AD6E
330
2
100
AcDbSymbolTableRecord
100
AcDbLayerTableRecord
  2
AM_10
 70
     0
 62
     7
  6
切断線
370
    13
390
F
1001
AcAecLayerStandard
1000

1000

  0
LAYER
  5
AD6F
330
2
100
AcDbSymbolTableRecord
100
AcDbLayerTableRecord
  2
AM_11
 70
     0
 62
     2
  6
想像線1
370
    13
390
F
1001
AcAecLayerStandard
1000

1000

  0
LAYER
  5
B1B6
330
2
100
AcDbSymbolTableRecord
100
AcDbLayerTableRecord
  2
AM_CL
 70
     0
 62
     1
  6
Amconstr
370
    15
390
F
1001
AcAecLayerStandard
1000

1000

  0
LAYER
  5
B2EB
330
2
100
AcDbSymbolTableRecord
100
AcDbLayerTableRecord
  2
AM_14
 70
     0
 62
     5
  6
細線
370
     9
390
F
1001
AcAecLayerStandard
1000

1000

  0
LAYER
  5
B2EC
330
2
100
AcDbSymbolTableRecord
100
AcDbLayerTableRecord
  2
AM_15
 70
     0
 62
     6
  6
陰線1
370
     9
390
F
1001
AcAecLayerStandard
1000

1000

  0
LAYER
  5
BAA3
330
2
100
AcDbSymbolTableRecord
100
AcDbLayerTableRecord
  2
0文字
 70
     0
 62
     2
  6
Continuous
370
    13
390
F
1001
AcAecLayerStandard
1000

1000

  0
ENDTAB
  0
TABLE
  2
STYLE
  5
3
330
0
100
AcDbSymbolTable
 70
     8
  0
STYLE
  5
11
330
3
100
AcDbSymbolTableRecord
100
AcDbTextStyleTableRecord
  2
STANDARD
 70
     0
 40
0.0
 41
0.7
 50
0.0
 71
     0
 42
3.2
  3
romans.shx
  4
extfont.shx
  0
STYLE
  5
56
330
3
100
AcDbSymbolTableRecord
100
AcDbTextStyleTableRecord
  2

 70
     1
 40
0.0
 41
1.0
 50
0.0
 71
     0
 42
2.5
  3
ltypeshp.shx
  4

  0
STYLE
  5
58
330
3
100
AcDbSymbolTableRecord
100
AcDbTextStyleTableRecord
  2
ACISOTS
 70
     0
 40
1.0
 41
1.0
 50
0.0
 71
     0
 42
2.5
  3
isocp.shx
  4
extfont.shx
  0
STYLE
  5
63
330
3
100
AcDbSymbolTableRecord
100
AcDbTextStyleTableRecord
  2
ACISOGDT
 70
     0
 40
0.0
 41
1.0
 50
0.0
 71
     0
 42
2.5
  3
amgdt.shx
  4

  0
STYLE
  5
A74
330
3
100
AcDbSymbolTableRecord
100
AcDbTextStyleTableRecord
  2
DIM
 70
     0
 40
0.0
 41
1.0
 50
0.0
 71
     0
 42
2.5
  3
monotxt.shx
  4
extfont.shx
  0
STYLE
  5
AC80
330
3
100
AcDbSymbolTableRecord
100
AcDbTextStyleTableRecord
  2

 70
     1
 40
0.0
 41
1.0
 50
0.0
 71
     0
 42
3.2
  3
genltshp.shx
  4

  0
STYLE
  5
B701
330
3
100
AcDbSymbolTableRecord
100
AcDbTextStyleTableRecord
  2
ACANSTS
 70
     0
 40
1.0
 41
1.0
 50
0.0
 71
     0
 42
3.2
  3
romans.shx
  4
extfont.shx
  0
STYLE
  5
B702
330
3
100
AcDbSymbolTableRecord
100
AcDbTextStyleTableRecord
  2
ACANSGDT
 70
     0
 40
0.0
 41
1.0
 50
0.0
 71
     0
 42
3.2
  3
amgdt.shx
  4

  0
ENDTAB
  0
TABLE
  2
VIEW
  5
6
330
0
100
AcDbSymbolTable
 70
     6
  0
VIEW
  5
AE1
330
6
100
AcDbSymbolTableRecord
100
AcDbViewTableRecord
  2
AM_VIEW1
 70
     0
 40
231.5216306156406
 10
148.5
 20
304.2391846921796
 41
297.0
 11
0.0
 21
0.0
 31
1.0
 12
0.0
 22
0.0
 32
0.0
 42
50.0
 43
-1370.695619172058
 44
-1370.695619172058
 50
0.0
 71
    16
281
     0
 72
     0
  0
VIEW
  5
AE2
330
6
100
AcDbSymbolTableRecord
100
AcDbViewTableRecord
  2
AM_VIEW2
 70
     0
 40
231.5216306156406
 10
445.5
 20
304.2391846921796
 41
297.0
 11
0.0
 21
0.0
 31
1.0
 12
0.0
 22
0.0
 32
0.0
 42
50.0
 43
-1370.695619172058
 44
-1370.695619172058
 50
0.0
 71
    16
281
     0
 72
     0
  0
VIEW
  5
AE3
330
6
100
AcDbSymbolTableRecord
100
AcDbViewTableRecord
  2
AM_VIEW3
 70
     0
 40
231.5216306156406
 10
148.5
 20
115.7608153078203
 41
297.0
 11
0.0
 21
0.0
 31
1.0
 12
0.0
 22
0.0
 32
0.0
 42
50.0
 43
-1370.695619172058
 44
-1370.695619172058
 50
0.0
 71
    16
281
     0
 72
     0
  0
VIEW
  5
AE4
330
6
100
AcDbSymbolTableRecord
100
AcDbViewTableRecord
  2
AM_VIEW4
 70
     0
 40
231.5216306156406
 10
445.5
 20
115.7608153078203
 41
297.0
 11
0.0
 21
0.0
 31
1.0
 12
0.0
 22
0.0
 32
0.0
 42
50.0
 43
-1370.695619172058
 44
-1370.695619172058
 50
0.0
 71
    16
281
     0
 72
     0
  0
VIEW
  5
AE5
330
6
100
AcDbSymbolTableRecord
100
AcDbViewTableRecord
  2
AM_VIEW5
 70
     0
 40
231.5216306156405
 10
297.0
 20
210.0
 41
297.0
 11
0.0
 21
0.0
 31
1.0
 12
0.0
 22
0.0
 32
0.0
 42
50.0
 43
-1370.695619172058
 44
-1370.695619172058
 50
0.0
 71
    16
281
     0
 72
     0
  0
VIEW
  5
AE6
330
6
100
AcDbSymbolTableRecord
100
AcDbViewTableRecord
  2
AM_VIEW6
 70
     0
 40
463.0386307986689
 10
297.0
 20
210.0
 41
593.9940599999999
 11
0.0
 21
0.0
 31
1.0
 12
0.0
 22
0.0
 32
0.0
 42
50.0
 43
-1370.695619172058
 44
-1370.695619172058
 50
0.0
 71
    16
281
     0
 72
     0
  0
ENDTAB
  0
TABLE
  2
UCS
  5
7
330
0
100
AcDbSymbolTable
 70
     0
  0
ENDTAB
  0
TABLE
  2
APPID
  5
9
330
0
100
AcDbSymbolTable
 70
    60
  0
APPID
  5
12
330
9
100
AcDbSymbolTableRecord
100
AcDbRegAppTableRecord
  2
ACAD
 70
     0
  0
APPID
  5
30
330
9
100
AcDbSymbolTableRecord
100
AcDbRegAppTableRecord
  2
MCAD_NO_VIS
 70
     0
  0
APPID
  5
31
330
9
100
AcDbSymbolTableRecord
100
AcDbRegAppTableRecord
  2
ACAD_TEMP_GRAPHIC
 70
     0
  0
APPID
  5
44
330
9
100
AcDbSymbolTableRecord
100
AcDbRegAppTableRecord
  2
ACATTRIBSERVICES
 70
     0
  0
APPID
  5
7A1
330
9
100
AcDbSymbolTableRecord
100
AcDbRegAppTableRecord
  2
GENIUS_GENDIMSH_14
 70
     0
  0
APPID
  5
A49
330
9
100
AcDbSymbolTableRecord
100
AcDbRegAppTableRecord
  2
GENIUS_GENREC_14
 70
     0
  0
APPID
  5
A4A
330
9
100
AcDbSymbolTableRecord
100
AcDbRegAppTableRecord
  2
GENIUS_GENOBJ-N-REC_13
 70
     0
  0
APPID
  5
A4B
330
9
100
AcDbSymbolTableRecord
100
AcDbRegAppTableRecord
  2
GENIUS_GENODEF_13
 70
     0
  0
APPID
  5
A4C
330
9
100
AcDbSymbolTableRecord
100
AcDbRegAppTableRecord
  2
DCO15
 70
     0
  0
APPID
  5
ADC
330
9
100
AcDbSymbolTableRecord
100
AcDbRegAppTableRecord
  2
GENIUS_GENOLIS_13
 70
     0
  0
APPID
  5
ADD
330
9
100
AcDbSymbolTableRecord
100
AcDbRegAppTableRecord
  2
GENIUS_GENOENT_13
 70
     0
  0
APPID
  5
ADE
330
9
100
AcDbSymbolTableRecord
100
AcDbRegAppTableRecord
  2
GENIUS_GENOBJ-N-TIT_13
 70
     0
  0
APPID
  5
ADF
330
9
100
AcDbSymbolTableRecord
100
AcDbRegAppTableRecord
  2
GENIUS_GENTITLE_13
 70
     0
  0
APPID
  5
AE0
330
9
100
AcDbSymbolTableRecord
100
AcDbRegAppTableRecord
  2
GENIUS_GENOREF_13
 70
     0
  0
APPID
  5
AE7
330
9
100
AcDbSymbolTableRecord
100
AcDbRegAppTableRecord
  2
GENIUS_GENSCREG_15
 70
     0
  0
APPID
  5
AE8
330
9
100
AcDbSymbolTableRecord
100
AcDbRegAppTableRecord
  2
GENIUS_GENOBJ-N-SDF_13
 70
     0
  0
APPID
  5
FAF
330
9
100
AcDbSymbolTableRecord
100
AcDbRegAppTableRecord
  2
GENIUS_GENBLLY_14
 70
     0
  0
APPID
  5
FB0
330
9
100
AcDbSymbolTableRecord
100
AcDbRegAppTableRecord
  2
GENIUS_GENTRA_14
 70
     0
  0
APPID
  5
1285
330
9
100
AcDbSymbolTableRecord
100
AcDbRegAppTableRecord
  2
GENIUS_GENDTOL_13
 70
     0
  0
APPID
  5
142D
330
9
100
AcDbSymbolTableRecord
100
AcDbRegAppTableRecord
  2
GENIUS_GENOBJ-N-CEN_13
 70
     0
  0
APPID
  5
1AB5
330
9
100
AcDbSymbolTableRecord
100
AcDbRegAppTableRecord
  2
GENIUS_GENOBJ-N-CRS_13
 70
     0
  0
APPID
  5
1B36
330
9
100
AcDbSymbolTableRecord
100
AcDbRegAppTableRecord
  2
GENIUS_GENOBJ-N-HTC_13
 70
     0
  0
APPID
  5
1B37
330
9
100
AcDbSymbolTableRecord
100
AcDbRegAppTableRecord
  2
GENIUS_GENHATCH_13
 70
     0
  0
APPID
  5
216D
330
9
100
AcDbSymbolTableRecord
100
AcDbRegAppTableRecord
  2
GENIUS_GENOBJ-N-FIL_13
 70
     0
  0
APPID
  5
2356
330
9
100
AcDbSymbolTableRecord
100
AcDbRegAppTableRecord
  2
GEVID990412420
 70
     0
  0
APPID
  5
2357
330
9
100
AcDbSymbolTableRecord
100
AcDbRegAppTableRecord
  2
GEVDC
 70
     0
  0
APPID
  5
2358
330
9
100
AcDbSymbolTableRecord
100
AcDbRegAppTableRecord
  2
GEVCON
 70
     0
  0
APPID
  5
235B
330
9
100
AcDbSymbolTableRecord
100
AcDbRegAppTableRecord
  2
GEVRADREF
 70
     0
  0
APPID
  5
2360
330
9
100
AcDbSymbolTableRecord
100
AcDbRegAppTableRecord
  2
GENIUS_GENBH_13
 70
     0
  0
APPID
  5
2362
330
9
100
AcDbSymbolTableRecord
100
AcDbRegAppTableRecord
  2
GENIUS_GENOBJ-NBEHI-BHF_13
 70
     0
  0
APPID
  5
2364
330
9
100
AcDbSymbolTableRecord
100
AcDbRegAppTableRecord
  2
GENIUS_GENOBJ-NBEHI-BHB_13
 70
     0
  0
APPID
  5
2379
330
9
100
AcDbSymbolTableRecord
100
AcDbRegAppTableRecord
  2
GENIUS_GENOBJ-F-SCPASSM_13
 70
     0
  0
APPID
  5
3D74
330
9
100
AcDbSymbolTableRecord
100
AcDbRegAppTableRecord
  2
GENIUS_GENDIM_13
 70
     0
  0
APPID
  5
3D76
330
9
100
AcDbSymbolTableRecord
100
AcDbRegAppTableRecord
  2
GENIUS_GE3DTOL_13
 70
     0
  0
APPID
  5
3D9C
330
9
100
AcDbSymbolTableRecord
100
AcDbRegAppTableRecord
  2
AD_DRAW
 70
     0
  0
APPID
  5
3DE8
330
9
100
AcDbSymbolTableRecord
100
AcDbRegAppTableRecord
  2
ASURF_PCURVE_APPNAME
 70
     0
  0
APPID
  5
3DED
330
9
100
AcDbSymbolTableRecord
100
AcDbRegAppTableRecord
  2
AMG_3D2D_5.0
 70
     0
  0
APPID
  5
3E1B
330
9
100
AcDbSymbolTableRecord
100
AcDbRegAppTableRecord
  2
DESIGNERASSEMBLIES
 70
     0
  0
APPID
  5
3E20
330
9
100
AcDbSymbolTableRecord
100
AcDbRegAppTableRecord
  2
ACADM_DIM_EDIT
 70
     0
  0
APPID
  5
3E21
330
9
100
AcDbSymbolTableRecord
100
AcDbRegAppTableRecord
  2
AMDT_DM_ADJ
 70
     0
  0
APPID
  5
4143
330
9
100
AcDbSymbolTableRecord
100
AcDbRegAppTableRecord
  2
GENIUS_GENFIL_13
 70
     0
  0
APPID
  5
4144
330
9
100
AcDbSymbolTableRecord
100
AcDbRegAppTableRecord
  2
GENIUS_GENOBJ-N-CHA_13
 70
     0
  0
APPID
  5
4E17
330
9
100
AcDbSymbolTableRecord
100
AcDbRegAppTableRecord
  2
GEVID1008153417
 70
     0
  0
APPID
  5
4E58
330
9
100
AcDbSymbolTableRecord
100
AcDbRegAppTableRecord
  2
GEVID1008153418
 70
     0
  0
APPID
  5
4E5E
330
9
100
AcDbSymbolTableRecord
100
AcDbRegAppTableRecord
  2
GEVID1008153419
 70
     0
  0
APPID
  5
4E64
330
9
100
AcDbSymbolTableRecord
100
AcDbRegAppTableRecord
  2
GEVID1008153420
 70
     0
  0
APPID
  5
4E75
330
9
100
AcDbSymbolTableRecord
100
AcDbRegAppTableRecord
  2
GEVID1008153421
 70
     0
  0
APPID
  5
4EB7
330
9
100
AcDbSymbolTableRecord
100
AcDbRegAppTableRecord
  2
GENIUS_AMGTXT_16
 70
     0
  0
APPID
  5
7645
330
9
100
AcDbSymbolTableRecord
100
AcDbRegAppTableRecord
  2
GENIUS_GENOBJ-N-DIM_13
 70
     0
  0
APPID
  5
AAD0
330
9
100
AcDbSymbolTableRecord
100
AcDbRegAppTableRecord
  2
ACAD_DSTYLE_DIMARC_LENGTH_SYMBOL
 70
     0
  0
APPID
  5
AAD1
330
9
100
AcDbSymbolTableRecord
100
AcDbRegAppTableRecord
  2
ACAD_DSTYLE_DIMJOGGED_JOGANGLE_SYMBOL
 70
     0
  0
APPID
  5
AAFD
330
9
100
AcDbSymbolTableRecord
100
AcDbRegAppTableRecord
  2
ACAD_PSEXT
 70
     0
  0
APPID
  5
AD61
330
9
100
AcDbSymbolTableRecord
100
AcDbRegAppTableRecord
  2
AcAecLayerStandard
 70
     0
  0
APPID
  5
AEE3
330
9
100
AcDbSymbolTableRecord
100
AcDbRegAppTableRecord
  2
ACAD_EXEMPT_FROM_CAD_STANDARDS
 70
     0
  0
APPID
  5
B1BE
330
9
100
AcDbSymbolTableRecord
100
AcDbRegAppTableRecord
  2
GENIUS_GENCEN_19
 70
     0
  0
APPID
  5
B505
330
9
100
AcDbSymbolTableRecord
100
AcDbRegAppTableRecord
  2
ACAD_MLEADERVER
 70
     0
  0
APPID
  5
B530
330
9
100
AcDbSymbolTableRecord
100
AcDbRegAppTableRecord
  2
ACAUTHENVIRON
 70
     0
  0
APPID
  5
B531
330
9
100
AcDbSymbolTableRecord
100
AcDbRegAppTableRecord
  2
AcDbDynamicBlockTrueName
 70
     0
  0
APPID
  5
B532
330
9
100
AcDbSymbolTableRecord
100
AcDbRegAppTableRecord
  2
AcDbDynamicBlockGUID
 70
     0
  0
APPID
  5
B533
330
9
100
AcDbSymbolTableRecord
100
AcDbRegAppTableRecord
  2
ACDBBLOCKREPETAG
 70
     0
  0
ENDTAB
  0
TABLE
  2
DIMSTYLE
  5
A
330
0
100
AcDbSymbolTable
 70
    24
100
AcDbDimStyleTable
 71
     2
340
2515
340
B703
  0
DIMSTYLE
105
A76
330
A
100
AcDbSymbolTableRecord
100
AcDbDimStyleTableRecord
  2
STANDARD
 70
     0
 41
3.0
 42
1.0
 43
7.0
 44
2.0
 73
     0
 74
     0
 77
     1
140
2.799999999999998
141
0.0
143
0.0394
147
0.7
171
     4
172
     1
173
     1
176
     3
177
     3
178
     2
271
     3
272
     3
273
     8
274
     4
289
     0
340
A74
341
A66
343
A66
344
A66
  0
DIMSTYLE
105
2515
330
A
100
AcDbSymbolTableRecord
100
AcDbDimStyleTableRecord
  2
SYS
 70
     0
  4
"
 41
1.0
 42
1.0
 43
10.0
 44
1.0
 47
0.1
 48
0.1
 73
     0
 74
     0
 77
     1
 78
     8
 79
     2
140
3.5
141
0.0
143
0.0393701
146
0.71
147
1.5
172
     1
176
   256
177
   256
178
     7
271
     2
272
     2
283
     0
284
     8
340
11
371
    -1
372
    -1
1001
ACAD_DSTYLE_DIMJOGGED_JOGANGLE_SYMBOL
1070
   384
1040
0.7853981633974483
1001
ACAD_DSTYLE_DIMARC_LENGTH_SYMBOL
1070
   379
1070
     1
  0
DIMSTYLE
105
2516
330
A
100
AcDbSymbolTableRecord
100
AcDbDimStyleTableRecord
  2
SYS$3
 70
     0
  4
"
 41
2.0
 42
1.0
 43
10.0
 44
1.0
 47
0.1
 48
0.1
 73
     0
 77
     1
 78
     8
 79
     2
140
3.5
141
0.0
143
0.0393701
146
0.71
147
1.5
176
   256
177
   256
178
     2
271
     2
272
     2
283
     0
284
     8
288
     1
340
11
342
A66
371
    -1
372
    -1
1001
ACAD_DSTYLE_DIMJOGGED_JOGANGLE_SYMBOL
1070
   384
1040
0.7853981633974483
1001
ACAD_DSTYLE_DIMARC_LENGTH_SYMBOL
1070
   379
1070
     1
  0
DIMSTYLE
105
2517
330
A
100
AcDbSymbolTableRecord
100
AcDbDimStyleTableRecord
  2
SYS$4
 70
     0
  4
"
 41
2.0
 42
1.0
 43
10.0
 44
1.0
 47
0.1
 48
0.1
 73
     0
 77
     1
 78
     8
 79
     2
140
3.5
141
0.0
143
0.0393701
146
0.71
147
1.5
173
     1
176
   256
177
   256
178
     2
271
     2
272
     2
283
     0
284
     8
288
     1
340
11
344
A66
371
    -1
372
    -1
1001
ACAD_DSTYLE_DIMJOGGED_JOGANGLE_SYMBOL
1070
   384
1040
0.7853981633974483
1001
ACAD_DSTYLE_DIMARC_LENGTH_SYMBOL
1070
   379
1070
     1
  0
DIMSTYLE
105
2518
330
A
100
AcDbSymbolTableRecord
100
AcDbDimStyleTableRecord
  2
SYS$6
 70
     0
  4
"
 41
2.0
 42
1.0
 43
10.0
 44
1.0
 47
0.1
 48
0.1
 73
     0
 74
     0
 78
     8
 79
     2
140
3.5
141
0.0
143
0.0393701
146
0.71
147
1.5
172
     1
176
   256
177
   256
178
     2
271
     2
272
     2
283
     0
284
     8
340
11
341
A66
371
    -1
372
    -1
1001
ACAD_DSTYLE_DIMJOGGED_JOGANGLE_SYMBOL
1070
   384
1040
0.7853981633974483
1001
ACAD_DSTYLE_DIMARC_LENGTH_SYMBOL
1070
   379
1070
     1
  0
DIMSTYLE
105
2519
330
A
100
AcDbSymbolTableRecord
100
AcDbDimStyleTableRecord
  2
SYS$7
 70
     0
  4
"
 41
2.0
 42
1.0
 43
10.0
 44
1.0
 47
0.1
 48
0.1
 73
     0
 74
     0
 77
     1
 78
     8
 79
     2
140
5.0
141
0.0
143
0.0393701
146
0.71
147
1.5
172
     1
176
   256
177
   256
178
     2
271
     2
272
     2
283
     0
284
     8
340
11
341
A66
342
A66
371
    -1
372
    -1
1001
ACAD_DSTYLE_DIMJOGGED_JOGANGLE_SYMBOL
1070
   384
1040
0.7853981633974483
1001
ACAD_DSTYLE_DIMARC_LENGTH_SYMBOL
1070
   379
1070
     1
  0
DIMSTYLE
105
251A
330
A
100
AcDbSymbolTableRecord
100
AcDbDimStyleTableRecord
  2
SYS$SF
 70
     0
  4
"
 41
2.5
 42
1.0
 43
10.0
 44
1.0
 47
0.1
 48
0.1
 73
     0
 74
     0
 75
     1
 76
     1
 77
     1
 78
     8
 79
     2
140
3.5
141
0.0
143
0.0393701
146
0.71
147
1.5
172
     1
176
   256
177
   256
178
     2
271
     2
272
     3
283
     0
284
     8
340
11
341
6C4
342
6C4
371
    -1
372
    -1
1001
ACAD_DSTYLE_DIMJOGGED_JOGANGLE_SYMBOL
1070
   384
1040
0.7853981633974483
1001
ACAD_DSTYLE_DIMARC_LENGTH_SYMBOL
1070
   379
1070
     1
  0
DIMSTYLE
105
251B
330
A
100
AcDbSymbolTableRecord
100
AcDbDimStyleTableRecord
  2
SYS$SH
 70
     0
  4
"
 41
2.5
 42
1.0
 43
10.0
 44
1.0
 47
0.1
 48
0.1
 73
     0
 74
     0
 75
     1
 76
     1
 77
     1
 78
     8
 79
     2
140
3.5
141
0.0
143
0.0393701
144
2.0
146
0.71
147
1.5
172
     1
173
     1
176
   256
177
   256
178
     2
271
     2
272
     3
283
     0
284
     8
340
11
341
6C4
343
72
344
6C4
371
    -1
372
    -1
1001
ACAD_DSTYLE_DIMJOGGED_JOGANGLE_SYMBOL
1070
   384
1040
0.7853981633974483
1001
ACAD_DSTYLE_DIMARC_LENGTH_SYMBOL
1070
   379
1070
     1
  0
DIMSTYLE
105
2A59
330
A
100
AcDbSymbolTableRecord
100
AcDbDimStyleTableRecord
  2
SYS$2
 70
     0
  4
"
 41
1.0
 42
1.0
 43
10.0
 44
1.0
 47
0.1
 48
0.1
 73
     0
 74
     0
 77
     1
 78
     8
 79
     2
140
3.5
141
0.0
143
0.0393701
146
0.71
147
1.5
172
     1
176
   256
177
   256
178
     2
271
     2
272
     2
283
     0
284
     8
340
11
342
6C4
371
    -1
372
    -1
1001
ACAD_DSTYLE_DIMJOGGED_JOGANGLE_SYMBOL
1070
   384
1040
0.7853981633974483
1001
ACAD_DSTYLE_DIMARC_LENGTH_SYMBOL
1070
   379
1070
     1
  0
DIMSTYLE
105
2AAB
102
{ACAD_REACTORS
330
D3D2
330
D3E8
330
D448
330
D45E
330
D478
330
D4D1
330
D530
330
D546
330
D57B
330
D5C6
330
D5E5
330
D5FB
330
D611
330
D627
330
D67E
330
D69E
330
D6B4
330
D6F8
330
D70E
330
D778
330
D792
330
D7AC
330
D7C2
330
D7EA
330
D804
330
D81A
330
D851
330
D88E
330
D8C6
330
D8DC
330
D8F2
330
DFF3
330
E01A
102
}
330
A
100
AcDbSymbolTableRecord
100
AcDbDimStyleTableRecord
  2
SYS$0
 70
     0
  4
"
 41
1.0
 42
1.0
 43
10.0
 44
1.0
 47
0.1
 48
0.1
 73
     0
 74
     0
 77
     1
 78
     8
 79
     2
140
3.200000000000001
141
0.0
143
0.0393701
146
0.71
147
1.5
172
     1
176
   256
177
   256
178
     2
271
     2
272
     2
283
     0
284
     8
340
11
341
A66
342
6C4
371
    -1
372
    -1
1001
ACAD_DSTYLE_DIMJOGGED_JOGANGLE_SYMBOL
1070
   384
1040
0.7853981633974483
1001
ACAD_DSTYLE_DIMARC_LENGTH_SYMBOL
1070
   379
1070
     1
  0
DIMSTYLE
105
AF99
330
A
100
AcDbSymbolTableRecord
100
AcDbDimStyleTableRecord
  2
AM_ISO
 70
     0
  4
"
 41
2.5
 42
1.0
 43
10.0
 44
1.0
 47
0.1
 48
0.1
 73
     0
 74
     0
 77
     1
 78
     8
 79
     2
140
3.5
141
0.0
143
0.0393701
146
0.71
147
1.5
172
     1
176
   256
177
   256
178
     2
271
     2
272
     3
274
     4
283
     0
284
     8
340
11
371
    -1
372
    -1
  0
DIMSTYLE
105
AF9A
330
A
100
AcDbSymbolTableRecord
100
AcDbDimStyleTableRecord
  2
AM_ISO$3
 70
     0
  4
"
 41
2.5
 42
1.0
 43
10.0
 44
1.0
 47
0.1
 48
0.1
 73
     0
 77
     1
 78
     8
 79
     2
140
3.5
141
0.0
143
0.0393701
146
0.71
147
1.5
176
   256
177
   256
178
     2
271
     2
272
     3
274
     4
283
     0
284
     8
288
     1
289
     0
340
11
371
    -1
372
    -1
  0
DIMSTYLE
105
AF9B
330
A
100
AcDbSymbolTableRecord
100
AcDbDimStyleTableRecord
  2
AM_ISO$4
 70
     0
  4
"
 41
2.5
 42
1.0
 43
10.0
 44
1.0
 47
0.1
 48
0.1
 73
     0
 77
     1
 78
     8
 79
     2
140
3.5
141
0.0
143
0.0393701
146
0.71
147
1.5
176
   256
177
   256
178
     2
271
     2
272
     3
274
     4
283
     0
284
     8
288
     1
289
     0
340
11
371
    -1
372
    -1
  0
DIMSTYLE
105
AF9C
330
A
100
AcDbSymbolTableRecord
100
AcDbDimStyleTableRecord
  2
AM_ISO$6
 70
     0
  4
"
 41
2.5
 42
1.0
 43
10.0
 44
1.0
 47
0.1
 48
0.1
 73
     0
 74
     0
 78
     8
 79
     2
140
3.5
141
0.0
143
0.0393701
146
0.71
147
1.5
172
     1
176
   256
177
   256
178
     2
271
     2
272
     3
274
     4
283
     0
284
     8
340
11
371
    -1
372
    -1
  0
DIMSTYLE
105
AF9D
330
A
100
AcDbSymbolTableRecord
100
AcDbDimStyleTableRecord
  2
AM_ISO$7
 70
     0
  4
"
 41
2.5
 42
1.0
 43
10.0
 44
1.0
 47
0.1
 48
0.1
 73
     0
 74
     0
 77
     1
 78
     8
 79
     2
140
5.0
141
0.0
143
0.0393701
146
0.71
147
1.5
172
     1
176
   256
177
   256
178
     2
271
     2
272
     3
274
     4
283
     0
284
     8
340
11
371
    -1
372
    -1
  0
DIMSTYLE
105
AF9E
330
A
100
AcDbSymbolTableRecord
100
AcDbDimStyleTableRecord
  2
AM_ISO$SF
 70
     0
  4
"
 41
2.5
 42
1.0
 43
10.0
 44
1.0
 47
0.1
 48
0.1
 73
     0
 74
     0
 75
     1
 76
     1
 77
     1
 78
     8
 79
     2
140
3.5
141
0.0
143
0.0393701
146
0.71
147
1.5
172
     1
176
   256
177
   256
178
     2
271
     2
272
     3
274
     4
283
     0
284
     8
340
11
371
    -1
372
    -1
  0
DIMSTYLE
105
AF9F
330
A
100
AcDbSymbolTableRecord
100
AcDbDimStyleTableRecord
  2
AM_ISO$SH
 70
     0
  4
"
 41
2.5
 42
1.0
 43
10.0
 44
1.0
 47
0.1
 48
0.1
 73
     0
 74
     0
 75
     1
 76
     1
 77
     1
 78
     8
 79
     2
140
3.5
141
0.0
143
0.0393701
144
2.0
146
0.71
147
1.5
172
     1
173
     1
176
   256
177
   256
178
     2
271
     2
272
     3
274
     4
283
     0
284
     8
340
11
343
72
371
    -1
372
    -1
  0
DIMSTYLE
105
B703
330
A
100
AcDbSymbolTableRecord
100
AcDbDimStyleTableRecord
  2
DIMSTYLE
 70
     0
 41
1.0
 42
2.54
 44
2.54
 73
     0
 74
     0
140
3.2
147
1.6
173
     1
279
     2
340
11
  0
DIMSTYLE
105
B704
330
A
100
AcDbSymbolTableRecord
100
AcDbDimStyleTableRecord
  2
AM_ANSI
 70
     0
  4
mm
 41
0.1
 42
0.05
 43
0.5
 44
0.1
 47
0.1
 48
0.1
 78
     7
 79
     2
140
0.12
141
0.0
146
0.71
147
0.06
176
   256
177
   256
178
     2
274
     4
284
     7
340
11
371
    -1
372
    -1
1001
ACAD_DSTYLE_DIMARC_LENGTH_SYMBOL
1070
   379
1070
     1
  0
DIMSTYLE
105
B705
330
A
100
AcDbSymbolTableRecord
100
AcDbDimStyleTableRecord
  2
AM_ANSI$3
 70
     0
  4
mm
 41
0.1
 42
0.05
 43
0.5
 44
0.1
 47
0.1
 48
0.1
 78
     7
 79
     2
140
0.12
141
0.0
146
0.71
147
0.06
176
   256
177
   256
178
     2
274
     4
284
     7
288
     1
289
     0
340
11
371
    -1
372
    -1
1001
ACAD_DSTYLE_DIMARC_LENGTH_SYMBOL
1070
   379
1070
     1
  0
DIMSTYLE
105
B706
330
A
100
AcDbSymbolTableRecord
100
AcDbDimStyleTableRecord
  2
AM_ANSI$4
 70
     0
  4
mm
 41
0.1
 42
0.05
 43
0.5
 44
0.1
 47
0.1
 48
0.1
 78
     7
 79
     2
140
0.12
141
0.0
146
0.71
147
0.06
176
   256
177
   256
178
     2
274
     4
284
     7
288
     1
289
     0
340
11
371
    -1
372
    -1
1001
ACAD_DSTYLE_DIMARC_LENGTH_SYMBOL
1070
   379
1070
     1
  0
DIMSTYLE
105
B707
330
A
100
AcDbSymbolTableRecord
100
AcDbDimStyleTableRecord
  2
AM_ANSI$7
 70
     0
  4
mm
 41
0.1
 42
0.05
 43
0.5
 44
0.1
 47
0.1
 48
0.1
 78
     7
 79
     2
140
0.24
141
0.0
146
0.71
147
0.06
176
   256
177
   256
178
     2
274
     4
284
     7
340
11
371
    -1
372
    -1
1001
ACAD_DSTYLE_DIMARC_LENGTH_SYMBOL
1070
   379
1070
     1
  0
DIMSTYLE
105
B708
330
A
100
AcDbSymbolTableRecord
100
AcDbDimStyleTableRecord
  2
AM_ANSI$SF
 70
     0
  4
mm
 41
0.1
 42
0.05
 43
0.5
 44
0.1
 47
0.1
 48
0.1
 75
     1
 76
     1
 78
     7
 79
     2
140
0.12
141
0.0
146
0.71
147
0.06
176
   256
177
   256
178
     2
274
     4
284
     7
340
11
371
    -1
372
    -1
1001
ACAD_DSTYLE_DIMARC_LENGTH_SYMBOL
1070
   379
1070
     1
  0
DIMSTYLE
105
B709
330
A
100
AcDbSymbolTableRecord
100
AcDbDimStyleTableRecord
  2
AM_ANSI$SH
 70
     0
  4
mm
 41
0.1
 42
0.05
 43
0.5
 44
0.1
 47
0.1
 48
0.1
 75
     1
 76
     1
 78
     7
 79
     2
140
0.12
141
0.0
146
0.71
147
0.06
173
     1
176
   256
177
   256
178
     2
274
     4
284
     7
340
11
343
72
371
    -1
372
    -1
1001
ACAD_DSTYLE_DIMARC_LENGTH_SYMBOL
1070
   379
1070
     1
  0
ENDTAB
  0
TABLE
  2
BLOCK_RECORD
  5
1
330
0
100
AcDbSymbolTable
 70
    39
  0
BLOCK_RECORD
  5
1F
102
{ACAD_XDICTIONARY
360
8A
102
}
330
1
100
AcDbSymbolTableRecord
100
AcDbBlockTableRecord
  2
*Model_Space
340
22
  0
BLOCK_RECORD
  5
1B
330
1
100
AcDbSymbolTableRecord
100
AcDbBlockTableRecord
  2
*Paper_Space
340
1E
  0
BLOCK_RECORD
  5
23
330
1
100
AcDbSymbolTableRecord
100
AcDbBlockTableRecord
  2
*Paper_Space0
340
26
  0
BLOCK_RECORD
  5
72
330
1
100
AcDbSymbolTableRecord
100
AcDbBlockTableRecord
  2
GENAXEH
340
0
  0
BLOCK_RECORD
  5
6C4
330
1
100
AcDbSymbolTableRecord
100
AcDbBlockTableRecord
  2
_Dot
340
0
102
{BLKREFS
331
D3E2
331
D3E3
331
D443
331
D488
331
D489
331
D4AB
331
D4AC
331
D4CB
331
D4CC
331
D52B
331
D540
331
D541
331
D594
331
D595
331
D5C1
331
D5DF
331
D5E0
331
D5F5
331
D5F6
331
D60B
331
D60C
331
D66F
331
D670
331
D678
331
D679
331
D6AE
331
D6AF
331
D6F2
331
D6F3
331
D708
331
D709
331
D71E
331
D71F
331
D78C
331
D78D
331
D7A6
331
D7A7
331
D7BC
331
D7BD
331
D7E4
331
D7E5
331
D7FE
331
D7FF
331
D814
331
D815
331
D888
331
D889
331
D8C0
331
D8C1
331
D8D6
331
D8D7
331
D902
331
D903
331
E014
331
E015
331
E03B
331
E03C
331
E080
331
E081
331
E089
331
E08A
331
E091
102
}
  0
BLOCK_RECORD
  5
A66
330
1
100
AcDbSymbolTableRecord
100
AcDbBlockTableRecord
  2
_OPEN30
340
0
  0
BLOCK_RECORD
  5
C3FD
330
1
100
AcDbSymbolTableRecord
100
AcDbBlockTableRecord
  2
_NONE
340
0
  0
BLOCK_RECORD
  5
D3D3
330
1
100
AcDbSymbolTableRecord
100
AcDbBlockTableRecord
  2
*D5
340
0
  0
BLOCK_RECORD
  5
D3E9
330
1
100
AcDbSymbolTableRecord
100
AcDbBlockTableRecord
  2
*D6
340
0
  0
BLOCK_RECORD
  5
D449
330
1
100
AcDbSymbolTableRecord
100
AcDbBlockTableRecord
  2
*D7
340
0
  0
BLOCK_RECORD
  5
D45F
330
1
100
AcDbSymbolTableRecord
100
AcDbBlockTableRecord
  2
*D8
340
0
  0
BLOCK_RECORD
  5
D479
330
1
100
AcDbSymbolTableRecord
100
AcDbBlockTableRecord
  2
*D9
340
0
  0
BLOCK_RECORD
  5
D4D2
330
1
100
AcDbSymbolTableRecord
100
AcDbBlockTableRecord
  2
*D10
340
0
  0
BLOCK_RECORD
  5
D531
330
1
100
AcDbSymbolTableRecord
100
AcDbBlockTableRecord
  2
*D11
340
0
  0
BLOCK_RECORD
  5
D547
330
1
100
AcDbSymbolTableRecord
100
AcDbBlockTableRecord
  2
*D12
340
0
  0
BLOCK_RECORD
  5
D57C
330
1
100
AcDbSymbolTableRecord
100
AcDbBlockTableRecord
  2
*D13
340
0
  0
BLOCK_RECORD
  5
D5C7
330
1
100
AcDbSymbolTableRecord
100
AcDbBlockTableRecord
  2
*D14
340
0
  0
BLOCK_RECORD
  5
D5E6
330
1
100
AcDbSymbolTableRecord
100
AcDbBlockTableRecord
  2
*D15
340
0
  0
BLOCK_RECORD
  5
D5FC
330
1
100
AcDbSymbolTableRecord
100
AcDbBlockTableRecord
  2
*D16
340
0
  0
BLOCK_RECORD
  5
D612
330
1
100
AcDbSymbolTableRecord
100
AcDbBlockTableRecord
  2
*D17
340
0
  0
BLOCK_RECORD
  5
D628
330
1
100
AcDbSymbolTableRecord
100
AcDbBlockTableRecord
  2
*D18
340
0
  0
BLOCK_RECORD
  5
D67F
330
1
100
AcDbSymbolTableRecord
100
AcDbBlockTableRecord
  2
*D19
340
0
  0
BLOCK_RECORD
  5
D69F
330
1
100
AcDbSymbolTableRecord
100
AcDbBlockTableRecord
  2
*D20
340
0
  0
BLOCK_RECORD
  5
D6B5
330
1
100
AcDbSymbolTableRecord
100
AcDbBlockTableRecord
  2
*D21
340
0
  0
BLOCK_RECORD
  5
D6F9
330
1
100
AcDbSymbolTableRecord
100
AcDbBlockTableRecord
  2
*D22
340
0
  0
BLOCK_RECORD
  5
D70F
330
1
100
AcDbSymbolTableRecord
100
AcDbBlockTableRecord
  2
*D23
340
0
  0
BLOCK_RECORD
  5
D779
330
1
100
AcDbSymbolTableRecord
100
AcDbBlockTableRecord
  2
*D24
340
0
  0
BLOCK_RECORD
  5
D793
330
1
100
AcDbSymbolTableRecord
100
AcDbBlockTableRecord
  2
*D25
340
0
  0
BLOCK_RECORD
  5
D7AD
330
1
100
AcDbSymbolTableRecord
100
AcDbBlockTableRecord
  2
*D26
340
0
  0
BLOCK_RECORD
  5
D7C3
330
1
100
AcDbSymbolTableRecord
100
AcDbBlockTableRecord
  2
*D27
340
0
  0
BLOCK_RECORD
  5
D7EB
330
1
100
AcDbSymbolTableRecord
100
AcDbBlockTableRecord
  2
*D28
340
0
  0
BLOCK_RECORD
  5
D805
330
1
100
AcDbSymbolTableRecord
100
AcDbBlockTableRecord
  2
*D29
340
0
  0
BLOCK_RECORD
  5
D81B
330
1
100
AcDbSymbolTableRecord
100
AcDbBlockTableRecord
  2
*D30
340
0
  0
BLOCK_RECORD
  5
D852
330
1
100
AcDbSymbolTableRecord
100
AcDbBlockTableRecord
  2
*D31
340
0
  0
BLOCK_RECORD
  5
D88F
330
1
100
AcDbSymbolTableRecord
100
AcDbBlockTableRecord
  2
*D32
340
0
  0
BLOCK_RECORD
  5
D8C7
330
1
100
AcDbSymbolTableRecord
100
AcDbBlockTableRecord
  2
*D33
340
0
  0
BLOCK_RECORD
  5
D8DD
330
1
100
AcDbSymbolTableRecord
100
AcDbBlockTableRecord
  2
*D34
340
0
  0
BLOCK_RECORD
  5
D8F3
330
1
100
AcDbSymbolTableRecord
100
AcDbBlockTableRecord
  2
*D35
340
0
  0
BLOCK_RECORD
  5
DFF4
330
1
100
AcDbSymbolTableRecord
100
AcDbBlockTableRecord
  2
*D36
340
0
  0
BLOCK_RECORD
  5
E01B
330
1
100
AcDbSymbolTableRecord
100
AcDbBlockTableRecord
  2
*D37
340
0
  0
ENDTAB
  0
ENDSEC
  0
SECTION
  2
BLOCKS
  0
BLOCK
  5
20
330
1F
100
AcDbEntity
  8
0
100
AcDbBlockBegin
  2
*Model_Space
 70
     0
 10
0.0
 20
0.0
 30
0.0
  3
*Model_Space
  1

  0
ENDBLK
  5
21
330
1F
100
AcDbEntity
  8
0
100
AcDbBlockEnd
  0
BLOCK
  5
1C
330
1B
100
AcDbEntity
 67
     1
  8
0
100
AcDbBlockBegin
  2
*Paper_Space
 70
     0
 10
0.0
 20
0.0
 30
0.0
  3
*Paper_Space
  1

  0
ENDBLK
  5
1D
330
1B
100
AcDbEntity
 67
     1
  8
0
100
AcDbBlockEnd
  0
BLOCK
  5
24
330
23
100
AcDbEntity
 67
     1
  8
0
100
AcDbBlockBegin
  2
*Paper_Space0
 70
     0
 10
0.0
 20
0.0
 30
0.0
  3
*Paper_Space0
  1

  0
ENDBLK
  5
25
330
23
100
AcDbEntity
 67
     1
  8
0
100
AcDbBlockEnd
  0
BLOCK
  5
74
330
72
100
AcDbEntity
  8
0
100
AcDbBlockBegin
  2
GENAXEH
 70
     0
 10
0.0
 20
0.0
 30
0.0
  3
GENAXEH
  1

  0
LINE
  5
73
330
72
100
AcDbEntity
  8
0
100
AcDbLine
 10
-1.0
 20
0.0
 30
0.0
 11
1.0
 21
0.0
 31
0.0
  0
ENDBLK
  5
75
330
72
100
AcDbEntity
  8
0
100
AcDbBlockEnd
  0
BLOCK
  5
6C7
330
6C4
100
AcDbEntity
  8
0
100
AcDbBlockBegin
  2
_Dot
 70
     0
 10
0.0
 20
0.0
 30
0.0
  3
_Dot
  1

  0
LWPOLYLINE
  5
6C5
330
6C4
100
AcDbEntity
  8
0
  6
ByBlock
 62
     0
100
AcDbPolyline
 90
        2
 70
     1
 43
0.5
 10
-0.25
 20
0.0
 42
1.0
 10
0.25
 20
0.0
 42
1.0
  0
LINE
  5
6C6
330
6C4
100
AcDbEntity
  8
0
  6
ByBlock
 62
     0
370
    -2
100
AcDbLine
 10
-0.5
 20
0.0
 30
0.0
 11
-1.0
 21
0.0
 31
0.0
  0
ENDBLK
  5
6C8
330
6C4
100
AcDbEntity
  8
0
100
AcDbBlockEnd
  0
BLOCK
  5
A6A
330
A66
100
AcDbEntity
  8
0
100
AcDbBlockBegin
  2
_OPEN30
 70
     0
 10
0.0
 20
0.0
 30
0.0
  3
_OPEN30
  1

  0
LINE
  5
A67
330
A66
100
AcDbEntity
  8
0
  6
ByBlock
 62
     0
100
AcDbLine
 10
-1.0
 20
0.26794919
 30
0.0
 11
0.0
 21
0.0
 31
0.0
  0
LINE
  5
A68
330
A66
100
AcDbEntity
  8
0
  6
ByBlock
 62
     0
100
AcDbLine
 10
0.0
 20
0.0
 30
0.0
 11
-1.0
 21
-0.26794919
 31
0.0
  0
LINE
  5
A69
330
A66
100
AcDbEntity
  8
0
  6
ByBlock
 62
     0
100
AcDbLine
 10
0.0
 20
0.0
 30
0.0
 11
-1.0
 21
0.0
 31
0.0
  0
ENDBLK
  5
A6B
330
A66
100
AcDbEntity
  8
0
100
AcDbBlockEnd
  0
BLOCK
  5
C3FE
330
C3FD
100
AcDbEntity
  8
0
100
AcDbBlockBegin
  2
_NONE
 70
     0
 10
0.0
 20
0.0
 30
0.0
  3
_NONE
  1

  0
CIRCLE
  5
C3FF
330
C3FD
100
AcDbEntity
  8
0
  6
ByBlock
 62
     0
100
AcDbCircle
 10
0.0
 20
0.0
 30
0.0
 40
0.001
  0
ENDBLK
  5
C400
330
C3FD
100
AcDbEntity
  8
0
100
AcDbBlockEnd
  0
BLOCK
  5
D3DD
330
D3D3
100
AcDbEntity
  8
0
100
AcDbBlockBegin
  2
*D5
 70
     1
 10
0.0
 20
0.0
 30
0.0
  3
*D5
  1

  0
LINE
  5
D3DF
330
D3D3
100
AcDbEntity
  8
AM_5
100
AcDbLine
 10
460.6574114171739
 20
94.8029819377202
 30
0.0
 11
460.6574114171739
 21
121.4680044565253
 31
0.0
  0
LINE
  5
D3E0
330
D3D3
100
AcDbEntity
  8
AM_5
100
AcDbLine
 10
485.6574044171741
 20
94.80298135652551
 30
0.0
 11
485.6574044171741
 21
121.4680044565253
 31
0.0
  0
LINE
  5
D3E1
330
D3D3
100
AcDbEntity
  8
AM_5
100
AcDbLine
 10
461.6574114171739
 20
120.4680044565253
 30
0.0
 11
484.6574044171741
 21
120.4680044565253
 31
0.0
  0
INSERT
  5
D3E2
330
D3D3
100
AcDbEntity
  8
AM_5
100
AcDbBlockReference
  2
_Dot
 10
460.6574114171739
 20
120.4680044565253
 30
0.0
 50
180.0
  0
INSERT
  5
D3E3
330
D3D3
100
AcDbEntity
  8
AM_5
100
AcDbBlockReference
  2
_Dot
 10
485.6574044171741
 20
120.4680044565253
 30
0.0
  0
MTEXT
  5
D3E4
330
D3D3
100
AcDbEntity
  8
AM_5
 62
     2
100
AcDbMText
 10
473.157407917174
 20
123.5680044565252
 30
0.0
 40
3.200000000000001
 41
0.0
 71
     5
 72
     1
  1
25
 73
     1
 44
1.0
1001
ACAD
1000
MTEXTBEGIN
1070
    73
1070
     1
1070
    44
1040
1.0
1070
    74
1070
     0
1000
MTEXTEND
  0
POINT
  5
D3E5
330
D3D3
100
AcDbEntity
  8
Defpoints
 62
     0
100
AcDbPoint
 10
460.6574114171739
 20
93.80298193772018
 30
0.0
  0
POINT
  5
D3E6
330
D3D3
100
AcDbEntity
  8
Defpoints
 62
     0
100
AcDbPoint
 10
485.6574044171741
 20
93.80298135652552
 30
0.0
  0
POINT
  5
D3E7
330
D3D3
100
AcDbEntity
  8
Defpoints
 62
     0
100
AcDbPoint
 10
485.6574044171741
 20
120.4680044565253
 30
0.0
  0
ENDBLK
  5
D3DE
330
D3D3
100
AcDbEntity
  8
0
100
AcDbBlockEnd
  0
BLOCK
  5
D3F3
330
D3E9
100
AcDbEntity
  8
0
100
AcDbBlockBegin
  2
*D6
 70
     1
 10
0.0
 20
0.0
 30
0.0
  3
*D6
  1

  0
LINE
  5
D441
330
D3E9
100
AcDbEntity
  8
AM_5
100
AcDbLine
 10
460.6574024171741
 20
94.80298135652551
 30
0.0
 11
460.6574024171741
 21
121.4680044565253
 31
0.0
  0
LINE
  5
D442
330
D3E9
100
AcDbEntity
  8
AM_5
100
AcDbLine
 10
459.6574024171741
 20
120.4680044565253
 30
0.0
 11
391.122414417174
 21
120.4680044565253
 31
0.0
  0
INSERT
  5
D443
330
D3E9
100
AcDbEntity
  8
AM_5
100
AcDbBlockReference
  2
_Dot
 10
460.6574024171741
 20
120.4680044565253
 30
0.0
  0
MTEXT
  5
D444
330
D3E9
100
AcDbEntity
  8
AM_5
 62
     2
100
AcDbMText
 10
425.389908417174
 20
123.5680044565253
 30
0.0
 40
3.200000000000001
 41
0.0
 71
     5
 72
     1
  1
給湯器取付開口
 73
     1
 44
1.0
1001
ACAD
1000
MTEXTBEGIN
1070
    73
1070
     1
1070
    44
1040
1.0
1070
    74
1070
     0
1000
MTEXTEND
  0
POINT
  5
D445
330
D3E9
100
AcDbEntity
  8
Defpoints
 62
     0
100
AcDbPoint
 10
460.6574024171741
 20
93.80298135652552
 30
0.0
  0
POINT
  5
D446
330
D3E9
100
AcDbEntity
  8
Defpoints
 62
     0
100
AcDbPoint
 10
391.122414417174
 20
95.46799465652552
 30
0.0
  0
POINT
  5
D447
330
D3E9
100
AcDbEntity
  8
Defpoints
 62
     0
100
AcDbPoint
 10
391.122414417174
 20
120.4680044565253
 30
0.0
  0
ENDBLK
  5
D3F4
330
D3E9
100
AcDbEntity
  8
0
100
AcDbBlockEnd
  0
BLOCK
  5
D453
330
D449
100
AcDbEntity
  8
0
100
AcDbBlockBegin
  2
*D7
 70
     1
 10
0.0
 20
0.0
 30
0.0
  3
*D7
  1

  0
LINE
  5
D4A8
330
D449
100
AcDbEntity
  8
AM_5
100
AcDbLine
 10
340.1074224171741
 20
92.80297375652551
 30
0.0
 11
340.1074224171741
 21
106.4679999565253
 31
0.0
  0
LINE
  5
D4A9
330
D449
100
AcDbEntity
  8
AM_5
100
AcDbLine
 10
365.1074261171741
 20
94.46797465652551
 30
0.0
 11
365.1074261171741
 21
106.4679999565253
 31
0.0
  0
LINE
  5
D4AA
330
D449
100
AcDbEntity
  8
AM_5
100
AcDbLine
 10
341.1074224171741
 20
105.4679999565253
 30
0.0
 11
364.1074261171742
 21
105.4679999565253
 31
0.0
  0
INSERT
  5
D4AB
330
D449
100
AcDbEntity
  8
AM_5
100
AcDbBlockReference
  2
_Dot
 10
340.1074224171741
 20
105.4679999565253
 30
0.0
 50
180.0
  0
INSERT
  5
D4AC
330
D449
100
AcDbEntity
  8
AM_5
100
AcDbBlockReference
  2
_Dot
 10
365.1074261171741
 20
105.4679999565253
 30
0.0
  0
MTEXT
  5
D4AD
330
D449
100
AcDbEntity
  8
AM_5
 62
     2
100
AcDbMText
 10
352.6074242671742
 20
108.5679999565253
 30
0.0
 40
3.200000000000001
 41
0.0
 71
     5
 72
     1
  1
25
 73
     1
 44
1.0
1001
ACAD
1000
MTEXTBEGIN
1070
    73
1070
     1
1070
    44
1040
1.0
1070
    74
1070
     0
1000
MTEXTEND
  0
POINT
  5
D4AE
330
D449
100
AcDbEntity
  8
Defpoints
 62
     0
100
AcDbPoint
 10
340.1074224171741
 20
91.80297375652552
 30
0.0
  0
POINT
  5
D4AF
330
D449
100
AcDbEntity
  8
Defpoints
 62
     0
100
AcDbPoint
 10
365.1074261171741
 20
93.46797465652551
 30
0.0
  0
POINT
  5
D4B0
330
D449
100
AcDbEntity
  8
Defpoints
 62
     0
100
AcDbPoint
 10
365.1074261171741
 20
105.4679999565253
 30
0.0
  0
ENDBLK
  5
D454
330
D449
100
AcDbEntity
  8
0
100
AcDbBlockEnd
  0
BLOCK
  5
D46B
330
D45F
100
AcDbEntity
  8
0
100
AcDbBlockBegin
  2
*D8
 70
     1
 10
0.0
 20
0.0
 30
0.0
  3
*D8
  1

  0
LINE
  5
D4C6
330
D45F
100
AcDbEntity
  8
AM_5
100
AcDbLine
 10
340.1074224171741
 20
92.80297375652551
 30
0.0
 11
340.1074224171741
 21
121.4680044565253
 31
0.0
  0
LINE
  5
D4C7
330
D45F
100
AcDbEntity
  8
AM_5
100
AcDbLine
 10
336.1074254171739
 20
94.80298077533086
 30
0.0
 11
336.1074254171739
 21
121.4680044565253
 31
0.0
  0
LINE
  5
D4C8
330
D45F
100
AcDbEntity
  8
AM_5
100
AcDbLine
 10
341.1074224171741
 20
120.4680044565253
 30
0.0
 11
342.1074224171741
 21
120.4680044565253
 31
0.0
  0
LINE
  5
D4C9
330
D45F
100
AcDbEntity
  8
AM_5
100
AcDbLine
 10
335.1074254171739
 20
120.4680044565253
 30
0.0
 11
334.1074254171739
 21
120.4680044565253
 31
0.0
  0
LINE
  5
D4CA
330
D45F
100
AcDbEntity
  8
AM_5
100
AcDbLine
 10
340.1074224171741
 20
120.4680044565253
 30
0.0
 11
336.1074254171739
 21
120.4680044565253
 31
0.0
  0
INSERT
  5
D4CB
330
D45F
100
AcDbEntity
  8
AM_5
100
AcDbBlockReference
  2
_Dot
 10
340.1074224171741
 20
120.4680044565253
 30
0.0
 50
180.0
  0
INSERT
  5
D4CC
330
D45F
100
AcDbEntity
  8
AM_5
100
AcDbBlockReference
  2
_Dot
 10
336.1074254171739
 20
120.4680044565253
 30
0.0
  0
MTEXT
  5
D4CD
330
D45F
100
AcDbEntity
  8
AM_5
 62
     2
100
AcDbMText
 10
338.107423917174
 20
123.5680044565253
 30
0.0
 40
3.200000000000001
 41
0.0
 71
     5
 72
     1
  1
4
 73
     1
 44
1.0
1001
ACAD
1000
MTEXTBEGIN
1070
    73
1070
     1
1070
    44
1040
1.0
1070
    74
1070
     0
1000
MTEXTEND
  0
POINT
  5
D4CE
330
D45F
100
AcDbEntity
  8
Defpoints
 62
     0
100
AcDbPoint
 10
340.1074224171741
 20
91.80297375652552
 30
0.0
  0
POINT
  5
D4CF
330
D45F
100
AcDbEntity
  8
Defpoints
 62
     0
100
AcDbPoint
 10
336.1074254171739
 20
93.80298077533087
 30
0.0
  0
POINT
  5
D4D0
330
D45F
100
AcDbEntity
  8
Defpoints
 62
     0
100
AcDbPoint
 10
336.1074254171739
 20
120.4680044565253
 30
0.0
  0
ENDBLK
  5
D46C
330
D45F
100
AcDbEntity
  8
0
100
AcDbBlockEnd
  0
BLOCK
  5
D483
330
D479
100
AcDbEntity
  8
0
100
AcDbBlockBegin
  2
*D9
 70
     1
 10
0.0
 20
0.0
 30
0.0
  3
*D9
  1

  0
LINE
  5
D485
330
D479
100
AcDbEntity
  8
AM_5
100
AcDbLine
 10
336.1074254171739
 20
94.80298077533086
 30
0.0
 11
336.1074254171739
 21
121.4680044565255
 31
0.0
  0
LINE
  5
D486
330
D479
100
AcDbEntity
  8
AM_5
100
AcDbLine
 10
311.107434417174
 20
94.80298135652551
 30
0.0
 11
311.107434417174
 21
121.4680044565255
 31
0.0
  0
LINE
  5
D487
330
D479
100
AcDbEntity
  8
AM_5
100
AcDbLine
 10
335.1074254171739
 20
120.4680044565255
 30
0.0
 11
312.1074344171741
 21
120.4680044565255
 31
0.0
  0
INSERT
  5
D488
330
D479
100
AcDbEntity
  8
AM_5
100
AcDbBlockReference
  2
_Dot
 10
336.1074254171739
 20
120.4680044565255
 30
0.0
  0
INSERT
  5
D489
330
D479
100
AcDbEntity
  8
AM_5
100
AcDbBlockReference
  2
_Dot
 10
311.107434417174
 20
120.4680044565255
 30
0.0
 50
180.0
  0
MTEXT
  5
D48A
330
D479
100
AcDbEntity
  8
AM_5
 62
     2
100
AcDbMText
 10
323.607429917174
 20
123.5680044565255
 30
0.0
 40
3.200000000000001
 41
0.0
 71
     5
 72
     1
  1
25
 73
     1
 44
1.0
1001
ACAD
1000
MTEXTBEGIN
1070
    73
1070
     1
1070
    44
1040
1.0
1070
    74
1070
     0
1000
MTEXTEND
  0
POINT
  5
D48B
330
D479
100
AcDbEntity
  8
Defpoints
 62
     0
100
AcDbPoint
 10
336.1074254171739
 20
93.80298077533087
 30
0.0
  0
POINT
  5
D48C
330
D479
100
AcDbEntity
  8
Defpoints
 62
     0
100
AcDbPoint
 10
311.107434417174
 20
93.80298135652552
 30
0.0
  0
POINT
  5
D48D
330
D479
100
AcDbEntity
  8
Defpoints
 62
     0
100
AcDbPoint
 10
311.107434417174
 20
120.4680044565255
 30
0.0
  0
ENDBLK
  5
D484
330
D479
100
AcDbEntity
  8
0
100
AcDbBlockEnd
  0
BLOCK
  5
D4DC
330
D4D2
100
AcDbEntity
  8
0
100
AcDbBlockBegin
  2
*D10
 70
     1
 10
0.0
 20
0.0
 30
0.0
  3
*D10
  1

  0
LINE
  5
D529
330
D4D2
100
AcDbEntity
  8
AM_5
100
AcDbLine
 10
340.1074224171741
 20
92.80297375652551
 30
0.0
 11
340.1074224171741
 21
121.4680044565253
 31
0.0
  0
LINE
  5
D52A
330
D4D2
100
AcDbEntity
  8
AM_5
100
AcDbLine
 10
341.1074224171741
 20
120.4680044565253
 30
0.0
 11
384.462411417174
 21
120.4680044565253
 31
0.0
  0
INSERT
  5
D52B
330
D4D2
100
AcDbEntity
  8
AM_5
100
AcDbBlockReference
  2
_Dot
 10
340.1074224171741
 20
120.4680044565253
 30
0.0
 50
180.0
  0
MTEXT
  5
D52C
330
D4D2
100
AcDbEntity
  8
AM_5
 62
     2
100
AcDbMText
 10
362.7849169171741
 20
123.5680044565253
 30
0.0
 40
3.200000000000001
 41
0.0
 71
     5
 72
     1
  1
DW
 73
     1
 44
1.0
1001
ACAD
1000
MTEXTBEGIN
1070
    73
1070
     1
1070
    44
1040
1.0
1070
    74
1070
     0
1000
MTEXTEND
  0
POINT
  5
D52D
330
D4D2
100
AcDbEntity
  8
Defpoints
 62
     0
100
AcDbPoint
 10
340.1074224171741
 20
91.80297375652552
 30
0.0
  0
POINT
  5
D52E
330
D4D2
100
AcDbEntity
  8
Defpoints
 62
     0
100
AcDbPoint
 10
384.462411417174
 20
95.46799465652552
 30
0.0
  0
POINT
  5
D52F
330
D4D2
100
AcDbEntity
  8
Defpoints
 62
     0
100
AcDbPoint
 10
384.462411417174
 20
120.4680044565253
 30
0.0
  0
ENDBLK
  5
D4DD
330
D4D2
100
AcDbEntity
  8
0
100
AcDbBlockEnd
  0
BLOCK
  5
D53B
330
D531
100
AcDbEntity
  8
0
100
AcDbBlockBegin
  2
*D11
 70
     1
 10
0.0
 20
0.0
 30
0.0
  3
*D11
  1

  0
LINE
  5
D53D
330
D531
100
AcDbEntity
  8
AM_5
100
AcDbLine
 10
486.6574144171742
 20
80.46799545652552
 30
0.0
 11
498.6574144171741
 21
80.46799545652552
 31
0.0
  0
LINE
  5
D53E
330
D531
100
AcDbEntity
  8
AM_5
100
AcDbLine
 10
484.992384417174
 20
95.46798135652551
 30
0.0
 11
498.6574144171741
 21
95.46798135652551
 31
0.0
  0
LINE
  5
D53F
330
D531
100
AcDbEntity
  8
AM_5
100
AcDbLine
 10
497.6574144171741
 20
81.46799545652552
 30
0.0
 11
497.6574144171741
 21
94.46798135652551
 31
0.0
  0
INSERT
  5
D540
330
D531
100
AcDbEntity
  8
AM_5
100
AcDbBlockReference
  2
_Dot
 10
497.6574144171741
 20
80.46799545652552
 30
0.0
 50
270.0
  0
INSERT
  5
D541
330
D531
100
AcDbEntity
  8
AM_5
100
AcDbBlockReference
  2
_Dot
 10
497.6574144171741
 20
95.46798135652551
 30
0.0
 50
90.0
  0
MTEXT
  5
D542
330
D531
100
AcDbEntity
  8
AM_5
 62
     2
100
AcDbMText
 10
494.557414417174
 20
87.96798840652561
 30
0.0
 40
3.200000000000001
 41
0.0
 71
     5
 72
     1
  1
15
 11
0.0000000000000001
 21
1.0
 31
0.0
 73
     1
 44
1.0
1001
ACAD
1000
MTEXTBEGIN
1070
    73
1070
     1
1070
    44
1040
1.0
1070
    74
1070
     0
1000
MTEXTEND
  0
POINT
  5
D543
330
D531
100
AcDbEntity
  8
Defpoints
 62
     0
100
AcDbPoint
 10
485.6574144171741
 20
80.46799545652552
 30
0.0
  0
POINT
  5
D544
330
D531
100
AcDbEntity
  8
Defpoints
 62
     0
100
AcDbPoint
 10
483.992384417174
 20
95.46798135652551
 30
0.0
  0
POINT
  5
D545
330
D531
100
AcDbEntity
  8
Defpoints
 62
     0
100
AcDbPoint
 10
497.6574144171741
 20
95.46798135652551
 30
0.0
  0
ENDBLK
  5
D53C
330
D531
100
AcDbEntity
  8
0
100
AcDbBlockEnd
  0
BLOCK
  5
D551
330
D547
100
AcDbEntity
  8
0
100
AcDbBlockBegin
  2
*D12
 70
     1
 10
0.0
 20
0.0
 30
0.0
  3
*D12
  1

  0
LINE
  5
D591
330
D547
100
AcDbEntity
  8
AM_5
100
AcDbLine
 10
450.6574024171741
 20
62.86798545652551
 30
0.0
 11
450.6574024171741
 21
40.86798545652552
 31
0.0
  0
LINE
  5
D592
330
D547
100
AcDbEntity
  8
AM_5
100
AcDbLine
 10
460.6574024171741
 20
64.4679834565255
 30
0.0
 11
460.6574024171741
 21
40.86798545652552
 31
0.0
  0
LINE
  5
D593
330
D547
100
AcDbEntity
  8
AM_5
100
AcDbLine
 10
451.6574024171741
 20
41.86798545652552
 30
0.0
 11
459.6574024171741
 21
41.86798545652552
 31
0.0
  0
INSERT
  5
D594
330
D547
100
AcDbEntity
  8
AM_5
100
AcDbBlockReference
  2
_Dot
 10
450.6574024171741
 20
41.86798545652552
 30
0.0
 50
180.0
  0
INSERT
  5
D595
330
D547
100
AcDbEntity
  8
AM_5
100
AcDbBlockReference
  2
_Dot
 10
460.6574024171741
 20
41.86798545652552
 30
0.0
  0
MTEXT
  5
D596
330
D547
100
AcDbEntity
  8
AM_5
 62
     2
100
AcDbMText
 10
455.6574024171741
 20
44.96798545652552
 30
0.0
 40
3.200000000000001
 41
0.0
 71
     5
 72
     1
  1
10
 73
     1
 44
1.0
1001
ACAD
1000
MTEXTBEGIN
1070
    73
1070
     1
1070
    44
1040
1.0
1070
    74
1070
     0
1000
MTEXTEND
  0
POINT
  5
D597
330
D547
100
AcDbEntity
  8
Defpoints
 62
     0
100
AcDbPoint
 10
450.6574024171741
 20
63.86798545652553
 30
0.0
  0
POINT
  5
D598
330
D547
100
AcDbEntity
  8
Defpoints
 62
     0
100
AcDbPoint
 10
460.6574024171741
 20
65.4679834565255
 30
0.0
  0
POINT
  5
D599
330
D547
100
AcDbEntity
  8
Defpoints
 62
     0
100
AcDbPoint
 10
460.6574024171741
 20
41.86798545652552
 30
0.0
  0
ENDBLK
  5
D552
330
D547
100
AcDbEntity
  8
0
100
AcDbBlockEnd
  0
BLOCK
  5
D586
330
D57C
100
AcDbEntity
  8
0
100
AcDbBlockBegin
  2
*D13
 70
     1
 10
0.0
 20
0.0
 30
0.0
  3
*D13
  1

  0
LINE
  5
D5BF
330
D57C
100
AcDbEntity
  8
AM_5
100
AcDbLine
 10
435.6824004171738
 20
59.81126845652553
 30
0.0
 11
435.6824004171738
 21
50.86798545652517
 31
0.0
  0
LINE
  5
D5C0
330
D57C
100
AcDbEntity
  8
AM_5
100
AcDbLine
 10
434.682400417174
 20
51.86798545652518
 30
0.0
 11
391.122414417174
 21
51.86798545652518
 31
0.0
  0
INSERT
  5
D5C1
330
D57C
100
AcDbEntity
  8
AM_5
100
AcDbBlockReference
  2
_Dot
 10
435.6824004171738
 20
51.86798545652518
 30
0.0
  0
MTEXT
  5
D5C2
330
D57C
100
AcDbEntity
  8
AM_5
 62
     2
100
AcDbMText
 10
412.902407417174
 20
54.96798545652517
 30
0.0
 40
3.200000000000001
 41
0.0
 71
     5
 72
     1
  1
給湯器取付ピッチ
 73
     1
 44
1.0
1001
ACAD
1000
MTEXTBEGIN
1070
    73
1070
     1
1070
    44
1040
1.0
1070
    74
1070
     0
1000
MTEXTEND
  0
POINT
  5
D5C3
330
D57C
100
AcDbEntity
  8
Defpoints
 62
     0
100
AcDbPoint
 10
435.6824004171738
 20
60.8112684565255
 30
0.0
  0
POINT
  5
D5C4
330
D57C
100
AcDbEntity
  8
Defpoints
 62
     0
100
AcDbPoint
 10
391.122414417174
 20
63.86801145652553
 30
0.0
  0
POINT
  5
D5C5
330
D57C
100
AcDbEntity
  8
Defpoints
 62
     0
100
AcDbPoint
 10
391.122414417174
 20
51.86798545652518
 30
0.0
  0
ENDBLK
  5
D587
330
D57C
100
AcDbEntity
  8
0
100
AcDbBlockEnd
  0
BLOCK
  5
D5D1
330
D5C7
100
AcDbEntity
  8
0
100
AcDbBlockBegin
  2
*D14
 70
     1
 10
0.0
 20
0.0
 30
0.0
  3
*D14
  1

  0
LINE
  5
D5DC
330
D5C7
100
AcDbEntity
  8
AM_5
100
AcDbLine
 10
450.6574024171741
 20
62.86798545652551
 30
0.0
 11
450.6574024171741
 21
40.86798545652492
 31
0.0
  0
LINE
  5
D5DD
330
D5C7
100
AcDbEntity
  8
AM_5
100
AcDbLine
 10
346.1074244171742
 20
62.86798545652551
 30
0.0
 11
346.1074244171742
 21
40.86798545652492
 31
0.0
  0
LINE
  5
D5DE
330
D5C7
100
AcDbEntity
  8
AM_5
100
AcDbLine
 10
449.6574024171741
 20
41.86798545652492
 30
0.0
 11
347.1074244171742
 21
41.86798545652492
 31
0.0
  0
INSERT
  5
D5DF
330
D5C7
100
AcDbEntity
  8
AM_5
100
AcDbBlockReference
  2
_Dot
 10
450.6574024171741
 20
41.86798545652492
 30
0.0
  0
INSERT
  5
D5E0
330
D5C7
100
AcDbEntity
  8
AM_5
100
AcDbBlockReference
  2
_Dot
 10
346.1074244171742
 20
41.86798545652492
 30
0.0
 50
180.0
  0
MTEXT
  5
D5E1
330
D5C7
100
AcDbEntity
  8
AM_5
 62
     2
100
AcDbMText
 10
398.3824134171741
 20
44.96798545652493
 30
0.0
 40
3.200000000000001
 41
0.0
 71
     5
 72
     1
  1
W
 73
     1
 44
1.0
1001
ACAD
1000
MTEXTBEGIN
1070
    73
1070
     1
1070
    44
1040
1.0
1070
    74
1070
     0
1000
MTEXTEND
  0
POINT
  5
D5E2
330
D5C7
100
AcDbEntity
  8
Defpoints
 62
     0
100
AcDbPoint
 10
450.6574024171741
 20
63.86798545652553
 30
0.0
  0
POINT
  5
D5E3
330
D5C7
100
AcDbEntity
  8
Defpoints
 62
     0
100
AcDbPoint
 10
346.1074244171742
 20
63.86798545652553
 30
0.0
  0
POINT
  5
D5E4
330
D5C7
100
AcDbEntity
  8
Defpoints
 62
     0
100
AcDbPoint
 10
346.1074244171742
 20
41.86798545652492
 30
0.0
  0
ENDBLK
  5
D5D2
330
D5C7
100
AcDbEntity
  8
0
100
AcDbBlockEnd
  0
BLOCK
  5
D5F0
330
D5E6
100
AcDbEntity
  8
0
100
AcDbBlockBegin
  2
*D15
 70
     1
 10
0.0
 20
0.0
 30
0.0
  3
*D15
  1

  0
LINE
  5
D5F2
330
D5E6
100
AcDbEntity
  8
AM_5
100
AcDbLine
 10
346.1074244171742
 20
62.86798545652551
 30
0.0
 11
346.1074244171742
 21
40.86798545652468
 31
0.0
  0
LINE
  5
D5F3
330
D5E6
100
AcDbEntity
  8
AM_5
100
AcDbLine
 10
336.1074074171741
 20
64.4679834565255
 30
0.0
 11
336.1074074171741
 21
40.86798545652468
 31
0.0
  0
LINE
  5
D5F4
330
D5E6
100
AcDbEntity
  8
AM_5
100
AcDbLine
 10
345.1074244171742
 20
41.86798545652467
 30
0.0
 11
337.107407417174
 21
41.86798545652467
 31
0.0
  0
INSERT
  5
D5F5
330
D5E6
100
AcDbEntity
  8
AM_5
100
AcDbBlockReference
  2
_Dot
 10
346.1074244171742
 20
41.86798545652467
 30
0.0
  0
INSERT
  5
D5F6
330
D5E6
100
AcDbEntity
  8
AM_5
100
AcDbBlockReference
  2
_Dot
 10
336.1074074171741
 20
41.86798545652467
 30
0.0
 50
180.0
  0
MTEXT
  5
D5F7
330
D5E6
100
AcDbEntity
  8
AM_5
 62
     2
100
AcDbMText
 10
341.1074159171741
 20
44.96798545652468
 30
0.0
 40
3.200000000000001
 41
0.0
 71
     5
 72
     1
  1
10
 73
     1
 44
1.0
1001
ACAD
1000
MTEXTBEGIN
1070
    73
1070
     1
1070
    44
1040
1.0
1070
    74
1070
     0
1000
MTEXTEND
  0
POINT
  5
D5F8
330
D5E6
100
AcDbEntity
  8
Defpoints
 62
     0
100
AcDbPoint
 10
346.1074244171742
 20
63.86798545652553
 30
0.0
  0
POINT
  5
D5F9
330
D5E6
100
AcDbEntity
  8
Defpoints
 62
     0
100
AcDbPoint
 10
336.1074074171741
 20
65.4679834565255
 30
0.0
  0
POINT
  5
D5FA
330
D5E6
100
AcDbEntity
  8
Defpoints
 62
     0
100
AcDbPoint
 10
336.1074074171741
 20
41.86798545652467
 30
0.0
  0
ENDBLK
  5
D5F1
330
D5E6
100
AcDbEntity
  8
0
100
AcDbBlockEnd
  0
BLOCK
  5
D606
330
D5FC
100
AcDbEntity
  8
0
100
AcDbBlockBegin
  2
*D16
 70
     1
 10
0.0
 20
0.0
 30
0.0
  3
*D16
  1

  0
LINE
  5
D608
330
D5FC
100
AcDbEntity
  8
AM_5
100
AcDbLine
 10
224.9194444171741
 20
106.1996140565255
 30
0.0
 11
251.4194544171742
 21
106.1996140565255
 31
0.0
  0
LINE
  5
D609
330
D5FC
100
AcDbEntity
  8
AM_5
100
AcDbLine
 10
223.319454417174
 20
96.19961435652552
 30
0.0
 11
251.4194544171742
 21
96.1996143565255
 31
0.0
  0
LINE
  5
D60A
330
D5FC
100
AcDbEntity
  8
AM_5
100
AcDbLine
 10
250.4194544171742
 20
105.1996140565255
 30
0.0
 11
250.4194544171742
 21
97.1996143565255
 31
0.0
  0
INSERT
  5
D60B
330
D5FC
100
AcDbEntity
  8
AM_5
100
AcDbBlockReference
  2
_Dot
 10
250.4194544171742
 20
106.1996140565255
 30
0.0
 50
90.0
  0
INSERT
  5
D60C
330
D5FC
100
AcDbEntity
  8
AM_5
100
AcDbBlockReference
  2
_Dot
 10
250.4194544171742
 20
96.1996143565255
 30
0.0
 50
270.0
  0
MTEXT
  5
D60D
330
D5FC
100
AcDbEntity
  8
AM_5
 62
     2
100
AcDbMText
 10
247.3194544171742
 20
101.1996142065255
 30
0.0
 40
3.200000000000001
 41
0.0
 71
     5
 72
     1
  1
10
 11
0.0000000000000001
 21
1.0
 31
0.0
 73
     1
 44
1.0
1001
ACAD
1000
MTEXTBEGIN
1070
    73
1070
     1
1070
    44
1040
1.0
1070
    74
1070
     0
1000
MTEXTEND
  0
POINT
  5
D60E
330
D5FC
100
AcDbEntity
  8
Defpoints
 62
     0
100
AcDbPoint
 10
223.9194444171741
 20
106.1996140565255
 30
0.0
  0
POINT
  5
D60F
330
D5FC
100
AcDbEntity
  8
Defpoints
 62
     0
100
AcDbPoint
 10
222.319454417174
 20
96.19961435652552
 30
0.0
  0
POINT
  5
D610
330
D5FC
100
AcDbEntity
  8
Defpoints
 62
     0
100
AcDbPoint
 10
250.4194544171742
 20
96.1996143565255
 30
0.0
  0
ENDBLK
  5
D607
330
D5FC
100
AcDbEntity
  8
0
100
AcDbBlockEnd
  0
BLOCK
  5
D61C
330
D612
100
AcDbEntity
  8
0
100
AcDbBlockBegin
  2
*D17
 70
     1
 10
0.0
 20
0.0
 30
0.0
  3
*D17
  1

  0
LINE
  5
D66C
330
D612
100
AcDbEntity
  8
AM_5
100
AcDbLine
 10
224.9194444171741
 20
106.1996140565255
 30
0.0
 11
251.4194544171742
 21
106.1996140565255
 31
0.0
  0
LINE
  5
D66D
330
D612
100
AcDbEntity
  8
AM_5
100
AcDbLine
 10
224.9194544171741
 20
324.3246104565255
 30
0.0
 11
251.4194544171743
 21
324.3246104565255
 31
0.0
  0
LINE
  5
D66E
330
D612
100
AcDbEntity
  8
AM_5
100
AcDbLine
 10
250.4194544171742
 20
107.1996140565255
 30
0.0
 11
250.4194544171743
 21
323.3246104565255
 31
0.0
  0
INSERT
  5
D66F
330
D612
100
AcDbEntity
  8
AM_5
100
AcDbBlockReference
  2
_Dot
 10
250.4194544171742
 20
106.1996140565255
 30
0.0
 50
270.0
  0
INSERT
  5
D670
330
D612
100
AcDbEntity
  8
AM_5
100
AcDbBlockReference
  2
_Dot
 10
250.4194544171743
 20
324.3246104565255
 30
0.0
 50
90.0
  0
MTEXT
  5
D671
330
D612
100
AcDbEntity
  8
AM_5
 62
     2
100
AcDbMText
 10
247.3194544171742
 20
215.2621122565256
 30
0.0
 40
3.200000000000001
 41
0.0
 71
     5
 72
     1
  1
H
 11
0.0000000000000001
 21
1.0
 31
0.0
 73
     1
 44
1.0
1001
ACAD
1000
MTEXTBEGIN
1070
    73
1070
     1
1070
    44
1040
1.0
1070
    74
1070
     0
1000
MTEXTEND
  0
POINT
  5
D672
330
D612
100
AcDbEntity
  8
Defpoints
 62
     0
100
AcDbPoint
 10
223.9194444171741
 20
106.1996140565255
 30
0.0
  0
POINT
  5
D673
330
D612
100
AcDbEntity
  8
Defpoints
 62
     0
100
AcDbPoint
 10
223.919454417174
 20
324.3246104565255
 30
0.0
  0
POINT
  5
D674
330
D612
100
AcDbEntity
  8
Defpoints
 62
     0
100
AcDbPoint
 10
250.4194544171743
 20
324.3246104565255
 30
0.0
  0
ENDBLK
  5
D61D
330
D612
100
AcDbEntity
  8
0
100
AcDbBlockEnd
  0
BLOCK
  5
D633
330
D628
100
AcDbEntity
  8
0
100
AcDbBlockBegin
  2
*D18
 70
     1
 10
0.0
 20
0.0
 30
0.0
  3
*D18
  1

  0
LINE
  5
D675
330
D628
100
AcDbEntity
  8
AM_5
100
AcDbLine
 10
224.9194544171741
 20
324.3246104565255
 30
0.0
 11
251.4194544171744
 21
324.3246104565255
 31
0.0
  0
LINE
  5
D676
330
D628
100
AcDbEntity
  8
AM_5
100
AcDbLine
 10
223.319464417174
 20
334.3246404565255
 30
0.0
 11
251.4194544171744
 21
334.3246404565255
 31
0.0
  0
LINE
  5
D677
330
D628
100
AcDbEntity
  8
AM_5
100
AcDbLine
 10
250.4194544171744
 20
325.3246104565255
 30
0.0
 11
250.4194544171744
 21
333.3246404565255
 31
0.0
  0
INSERT
  5
D678
330
D628
100
AcDbEntity
  8
AM_5
100
AcDbBlockReference
  2
_Dot
 10
250.4194544171744
 20
324.3246104565255
 30
0.0
 50
270.0
  0
INSERT
  5
D679
330
D628
100
AcDbEntity
  8
AM_5
100
AcDbBlockReference
  2
_Dot
 10
250.4194544171744
 20
334.3246404565255
 30
0.0
 50
90.0
  0
MTEXT
  5
D67A
330
D628
100
AcDbEntity
  8
AM_5
 62
     2
100
AcDbMText
 10
247.3194544171744
 20
329.3061404565256
 30
0.0
 40
3.200000000000001
 41
0.0
 71
     5
 72
     1
  1
10
 11
0.0000000000000001
 21
1.0
 31
0.0
 73
     1
 44
1.0
1001
ACAD
1000
MTEXTBEGIN
1070
    73
1070
     1
1070
    44
1040
1.0
1070
    74
1070
     0
1000
MTEXTEND
  0
POINT
  5
D67B
330
D628
100
AcDbEntity
  8
Defpoints
 62
     0
100
AcDbPoint
 10
223.919454417174
 20
324.3246104565255
 30
0.0
  0
POINT
  5
D67C
330
D628
100
AcDbEntity
  8
Defpoints
 62
     0
100
AcDbPoint
 10
222.319464417174
 20
334.3246404565255
 30
0.0
  0
POINT
  5
D67D
330
D628
100
AcDbEntity
  8
Defpoints
 62
     0
100
AcDbPoint
 10
250.4194544171744
 20
334.3246404565255
 30
0.0
  0
ENDBLK
  5
D634
330
D628
100
AcDbEntity
  8
0
100
AcDbBlockEnd
  0
BLOCK
  5
D68A
330
D67F
100
AcDbEntity
  8
0
100
AcDbBlockBegin
  2
*D19
 70
     1
 10
0.0
 20
0.0
 30
0.0
  3
*D19
  1

  0
LINE
  5
E07D
330
D67F
100
AcDbEntity
  8
AM_5
100
AcDbLine
 10
224.9194544171741
 20
324.3246104565255
 30
0.0
 11
241.4194544171743
 21
324.3246104565255
 31
0.0
  0
LINE
  5
E07E
330
D67F
100
AcDbEntity
  8
AM_5
100
AcDbLine
 10
224.919454417174
 20
314.3546304565256
 30
0.0
 11
241.4194544171742
 21
314.3546304565256
 31
0.0
  0
LINE
  5
E07F
330
D67F
100
AcDbEntity
  8
AM_5
100
AcDbLine
 10
240.4194544171743
 20
323.3246104565255
 30
0.0
 11
240.4194544171743
 21
315.3546304565256
 31
0.0
  0
INSERT
  5
E080
330
D67F
100
AcDbEntity
  8
AM_5
100
AcDbBlockReference
  2
_Dot
 10
240.4194544171743
 20
324.3246104565255
 30
0.0
 50
90.0
  0
INSERT
  5
E081
330
D67F
100
AcDbEntity
  8
AM_5
100
AcDbBlockReference
  2
_Dot
 10
240.4194544171743
 20
314.3546304565256
 30
0.0
 50
270.0
  0
MTEXT
  5
E082
330
D67F
100
AcDbEntity
  8
AM_5
 62
     2
100
AcDbMText
 10
237.3194544171742
 20
319.3396204565256
 30
0.0
 40
3.200000000000001
 41
0.0
 71
     5
 72
     1
  1
163
 11
0.0000000000000001
 21
1.0
 31
0.0
 73
     1
 44
1.0
1001
ACAD
1000
MTEXTBEGIN
1070
    73
1070
     1
1070
    44
1040
1.0
1070
    74
1070
     0
1000
MTEXTEND
  0
POINT
  5
E083
330
D67F
100
AcDbEntity
  8
Defpoints
 62
     0
100
AcDbPoint
 10
223.919454417174
 20
324.3246104565255
 30
0.0
  0
POINT
  5
E084
330
D67F
100
AcDbEntity
  8
Defpoints
 62
     0
100
AcDbPoint
 10
223.919454417174
 20
314.3546304565256
 30
0.0
  0
POINT
  5
E085
330
D67F
100
AcDbEntity
  8
Defpoints
 62
     0
100
AcDbPoint
 10
240.4194544171743
 20
314.3546304565256
 30
0.0
  0
ENDBLK
  5
D68B
330
D67F
100
AcDbEntity
  8
0
100
AcDbBlockEnd
  0
BLOCK
  5
D6A9
330
D69F
100
AcDbEntity
  8
0
100
AcDbBlockBegin
  2
*D20
 70
     1
 10
0.0
 20
0.0
 30
0.0
  3
*D20
  1

  0
LINE
  5
D6AB
330
D69F
100
AcDbEntity
  8
AM_5
100
AcDbLine
 10
224.9194444171741
 20
314.3546304565256
 30
0.0
 11
241.4194544171741
 21
314.3546304565256
 31
0.0
  0
LINE
  5
D6AC
330
D69F
100
AcDbEntity
  8
AM_5
100
AcDbLine
 10
223.319464417174
 20
304.3546104565255
 30
0.0
 11
241.4194544171741
 21
304.3546104565255
 31
0.0
  0
LINE
  5
D6AD
330
D69F
100
AcDbEntity
  8
AM_5
100
AcDbLine
 10
240.4194544171741
 20
313.3546304565256
 30
0.0
 11
240.4194544171741
 21
305.3546104565255
 31
0.0
  0
INSERT
  5
D6AE
330
D69F
100
AcDbEntity
  8
AM_5
100
AcDbBlockReference
  2
_Dot
 10
240.4194544171741
 20
314.3546304565256
 30
0.0
 50
90.0
  0
INSERT
  5
D6AF
330
D69F
100
AcDbEntity
  8
AM_5
100
AcDbBlockReference
  2
_Dot
 10
240.4194544171741
 20
304.3546104565255
 30
0.0
 50
270.0
  0
MTEXT
  5
D6B0
330
D69F
100
AcDbEntity
  8
AM_5
 62
     2
100
AcDbMText
 10
237.3194544171741
 20
309.3546204565256
 30
0.0
 40
3.200000000000001
 41
0.0
 71
     5
 72
     1
  1
10
 11
0.0000000000000001
 21
1.0
 31
0.0
 73
     1
 44
1.0
1001
ACAD
1000
MTEXTBEGIN
1070
    73
1070
     1
1070
    44
1040
1.0
1070
    74
1070
     0
1000
MTEXTEND
  0
POINT
  5
D6B1
330
D69F
100
AcDbEntity
  8
Defpoints
 62
     0
100
AcDbPoint
 10
223.9194444171741
 20
314.3546304565256
 30
0.0
  0
POINT
  5
D6B2
330
D69F
100
AcDbEntity
  8
Defpoints
 62
     0
100
AcDbPoint
 10
222.319464417174
 20
304.3546104565255
 30
0.0
  0
POINT
  5
D6B3
330
D69F
100
AcDbEntity
  8
Defpoints
 62
     0
100
AcDbPoint
 10
240.4194544171741
 20
304.3546104565255
 30
0.0
  0
ENDBLK
  5
D6AA
330
D69F
100
AcDbEntity
  8
0
100
AcDbBlockEnd
  0
BLOCK
  5
D6BF
330
D6B5
100
AcDbEntity
  8
0
100
AcDbBlockBegin
  2
*D21
 70
     1
 10
0.0
 20
0.0
 30
0.0
  3
*D21
  1

  0
LINE
  5
D6EF
330
D6B5
100
AcDbEntity
  8
AM_5
100
AcDbLine
 10
227.919454417174
 20
262.7046204565255
 30
0.0
 11
241.4194544171741
 21
262.7046204565255
 31
0.0
  0
LINE
  5
D6F0
330
D6B5
100
AcDbEntity
  8
AM_5
100
AcDbLine
 10
227.9194544171705
 20
219.4146250507063
 30
0.0
 11
241.4194544171741
 21
219.4146250507063
 31
0.0
  0
LINE
  5
D6F1
330
D6B5
100
AcDbEntity
  8
AM_5
100
AcDbLine
 10
240.4194544171741
 20
261.7046204565255
 30
0.0
 11
240.4194544171741
 21
220.4146250507063
 31
0.0
  0
INSERT
  5
D6F2
330
D6B5
100
AcDbEntity
  8
AM_5
100
AcDbBlockReference
  2
_Dot
 10
240.4194544171741
 20
262.7046204565255
 30
0.0
 50
90.0
  0
INSERT
  5
D6F3
330
D6B5
100
AcDbEntity
  8
AM_5
100
AcDbBlockReference
  2
_Dot
 10
240.4194544171741
 20
219.4146250507063
 30
0.0
 50
270.0
  0
MTEXT
  5
D6F4
330
D6B5
100
AcDbEntity
  8
AM_5
 62
     2
100
AcDbMText
 10
237.3194544171741
 20
241.0596227536159
 30
0.0
 40
3.200000000000001
 41
0.0
 71
     5
 72
     1
  1
給湯器取付ピッチ
 11
0.0000000000000001
 21
1.0
 31
0.0
 73
     1
 44
1.0
1001
ACAD
1000
MTEXTBEGIN
1070
    73
1070
     1
1070
    44
1040
1.0
1070
    74
1070
     0
1000
MTEXTEND
  0
POINT
  5
D6F5
330
D6B5
100
AcDbEntity
  8
Defpoints
 62
     0
100
AcDbPoint
 10
226.9194544171741
 20
262.7046204565255
 30
0.0
  0
POINT
  5
D6F6
330
D6B5
100
AcDbEntity
  8
Defpoints
 62
     0
100
AcDbPoint
 10
226.9194544171705
 20
219.4146250507063
 30
0.0
  0
POINT
  5
D6F7
330
D6B5
100
AcDbEntity
  8
Defpoints
 62
     0
100
AcDbPoint
 10
240.4194544171741
 20
219.4146250507063
 30
0.0
  0
ENDBLK
  5
D6C0
330
D6B5
100
AcDbEntity
  8
0
100
AcDbBlockEnd
  0
BLOCK
  5
D703
330
D6F9
100
AcDbEntity
  8
0
100
AcDbBlockBegin
  2
*D22
 70
     1
 10
0.0
 20
0.0
 30
0.0
  3
*D22
  1

  0
LINE
  5
D705
330
D6F9
100
AcDbEntity
  8
AM_5
100
AcDbLine
 10
207.319464417174
 20
70.19960845652551
 30
0.0
 11
207.319464417174
 21
58.19960845652551
 31
0.0
  0
LINE
  5
D706
330
D6F9
100
AcDbEntity
  8
AM_5
100
AcDbLine
 10
192.319454417174
 20
71.86462245652551
 30
0.0
 11
192.319454417174
 21
58.19960845652551
 31
0.0
  0
LINE
  5
D707
330
D6F9
100
AcDbEntity
  8
AM_5
100
AcDbLine
 10
206.319464417174
 20
59.19960845652551
 30
0.0
 11
193.319454417174
 21
59.19960845652551
 31
0.0
  0
INSERT
  5
D708
330
D6F9
100
AcDbEntity
  8
AM_5
100
AcDbBlockReference
  2
_Dot
 10
207.319464417174
 20
59.19960845652551
 30
0.0
  0
INSERT
  5
D709
330
D6F9
100
AcDbEntity
  8
AM_5
100
AcDbBlockReference
  2
_Dot
 10
192.319454417174
 20
59.19960845652551
 30
0.0
 50
180.0
  0
MTEXT
  5
D70A
330
D6F9
100
AcDbEntity
  8
AM_5
 62
     2
100
AcDbMText
 10
199.819459417174
 20
62.2996084565255
 30
0.0
 40
3.200000000000001
 41
0.0
 71
     5
 72
     1
  1
15
 73
     1
 44
1.0
1001
ACAD
1000
MTEXTBEGIN
1070
    73
1070
     1
1070
    44
1040
1.0
1070
    74
1070
     0
1000
MTEXTEND
  0
POINT
  5
D70B
330
D6F9
100
AcDbEntity
  8
Defpoints
 62
     0
100
AcDbPoint
 10
207.319464417174
 20
71.19960845652551
 30
0.0
  0
POINT
  5
D70C
330
D6F9
100
AcDbEntity
  8
Defpoints
 62
     0
100
AcDbPoint
 10
192.319454417174
 20
72.8646224565255
 30
0.0
  0
POINT
  5
D70D
330
D6F9
100
AcDbEntity
  8
Defpoints
 62
     0
100
AcDbPoint
 10
192.319454417174
 20
59.19960845652551
 30
0.0
  0
ENDBLK
  5
D704
330
D6F9
100
AcDbEntity
  8
0
100
AcDbBlockEnd
  0
BLOCK
  5
D719
330
D70F
100
AcDbEntity
  8
0
100
AcDbBlockBegin
  2
*D23
 70
     1
 10
0.0
 20
0.0
 30
0.0
  3
*D23
  1

  0
LINE
  5
D71B
330
D70F
100
AcDbEntity
  8
AM_5
100
AcDbLine
 10
194.9844544171741
 20
101.1996278565255
 30
0.0
 11
181.319454417174
 21
101.1996278565255
 31
0.0
  0
LINE
  5
D71C
330
D70F
100
AcDbEntity
  8
AM_5
100
AcDbLine
 10
193.319454417174
 20
126.1996144565255
 30
0.0
 11
181.319454417174
 21
126.1996144565255
 31
0.0
  0
LINE
  5
D71D
330
D70F
100
AcDbEntity
  8
AM_5
100
AcDbLine
 10
182.319454417174
 20
102.1996278565255
 30
0.0
 11
182.319454417174
 21
125.1996144565255
 31
0.0
  0
INSERT
  5
D71E
330
D70F
100
AcDbEntity
  8
AM_5
100
AcDbBlockReference
  2
_Dot
 10
182.319454417174
 20
101.1996278565255
 30
0.0
 50
270.0
  0
INSERT
  5
D71F
330
D70F
100
AcDbEntity
  8
AM_5
100
AcDbBlockReference
  2
_Dot
 10
182.319454417174
 20
126.1996144565255
 30
0.0
 50
90.0
  0
MTEXT
  5
D720
330
D70F
100
AcDbEntity
  8
AM_5
 62
     2
100
AcDbMText
 10
179.219454417174
 20
113.6996211565255
 30
0.0
 40
3.200000000000001
 41
0.0
 71
     5
 72
     1
  1
25
 11
0.0000000000000001
 21
1.0
 31
0.0
 73
     1
 44
1.0
1001
ACAD
1000
MTEXTBEGIN
1070
    73
1070
     1
1070
    44
1040
1.0
1070
    74
1070
     0
1000
MTEXTEND
  0
POINT
  5
D721
330
D70F
100
AcDbEntity
  8
Defpoints
 62
     0
100
AcDbPoint
 10
195.9844544171741
 20
101.1996278565255
 30
0.0
  0
POINT
  5
D722
330
D70F
100
AcDbEntity
  8
Defpoints
 62
     0
100
AcDbPoint
 10
194.319454417174
 20
126.1996144565255
 30
0.0
  0
POINT
  5
D723
330
D70F
100
AcDbEntity
  8
Defpoints
 62
     0
100
AcDbPoint
 10
182.319454417174
 20
126.1996144565255
 30
0.0
  0
ENDBLK
  5
D71A
330
D70F
100
AcDbEntity
  8
0
100
AcDbBlockEnd
  0
BLOCK
  5
D785
330
D779
100
AcDbEntity
  8
0
100
AcDbBlockBegin
  2
*D24
 70
     1
 10
0.0
 20
0.0
 30
0.0
  3
*D24
  1

  0
LINE
  5
D787
330
D779
100
AcDbEntity
  8
AM_5
100
AcDbLine
 10
219.319454417174
 20
178.4871159565255
 30
0.0
 11
219.319454417174
 21
176.8447994565255
 31
0.0
  0
LINE
  5
D788
330
D779
100
AcDbEntity
  8
AM_5
100
AcDbLine
 10
222.319464417174
 20
178.4871159565255
 30
0.0
 11
222.319464417174
 21
176.8447994565255
 31
0.0
  0
LINE
  5
D789
330
D779
100
AcDbEntity
  8
AM_5
100
AcDbLine
 10
218.319454417174
 20
177.8447994565255
 30
0.0
 11
217.319454417174
 21
177.8447994565255
 31
0.0
  0
LINE
  5
D78A
330
D779
100
AcDbEntity
  8
AM_5
100
AcDbLine
 10
223.319464417174
 20
177.8447994565255
 30
0.0
 11
228.8127977505074
 21
177.8447994565255
 31
0.0
  0
LINE
  5
D78B
330
D779
100
AcDbEntity
  8
AM_5
100
AcDbLine
 10
219.319454417174
 20
177.8447994565255
 30
0.0
 11
222.319464417174
 21
177.8447994565255
 31
0.0
  0
INSERT
  5
D78C
330
D779
100
AcDbEntity
  8
AM_5
100
AcDbBlockReference
  2
_Dot
 10
219.319454417174
 20
177.8447994565255
 30
0.0
  0
INSERT
  5
D78D
330
D779
100
AcDbEntity
  8
AM_5
100
AcDbBlockReference
  2
_Dot
 10
222.319464417174
 20
177.8447994565255
 30
0.0
 50
180.0
  0
MTEXT
  5
D78E
330
D779
100
AcDbEntity
  8
AM_5
 62
     2
100
AcDbMText
 10
226.5661310838407
 20
180.9447994565255
 30
0.0
 40
3.200000000000001
 41
0.0
 71
     5
 72
     1
  1
3
 73
     1
 44
1.0
1001
ACAD
1000
MTEXTBEGIN
1070
    73
1070
     1
1070
    44
1040
1.0
1070
    74
1070
     0
1000
MTEXTEND
  0
POINT
  5
D78F
330
D779
100
AcDbEntity
  8
Defpoints
 62
     0
100
AcDbPoint
 10
219.319454417174
 20
179.4871159565255
 30
0.0
  0
POINT
  5
D790
330
D779
100
AcDbEntity
  8
Defpoints
 62
     0
100
AcDbPoint
 10
222.319464417174
 20
179.4871159565255
 30
0.0
  0
POINT
  5
D791
330
D779
100
AcDbEntity
  8
Defpoints
 62
     0
100
AcDbPoint
 10
222.319464417174
 20
177.8447994565255
 30
0.0
  0
ENDBLK
  5
D786
330
D779
100
AcDbEntity
  8
0
100
AcDbBlockEnd
  0
BLOCK
  5
D79F
330
D793
100
AcDbEntity
  8
0
100
AcDbBlockBegin
  2
*D25
 70
     1
 10
0.0
 20
0.0
 30
0.0
  3
*D25
  1

  0
LINE
  5
D7A1
330
D793
100
AcDbEntity
  8
AM_5
100
AcDbLine
 10
194.319454417174
 20
178.4871159565255
 30
0.0
 11
194.319454417174
 21
176.8447994565255
 31
0.0
  0
LINE
  5
D7A2
330
D793
100
AcDbEntity
  8
AM_5
100
AcDbLine
 10
192.319454417174
 20
178.4871159565255
 30
0.0
 11
192.319454417174
 21
176.8447994565255
 31
0.0
  0
LINE
  5
D7A3
330
D793
100
AcDbEntity
  8
AM_5
100
AcDbLine
 10
195.319454417174
 20
177.8447994565255
 30
0.0
 11
196.319454417174
 21
177.8447994565255
 31
0.0
  0
LINE
  5
D7A4
330
D793
100
AcDbEntity
  8
AM_5
100
AcDbLine
 10
191.319454417174
 20
177.8447994565255
 30
0.0
 11
185.8261210838406
 21
177.8447994565255
 31
0.0
  0
LINE
  5
D7A5
330
D793
100
AcDbEntity
  8
AM_5
100
AcDbLine
 10
194.319454417174
 20
177.8447994565255
 30
0.0
 11
192.319454417174
 21
177.8447994565255
 31
0.0
  0
INSERT
  5
D7A6
330
D793
100
AcDbEntity
  8
AM_5
100
AcDbBlockReference
  2
_Dot
 10
194.319454417174
 20
177.8447994565255
 30
0.0
 50
180.0
  0
INSERT
  5
D7A7
330
D793
100
AcDbEntity
  8
AM_5
100
AcDbBlockReference
  2
_Dot
 10
192.319454417174
 20
177.8447994565255
 30
0.0
  0
MTEXT
  5
D7A8
330
D793
100
AcDbEntity
  8
AM_5
 62
     2
100
AcDbMText
 10
188.0727877505073
 20
180.9447994565255
 30
0.0
 40
3.200000000000001
 41
0.0
 71
     5
 72
     1
  1
2
 73
     1
 44
1.0
1001
ACAD
1000
MTEXTBEGIN
1070
    73
1070
     1
1070
    44
1040
1.0
1070
    74
1070
     0
1000
MTEXTEND
  0
POINT
  5
D7A9
330
D793
100
AcDbEntity
  8
Defpoints
 62
     0
100
AcDbPoint
 10
194.319454417174
 20
179.4871159565255
 30
0.0
  0
POINT
  5
D7AA
330
D793
100
AcDbEntity
  8
Defpoints
 62
     0
100
AcDbPoint
 10
192.319454417174
 20
179.4871159565255
 30
0.0
  0
POINT
  5
D7AB
330
D793
100
AcDbEntity
  8
Defpoints
 62
     0
100
AcDbPoint
 10
192.319454417174
 20
177.8447994565255
 30
0.0
  0
ENDBLK
  5
D7A0
330
D793
100
AcDbEntity
  8
0
100
AcDbBlockEnd
  0
BLOCK
  5
D7B7
330
D7AD
100
AcDbEntity
  8
0
100
AcDbBlockBegin
  2
*D26
 70
     1
 10
0.0
 20
0.0
 30
0.0
  3
*D26
  1

  0
LINE
  5
D7B9
330
D7AD
100
AcDbEntity
  8
AM_5
100
AcDbLine
 10
194.319454417174
 20
178.4871159565255
 30
0.0
 11
194.319454417174
 21
176.8447994565253
 31
0.0
  0
LINE
  5
D7BA
330
D7AD
100
AcDbEntity
  8
AM_5
100
AcDbLine
 10
219.319454417174
 20
178.4871159565255
 30
0.0
 11
219.319454417174
 21
176.8447994565253
 31
0.0
  0
LINE
  5
D7BB
330
D7AD
100
AcDbEntity
  8
AM_5
100
AcDbLine
 10
195.319454417174
 20
177.8447994565253
 30
0.0
 11
218.319454417174
 21
177.8447994565253
 31
0.0
  0
INSERT
  5
D7BC
330
D7AD
100
AcDbEntity
  8
AM_5
100
AcDbBlockReference
  2
_Dot
 10
194.319454417174
 20
177.8447994565253
 30
0.0
 50
180.0
  0
INSERT
  5
D7BD
330
D7AD
100
AcDbEntity
  8
AM_5
100
AcDbBlockReference
  2
_Dot
 10
219.319454417174
 20
177.8447994565253
 30
0.0
  0
MTEXT
  5
D7BE
330
D7AD
100
AcDbEntity
  8
AM_5
 62
     2
100
AcDbMText
 10
206.819454417174
 20
180.9447994565253
 30
0.0
 40
3.200000000000001
 41
0.0
 71
     5
 72
     1
  1
25
 73
     1
 44
1.0
1001
ACAD
1000
MTEXTBEGIN
1070
    73
1070
     1
1070
    44
1040
1.0
1070
    74
1070
     0
1000
MTEXTEND
  0
POINT
  5
D7BF
330
D7AD
100
AcDbEntity
  8
Defpoints
 62
     0
100
AcDbPoint
 10
194.319454417174
 20
179.4871159565255
 30
0.0
  0
POINT
  5
D7C0
330
D7AD
100
AcDbEntity
  8
Defpoints
 62
     0
100
AcDbPoint
 10
219.319454417174
 20
179.4871159565255
 30
0.0
  0
POINT
  5
D7C1
330
D7AD
100
AcDbEntity
  8
Defpoints
 62
     0
100
AcDbPoint
 10
219.319454417174
 20
177.8447994565253
 30
0.0
  0
ENDBLK
  5
D7B8
330
D7AD
100
AcDbEntity
  8
0
100
AcDbBlockEnd
  0
BLOCK
  5
D7CD
330
D7C3
100
AcDbEntity
  8
0
100
AcDbBlockBegin
  2
*D27
 70
     1
 10
0.0
 20
0.0
 30
0.0
  3
*D27
  1

  0
LINE
  5
D7E1
330
D7C3
100
AcDbEntity
  8
AM_5
100
AcDbLine
 10
222.319464417174
 20
163.119928833848
 30
0.0
 11
222.319464417174
 21
166.2262154565254
 31
0.0
  0
LINE
  5
D7E2
330
D7C3
100
AcDbEntity
  8
AM_5
100
AcDbLine
 10
192.319454417174
 20
163.066717923918
 30
0.0
 11
192.319454417174
 21
166.2262154565254
 31
0.0
  0
LINE
  5
D7E3
330
D7C3
100
AcDbEntity
  8
AM_5
100
AcDbLine
 10
221.319464417174
 20
165.2262154565254
 30
0.0
 11
193.319454417174
 21
165.2262154565254
 31
0.0
  0
INSERT
  5
D7E4
330
D7C3
100
AcDbEntity
  8
AM_5
100
AcDbBlockReference
  2
_Dot
 10
222.319464417174
 20
165.2262154565254
 30
0.0
  0
INSERT
  5
D7E5
330
D7C3
100
AcDbEntity
  8
AM_5
100
AcDbBlockReference
  2
_Dot
 10
192.319454417174
 20
165.2262154565254
 30
0.0
 50
180.0
  0
MTEXT
  5
D7E6
330
D7C3
100
AcDbEntity
  8
AM_5
 62
     2
100
AcDbMText
 10
207.319459417174
 20
168.3262154565254
 30
0.0
 40
3.200000000000001
 41
0.0
 71
     5
 72
     1
  1
30
 73
     1
 44
1.0
1001
ACAD
1000
MTEXTBEGIN
1070
    73
1070
     1
1070
    44
1040
1.0
1070
    74
1070
     0
1000
MTEXTEND
  0
POINT
  5
D7E7
330
D7C3
100
AcDbEntity
  8
Defpoints
 62
     0
100
AcDbPoint
 10
222.319464417174
 20
162.119928833848
 30
0.0
  0
POINT
  5
D7E8
330
D7C3
100
AcDbEntity
  8
Defpoints
 62
     0
100
AcDbPoint
 10
192.319454417174
 20
162.0667179239181
 30
0.0
  0
POINT
  5
D7E9
330
D7C3
100
AcDbEntity
  8
Defpoints
 62
     0
100
AcDbPoint
 10
192.319454417174
 20
165.2262154565254
 30
0.0
  0
ENDBLK
  5
D7CE
330
D7C3
100
AcDbEntity
  8
0
100
AcDbBlockEnd
  0
BLOCK
  5
D7F7
330
D7EB
100
AcDbEntity
  8
0
100
AcDbBlockBegin
  2
*D28
 70
     1
 10
0.0
 20
0.0
 30
0.0
  3
*D28
  1

  0
LINE
  5
D7F9
330
D7EB
100
AcDbEntity
  8
AM_5
100
AcDbLine
 10
194.984444417174
 20
101.1996142565255
 30
0.0
 11
171.319454417174
 21
101.1996142565255
 31
0.0
  0
LINE
  5
D7FA
330
D7EB
100
AcDbEntity
  8
AM_5
100
AcDbLine
 10
192.984444417174
 20
96.19961435652552
 30
0.0
 11
171.319454417174
 21
96.19961435652552
 31
0.0
  0
LINE
  5
D7FB
330
D7EB
100
AcDbEntity
  8
AM_5
100
AcDbLine
 10
172.319454417174
 20
102.1996142565255
 30
0.0
 11
172.319454417174
 21
103.1996142565255
 31
0.0
  0
LINE
  5
D7FC
330
D7EB
100
AcDbEntity
  8
AM_5
100
AcDbLine
 10
172.319454417174
 20
95.19961435652552
 30
0.0
 11
172.319454417174
 21
94.19961435652551
 31
0.0
  0
LINE
  5
D7FD
330
D7EB
100
AcDbEntity
  8
AM_5
100
AcDbLine
 10
172.319454417174
 20
101.1996142565255
 30
0.0
 11
172.319454417174
 21
96.19961435652552
 31
0.0
  0
INSERT
  5
D7FE
330
D7EB
100
AcDbEntity
  8
AM_5
100
AcDbBlockReference
  2
_Dot
 10
172.319454417174
 20
101.1996142565255
 30
0.0
 50
270.0
  0
INSERT
  5
D7FF
330
D7EB
100
AcDbEntity
  8
AM_5
100
AcDbBlockReference
  2
_Dot
 10
172.319454417174
 20
96.19961435652552
 30
0.0
 50
90.0
  0
MTEXT
  5
D800
330
D7EB
100
AcDbEntity
  8
AM_5
 62
     2
100
AcDbMText
 10
169.219454417174
 20
98.69961430652551
 30
0.0
 40
3.200000000000001
 41
0.0
 71
     5
 72
     1
  1
5
 11
0.0000000000000001
 21
1.0
 31
0.0
 73
     1
 44
1.0
1001
ACAD
1000
MTEXTBEGIN
1070
    73
1070
     1
1070
    44
1040
1.0
1070
    74
1070
     0
1000
MTEXTEND
  0
POINT
  5
D801
330
D7EB
100
AcDbEntity
  8
Defpoints
 62
     0
100
AcDbPoint
 10
195.984444417174
 20
101.1996142565255
 30
0.0
  0
POINT
  5
D802
330
D7EB
100
AcDbEntity
  8
Defpoints
 62
     0
100
AcDbPoint
 10
193.984444417174
 20
96.19961435652552
 30
0.0
  0
POINT
  5
D803
330
D7EB
100
AcDbEntity
  8
Defpoints
 62
     0
100
AcDbPoint
 10
172.319454417174
 20
96.19961435652552
 30
0.0
  0
ENDBLK
  5
D7F8
330
D7EB
100
AcDbEntity
  8
0
100
AcDbBlockEnd
  0
BLOCK
  5
D80F
330
D805
100
AcDbEntity
  8
0
100
AcDbBlockBegin
  2
*D29
 70
     1
 10
0.0
 20
0.0
 30
0.0
  3
*D29
  1

  0
LINE
  5
D811
330
D805
100
AcDbEntity
  8
AM_5
100
AcDbLine
 10
192.9844544171741
 20
96.19962625652553
 30
0.0
 11
171.319454417174
 21
96.19962625652553
 31
0.0
  0
LINE
  5
D812
330
D805
100
AcDbEntity
  8
AM_5
100
AcDbLine
 10
192.984444417174
 20
71.19962745652552
 30
0.0
 11
171.319454417174
 21
71.19962745652552
 31
0.0
  0
LINE
  5
D813
330
D805
100
AcDbEntity
  8
AM_5
100
AcDbLine
 10
172.319454417174
 20
95.19962625652551
 30
0.0
 11
172.319454417174
 21
72.19962745652551
 31
0.0
  0
INSERT
  5
D814
330
D805
100
AcDbEntity
  8
AM_5
100
AcDbBlockReference
  2
_Dot
 10
172.319454417174
 20
96.19962625652553
 30
0.0
 50
90.0
  0
INSERT
  5
D815
330
D805
100
AcDbEntity
  8
AM_5
100
AcDbBlockReference
  2
_Dot
 10
172.319454417174
 20
71.19962745652552
 30
0.0
 50
270.0
  0
MTEXT
  5
D816
330
D805
100
AcDbEntity
  8
AM_5
 62
     2
100
AcDbMText
 10
169.219454417174
 20
83.69962685652554
 30
0.0
 40
3.200000000000001
 41
0.0
 71
     5
 72
     1
  1
25
 11
0.0000000000000001
 21
1.0
 31
0.0
 73
     1
 44
1.0
1001
ACAD
1000
MTEXTBEGIN
1070
    73
1070
     1
1070
    44
1040
1.0
1070
    74
1070
     0
1000
MTEXTEND
  0
POINT
  5
D817
330
D805
100
AcDbEntity
  8
Defpoints
 62
     0
100
AcDbPoint
 10
193.9844544171741
 20
96.19962625652553
 30
0.0
  0
POINT
  5
D818
330
D805
100
AcDbEntity
  8
Defpoints
 62
     0
100
AcDbPoint
 10
193.984444417174
 20
71.19962745652552
 30
0.0
  0
POINT
  5
D819
330
D805
100
AcDbEntity
  8
Defpoints
 62
     0
100
AcDbPoint
 10
172.319454417174
 20
71.19962745652552
 30
0.0
  0
ENDBLK
  5
D810
330
D805
100
AcDbEntity
  8
0
100
AcDbBlockEnd
  0
BLOCK
  5
D825
330
D81B
100
AcDbEntity
  8
0
100
AcDbBlockBegin
  2
*D30
 70
     1
 10
0.0
 20
0.0
 30
0.0
  3
*D30
  1

  0
LINE
  5
D885
330
D81B
100
AcDbEntity
  8
AM_5
100
AcDbLine
 10
194.9844544171741
 20
101.1996278565255
 30
0.0
 11
171.319454417174
 21
101.1996278565255
 31
0.0
  0
LINE
  5
D886
330
D81B
100
AcDbEntity
  8
AM_5
100
AcDbLine
 10
194.9844544171741
 20
209.4246504565255
 30
0.0
 11
171.319454417174
 21
209.4246504565255
 31
0.0
  0
LINE
  5
D887
330
D81B
100
AcDbEntity
  8
AM_5
100
AcDbLine
 10
172.319454417174
 20
102.1996278565255
 30
0.0
 11
172.319454417174
 21
208.4246504565255
 31
0.0
  0
INSERT
  5
D888
330
D81B
100
AcDbEntity
  8
AM_5
100
AcDbBlockReference
  2
_Dot
 10
172.319454417174
 20
101.1996278565255
 30
0.0
 50
270.0
  0
INSERT
  5
D889
330
D81B
100
AcDbEntity
  8
AM_5
100
AcDbBlockReference
  2
_Dot
 10
172.319454417174
 20
209.4246504565255
 30
0.0
 50
90.0
  0
MTEXT
  5
D88A
330
D81B
100
AcDbEntity
  8
AM_5
 62
     2
100
AcDbMText
 10
169.219454417174
 20
155.3121391565255
 30
0.0
 40
3.200000000000001
 41
0.0
 71
     5
 72
     1
  1
DH
 11
0.0000000000000001
 21
1.0
 31
0.0
 73
     1
 44
1.0
1001
ACAD
1000
MTEXTBEGIN
1070
    73
1070
     1
1070
    44
1040
1.0
1070
    74
1070
     0
1000
MTEXTEND
  0
POINT
  5
D88B
330
D81B
100
AcDbEntity
  8
Defpoints
 62
     0
100
AcDbPoint
 10
195.9844544171741
 20
101.1996278565255
 30
0.0
  0
POINT
  5
D88C
330
D81B
100
AcDbEntity
  8
Defpoints
 62
     0
100
AcDbPoint
 10
195.9844544171741
 20
209.4246504565255
 30
0.0
  0
POINT
  5
D88D
330
D81B
100
AcDbEntity
  8
Defpoints
 62
     0
100
AcDbPoint
 10
172.319454417174
 20
209.4246504565255
 30
0.0
  0
ENDBLK
  5
D826
330
D81B
100
AcDbEntity
  8
0
100
AcDbBlockEnd
  0
BLOCK
  5
D85C
330
D852
100
AcDbEntity
  8
0
100
AcDbBlockBegin
  2
*D31
 70
     1
 10
0.0
 20
0.0
 30
0.0
  3
*D31
  1

  0
LINE
  5
E08F
330
D852
100
AcDbEntity
  8
AM_5
100
AcDbLine
 10
193.319454417174
 20
126.1996104565255
 30
0.0
 11
181.319454417174
 21
126.1996104565255
 31
0.0
  0
LINE
  5
E090
330
D852
100
AcDbEntity
  8
AM_5
100
AcDbLine
 10
182.319454417174
 20
127.1996104565255
 30
0.0
 11
182.319454417174
 21
151.2146114565255
 31
0.0
  0
INSERT
  5
E091
330
D852
100
AcDbEntity
  8
AM_5
100
AcDbBlockReference
  2
_Dot
 10
182.319454417174
 20
126.1996104565255
 30
0.0
 50
270.0
  0
MTEXT
  5
E092
330
D852
100
AcDbEntity
  8
AM_5
 62
     2
100
AcDbMText
 10
179.2194544171739
 20
139.2071109565255
 30
0.0
 40
3.200000000000001
 41
0.0
 71
     5
 72
     1
  1
163
 11
0.0000000000000001
 21
1.0
 31
0.0
 73
     1
 44
1.0
1001
ACAD
1000
MTEXTBEGIN
1070
    73
1070
     1
1070
    44
1040
1.0
1070
    74
1070
     0
1000
MTEXTEND
  0
POINT
  5
E093
330
D852
100
AcDbEntity
  8
Defpoints
 62
     0
100
AcDbPoint
 10
194.319454417174
 20
126.1996104565255
 30
0.0
  0
POINT
  5
E094
330
D852
100
AcDbEntity
  8
Defpoints
 62
     0
100
AcDbPoint
 10
194.319454417174
 20
151.2146114565255
 30
0.0
  0
POINT
  5
E095
330
D852
100
AcDbEntity
  8
Defpoints
 62
     0
100
AcDbPoint
 10
182.319454417174
 20
151.2146114565255
 30
0.0
  0
ENDBLK
  5
D85D
330
D852
100
AcDbEntity
  8
0
100
AcDbBlockEnd
  0
BLOCK
  5
D899
330
D88F
100
AcDbEntity
  8
0
100
AcDbBlockBegin
  2
*D32
 70
     1
 10
0.0
 20
0.0
 30
0.0
  3
*D32
  1

  0
LINE
  5
D8BD
330
D88F
100
AcDbEntity
  8
AM_5
100
AcDbLine
 10
194.9844544171741
 20
209.4246504565255
 30
0.0
 11
171.319454417174
 21
209.4246504565255
 31
0.0
  0
LINE
  5
D8BE
330
D88F
100
AcDbEntity
  8
AM_5
100
AcDbLine
 10
194.9844544171741
 20
279.3546304565255
 30
0.0
 11
171.319454417174
 21
279.3546304565255
 31
0.0
  0
LINE
  5
D8BF
330
D88F
100
AcDbEntity
  8
AM_5
100
AcDbLine
 10
172.319454417174
 20
210.4246504565255
 30
0.0
 11
172.319454417174
 21
278.3546304565255
 31
0.0
  0
INSERT
  5
D8C0
330
D88F
100
AcDbEntity
  8
AM_5
100
AcDbBlockReference
  2
_Dot
 10
172.319454417174
 20
209.4246504565255
 30
0.0
 50
270.0
  0
INSERT
  5
D8C1
330
D88F
100
AcDbEntity
  8
AM_5
100
AcDbBlockReference
  2
_Dot
 10
172.319454417174
 20
279.3546304565255
 30
0.0
 50
90.0
  0
MTEXT
  5
D8C2
330
D88F
100
AcDbEntity
  8
AM_5
 62
     2
100
AcDbMText
 10
169.219454417174
 20
244.3896404565256
 30
0.0
 40
3.200000000000001
 41
0.0
 71
     5
 72
     1
  1
給湯器取付開口
 11
0.0000000000000001
 21
1.0
 31
0.0
 73
     1
 44
1.0
1001
ACAD
1000
MTEXTBEGIN
1070
    73
1070
     1
1070
    44
1040
1.0
1070
    74
1070
     0
1000
MTEXTEND
  0
POINT
  5
D8C3
330
D88F
100
AcDbEntity
  8
Defpoints
 62
     0
100
AcDbPoint
 10
195.9844544171741
 20
209.4246504565255
 30
0.0
  0
POINT
  5
D8C4
330
D88F
100
AcDbEntity
  8
Defpoints
 62
     0
100
AcDbPoint
 10
195.9844544171741
 20
279.3546304565255
 30
0.0
  0
POINT
  5
D8C5
330
D88F
100
AcDbEntity
  8
Defpoints
 62
     0
100
AcDbPoint
 10
172.319454417174
 20
279.3546304565255
 30
0.0
  0
ENDBLK
  5
D89A
330
D88F
100
AcDbEntity
  8
0
100
AcDbBlockEnd
  0
BLOCK
  5
D8D1
330
D8C7
100
AcDbEntity
  8
0
100
AcDbBlockBegin
  2
*D33
 70
     1
 10
0.0
 20
0.0
 30
0.0
  3
*D33
  1

  0
LINE
  5
D8D3
330
D8C7
100
AcDbEntity
  8
AM_5
100
AcDbLine
 10
194.984444417174
 20
279.3546304565255
 30
0.0
 11
171.319454417174
 21
279.3546304565255
 31
0.0
  0
LINE
  5
D8D4
330
D8C7
100
AcDbEntity
  8
AM_5
100
AcDbLine
 10
194.984444417174
 20
304.3546304565255
 30
0.0
 11
171.319454417174
 21
304.3546304565255
 31
0.0
  0
LINE
  5
D8D5
330
D8C7
100
AcDbEntity
  8
AM_5
100
AcDbLine
 10
172.319454417174
 20
280.3546304565255
 30
0.0
 11
172.319454417174
 21
303.3546304565255
 31
0.0
  0
INSERT
  5
D8D6
330
D8C7
100
AcDbEntity
  8
AM_5
100
AcDbBlockReference
  2
_Dot
 10
172.319454417174
 20
279.3546304565255
 30
0.0
 50
270.0
  0
INSERT
  5
D8D7
330
D8C7
100
AcDbEntity
  8
AM_5
100
AcDbBlockReference
  2
_Dot
 10
172.319454417174
 20
304.3546304565255
 30
0.0
 50
90.0
  0
MTEXT
  5
D8D8
330
D8C7
100
AcDbEntity
  8
AM_5
 62
     2
100
AcDbMText
 10
169.219454417174
 20
291.8546304565256
 30
0.0
 40
3.200000000000001
 41
0.0
 71
     5
 72
     1
  1
25
 11
0.0000000000000001
 21
1.0
 31
0.0
 73
     1
 44
1.0
1001
ACAD
1000
MTEXTBEGIN
1070
    73
1070
     1
1070
    44
1040
1.0
1070
    74
1070
     0
1000
MTEXTEND
  0
POINT
  5
D8D9
330
D8C7
100
AcDbEntity
  8
Defpoints
 62
     0
100
AcDbPoint
 10
195.984444417174
 20
279.3546304565255
 30
0.0
  0
POINT
  5
D8DA
330
D8C7
100
AcDbEntity
  8
Defpoints
 62
     0
100
AcDbPoint
 10
195.984444417174
 20
304.3546304565255
 30
0.0
  0
POINT
  5
D8DB
330
D8C7
100
AcDbEntity
  8
Defpoints
 62
     0
100
AcDbPoint
 10
172.319454417174
 20
304.3546304565255
 30
0.0
  0
ENDBLK
  5
D8D2
330
D8C7
100
AcDbEntity
  8
0
100
AcDbBlockEnd
  0
BLOCK
  5
D8E7
330
D8DD
100
AcDbEntity
  8
0
100
AcDbBlockBegin
  2
*D34
 70
     1
 10
0.0
 20
0.0
 30
0.0
  3
*D34
  1

  0
LINE
  5
E086
330
D8DD
100
AcDbEntity
  8
AM_5
100
AcDbLine
 10
194.9844544171741
 20
304.3546304565255
 30
0.0
 11
171.319454417174
 21
304.3546304565255
 31
0.0
  0
LINE
  5
E087
330
D8DD
100
AcDbEntity
  8
AM_5
100
AcDbLine
 10
192.984444417174
 20
334.3246104565255
 30
0.0
 11
171.319454417174
 21
334.3246104565255
 31
0.0
  0
LINE
  5
E088
330
D8DD
100
AcDbEntity
  8
AM_5
100
AcDbLine
 10
172.319454417174
 20
305.3546304565255
 30
0.0
 11
172.319454417174
 21
333.3246104565255
 31
0.0
  0
INSERT
  5
E089
330
D8DD
100
AcDbEntity
  8
AM_5
100
AcDbBlockReference
  2
_Dot
 10
172.319454417174
 20
304.3546304565255
 30
0.0
 50
270.0
  0
INSERT
  5
E08A
330
D8DD
100
AcDbEntity
  8
AM_5
100
AcDbBlockReference
  2
_Dot
 10
172.319454417174
 20
334.3246104565255
 30
0.0
 50
90.0
  0
MTEXT
  5
E08B
330
D8DD
100
AcDbEntity
  8
AM_5
 62
     2
100
AcDbMText
 10
169.219454417174
 20
319.3396204565256
 30
0.0
 40
3.200000000000001
 41
0.0
 71
     5
 72
     1
  1
183
 11
0.0000000000000001
 21
1.0
 31
0.0
 73
     1
 44
1.0
1001
ACAD
1000
MTEXTBEGIN
1070
    73
1070
     1
1070
    44
1040
1.0
1070
    74
1070
     0
1000
MTEXTEND
  0
POINT
  5
E08C
330
D8DD
100
AcDbEntity
  8
Defpoints
 62
     0
100
AcDbPoint
 10
195.9844544171741
 20
304.3546304565255
 30
0.0
  0
POINT
  5
E08D
330
D8DD
100
AcDbEntity
  8
Defpoints
 62
     0
100
AcDbPoint
 10
193.984444417174
 20
334.3246104565255
 30
0.0
  0
POINT
  5
E08E
330
D8DD
100
AcDbEntity
  8
Defpoints
 62
     0
100
AcDbPoint
 10
172.319454417174
 20
334.3246104565255
 30
0.0
  0
ENDBLK
  5
D8E8
330
D8DD
100
AcDbEntity
  8
0
100
AcDbBlockEnd
  0
BLOCK
  5
D8FD
330
D8F3
100
AcDbEntity
  8
0
100
AcDbBlockBegin
  2
*D35
 70
     1
 10
0.0
 20
0.0
 30
0.0
  3
*D35
  1

  0
LINE
  5
D8FF
330
D8F3
100
AcDbEntity
  8
AM_5
100
AcDbLine
 10
192.984444417174
 20
334.3246104565255
 30
0.0
 11
171.319454417174
 21
334.3246104565255
 31
0.0
  0
LINE
  5
D900
330
D8F3
100
AcDbEntity
  8
AM_5
100
AcDbLine
 10
192.984444417174
 20
359.3246504565255
 30
0.0
 11
171.319454417174
 21
359.3246504565255
 31
0.0
  0
LINE
  5
D901
330
D8F3
100
AcDbEntity
  8
AM_5
100
AcDbLine
 10
172.319454417174
 20
335.3246104565255
 30
0.0
 11
172.319454417174
 21
358.3246504565257
 31
0.0
  0
INSERT
  5
D902
330
D8F3
100
AcDbEntity
  8
AM_5
100
AcDbBlockReference
  2
_Dot
 10
172.319454417174
 20
334.3246104565255
 30
0.0
 50
270.0
  0
INSERT
  5
D903
330
D8F3
100
AcDbEntity
  8
AM_5
100
AcDbBlockReference
  2
_Dot
 10
172.319454417174
 20
359.3246504565255
 30
0.0
 50
90.0
  0
MTEXT
  5
D904
330
D8F3
100
AcDbEntity
  8
AM_5
 62
     2
100
AcDbMText
 10
169.219454417174
 20
346.8246304565257
 30
0.0
 40
3.200000000000001
 41
0.0
 71
     5
 72
     1
  1
25
 11
0.0000000000000001
 21
1.0
 31
0.0
 73
     1
 44
1.0
1001
ACAD
1000
MTEXTBEGIN
1070
    73
1070
     1
1070
    44
1040
1.0
1070
    74
1070
     0
1000
MTEXTEND
  0
POINT
  5
D905
330
D8F3
100
AcDbEntity
  8
Defpoints
 62
     0
100
AcDbPoint
 10
193.984444417174
 20
334.3246104565255
 30
0.0
  0
POINT
  5
D906
330
D8F3
100
AcDbEntity
  8
Defpoints
 62
     0
100
AcDbPoint
 10
193.984444417174
 20
359.3246504565255
 30
0.0
  0
POINT
  5
D907
330
D8F3
100
AcDbEntity
  8
Defpoints
 62
     0
100
AcDbPoint
 10
172.319454417174
 20
359.3246504565255
 30
0.0
  0
ENDBLK
  5
D8FE
330
D8F3
100
AcDbEntity
  8
0
100
AcDbBlockEnd
  0
BLOCK
  5
DFFE
330
DFF4
100
AcDbEntity
  8
0
100
AcDbBlockBegin
  2
*D36
 70
     1
 10
0.0
 20
0.0
 30
0.0
  3
*D36
  1

  0
LINE
  5
E011
330
DFF4
100
AcDbEntity
  8
AM_5
100
AcDbLine
 10
382.4962790577292
 20
201.3786204565255
 30
0.0
 11
382.4962790577292
 21
183.381634456526
 31
0.0
  0
LINE
  5
E012
330
DFF4
100
AcDbEntity
  8
AM_5
100
AcDbLine
 10
428.1172752977291
 20
201.3786204565255
 30
0.0
 11
428.1172752977291
 21
183.381634456526
 31
0.0
  0
LINE
  5
E013
330
DFF4
100
AcDbEntity
  8
AM_5
100
AcDbLine
 10
383.4962790577293
 20
184.381634456526
 30
0.0
 11
427.1172752977292
 21
184.381634456526
 31
0.0
  0
INSERT
  5
E014
330
DFF4
100
AcDbEntity
  8
AM_5
100
AcDbBlockReference
  2
_Dot
 10
382.4962790577292
 20
184.381634456526
 30
0.0
 50
180.0
  0
INSERT
  5
E015
330
DFF4
100
AcDbEntity
  8
AM_5
100
AcDbBlockReference
  2
_Dot
 10
428.1172752977291
 20
184.381634456526
 30
0.0
  0
MTEXT
  5
E016
330
DFF4
100
AcDbEntity
  8
AM_5
 62
     2
100
AcDbMText
 10
405.3067771777292
 20
187.481634456526
 30
0.0
 40
3.200000000000001
 41
0.0
 71
     5
 72
     1
  1
W
 73
     1
 44
1.0
1001
ACAD
1000
MTEXTBEGIN
1070
    73
1070
     1
1070
    44
1040
1.0
1070
    74
1070
     0
1000
MTEXTEND
  0
POINT
  5
E017
330
DFF4
100
AcDbEntity
  8
Defpoints
 62
     0
100
AcDbPoint
 10
382.4962790577292
 20
202.3786204565255
 30
0.0
  0
POINT
  5
E018
330
DFF4
100
AcDbEntity
  8
Defpoints
 62
     0
100
AcDbPoint
 10
428.1172752977291
 20
202.3786204565255
 30
0.0
  0
POINT
  5
E019
330
DFF4
100
AcDbEntity
  8
Defpoints
 62
     0
100
AcDbPoint
 10
428.1172752977291
 20
184.381634456526
 30
0.0
  0
ENDBLK
  5
DFFF
330
DFF4
100
AcDbEntity
  8
0
100
AcDbBlockEnd
  0
BLOCK
  5
E025
330
E01B
100
AcDbEntity
  8
0
100
AcDbBlockBegin
  2
*D37
 70
     1
 10
0.0
 20
0.0
 30
0.0
  3
*D37
  1

  0
LINE
  5
E038
330
E01B
100
AcDbEntity
  8
AM_5
100
AcDbLine
 10
429.1172752977293
 20
202.3786204565255
 30
0.0
 11
447.1142882977293
 21
202.3786204565255
 31
0.0
  0
LINE
  5
E039
330
E01B
100
AcDbEntity
  8
AM_5
100
AcDbLine
 10
428.4512742977291
 20
375.8716204565256
 30
0.0
 11
447.1142882977293
 21
375.8716204565256
 31
0.0
  0
LINE
  5
E03A
330
E01B
100
AcDbEntity
  8
AM_5
100
AcDbLine
 10
446.1142882977293
 20
203.3786204565255
 30
0.0
 11
446.1142882977293
 21
374.8716204565255
 31
0.0
  0
INSERT
  5
E03B
330
E01B
100
AcDbEntity
  8
AM_5
100
AcDbBlockReference
  2
_Dot
 10
446.1142882977293
 20
202.3786204565255
 30
0.0
 50
270.0
  0
INSERT
  5
E03C
330
E01B
100
AcDbEntity
  8
AM_5
100
AcDbBlockReference
  2
_Dot
 10
446.1142882977293
 20
375.8716204565256
 30
0.0
 50
90.0
  0
MTEXT
  5
E03D
330
E01B
100
AcDbEntity
  8
AM_5
 62
     2
100
AcDbMText
 10
443.0142882977293
 20
289.1251204565256
 30
0.0
 40
3.200000000000001
 41
0.0
 71
     5
 72
     1
  1
H
 11
0.0000000000000001
 21
1.0
 31
0.0
 73
     1
 44
1.0
1001
ACAD
1000
MTEXTBEGIN
1070
    73
1070
     1
1070
    44
1040
1.0
1070
    74
1070
     0
1000
MTEXTEND
  0
POINT
  5
E03E
330
E01B
100
AcDbEntity
  8
Defpoints
 62
     0
100
AcDbPoint
 10
428.1172752977291
 20
202.3786204565255
 30
0.0
  0
POINT
  5
E03F
330
E01B
100
AcDbEntity
  8
Defpoints
 62
     0
100
AcDbPoint
 10
427.4512742977291
 20
375.8716204565256
 30
0.0
  0
POINT
  5
E040
330
E01B
100
AcDbEntity
  8
Defpoints
 62
     0
100
AcDbPoint
 10
446.1142882977293
 20
375.8716204565256
 30
0.0
  0
ENDBLK
  5
E026
330
E01B
100
AcDbEntity
  8
0
100
AcDbBlockEnd
  0
ENDSEC
  0
SECTION
  2
ENTITIES
  0
TEXT
  5
B5B3
330
1F
100
AcDbEntity
  8
AM_6
 60
     1
100
AcDbText
 10
408.4999999999998
 20
8.5
 30
0.0
 40
2.5
  1
!GENTITLE-INSERT
100
AcDbText
  0
TEXT
  5
B5B4
330
1F
100
AcDbEntity
  8
AM_6
 60
     1
100
AcDbText
 10
0.0
 20
0.0
 30
0.0
 40
2.5
  1
!GENTITLE-LL
100
AcDbText
  0
TEXT
  5
B5B5
330
1F
100
AcDbEntity
  8
AM_6
 60
     1
100
AcDbText
 10
420.0
 20
297.0
 30
0.0
 40
2.5
  1
!GENTITLE-RU
100
AcDbText
  0
TEXT
  5
B5B6
330
1F
100
AcDbEntity
  8
AM_6
 60
     1
100
AcDbText
 10
420.0
 20
297.0
 30
0.0
 40
2.5
  1
!GENTITLE-MAX
100
AcDbText
  0
TEXT
  5
B5BE
330
1F
100
AcDbEntity
  8
AM_6
 60
     1
100
AcDbText
 10
0.0
 20
0.0
 30
0.0
 40
2.5
  1
!GENTITLE-LL
100
AcDbText
  0
TEXT
  5
B5BF
330
1F
100
AcDbEntity
  8
AM_6
 60
     1
100
AcDbText
 10
408.4999999999998
 20
288.5
 30
0.0
 40
2.5
  1
!GENTITLE-RU
100
AcDbText
  0
TEXT
  5
B5C0
330
1F
100
AcDbEntity
  8
AM_6
 60
     1
100
AcDbText
 10
420.0
 20
297.0
 30
0.0
 40
2.5
  1
!GENTITLE-MAX
100
AcDbText
  0
TEXT
  5
B5C1
330
1F
100
AcDbEntity
  8
AM_6
 60
     1
100
AcDbText
 10
408.4999999999998
 20
8.5
 30
0.0
 40
2.5
  1
!GENTITLE-INSERT
100
AcDbText
  0
POINT
  5
BAC2
330
1F
100
AcDbEntity
  8
AM_0
100
AcDbPoint
 10
11.50000000000003
 20
411.5
 30
0.0
  0
LINE
  5
BAC3
330
1F
100
AcDbEntity
  8
AM_2
100
AcDbLine
 10
31.50000000000004
 20
411.5
 30
0.0
 11
31.50000000000003
 21
355.5000000000002
 31
0.0
  0
LINE
  5
BAC4
330
1F
100
AcDbEntity
  8
AM_2
100
AcDbLine
 10
11.50000000000003
 20
403.5
 30
0.0
 11
109.4999999999999
 21
403.5
 31
0.0
  0
LINE
  5
BAC5
330
1F
100
AcDbEntity
  8
AM_2
100
AcDbLine
 10
11.50000000000003
 20
395.5
 30
0.0
 11
109.4999999999999
 21
395.5
 31
0.0
  0
LINE
  5
BAC6
330
1F
100
AcDbEntity
  8
AM_2
100
AcDbLine
 10
11.50000000000003
 20
387.5
 30
0.0
 11
109.4999999999999
 21
387.5
 31
0.0
  0
LINE
  5
BAC7
330
1F
100
AcDbEntity
  8
AM_0
100
AcDbLine
 10
109.4999999999999
 20
411.5
 30
0.0
 11
109.5
 21
355.5000000000002
 31
0.0
  0
LINE
  5
BAC8
330
1F
100
AcDbEntity
  8
AM_2
100
AcDbLine
 10
11.50000000000003
 20
379.5000000000002
 30
0.0
 11
109.4999999999999
 21
379.5
 31
0.0
  0
MTEXT
  5
BAC9
330
1F
100
AcDbEntity
  8
0文字
100
AcDbMText
 10
21.50000000000003
 20
407.5
 30
0.0
 40
3.2
 41
20.0
 71
     5
 72
     5
  1
品名
 73
     1
 44
1.0
1001
ACAD
1000
MTEXTBEGIN
1070
    73
1070
     1
1070
    44
1040
1.0
1070
    74
1070
     0
1000
MTEXTEND
1000
ACAD_MTEXT_DEFINED_HEIGHT_BEGIN
1070
    46
1040
8.000000000000012
1000
ACAD_MTEXT_DEFINED_HEIGHT_END
  0
MTEXT
  5
BACA
330
1F
100
AcDbEntity
  8
0文字
100
AcDbMText
 10
31.50000000000004
 20
407.5
 30
0.0
 40
3.2
 41
90.0
 71
     4
 72
     5
  1
　ガスチャンバードア
 73
     1
 44
1.0
1001
ACAD
1000
MTEXTBEGIN
1070
    73
1070
     1
1070
    44
1040
1.0
1070
    74
1070
     0
1000
MTEXTEND
1000
ACAD_MTEXT_DEFINED_HEIGHT_BEGIN
1070
    46
1040
8.000000000000012
1000
ACAD_MTEXT_DEFINED_HEIGHT_END
  0
MTEXT
  5
BACB
330
1F
100
AcDbEntity
  8
0文字
100
AcDbMText
 10
21.50000000000003
 20
399.5
 30
0.0
 40
3.2
 41
20.0
 71
     5
 72
     5
  1
品番
 73
     1
 44
1.0
1001
ACAD
1000
MTEXTBEGIN
1070
    73
1070
     1
1070
    44
1040
1.0
1070
    74
1070
     0
1000
MTEXTEND
1000
ACAD_MTEXT_DEFINED_HEIGHT_BEGIN
1070
    46
1040
8.000000000000012
1000
ACAD_MTEXT_DEFINED_HEIGHT_END
  0
MTEXT
  5
BACC
330
1F
100
AcDbEntity
  8
0文字
100
AcDbMText
 10
31.50000000000004
 20
399.5
 30
0.0
 40
3.2
 41
90.0
 71
     4
 72
     5
  1
　{\fMS PGothic|b0|i0|c128|p50;　  }型
 73
     1
 44
1.0
1001
ACAD
1000
MTEXTBEGIN
1070
    73
1070
     1
1070
    44
1040
1.0
1070
    74
1070
     0
1000
MTEXTEND
1000
ACAD_MTEXT_DEFINED_HEIGHT_BEGIN
1070
    46
1040
8.000000000000012
1000
ACAD_MTEXT_DEFINED_HEIGHT_END
  0
MTEXT
  5
BACD
330
1F
100
AcDbEntity
  8
0文字
100
AcDbMText
 10
21.50000000000003
 20
391.5
 30
0.0
 40
3.2
 41
20.0
 71
     5
 72
     5
  1
材質
 73
     1
 44
1.0
1001
ACAD
1000
MTEXTBEGIN
1070
    73
1070
     1
1070
    44
1040
1.0
1070
    74
1070
     0
1000
MTEXTEND
1000
ACAD_MTEXT_DEFINED_HEIGHT_BEGIN
1070
    46
1040
8.000000000000012
1000
ACAD_MTEXT_DEFINED_HEIGHT_END
  0
MTEXT
  5
BACE
330
1F
100
AcDbEntity
  8
0文字
100
AcDbMText
 10
31.50000000000004
 20
391.5
 30
0.0
 40
3.2
 41
90.0
 71
     4
 72
     5
  1
　スチール
 73
     1
 44
1.0
1001
ACAD
1000
MTEXTBEGIN
1070
    73
1070
     1
1070
    44
1040
1.0
1070
    74
1070
     0
1000
MTEXTEND
1000
ACAD_MTEXT_DEFINED_HEIGHT_BEGIN
1070
    46
1040
8.000000000000012
1000
ACAD_MTEXT_DEFINED_HEIGHT_END
  0
MTEXT
  5
BACF
330
1F
100
AcDbEntity
  8
0文字
100
AcDbMText
 10
21.50000000000003
 20
383.4999999999998
 30
0.0
 40
3.2
 41
20.0
 71
     5
 72
     5
  1
仕上
 73
     1
 44
1.0
1001
ACAD
1000
MTEXTBEGIN
1070
    73
1070
     1
1070
    44
1040
1.0
1070
    74
1070
     0
1000
MTEXTEND
1000
ACAD_MTEXT_DEFINED_HEIGHT_BEGIN
1070
    46
1040
8.000000000000012
1000
ACAD_MTEXT_DEFINED_HEIGHT_END
  0
MTEXT
  5
BAD0
330
1F
100
AcDbEntity
  8
0文字
100
AcDbMText
 10
31.50000000000003
 20
383.4999999999998
 30
0.0
 40
3.2
 41
90.0
 71
     4
 72
     5
  1
　防錆塗装
 73
     1
 44
1.0
1001
ACAD
1000
MTEXTBEGIN
1070
    73
1070
     1
1070
    44
1040
1.0
1070
    74
1070
     0
1000
MTEXTEND
1000
ACAD_MTEXT_DEFINED_HEIGHT_BEGIN
1070
    46
1040
8.000000000000012
1000
ACAD_MTEXT_DEFINED_HEIGHT_END
  0
LINE
  5
BAD1
330
1F
100
AcDbEntity
  8
AM_0
100
AcDbLine
 10
11.50000000000003
 20
355.5000000000002
 30
0.0
 11
109.4999999999999
 21
355.5000000000002
 31
0.0
  0
MTEXT
  5
BAD3
330
1F
100
AcDbEntity
  8
0文字
100
AcDbMText
 10
21.50000000000003
 20
363.5000000000002
 30
0.0
 40
3.2
 41
20.0
 71
     5
 72
     5
  1
備考
 73
     1
 44
1.0
1001
ACAD
1000
MTEXTBEGIN
1070
    73
1070
     1
1070
    44
1040
1.0
1070
    74
1070
     0
1000
MTEXTEND
1000
ACAD_MTEXT_DEFINED_HEIGHT_BEGIN
1070
    46
1040
15.9999999999999
1000
ACAD_MTEXT_DEFINED_HEIGHT_END
  0
MTEXT
  5
BAD4
330
1F
100
AcDbEntity
  8
0文字
100
AcDbMText
 10
31.50000000000003
 20
375.5
 30
0.0
 40
3.2
 41
90.0
 71
     4
 72
     5
  1
　有り（本図は右勝手）
 73
     1
 44
1.0
1001
ACAD
1000
MTEXTBEGIN
1070
    73
1070
     1
1070
    44
1040
1.0
1070
    74
1070
     0
1000
MTEXTEND
1000
ACAD_MTEXT_DEFINED_HEIGHT_BEGIN
1070
    46
1040
8.000000000000012
1000
ACAD_MTEXT_DEFINED_HEIGHT_END
  0
MTEXT
  5
BAD5
330
1F
100
AcDbEntity
  8
0文字
100
AcDbMText
 10
31.50000000000002
 20
367.5
 30
0.0
 40
3.2
 41
90.0
 71
     4
 72
     5
  1
　W×Hをご指示下さい
 73
     1
 44
1.0
1001
ACAD
1000
MTEXTBEGIN
1070
    73
1070
     1
1070
    44
1040
1.0
1070
    74
1070
     0
1000
MTEXTEND
1000
ACAD_MTEXT_DEFINED_HEIGHT_BEGIN
1070
    46
1040
8.000000000000012
1000
ACAD_MTEXT_DEFINED_HEIGHT_END
  0
LINE
  5
BAD6
330
1F
100
AcDbEntity
  8
AM_2
100
AcDbLine
 10
11.50000000000003
 20
371.5000000000002
 30
0.0
 11
109.4999999999999
 21
371.5000000000002
 31
0.0
  0
LINE
  5
BAD7
330
1F
100
AcDbEntity
  8
AM_2
100
AcDbLine
 10
31.50000000000004
 20
363.5000000000002
 30
0.0
 11
109.4999999999999
 21
363.5000000000002
 31
0.0
  0
MTEXT
  5
CA84
330
1F
100
AcDbEntity
  8
0文字
100
AcDbMText
 10
31.50000000000002
 20
359.5000000000002
 30
0.0
 40
3.2
 41
90.0
 71
     4
 72
     5
  1
　ｔ＝1.6
 73
     1
 44
1.0
1001
ACAD
1000
MTEXTBEGIN
1070
    73
1070
     1
1070
    44
1040
1.0
1070
    74
1070
     0
1000
MTEXTEND
1000
ACAD_MTEXT_DEFINED_HEIGHT_BEGIN
1070
    46
1040
8.000000000000012
1000
ACAD_MTEXT_DEFINED_HEIGHT_END
  0
TEXT
  5
CDA5
330
1F
100
AcDbEntity
  8
AM_6
 60
     1
100
AcDbText
 10
582.5
 20
8.5
 30
0.0
 40
2.5
  1
!GENTITLE-INSERT
100
AcDbText
  0
TEXT
  5
CDA6
330
1F
100
AcDbEntity
  8
AM_6
 60
     1
100
AcDbText
 10
594.0
 20
420.0
 30
0.0
 40
2.5
  1
!GENTITLE-MAX
100
AcDbText
  0
TEXT
  5
CDA7
330
1F
100
AcDbEntity
  8
AM_6
 60
     1
100
AcDbText
 10
594.0
 20
420.0
 30
0.0
 40
2.5
  1
!GENTITLE-RU
100
AcDbText
  0
TEXT
  5
CDA8
330
1F
100
AcDbEntity
  8
AM_6
 60
     1
100
AcDbText
 10
0.0
 20
0.0
 30
0.0
 40
2.5
  1
!GENTITLE-LL
100
AcDbText
  0
LINE
  5
CDA9
330
1F
100
AcDbEntity
  8
size
100
AcDbLine
 10
0.0000000000000426
 20
420.0
 30
0.0
 11
594.0
 21
420.0
 31
0.0
1001
GENIUS_GENREC_14
1002
{
1000
PYDIR
1011
0.0000000000000142
1021
297.0
1031
0.0
1002
}
1002
{
1000
PXDIR
1011
420.0
1021
0.0
1031
0.0
1002
}
1002
{
1000
PORI
1011
0.0
1021
0.0
1031
0.0
1002
}
1002
{
1000
PINS
1011
210.0
1021
148.5
1031
0.0
1002
}
1002
{
1000
HVAL
1000
297
1002
}
1002
{
1000
H
1070
     2
1002
}
1002
{
1000
WVAL
1000
420
1002
}
1002
{
1000
W
1070
     2
1002
}
1002
{
1000
C
1070
     4
1002
}
1001
GENIUS_GENOBJ-N-REC_13
1002
{
1000
OWNER
1000
GEN
1002
}
1001
GENIUS_GENODEF_13
1002
{
1000
HIER
1070
     0
1002
}
1002
{
1000
MANEDIT
1070
     0
1002
}
1002
{
1000
NOSEL
1070
     0
1002
}
1002
{
1000
BEHIND
1070
     0
1002
}
1002
{
1000
OTHER
1070
     0
1002
}
1002
{
1000
REACTOR
1002
}
  0
LINE
  5
CDAA
330
1F
100
AcDbEntity
  8
size
100
AcDbLine
 10
594.0
 20
420.0
 30
0.0
 11
594.0
 21
0.0
 31
0.0
1001
GENIUS_GENREC_14
1002
{
1000
PYDIR
1011
0.0000000000000142
1021
297.0
1031
0.0
1002
}
1002
{
1000
PXDIR
1011
420.0
1021
0.0
1031
0.0
1002
}
1002
{
1000
PORI
1011
0.0
1021
0.0
1031
0.0
1002
}
1002
{
1000
PINS
1011
210.0
1021
148.5
1031
0.0
1002
}
1002
{
1000
HVAL
1000
297
1002
}
1002
{
1000
H
1070
     2
1002
}
1002
{
1000
WVAL
1000
420
1002
}
1002
{
1000
W
1070
     2
1002
}
1002
{
1000
C
1070
     4
1002
}
1001
GENIUS_GENOBJ-N-REC_13
1002
{
1000
OWNER
1000
GEN
1002
}
1001
GENIUS_GENODEF_13
1002
{
1000
HIER
1070
     0
1002
}
1002
{
1000
MANEDIT
1070
     0
1002
}
1002
{
1000
NOSEL
1070
     0
1002
}
1002
{
1000
BEHIND
1070
     0
1002
}
1002
{
1000
OTHER
1070
     0
1002
}
1002
{
1000
REACTOR
1002
}
  0
LINE
  5
CDAB
330
1F
100
AcDbEntity
  8
waku
100
AcDbLine
 10
11.5
 20
8.5
 30
0.0
 11
582.5
 21
8.5
 31
0.0
1001
GENIUS_GENREC_14
1002
{
1000
PYDIR
1011
0.0000000000000142
1021
297.0
1031
0.0
1002
}
1002
{
1000
PXDIR
1011
420.0
1021
0.0
1031
0.0
1002
}
1002
{
1000
PORI
1011
0.0
1021
0.0
1031
0.0
1002
}
1002
{
1000
PINS
1011
210.0
1021
148.5
1031
0.0
1002
}
1002
{
1000
HVAL
1000
297
1002
}
1002
{
1000
H
1070
     2
1002
}
1002
{
1000
WVAL
1000
420
1002
}
1002
{
1000
W
1070
     2
1002
}
1002
{
1000
C
1070
     4
1002
}
  0
LINE
  5
CDAC
330
1F
100
AcDbEntity
  8
waku
100
AcDbLine
 10
582.5
 20
411.5
 30
0.0
 11
11.50000000000003
 21
411.5
 31
0.0
1001
GENIUS_GENREC_14
1002
{
1000
PYDIR
1011
174.0
1021
420.0
1031
0.0
1002
}
1002
{
1000
PXDIR
1011
594.0
1021
123.0
1031
0.0
1002
}
1002
{
1000
PORI
1011
174.0
1021
123.0
1031
0.0
1002
}
1002
{
1000
PINS
1011
384.0
1021
271.5
1031
0.0
1002
}
1002
{
1000
HVAL
1000
297
1002
}
1002
{
1000
H
1070
     2
1002
}
1002
{
1000
WVAL
1000
420
1002
}
1002
{
1000
W
1070
     2
1002
}
1002
{
1000
C
1070
     4
1002
}
1001
GENIUS_GENOBJ-N-REC_13
1002
{
1000
OWNER
1000
GEN
1002
}
1001
GENIUS_GENODEF_13
1002
{
1000
HIER
1070
     0
1002
}
1002
{
1000
MANEDIT
1070
     0
1002
}
1002
{
1000
NOSEL
1070
     0
1002
}
1002
{
1000
BEHIND
1070
     0
1002
}
1002
{
1000
OTHER
1070
     0
1002
}
1002
{
1000
REACTOR
1002
}
  0
LINE
  5
CDAD
330
1F
100
AcDbEntity
  8
waku
100
AcDbLine
 10
11.50000000000003
 20
411.5
 30
0.0
 11
11.5
 21
8.5
 31
0.0
1001
GENIUS_GENREC_14
1002
{
1000
PYDIR
1011
0.0000000000000142
1021
297.0
1031
0.0
1002
}
1002
{
1000
PXDIR
1011
420.0
1021
0.0
1031
0.0
1002
}
1002
{
1000
PORI
1011
0.0
1021
0.0
1031
0.0
1002
}
1002
{
1000
PINS
1011
210.0
1021
148.5
1031
0.0
1002
}
1002
{
1000
HVAL
1000
297
1002
}
1002
{
1000
H
1070
     2
1002
}
1002
{
1000
WVAL
1000
420
1002
}
1002
{
1000
W
1070
     2
1002
}
1002
{
1000
C
1070
     4
1002
}
1001
GENIUS_GENOBJ-N-REC_13
1002
{
1000
OWNER
1000
GEN
1002
}
1001
GENIUS_GENODEF_13
1002
{
1000
HIER
1070
     0
1002
}
1002
{
1000
MANEDIT
1070
     0
1002
}
1002
{
1000
NOSEL
1070
     0
1002
}
1002
{
1000
BEHIND
1070
     0
1002
}
1002
{
1000
OTHER
1070
     0
1002
}
1002
{
1000
REACTOR
1002
}
  0
LINE
  5
CDAE
330
1F
100
AcDbEntity
  8
waku
100
AcDbLine
 10
582.5
 20
8.5
 30
0.0
 11
582.5
 21
411.5
 31
0.0
1001
GENIUS_GENREC_14
1002
{
1000
PYDIR
1011
174.0
1021
420.0
1031
0.0
1002
}
1002
{
1000
PXDIR
1011
594.0
1021
123.0
1031
0.0
1002
}
1002
{
1000
PORI
1011
174.0
1021
123.0
1031
0.0
1002
}
1002
{
1000
PINS
1011
384.0
1021
271.5
1031
0.0
1002
}
1002
{
1000
HVAL
1000
297
1002
}
1002
{
1000
H
1070
     2
1002
}
1002
{
1000
WVAL
1000
420
1002
}
1002
{
1000
W
1070
     2
1002
}
1002
{
1000
C
1070
     4
1002
}
1001
GENIUS_GENOBJ-N-REC_13
1002
{
1000
OWNER
1000
GEN
1002
}
1001
GENIUS_GENODEF_13
1002
{
1000
HIER
1070
     0
1002
}
1002
{
1000
MANEDIT
1070
     0
1002
}
1002
{
1000
NOSEL
1070
     0
1002
}
1002
{
1000
BEHIND
1070
     0
1002
}
1002
{
1000
OTHER
1070
     0
1002
}
1002
{
1000
REACTOR
1002
}
  0
LINE
  5
CDAF
330
1F
100
AcDbEntity
  8
size
100
AcDbLine
 10
0.0000000000000426
 20
420.0
 30
0.0
 11
0.0
 21
0.0
 31
0.0
1001
GENIUS_GENREC_14
1002
{
1000
PYDIR
1011
0.0000000000000142
1021
297.0
1031
0.0
1002
}
1002
{
1000
PXDIR
1011
420.0
1021
0.0
1031
0.0
1002
}
1002
{
1000
PORI
1011
0.0
1021
0.0
1031
0.0
1002
}
1002
{
1000
PINS
1011
210.0
1021
148.5
1031
0.0
1002
}
1002
{
1000
HVAL
1000
297
1002
}
1002
{
1000
H
1070
     2
1002
}
1002
{
1000
WVAL
1000
420
1002
}
1002
{
1000
W
1070
     2
1002
}
1002
{
1000
C
1070
     4
1002
}
1001
GENIUS_GENOBJ-N-REC_13
1002
{
1000
OWNER
1000
GEN
1002
}
1001
GENIUS_GENODEF_13
1002
{
1000
HIER
1070
     0
1002
}
1002
{
1000
MANEDIT
1070
     0
1002
}
1002
{
1000
NOSEL
1070
     0
1002
}
1002
{
1000
BEHIND
1070
     0
1002
}
1002
{
1000
OTHER
1070
     0
1002
}
1002
{
1000
REACTOR
1002
}
  0
LINE
  5
CDB0
330
1F
100
AcDbEntity
  8
size
100
AcDbLine
 10
0.0
 20
0.0
 30
0.0
 11
594.0
 21
0.0
 31
0.0
1001
GENIUS_GENREC_14
1002
{
1000
PYDIR
1011
0.0000000000000142
1021
297.0
1031
0.0
1002
}
1002
{
1000
PXDIR
1011
420.0
1021
0.0
1031
0.0
1002
}
1002
{
1000
PORI
1011
0.0
1021
0.0
1031
0.0
1002
}
1002
{
1000
PINS
1011
210.0
1021
148.5
1031
0.0
1002
}
1002
{
1000
HVAL
1000
297
1002
}
1002
{
1000
H
1070
     2
1002
}
1002
{
1000
WVAL
1000
420
1002
}
1002
{
1000
W
1070
     2
1002
}
1002
{
1000
C
1070
     4
1002
}
1001
GENIUS_GENOBJ-N-REC_13
1002
{
1000
OWNER
1000
GEN
1002
}
1001
GENIUS_GENODEF_13
1002
{
1000
HIER
1070
     0
1002
}
1002
{
1000
MANEDIT
1070
     0
1002
}
1002
{
1000
NOSEL
1070
     0
1002
}
1002
{
1000
BEHIND
1070
     0
1002
}
1002
{
1000
OTHER
1070
     0
1002
}
1002
{
1000
REACTOR
1002
}
  0
POINT
  5
CF4E
330
1F
100
AcDbEntity
  8
AM_0
100
AcDbPoint
 10
192.319454417174
 20
359.3246304565255
 30
0.0
  0
LINE
  5
CF4F
330
1F
100
AcDbEntity
  8
AM_0
100
AcDbLine
 10
222.319464417174
 20
324.3246104565255
 30
0.0
 11
223.919454417174
 21
324.3246104565255
 31
0.0
  0
LINE
  5
CF50
330
1F
100
AcDbEntity
  8
AM_0
100
AcDbLine
 10
193.984444417174
 20
359.3246304565255
 30
0.0
 11
207.319464417174
 21
359.3246304565255
 31
0.0
  0
LINE
  5
CF51
330
1F
100
AcDbEntity
  8
AM_0
100
AcDbLine
 10
193.984444417174
 20
334.3246104565255
 30
0.0
 11
222.319464417174
 21
334.3246104565255
 31
0.0
  0
LINE
  5
CF52
330
1F
100
AcDbEntity
  8
AM_0
100
AcDbLine
 10
192.319454417174
 20
357.6596504565255
 30
0.0
 11
192.319454417174
 21
335.9896404565255
 31
0.0
  0
LINE
  5
CF53
330
1F
100
AcDbEntity
  8
AM_0
100
AcDbLine
 10
193.919454417174
 20
357.7246204565255
 30
0.0
 11
193.919454417174
 21
335.9246304565255
 31
0.0
  0
LINE
  5
CF54
330
1F
100
AcDbEntity
  8
AM_0
100
AcDbLine
 10
193.9194744171741
 20
357.7246204565255
 30
0.0
 11
207.319464417174
 21
357.7246204565255
 31
0.0
  0
LINE
  5
CF55
102
{ACAD_REACTORS
330
E133
102
}
330
1F
100
AcDbEntity
  8
AM_0
100
AcDbLine
 10
193.9194744171741
 20
335.9246504565255
 30
0.0
 11
225.5194644171741
 21
335.9246504565255
 31
0.0
  0
LINE
  5
CF56
330
1F
100
AcDbEntity
  8
AM_0
100
AcDbLine
 10
207.319464417174
 20
359.3246304565255
 30
0.0
 11
207.319464417174
 21
357.7246204565255
 31
0.0
  0
LINE
  5
CF57
330
1F
100
AcDbEntity
  8
AM_0
100
AcDbLine
 10
222.319464417174
 20
334.3246404565255
 30
0.0
 11
222.319464417174
 21
324.3246404565255
 31
0.0
  0
LINE
  5
CF58
102
{ACAD_REACTORS
330
E133
102
}
330
1F
100
AcDbEntity
  8
AM_0
100
AcDbLine
 10
223.919454417174
 20
335.9246304565255
 30
0.0
 11
223.919454417174
 21
320.1652383311551
 31
0.0
  0
LINE
  5
CF59
330
1F
100
AcDbEntity
  8
AM_0
100
AcDbLine
 10
195.984444417174
 20
304.3546304565255
 30
0.0
 11
222.319454417174
 21
304.3546304565255
 31
0.0
  0
LINE
  5
CF5A
330
1F
100
AcDbEntity
  8
AM_0
100
AcDbLine
 10
195.984444417174
 20
279.3546304565255
 30
0.0
 11
222.319454417174
 21
279.3546304565255
 31
0.0
  0
LINE
  5
CF5B
330
1F
100
AcDbEntity
  8
AM_0
100
AcDbLine
 10
195.9194444171741
 20
280.9546304565255
 30
0.0
 11
222.2544444171741
 21
280.9546304565255
 31
0.0
  0
LINE
  5
CF5C
330
1F
100
AcDbEntity
  8
AM_0
100
AcDbLine
 10
195.9194444171741
 20
302.7546304565256
 30
0.0
 11
222.2544444171741
 21
302.7546304565256
 31
0.0
  0
LINE
  5
CF5D
330
1F
100
AcDbEntity
  8
AM_0
100
AcDbLine
 10
194.319454417174
 20
302.6896204565255
 30
0.0
 11
194.319454417174
 21
281.0196204565256
 31
0.0
  0
LINE
  5
CF5E
330
1F
100
AcDbEntity
  8
AM_0
100
AcDbLine
 10
195.919454417174
 20
302.7546204565255
 30
0.0
 11
195.919454417174
 21
280.9546204565255
 31
0.0
  0
LINE
  5
CF5F
330
1F
100
AcDbEntity
  8
AM_0
100
AcDbLine
 10
222.319464417174
 20
279.3546104565255
 30
0.0
 11
222.319464417174
 21
247.1851305951358
 31
0.0
  0
LINE
  5
CF60
330
1F
100
AcDbEntity
  8
AM_0
100
AcDbLine
 10
222.319464417174
 20
302.7546204565255
 30
0.0
 11
222.319464417174
 21
280.9546204565255
 31
0.0
  0
LINE
  5
CF61
330
1F
100
AcDbEntity
  8
AM_0
100
AcDbLine
 10
195.984444417174
 20
209.4246404565256
 30
0.0
 11
217.6544444171741
 21
209.4246404565256
 31
0.0
  0
LINE
  5
CF62
330
1F
100
AcDbEntity
  8
AM_0
100
AcDbLine
 10
195.9194444171741
 20
207.8246304565255
 30
0.0
 11
217.7194444171742
 21
207.8246304565255
 31
0.0
  0
LINE
  5
CF63
330
1F
100
AcDbEntity
  8
AM_0
100
AcDbLine
 10
217.7194444171742
 20
198.5006104565255
 30
0.0
 11
219.319454417174
 21
198.5006104565255
 31
0.0
  0
LINE
  5
CF64
330
1F
100
AcDbEntity
  8
AM_0
100
AcDbLine
 10
340.1074224171741
 20
91.80297375652552
 30
0.0
 11
340.1074224171741
 21
70.13296345652553
 31
0.0
  0
LINE
  5
CF65
330
1F
100
AcDbEntity
  8
AM_0
100
AcDbLine
 10
341.707418417174
 20
91.86797615652551
 30
0.0
 11
341.707418417174
 21
70.06796145652552
 31
0.0
  0
LINE
  5
CF66
330
1F
100
AcDbEntity
  8
AM_0
100
AcDbLine
 10
365.1074261171741
 20
93.46797465652551
 30
0.0
 11
365.1074261171741
 21
91.86797615652551
 31
0.0
  0
LINE
  5
CF67
330
1F
100
AcDbEntity
  8
AM_0
100
AcDbLine
 10
385.9459062018897
 20
93.46799995652551
 30
0.0
 11
341.7724254171741
 21
93.46799995652551
 31
0.0
  0
LINE
  5
CF68
330
1F
100
AcDbEntity
  8
AM_0
100
AcDbLine
 10
388.2460650733506
 20
70.06797445652551
 30
0.0
 11
341.707422417174
 21
70.06797445652551
 31
0.0
  0
LINE
  5
CF69
330
1F
100
AcDbEntity
  8
AM_0
100
AcDbLine
 10
388.0224189246538
 20
68.4680004565255
 30
0.0
 11
341.7724254171741
 21
68.4680004565255
 31
0.0
  0
LINE
  5
CF6A
102
{ACAD_REACTORS
330
E100
102
}
330
1F
100
AcDbEntity
  8
AM_0
100
AcDbLine
 10
385.7409903805658
 20
91.86802055652552
 30
0.0
 11
341.707422417174
 21
91.86802055652552
 31
0.0
  0
LINE
  5
CF6B
330
1F
100
AcDbEntity
  8
AM_0
100
AcDbLine
 10
351.0314224171742
 20
70.06796145652552
 30
0.0
 11
351.0314224171742
 21
68.46797645652552
 31
0.0
  0
LINE
  5
CF6C
330
1F
100
AcDbEntity
  8
AM_0
100
AcDbLine
 10
336.1074074171741
 20
93.80298135652552
 30
0.0
 11
336.1074074171741
 21
65.4679834565255
 31
0.0
  0
LINE
  5
CF6D
330
1F
100
AcDbEntity
  8
AM_0
100
AcDbLine
 10
334.507408417174
 20
93.86798355652551
 30
0.0
 11
334.507408417174
 21
65.53298645652552
 31
0.0
  0
LINE
  5
CF6E
330
1F
100
AcDbEntity
  8
AM_0
100
AcDbLine
 10
311.1074144171741
 20
93.80298135652552
 30
0.0
 11
311.1074144171741
 21
80.4679814565255
 31
0.0
  0
LINE
  5
CF6F
330
1F
100
AcDbEntity
  8
AM_0
100
AcDbLine
 10
312.707432417174
 20
93.86798355652551
 30
0.0
 11
312.707432417174
 21
80.4679814565255
 31
0.0
  0
LINE
  5
CF70
330
1F
100
AcDbEntity
  8
AM_0
100
AcDbLine
 10
312.707428417174
 20
80.46799545652552
 30
0.0
 11
311.1074144171741
 21
80.46799545652552
 31
0.0
  0
LINE
  5
CF71
330
1F
100
AcDbEntity
  8
AM_0
100
AcDbLine
 10
483.9924044171741
 20
95.46799465652552
 30
0.0
 11
388.4283617828971
 21
95.46799465652552
 31
0.0
  0
LINE
  5
CF72
330
1F
100
AcDbEntity
  8
AM_0
100
AcDbLine
 10
334.507412417174
 20
93.86800905652552
 30
0.0
 11
312.707428417174
 21
93.86800905652552
 31
0.0
  0
LINE
  5
CF73
330
1F
100
AcDbEntity
  8
AM_0
100
AcDbLine
 10
346.1074244171742
 20
65.4679834565255
 30
0.0
 11
346.1074244171742
 21
63.86798545652553
 31
0.0
  0
LINE
  5
CF74
330
1F
100
AcDbEntity
  8
AM_0
100
AcDbLine
 10
387.2117569258266
 20
65.4679954565255
 30
0.0
 11
336.1074144171741
 21
65.4679954565255
 31
0.0
  0
LINE
  5
CF75
330
1F
100
AcDbEntity
  8
AM_0
100
AcDbLine
 10
386.6380484241582
 20
63.86801145652553
 30
0.0
 11
336.1724174171741
 21
63.86801145652553
 31
0.0
  0
LINE
  5
CF76
102
{ACAD_REACTORS
330
E100
102
}
330
1F
100
AcDbEntity
  8
AM_0
100
AcDbLine
 10
355.1174204171742
 20
91.86797615652551
 30
0.0
 11
355.1174204171742
 21
90.26797775652552
 31
0.0
  0
LINE
  5
CF77
102
{ACAD_REACTORS
330
E100
102
}
330
1F
100
AcDbEntity
  8
AM_0
100
AcDbLine
 10
385.6536160208845
 20
90.26800295652552
 30
0.0
 11
355.117411417174
 21
90.26800295652552
 31
0.0
  0
LINE
  5
CF78
330
1F
100
AcDbEntity
  8
AM_0
100
AcDbLine
 10
202.3394544171741
 20
212.7546404565255
 30
0.0
 11
222.319454417174
 21
212.7546404565255
 31
0.0
  0
LINE
  5
CF79
330
1F
100
AcDbEntity
  8
AM_0
100
AcDbLine
 10
202.3394544171741
 20
226.0746404565255
 30
0.0
 11
222.319454417174
 21
226.0746404565255
 31
0.0
  0
LINE
  5
CF7A
330
1F
100
AcDbEntity
  8
AM_0
100
AcDbLine
 10
202.3394744171741
 20
226.0746104565255
 30
0.0
 11
202.3394744171741
 21
212.7546204565255
 31
0.0
  0
LINE
  5
CF7B
330
1F
100
AcDbEntity
  8
AM_0
100
AcDbLine
 10
220.6544544171741
 20
226.0746104565255
 30
0.0
 11
220.6544544171741
 21
212.7546204565255
 31
0.0
  0
LINE
  5
CF7C
330
1F
100
AcDbEntity
  8
AM_0
100
AcDbLine
 10
220.6544444171741
 20
222.7446304565255
 30
0.0
 11
222.319454417174
 21
222.7446304565255
 31
0.0
  0
LINE
  5
CF7D
330
1F
100
AcDbEntity
  8
AM_0
100
AcDbLine
 10
220.6544444171741
 20
216.0846104565255
 30
0.0
 11
222.319454417174
 21
216.0846104565255
 31
0.0
  0
LINE
  5
CF7F
330
1F
100
AcDbEntity
  8
AM_0
100
AcDbLine
 10
460.6574024171741
 20
65.4679954565255
 30
0.0
 11
389.3140244821229
 21
65.4679954565255
 31
0.0
  0
LINE
  5
CF80
330
1F
100
AcDbEntity
  8
AM_0
100
AcDbLine
 10
460.5924004171741
 20
63.86801145652553
 30
0.0
 11
388.771245618363
 21
63.86801145652553
 31
0.0
  0
LINE
  5
CF82
330
1F
100
AcDbEntity
  8
AM_0
100
AcDbLine
 10
220.7194644171741
 20
279.3546104565255
 30
0.0
 11
220.7194644171741
 21
256.7106104565255
 31
0.0
  0
LINE
  5
CF83
330
1F
100
AcDbEntity
  8
AM_0
100
AcDbLine
 10
220.7194444171741
 20
256.7106404565255
 30
0.0
 11
222.319454417174
 21
256.7106404565255
 31
0.0
  0
LINE
  5
CF84
330
1F
100
AcDbEntity
  8
AM_0
100
AcDbLine
 10
220.7194444171741
 20
259.7076204565255
 30
0.0
 11
222.319454417174
 21
259.7076204565255
 31
0.0
  0
LINE
  5
CF85
330
1F
100
AcDbEntity
  8
AM_0
100
AcDbLine
 10
220.7194444171741
 20
265.7016004565255
 30
0.0
 11
222.319454417174
 21
265.7016004565255
 31
0.0
  0
LINE
  5
CF86
330
1F
100
AcDbEntity
  8
AM_0
100
AcDbLine
 10
222.319454417174
 20
269.3546304565255
 30
0.0
 11
223.9194444171741
 21
269.3546304565255
 31
0.0
  0
LINE
  5
CF87
330
1F
100
AcDbEntity
  8
AM_0
100
AcDbLine
 10
222.319454417174
 20
314.3546304565256
 30
0.0
 11
223.9194444171741
 21
314.3546304565256
 31
0.0
  0
LINE
  5
CF88
330
1F
100
AcDbEntity
  8
AM_0
100
AcDbLine
 10
222.319464417174
 20
314.3546104565255
 30
0.0
 11
222.319464417174
 21
304.3546104565255
 31
0.0
  0
LINE
  5
CF89
102
{ACAD_REACTORS
330
E133
102
}
330
1F
100
AcDbEntity
  8
AM_0
100
AcDbLine
 10
225.5194644171741
 20
335.9246304565255
 30
0.0
 11
225.5194644171741
 21
319.7568219662876
 31
0.0
  0
LINE
  5
CF8A
102
{ACAD_REACTORS
330
E133
102
}
330
1F
100
AcDbEntity
  8
AM_0
100
AcDbLine
 10
223.9194444171741
 20
302.7546304565256
 30
0.0
 11
225.5194444171741
 21
302.7546304565256
 31
0.0
  0
LINE
  5
CF8B
102
{ACAD_REACTORS
330
E133
102
}
330
1F
100
AcDbEntity
  8
AM_0
100
AcDbLine
 10
225.5194644171741
 20
317.7428389598485
 30
0.0
 11
225.5194644171741
 21
302.7546204565255
 31
0.0
  0
LINE
  5
CF8C
102
{ACAD_REACTORS
330
E133
102
}
330
1F
100
AcDbEntity
  8
AM_0
100
AcDbLine
 10
223.919454417174
 20
318.0943965259298
 30
0.0
 11
223.919454417174
 21
246.783654805932
 31
0.0
  0
LINE
  5
CF8D
330
1F
100
AcDbEntity
  8
AM_0
100
AcDbLine
 10
192.319454417174
 20
335.9838798499684
 30
0.0
 11
192.319454417174
 21
148.8513611874806
 31
0.0
  0
LINE
  5
CF8E
330
1F
100
AcDbEntity
  8
AM_0
100
AcDbLine
 10
194.319454417174
 20
207.7596204565255
 30
0.0
 11
194.319454417174
 21
149.4980351463715
 31
0.0
  0
LINE
  5
CF8F
330
1F
100
AcDbEntity
  8
AM_0
100
AcDbLine
 10
195.919454417174
 20
207.8246104565255
 30
0.0
 11
195.919454417174
 21
149.8983864452778
 31
0.0
  0
LINE
  5
CF90
330
1F
100
AcDbEntity
  8
AM_0
100
AcDbLine
 10
219.319454417174
 20
207.7596204565255
 30
0.0
 11
219.319454417174
 21
147.6739002230535
 31
0.0
  0
LINE
  5
CF91
330
1F
100
AcDbEntity
  8
AM_0
100
AcDbLine
 10
217.7194644171741
 20
207.8246104565255
 30
0.0
 11
217.7194644171741
 21
147.6318369908174
 31
0.0
  0
LINE
  5
CF92
330
1F
100
AcDbEntity
  8
AM_0
100
AcDbLine
 10
195.984444417174
 20
101.1996142565255
 30
0.0
 11
217.6544444171741
 21
101.1996142565255
 31
0.0
  0
LINE
  5
CF93
330
1F
100
AcDbEntity
  8
AM_0
100
AcDbLine
 10
195.9194444171741
 20
102.7996253565255
 30
0.0
 11
217.7194444171742
 21
102.7996253565255
 31
0.0
  0
LINE
  5
CF94
330
1F
100
AcDbEntity
  8
AM_0
100
AcDbLine
 10
194.319454417174
 20
126.1996144565255
 30
0.0
 11
195.9194444171741
 21
126.1996144565255
 31
0.0
  0
LINE
  5
CF95
330
1F
100
AcDbEntity
  8
AM_0
100
AcDbLine
 10
194.319454417174
 20
126.1996104565255
 30
0.0
 11
194.319454417174
 21
102.8646211565255
 31
0.0
  0
LINE
  5
CF96
330
1F
100
AcDbEntity
  8
AM_0
100
AcDbLine
 10
217.7194644171741
 20
145.63176138426
 30
0.0
 11
217.7194644171741
 21
102.7996187565255
 31
0.0
  0
LINE
  5
CF97
330
1F
100
AcDbEntity
  8
AM_0
100
AcDbLine
 10
219.319454417174
 20
145.6703086655442
 30
0.0
 11
219.319454417174
 21
102.8646211565255
 31
0.0
  0
LINE
  5
CF98
102
{ACAD_REACTORS
330
E11A
102
}
330
1F
100
AcDbEntity
  8
AM_0
100
AcDbLine
 10
195.919454417174
 20
147.8494333877204
 30
0.0
 11
195.919454417174
 21
102.7996187565255
 31
0.0
  0
LINE
  5
CF99
330
1F
100
AcDbEntity
  8
AM_0
100
AcDbLine
 10
217.7194444171742
 20
112.1236344565255
 30
0.0
 11
219.319454417174
 21
112.1236344565255
 31
0.0
  0
LINE
  5
CF9A
330
1F
100
AcDbEntity
  8
AM_0
100
AcDbLine
 10
193.984444417174
 20
96.19961435652552
 30
0.0
 11
222.319454417174
 21
96.19961435652552
 31
0.0
  0
LINE
  5
CF9B
330
1F
100
AcDbEntity
  8
AM_0
100
AcDbLine
 10
193.919444417174
 20
94.59962865652551
 30
0.0
 11
222.2544444171741
 21
94.59962865652551
 31
0.0
  0
LINE
  5
CF9C
330
1F
100
AcDbEntity
  8
AM_0
100
AcDbLine
 10
193.984444417174
 20
71.19962745652552
 30
0.0
 11
207.319454417174
 21
71.19962745652552
 31
0.0
  0
LINE
  5
CF9D
330
1F
100
AcDbEntity
  8
AM_0
100
AcDbLine
 10
193.919444417174
 20
72.79961445652552
 30
0.0
 11
207.319454417174
 21
72.79961445652552
 31
0.0
  0
LINE
  5
CF9E
330
1F
100
AcDbEntity
  8
AM_0
100
AcDbLine
 10
207.319464417174
 20
72.79962045652552
 30
0.0
 11
207.319464417174
 21
71.19960845652551
 31
0.0
  0
LINE
  5
CF9F
330
1F
100
AcDbEntity
  8
AM_0
100
AcDbLine
 10
192.319454417174
 20
94.53460075652552
 30
0.0
 11
192.319454417174
 21
72.8646224565255
 31
0.0
  0
LINE
  5
CFA0
330
1F
100
AcDbEntity
  8
AM_0
100
AcDbLine
 10
193.919454417174
 20
94.59960315652551
 30
0.0
 11
193.919454417174
 21
72.79962045652552
 31
0.0
  0
LINE
  5
CFA1
330
1F
100
AcDbEntity
  8
AM_0
100
AcDbLine
 10
222.319454417174
 20
106.1996140565255
 30
0.0
 11
223.9194444171741
 21
106.1996140565255
 31
0.0
  0
LINE
  5
CFA2
330
1F
100
AcDbEntity
  8
AM_0
100
AcDbLine
 10
222.319464417174
 20
146.0503965706922
 30
0.0
 11
222.319464417174
 21
96.19961435652552
 31
0.0
  0
LINE
  5
CFA3
330
1F
100
AcDbEntity
  8
AM_0
100
AcDbLine
 10
223.919454417174
 20
146.4149188415863
 30
0.0
 11
223.919454417174
 21
96.26461685652552
 31
0.0
  0
LINE
  5
CFA4
102
{ACAD_REACTORS
330
E11A
102
}
330
1F
100
AcDbEntity
  8
AM_0
100
AcDbLine
 10
195.9194444171741
 20
116.2096084565255
 30
0.0
 11
197.5194444171741
 21
116.2096084565255
 31
0.0
  0
LINE
  5
CFA5
102
{ACAD_REACTORS
330
E11A
102
}
330
1F
100
AcDbEntity
  8
AM_0
100
AcDbLine
 10
197.519464417174
 20
148.1487181286849
 30
0.0
 11
197.519464417174
 21
116.2096044565255
 31
0.0
  0
LINE
  5
CFA6
330
1F
100
AcDbEntity
  8
AM_0
100
AcDbLine
 10
222.319464417174
 20
245.1107399618838
 30
0.0
 11
222.319464417174
 21
148.0918639237509
 31
0.0
  0
LINE
  5
CFA7
330
1F
100
AcDbEntity
  8
AM_0
100
AcDbLine
 10
223.919454417174
 20
244.7736432868066
 30
0.0
 11
223.919454417174
 21
148.4841940975106
 31
0.0
  0
LINE
  5
CFA8
330
1F
100
AcDbEntity
  8
AM_0
100
AcDbLine
 10
386.3636758164018
 20
95.46799465652552
 30
0.0
 11
312.7724304171741
 21
95.46799465652552
 31
0.0
  0
LINE
  5
CFA9
330
1F
100
AcDbEntity
  8
AM_0
100
AcDbLine
 10
460.6574024171741
 20
93.80298135652552
 30
0.0
 11
460.6574024171741
 21
65.4679834565255
 31
0.0
  0
LINE
  5
CFAA
330
1F
100
AcDbEntity
  8
AM_0
100
AcDbLine
 10
462.2574084171738
 20
93.86800905652552
 30
0.0
 11
484.057404417174
 21
93.86800905652552
 31
0.0
  0
LINE
  5
CFAB
330
1F
100
AcDbEntity
  8
AM_0
100
AcDbLine
 10
462.2574084171738
 20
93.86798355652551
 30
0.0
 11
462.2574084171738
 21
65.53298645652552
 31
0.0
  0
LINE
  5
CFAC
330
1F
100
AcDbEntity
  8
AM_0
100
AcDbLine
 10
485.6574044171741
 20
93.80298135652552
 30
0.0
 11
485.6574044171741
 21
80.4679814565255
 31
0.0
  0
LINE
  5
CFAD
330
1F
100
AcDbEntity
  8
AM_0
100
AcDbLine
 10
484.0573844171739
 20
93.86798355652551
 30
0.0
 11
484.0573844171739
 21
80.4679814565255
 31
0.0
  0
LINE
  5
CFAE
330
1F
100
AcDbEntity
  8
AM_0
100
AcDbLine
 10
484.057404417174
 20
80.46799545652552
 30
0.0
 11
485.6574144171741
 21
80.46799545652552
 31
0.0
  0
LINE
  5
CFAF
330
1F
100
AcDbEntity
  8
AM_0
100
AcDbLine
 10
450.6574024171741
 20
65.4679834565255
 30
0.0
 11
450.6574024171741
 21
63.86798545652553
 31
0.0
  0
LINE
  5
CFB0
330
1F
100
AcDbEntity
  8
AM_0
100
AcDbLine
 10
460.6574024171741
 20
85.4779894565255
 30
0.0
 11
459.057404417174
 21
85.4779894565255
 31
0.0
  0
LINE
  5
CFB1
330
1F
100
AcDbEntity
  8
AM_0
100
AcDbLine
 10
459.0573884171739
 20
85.4779894565255
 30
0.0
 11
459.0573884171739
 21
67.06798245652551
 31
0.0
  0
LINE
  5
CFB2
330
1F
100
AcDbEntity
  8
AM_0
100
AcDbLine
 10
459.057404417174
 20
67.06800745652549
 30
0.0
 11
429.0873994171739
 21
67.06800745652549
 31
0.0
  0
LINE
  5
CFB3
330
1F
100
AcDbEntity
  8
AM_0
100
AcDbLine
 10
429.0873994171739
 20
67.06798245652551
 30
0.0
 11
429.0873994171739
 21
65.4679834565255
 31
0.0
  0
LINE
  5
CFB4
330
1F
100
AcDbEntity
  8
0
  6
CENTER
 62
     7
100
AcDbLine
 10
435.6824004171738
 20
70.0292554565255
 30
0.0
 11
435.6824004171738
 21
60.8112684565255
 31
0.0
  0
LINE
  5
CFB5
330
1F
100
AcDbEntity
  8
AM_0
100
AcDbLine
 10
433.1849174171741
 20
67.06798245652551
 30
0.0
 11
433.1849174171741
 21
65.4679834565255
 31
0.0
  0
LINE
  5
CFB6
330
1F
100
AcDbEntity
  8
AM_0
100
AcDbLine
 10
438.1799094171739
 20
67.06798245652551
 30
0.0
 11
438.1799094171739
 21
65.4679834565255
 31
0.0
  0
ARC
  5
CFD8
330
1F
100
AcDbEntity
  8
AM_0
100
AcDbCircle
 10
193.984444417174
 20
357.6596504565255
 30
0.0
 40
1.665
100
AcDbArc
 50
90.0
 51
180.0
  0
ARC
  5
CFD9
330
1F
100
AcDbEntity
  8
AM_0
100
AcDbCircle
 10
193.984444417174
 20
335.9896504565255
 30
0.0
 40
1.665
100
AcDbArc
 50
180.0
 51
270.0
  0
ARC
  5
CFDA
102
{ACAD_REACTORS
330
E133
102
}
330
1F
100
AcDbEntity
  8
AM_0
100
AcDbCircle
 10
222.254464417174
 20
334.2596104565255
 30
0.0
 40
1.665
100
AcDbArc
 50
0.0
 51
90.0
  0
ARC
  5
CFDB
330
1F
100
AcDbEntity
  8
AM_0
100
AcDbCircle
 10
195.9844544171741
 20
302.6896304565255
 30
0.0
 40
1.665
100
AcDbArc
 50
90.0
 51
180.0
  0
ARC
  5
CFDC
330
1F
100
AcDbEntity
  8
AM_0
100
AcDbCircle
 10
195.9844544171741
 20
281.0196304565256
 30
0.0
 40
1.665
100
AcDbArc
 50
180.0
 51
270.0
  0
ARC
  5
CFDD
102
{ACAD_REACTORS
330
E133
102
}
330
1F
100
AcDbEntity
  8
AM_0
100
AcDbCircle
 10
222.254464417174
 20
304.4196304565255
 30
0.0
 40
1.665
100
AcDbArc
 50
270.0
 51
0.0
  0
ARC
  5
CFDE
330
1F
100
AcDbEntity
  8
AM_0
100
AcDbCircle
 10
222.254464417174
 20
279.2896204565256
 30
0.0
 40
1.665
100
AcDbArc
 50
0.0
 51
90.0
  0
ARC
  5
CFDF
330
1F
100
AcDbEntity
  8
AM_0
100
AcDbCircle
 10
195.9844544171741
 20
207.7596504565255
 30
0.0
 40
1.665
100
AcDbArc
 50
90.0
 51
180.0
  0
ARC
  5
CFE0
330
1F
100
AcDbEntity
  8
AM_0
100
AcDbCircle
 10
217.6544544171741
 20
207.7596504565255
 30
0.0
 40
1.665
100
AcDbArc
 50
0.0
 51
90.0
  0
ARC
  5
CFE1
330
1F
100
AcDbEntity
  8
AM_0
100
AcDbCircle
 10
341.772440417174
 20
70.13296345652553
 30
0.0
 40
1.665
100
AcDbArc
 50
180.0
 51
270.0
  0
ARC
  5
CFE2
330
1F
100
AcDbEntity
  8
AM_0
100
AcDbCircle
 10
341.772440417174
 20
91.80298665652552
 30
0.0
 40
1.665
100
AcDbArc
 50
90.0
 51
180.0
  0
ARC
  5
CFE3
330
1F
100
AcDbEntity
  8
AM_0
100
AcDbCircle
 10
312.7724344171741
 20
93.80298135652552
 30
0.0
 40
1.665
100
AcDbArc
 50
90.0
 51
180.0
  0
ARC
  5
CFE4
330
1F
100
AcDbEntity
  8
AM_0
100
AcDbCircle
 10
334.4424254171741
 20
93.80298135652552
 30
0.0
 40
1.665
100
AcDbArc
 50
359.9999799999996
 51
90.0
  0
ARC
  5
CFE5
330
1F
100
AcDbEntity
  8
AM_0
100
AcDbCircle
 10
336.1724404171742
 20
65.53299745652552
 30
0.0
 40
1.665
100
AcDbArc
 50
180.0
 51
270.0
  0
ARC
  5
CFE6
330
1F
100
AcDbEntity
  8
AM_0
100
AcDbCircle
 10
217.6544544171741
 20
102.8646278565255
 30
0.0
 40
1.665
100
AcDbArc
 50
270.0
 51
0.0
  0
ARC
  5
CFE7
330
1F
100
AcDbEntity
  8
AM_0
100
AcDbCircle
 10
195.9844544171741
 20
102.8646278565255
 30
0.0
 40
1.665
100
AcDbArc
 50
179.9999799999995
 51
270.0
  0
ARC
  5
CFE8
330
1F
100
AcDbEntity
  8
AM_0
100
AcDbCircle
 10
193.9844544171741
 20
72.86461645652551
 30
0.0
 40
1.665
100
AcDbArc
 50
180.0
 51
270.0
  0
ARC
  5
CFE9
330
1F
100
AcDbEntity
  8
AM_0
100
AcDbCircle
 10
193.9844544171741
 20
94.53462625652552
 30
0.0
 40
1.665
100
AcDbArc
 50
90.0
 51
179.9999700000002
  0
ARC
  5
CFEA
330
1F
100
AcDbEntity
  8
AM_0
100
AcDbCircle
 10
222.254464417174
 20
96.26461685652552
 30
0.0
 40
1.665
100
AcDbArc
 50
270.0
 51
0.0
  0
ARC
  5
CFEB
330
1F
100
AcDbEntity
  8
AM_0
100
AcDbCircle
 10
462.322411417174
 20
93.80298135652552
 30
0.0
 40
1.665
100
AcDbArc
 50
90.0
 51
179.9999799999995
  0
ARC
  5
CFEC
330
1F
100
AcDbEntity
  8
AM_0
100
AcDbCircle
 10
483.992384417174
 20
93.80298135652552
 30
0.0
 40
1.665
100
AcDbArc
 50
359.9999700000001
 51
90.0
  0
ARC
  5
CFED
330
1F
100
AcDbEntity
  8
AM_0
100
AcDbCircle
 10
460.5924004171741
 20
65.53299745652552
 30
0.0
 40
1.665
100
AcDbArc
 50
270.0
 51
0.0
  0
TEXT
  5
CFEE
330
1F
100
AcDbEntity
  8
AM_6
100
AcDbText
 10
342.7425064171741
 20
374.1335604565255
 30
0.0
 40
4.0
  1
外観図
 41
0.8553571699999999
100
AcDbText
  0
DIMENSION
  5
D3D2
330
1F
100
AcDbEntity
  8
AM_5
100
AcDbDimension
  2
*D5
 10
485.6574044171741
 20
120.4680044565253
 30
0.0
 11
473.157407917174
 21
123.5680044565252
 31
0.0
 70
    32
 71
     5
 42
24.99999300000008
  3
SYS$0
100
AcDbAlignedDimension
 13
460.6574114171739
 23
93.80298193772018
 33
0.0
 14
485.6574044171741
 24
93.80298135652552
 34
0.0
100
AcDbRotatedDimension
  0
DIMENSION
  5
D3E8
330
1F
100
AcDbEntity
  8
AM_5
100
AcDbDimension
  2
*D6
 10
391.122414417174
 20
120.4680044565253
 30
0.0
 11
425.389908417174
 21
123.5680044565253
 31
0.0
 70
    32
  1
給湯器取付開口
 71
     5
 42
69.53498800000009
  3
SYS$0
100
AcDbAlignedDimension
 13
460.6574024171741
 23
93.80298135652552
 33
0.0
 14
391.122414417174
 24
95.46799465652552
 34
0.0
100
AcDbRotatedDimension
1001
ACAD
1000
DSTYLE
1002
{
1070
    76
1070
     1
1070
   173
1070
     1
1070
   342
1005
0
1070
   343
1005
6C4
1070
   344
1005
C3FD
1002
}
  0
DIMENSION
  5
D448
330
1F
100
AcDbEntity
  8
AM_5
100
AcDbDimension
  2
*D7
 10
365.1074261171741
 20
105.4679999565253
 30
0.0
 11
352.6074242671742
 21
108.5679999565253
 31
0.0
 70
    32
 71
     5
 42
25.00000369999998
  3
SYS$0
100
AcDbAlignedDimension
 13
340.1074224171741
 23
91.80297375652552
 33
0.0
 14
365.1074261171741
 24
93.46797465652551
 34
0.0
100
AcDbRotatedDimension
  0
DIMENSION
  5
D45E
330
1F
100
AcDbEntity
  8
AM_5
100
AcDbDimension
  2
*D8
 10
336.1074254171739
 20
120.4680044565253
 30
0.0
 11
338.107423917174
 21
120.4680044565253
 31
0.0
 70
   160
 71
     5
 42
3.999997000000178
  3
SYS$0
100
AcDbAlignedDimension
 13
340.1074224171741
 23
91.80297375652552
 33
0.0
 14
336.1074254171739
 24
93.80298077533087
 34
0.0
100
AcDbRotatedDimension
  0
DIMENSION
  5
D478
330
1F
100
AcDbEntity
  8
AM_5
100
AcDbDimension
  2
*D9
 10
311.107434417174
 20
120.4680044565255
 30
0.0
 11
323.607429917174
 21
123.5680044565255
 31
0.0
 70
    32
 71
     5
 42
24.99999099999991
  3
SYS$0
100
AcDbAlignedDimension
 13
336.1074254171739
 23
93.80298077533087
 33
0.0
 14
311.107434417174
 24
93.80298135652552
 34
0.0
 50
0.0000000000000114
100
AcDbRotatedDimension
  0
DIMENSION
  5
D4D1
330
1F
100
AcDbEntity
  8
AM_5
100
AcDbDimension
  2
*D10
 10
384.462411417174
 20
120.4680044565253
 30
0.0
 11
362.7849169171741
 21
123.5680044565253
 31
0.0
 70
    32
  1
DW
 71
     5
 42
44.35498899999993
  3
SYS$0
100
AcDbAlignedDimension
 13
340.1074224171741
 23
91.80297375652552
 33
0.0
 14
384.462411417174
 24
95.46799465652552
 34
0.0
100
AcDbRotatedDimension
1001
ACAD
1000
DSTYLE
1002
{
1070
    76
1070
     1
1070
   173
1070
     1
1070
   342
1005
0
1070
   343
1005
6C4
1070
   344
1005
C3FD
1002
}
  0
DIMENSION
  5
D530
330
1F
100
AcDbEntity
  8
AM_5
100
AcDbDimension
  2
*D11
 10
497.6574144171741
 20
95.46798135652551
 30
0.0
 11
494.557414417174
 21
87.96798840652561
 31
0.0
 70
    32
 71
     5
 42
14.99998590000001
  3
SYS$0
100
AcDbAlignedDimension
 13
485.6574144171741
 23
80.46799545652552
 33
0.0
 14
483.992384417174
 24
95.46798135652551
 34
0.0
 50
90.00000000000005
100
AcDbRotatedDimension
  0
DIMENSION
  5
D546
330
1F
100
AcDbEntity
  8
AM_5
100
AcDbDimension
  2
*D12
 10
460.6574024171741
 20
41.86798545652552
 30
0.0
 11
455.6574024171741
 21
44.96798545652552
 31
0.0
 70
    32
 71
     5
 42
10.0
  3
SYS$0
100
AcDbAlignedDimension
 13
450.6574024171741
 23
63.86798545652553
 33
0.0
 14
460.6574024171741
 24
65.4679834565255
 34
0.0
 50
0.0000000000001132
100
AcDbRotatedDimension
  0
DIMENSION
  5
D57B
330
1F
100
AcDbEntity
  8
AM_5
100
AcDbDimension
  2
*D13
 10
391.122414417174
 20
51.86798545652518
 30
0.0
 11
412.902407417174
 21
54.96798545652517
 31
0.0
 70
    32
  1
給湯器取付ピッチ
 71
     5
 42
44.55998599999998
  3
SYS$0
100
AcDbAlignedDimension
 13
435.6824004171738
 23
60.8112684565255
 33
0.0
 14
391.122414417174
 24
63.86801145652553
 34
0.0
 50
0.0000000000001132
100
AcDbRotatedDimension
1001
ACAD
1000
DSTYLE
1002
{
1070
    76
1070
     1
1070
   173
1070
     1
1070
   342
1005
0
1070
   343
1005
6C4
1070
   344
1005
C3FD
1002
}
  0
DIMENSION
  5
D5C6
330
1F
100
AcDbEntity
  8
AM_5
100
AcDbDimension
  2
*D14
 10
346.1074244171742
 20
41.86798545652492
 30
0.0
 11
398.3824134171741
 21
44.96798545652493
 31
0.0
 70
    32
  1
W
 71
     5
 42
104.549978
  3
SYS$0
100
AcDbAlignedDimension
 13
450.6574024171741
 23
63.86798545652553
 33
0.0
 14
346.1074244171742
 24
63.86798545652553
 34
0.0
 50
0.0000000000001132
100
AcDbRotatedDimension
  0
DIMENSION
  5
D5E5
330
1F
100
AcDbEntity
  8
AM_5
100
AcDbDimension
  2
*D15
 10
336.1074074171741
 20
41.86798545652467
 30
0.0
 11
341.1074159171741
 21
44.96798545652468
 31
0.0
 70
    32
 71
     5
 42
10.00001700000007
  3
SYS$0
100
AcDbAlignedDimension
 13
346.1074244171742
 23
63.86798545652553
 33
0.0
 14
336.1074074171741
 24
65.4679834565255
 34
0.0
 50
0.0000000000001132
100
AcDbRotatedDimension
  0
DIMENSION
  5
D5FB
330
1F
100
AcDbEntity
  8
AM_5
100
AcDbDimension
  2
*D16
 10
250.4194544171742
 20
96.1996143565255
 30
0.0
 11
247.3194544171742
 21
101.1996142065255
 31
0.0
 70
    32
 71
     5
 42
9.999999700000003
  3
SYS$0
100
AcDbAlignedDimension
 13
223.9194444171741
 23
106.1996140565255
 33
0.0
 14
222.319454417174
 24
96.19961435652552
 34
0.0
 50
90.00000000000005
100
AcDbRotatedDimension
  0
DIMENSION
  5
D611
330
1F
100
AcDbEntity
  8
AM_5
100
AcDbDimension
  2
*D17
 10
250.4194544171743
 20
324.3246104565255
 30
0.0
 11
247.3194544171742
 21
215.2621122565256
 31
0.0
 70
    32
  1
H
 71
     5
 42
218.1249964
  3
SYS$0
100
AcDbAlignedDimension
 13
223.9194444171741
 23
106.1996140565255
 33
0.0
 14
223.919454417174
 24
324.3246104565255
 34
0.0
 50
90.00000000000005
100
AcDbRotatedDimension
  0
DIMENSION
  5
D627
330
1F
100
AcDbEntity
  8
AM_5
100
AcDbDimension
  2
*D18
 10
250.4194544171744
 20
334.3246404565255
 30
0.0
 11
250.4194544171744
 21
329.3061404565256
 31
0.0
 70
   160
 71
     5
 42
10.00002999999992
  3
SYS$0
100
AcDbAlignedDimension
 13
223.919454417174
 23
324.3246104565255
 33
0.0
 14
222.319464417174
 24
334.3246404565255
 34
0.0
 50
90.0
100
AcDbRotatedDimension
1001
ACAD
1000
DSTYLE
1002
{
1070
   271
1070
     1
1002
}
  0
DIMENSION
  5
D67E
330
1F
100
AcDbEntity
  8
AM_5
100
AcDbDimension
  2
*D19
 10
240.4194544171743
 20
314.3546304565256
 30
0.0
 11
237.3194544171742
 21
319.3396204565256
 31
0.0
 70
    32
  1
163
 71
     5
 42
9.969979999999962
  3
SYS$0
100
AcDbAlignedDimension
 13
223.919454417174
 23
324.3246104565255
 33
0.0
 14
223.919454417174
 24
314.3546304565256
 34
0.0
 50
90.0
100
AcDbRotatedDimension
  0
DIMENSION
  5
D69E
330
1F
100
AcDbEntity
  8
AM_5
100
AcDbDimension
  2
*D20
 10
240.4194544171741
 20
304.3546104565255
 30
0.0
 11
237.3194544171741
 21
309.3546204565256
 31
0.0
 70
    32
 71
     5
 42
10.00002000000006
  3
SYS$0
100
AcDbAlignedDimension
 13
223.9194444171741
 23
314.3546304565256
 33
0.0
 14
222.319464417174
 24
304.3546104565255
 34
0.0
 50
90.00000000000005
100
AcDbRotatedDimension
  0
DIMENSION
  5
D6B4
330
1F
100
AcDbEntity
  8
AM_5
100
AcDbDimension
  2
*D21
 10
240.4194544171741
 20
219.4146250507063
 30
0.0
 11
237.3194544171741
 21
241.0596227536159
 31
0.0
 70
    32
  1
給湯器取付ピッチ
 71
     5
 42
43.28999540581921
  3
SYS$0
100
AcDbAlignedDimension
 13
226.9194544171741
 23
262.7046204565255
 33
0.0
 14
226.9194544171705
 24
219.4146250507063
 34
0.0
 50
90.00000000000005
100
AcDbRotatedDimension
  0
LINE
  5
D6E4
330
1F
100
AcDbEntity
  8
AM_7
 48
0.5
100
AcDbLine
 10
217.7194644171741
 20
262.7046204565255
 30
0.0
 11
226.9194544171741
 21
262.7046204565255
 31
0.0
1001
GENIUS_GENODEF_13
1002
{
1000
HIER
1070
     0
1002
}
1002
{
1000
MANEDIT
1070
     0
1002
}
1002
{
1000
NOSEL
1070
     0
1002
}
1002
{
1000
BEHIND
1070
     0
1002
}
1002
{
1000
OTHER
1070
     0
1002
}
1002
{
1000
REACTOR
1002
}
1001
GENIUS_GENOBJ-N-CEN_13
1002
{
1000
OWNER
1000
GEN
1002
}
1001
GENIUS_GENCEN_19
1002
{
1040
3.0
1002
}
  0
LINE
  5
D6E5
330
1F
100
AcDbEntity
  8
AM_7
 48
0.5
100
AcDbLine
 10
217.6544544171776
 20
219.4146108623447
 30
0.0
 11
226.9194544171705
 21
219.4146250507063
 31
0.0
1001
GENIUS_GENODEF_13
1002
{
1000
HIER
1070
     0
1002
}
1002
{
1000
MANEDIT
1070
     0
1002
}
1002
{
1000
NOSEL
1070
     0
1002
}
1002
{
1000
BEHIND
1070
     0
1002
}
1002
{
1000
OTHER
1070
     0
1002
}
1002
{
1000
REACTOR
1002
}
1001
GENIUS_GENOBJ-N-CEN_13
1002
{
1000
OWNER
1000
GEN
1002
}
1001
GENIUS_GENCEN_19
1002
{
1040
3.0
1002
}
  0
DIMENSION
  5
D6F8
330
1F
100
AcDbEntity
  8
AM_5
100
AcDbDimension
  2
*D22
 10
192.319454417174
 20
59.19960845652551
 30
0.0
 11
199.819459417174
 21
62.2996084565255
 31
0.0
 70
    32
 71
     5
 42
15.00000999999997
  3
SYS$0
100
AcDbAlignedDimension
 13
207.319464417174
 23
71.19960845652551
 33
0.0
 14
192.319454417174
 24
72.8646224565255
 34
0.0
 50
0.0000000000001132
100
AcDbRotatedDimension
  0
DIMENSION
  5
D70E
330
1F
100
AcDbEntity
  8
AM_5
100
AcDbDimension
  2
*D23
 10
182.319454417174
 20
126.1996144565255
 30
0.0
 11
179.219454417174
 21
113.6996211565255
 31
0.0
 70
    32
 71
     5
 42
24.99998660000001
  3
SYS$0
100
AcDbAlignedDimension
 13
195.9844544171741
 23
101.1996278565255
 33
0.0
 14
194.319454417174
 24
126.1996144565255
 34
0.0
 50
90.00000000000005
100
AcDbRotatedDimension
  0
DIMENSION
  5
D778
330
1F
100
AcDbEntity
  8
AM_5
100
AcDbDimension
  2
*D24
 10
222.319464417174
 20
177.8447994565255
 30
0.0
 11
226.5661310838407
 21
180.9447994565255
 31
0.0
 70
    32
 71
     5
 42
3.000009999999973
  3
SYS$0
100
AcDbAlignedDimension
 13
219.319454417174
 23
179.4871159565255
 33
0.0
 14
222.319464417174
 24
179.4871159565255
 34
0.0
 50
0.0000000000001132
100
AcDbRotatedDimension
  0
DIMENSION
  5
D792
330
1F
100
AcDbEntity
  8
AM_5
100
AcDbDimension
  2
*D25
 10
192.319454417174
 20
177.8447994565255
 30
0.0
 11
188.0727877505073
 21
180.9447994565255
 31
0.0
 70
    32
 71
     5
 42
2.0
  3
SYS$0
100
AcDbAlignedDimension
 13
194.319454417174
 23
179.4871159565255
 33
0.0
 14
192.319454417174
 24
179.4871159565255
 34
0.0
 50
0.0000000000001132
100
AcDbRotatedDimension
  0
DIMENSION
  5
D7AC
330
1F
100
AcDbEntity
  8
AM_5
100
AcDbDimension
  2
*D26
 10
219.319454417174
 20
177.8447994565253
 30
0.0
 11
206.819454417174
 21
180.9447994565253
 31
0.0
 70
    32
 71
     5
 42
25.0
  3
SYS$0
100
AcDbAlignedDimension
 13
194.319454417174
 23
179.4871159565255
 33
0.0
 14
219.319454417174
 24
179.4871159565255
 34
0.0
 50
0.0000000000001132
100
AcDbRotatedDimension
  0
DIMENSION
  5
D7C2
330
1F
100
AcDbEntity
  8
AM_5
100
AcDbDimension
  2
*D27
 10
192.319454417174
 20
165.2262154565254
 30
0.0
 11
207.319459417174
 21
168.3262154565254
 31
0.0
 70
    32
 71
     5
 42
30.00000999999997
  3
SYS$0
100
AcDbAlignedDimension
 13
222.319464417174
 23
162.119928833848
 33
0.0
 14
192.319454417174
 24
162.0667179239181
 34
0.0
100
AcDbRotatedDimension
  0
DIMENSION
  5
D7EA
330
1F
100
AcDbEntity
  8
AM_5
100
AcDbDimension
  2
*D28
 10
172.319454417174
 20
96.19961435652552
 30
0.0
 11
169.219454417174
 21
98.69961430652551
 31
0.0
 70
    32
 71
     5
 42
4.99999989999999
  3
SYS$0
100
AcDbAlignedDimension
 13
195.984444417174
 23
101.1996142565255
 33
0.0
 14
193.984444417174
 24
96.19961435652552
 34
0.0
 50
90.00000000000005
100
AcDbRotatedDimension
  0
DIMENSION
  5
D804
330
1F
100
AcDbEntity
  8
AM_5
100
AcDbDimension
  2
*D29
 10
172.319454417174
 20
71.19962745652552
 30
0.0
 11
169.219454417174
 21
83.69962685652554
 31
0.0
 70
    32
 71
     5
 42
24.9999988
  3
SYS$0
100
AcDbAlignedDimension
 13
193.9844544171741
 23
96.19962625652553
 33
0.0
 14
193.984444417174
 24
71.19962745652552
 34
0.0
 50
90.00000000000005
100
AcDbRotatedDimension
  0
DIMENSION
  5
D81A
330
1F
100
AcDbEntity
  8
AM_5
100
AcDbDimension
  2
*D30
 10
172.319454417174
 20
209.4246504565255
 30
0.0
 11
169.219454417174
 21
155.3121391565255
 31
0.0
 70
    32
  1
DH
 71
     5
 42
108.2250226
  3
SYS$0
100
AcDbAlignedDimension
 13
195.9844544171741
 23
101.1996278565255
 33
0.0
 14
195.9844544171741
 24
209.4246504565255
 34
0.0
 50
90.00000000000005
100
AcDbRotatedDimension
  0
DIMENSION
  5
D851
330
1F
100
AcDbEntity
  8
AM_5
100
AcDbDimension
  2
*D31
 10
182.319454417174
 20
151.2146114565255
 30
0.0
 11
179.2194544171739
 21
139.2071109565255
 31
0.0
 70
    32
  1
163
 71
     5
 42
25.01500100000003
  3
SYS$0
100
AcDbAlignedDimension
 13
194.319454417174
 23
126.1996104565255
 33
0.0
 14
194.319454417174
 24
151.2146114565255
 34
0.0
 50
90.0
100
AcDbRotatedDimension
1001
ACAD
1000
DSTYLE
1002
{
1070
    76
1070
     1
1070
   173
1070
     1
1070
   342
1005
0
1070
   343
1005
6C4
1070
   344
1005
C3FD
1002
}
  0
DIMENSION
  5
D88E
330
1F
100
AcDbEntity
  8
AM_5
100
AcDbDimension
  2
*D32
 10
172.319454417174
 20
279.3546304565255
 30
0.0
 11
169.219454417174
 21
244.3896404565256
 31
0.0
 70
    32
  1
給湯器取付開口
 71
     5
 42
69.92998000000003
  3
SYS$0
100
AcDbAlignedDimension
 13
195.9844544171741
 23
209.4246504565255
 33
0.0
 14
195.9844544171741
 24
279.3546304565255
 34
0.0
 50
90.00000000000005
100
AcDbRotatedDimension
  0
DIMENSION
  5
D8C6
330
1F
100
AcDbEntity
  8
AM_5
100
AcDbDimension
  2
*D33
 10
172.319454417174
 20
304.3546304565255
 30
0.0
 11
169.219454417174
 21
291.8546304565256
 31
0.0
 70
    32
 71
     5
 42
25.0
  3
SYS$0
100
AcDbAlignedDimension
 13
195.984444417174
 23
279.3546304565255
 33
0.0
 14
195.984444417174
 24
304.3546304565255
 34
0.0
 50
90.00000000000005
100
AcDbRotatedDimension
  0
DIMENSION
  5
D8DC
330
1F
100
AcDbEntity
  8
AM_5
100
AcDbDimension
  2
*D34
 10
172.319454417174
 20
334.3246104565255
 30
0.0
 11
169.219454417174
 21
319.3396204565256
 31
0.0
 70
    32
  1
183
 71
     5
 42
29.96998000000002
  3
SYS$0
100
AcDbAlignedDimension
 13
195.9844544171741
 23
304.3546304565255
 33
0.0
 14
193.984444417174
 24
334.3246104565255
 34
0.0
 50
90.00000000000005
100
AcDbRotatedDimension
  0
DIMENSION
  5
D8F2
330
1F
100
AcDbEntity
  8
AM_5
100
AcDbDimension
  2
*D35
 10
172.319454417174
 20
359.3246504565255
 30
0.0
 11
169.219454417174
 21
346.8246304565257
 31
0.0
 70
    32
 71
     5
 42
25.00004000000001
  3
SYS$0
100
AcDbAlignedDimension
 13
193.984444417174
 23
334.3246104565255
 33
0.0
 14
193.984444417174
 24
359.3246504565255
 34
0.0
 50
90.00000000000005
100
AcDbRotatedDimension
  0
POINT
  5
DF69
330
1F
100
AcDbEntity
  8
AM_0
100
AcDbPoint
 10
431.1142722977292
 20
379.5346204565257
 30
0.0
  0
POINT
  5
DF6A
330
1F
100
AcDbEntity
  8
AM_0
100
AcDbPoint
 10
431.1142722977292
 20
379.5346204565257
 30
0.0
  0
LINE
  5
DF6B
102
{ACAD_REACTORS
330
E074
102
}
330
1F
100
AcDbEntity
  8
AM_0
100
AcDbLine
 10
425.7862732977291
 20
219.6946204565255
 30
0.0
 11
425.7862732977291
 21
204.7096204565255
 31
0.0
  0
LINE
  5
DF6C
330
1F
100
AcDbEntity
  8
AM_0
100
AcDbLine
 10
428.7832712977292
 20
211.0366204565255
 30
0.0
 11
428.7832712977292
 21
201.7126304565255
 31
0.0
  0
LINE
  5
DF6D
330
1F
100
AcDbEntity
  8
AM_0
100
AcDbLine
 10
386.1592846977292
 20
252.9946304565255
 30
0.0
 11
386.1592846977292
 21
246.3346204565255
 31
0.0
  0
LINE
  5
DF6E
102
{ACAD_REACTORS
330
E074
102
}
330
1F
100
AcDbEntity
  8
AM_0
100
AcDbLine
 10
384.8272846977293
 20
219.6946204565255
 30
0.0
 11
384.8272846977293
 21
204.7096204565255
 31
0.0
  0
LINE
  5
DF6F
330
1F
100
AcDbEntity
  8
AM_0
100
AcDbLine
 10
389.4892831977293
 20
252.9946304565255
 30
0.0
 11
389.4892831977293
 21
246.3346204565255
 31
0.0
  0
LINE
  5
DF70
330
1F
100
AcDbEntity
  8
AM_11
100
AcDbLine
 10
383.1622750777292
 20
356.8906104565255
 30
0.0
 11
427.4512822977292
 21
298.6156104565255
 31
0.0
  0
LINE
  5
DF71
330
1F
100
AcDbEntity
  8
AM_11
100
AcDbLine
 10
383.1622750777292
 20
298.6156104565255
 30
0.0
 11
427.4512822977292
 21
356.8906104565255
 31
0.0
  0
LINE
  5
DF72
102
{ACAD_REACTORS
330
E074
102
}
330
1F
100
AcDbEntity
  8
AM_0
100
AcDbLine
 10
384.8272846977293
 20
219.6946204565255
 30
0.0
 11
425.7862732977291
 21
219.6946204565255
 31
0.0
  0
LINE
  5
DF73
102
{ACAD_REACTORS
330
E074
102
}
330
1F
100
AcDbEntity
  8
AM_0
100
AcDbLine
 10
384.8272846977293
 20
204.7096204565255
 30
0.0
 11
425.7862732977291
 21
204.7096204565255
 31
0.0
  0
LINE
  5
DF74
330
1F
100
AcDbEntity
  8
AM_0
100
AcDbLine
 10
379.4992845977292
 20
379.5346204565257
 30
0.0
 11
379.4992845977292
 21
199.3816304565255
 31
0.0
  0
LINE
  5
DF75
330
1F
100
AcDbEntity
  8
AM_0
100
AcDbLine
 10
431.1142722977292
 20
379.5346204565257
 30
0.0
 11
431.1142722977292
 21
199.3816304565255
 31
0.0
  0
LINE
  5
DF76
330
1F
100
AcDbEntity
  8
AM_0
100
AcDbLine
 10
379.4992845977292
 20
379.5346204565257
 30
0.0
 11
431.1142722977292
 21
379.5346204565257
 31
0.0
  0
LINE
  5
DF77
330
1F
100
AcDbEntity
  8
AM_0
100
AcDbLine
 10
379.4992845977292
 20
199.3816304565255
 30
0.0
 11
431.1142722977292
 21
199.3816304565255
 31
0.0
  0
LINE
  5
DF78
330
1F
100
AcDbEntity
  8
AM_0
100
AcDbLine
 10
427.118274297729
 20
218.6956204565255
 30
0.0
 11
427.118274297729
 21
211.0366204565255
 31
0.0
  0
LINE
  5
DF79
330
1F
100
AcDbEntity
  8
AM_0
100
AcDbLine
 10
381.8302838177292
 20
377.2036204565255
 30
0.0
 11
381.8302838177292
 21
201.7126304565255
 31
0.0
  0
LINE
  5
DF7A
330
1F
100
AcDbEntity
  8
AM_0
100
AcDbLine
 10
381.8302838177292
 20
377.2036204565255
 30
0.0
 11
428.7832712977292
 21
377.2036204565255
 31
0.0
  0
LINE
  5
DF7B
330
1F
100
AcDbEntity
  8
AM_0
100
AcDbLine
 10
428.7832712977292
 20
377.2036204565255
 30
0.0
 11
428.7832712977292
 21
289.2916204565255
 31
0.0
  0
LINE
  5
DF7C
330
1F
100
AcDbEntity
  8
AM_0
100
AcDbLine
 10
381.8302838177292
 20
360.5536004565255
 30
0.0
 11
428.7832712977292
 21
360.5536004565255
 31
0.0
  0
LINE
  5
DF7D
102
{ACAD_REACTORS
330
E074
102
}
330
1F
100
AcDbEntity
  8
AM_0
100
AcDbLine
 10
383.1622838377291
 20
375.8716204565256
 30
0.0
 11
427.4512742977291
 21
375.8716204565256
 31
0.0
  0
LINE
  5
DF7E
102
{ACAD_REACTORS
330
E074
102
}
330
1F
100
AcDbEntity
  8
AM_0
100
AcDbLine
 10
383.1622838377291
 20
375.8716204565256
 30
0.0
 11
383.1622838377291
 21
361.8856004565255
 31
0.0
  0
LINE
  5
DF7F
102
{ACAD_REACTORS
330
E074
102
}
330
1F
100
AcDbEntity
  8
AM_0
100
AcDbLine
 10
383.1622838377291
 20
361.8856004565255
 30
0.0
 11
427.4512742977291
 21
361.8856004565255
 31
0.0
  0
LINE
  5
DF80
102
{ACAD_REACTORS
330
E074
102
}
330
1F
100
AcDbEntity
  8
AM_0
100
AcDbLine
 10
427.4512742977291
 20
375.8716204565256
 30
0.0
 11
427.4512742977291
 21
361.8856004565255
 31
0.0
  0
LINE
  5
DF81
330
1F
100
AcDbEntity
  8
AM_0
100
AcDbLine
 10
381.8302838177292
 20
358.2226104565255
 30
0.0
 11
428.7832712977292
 21
358.2226104565255
 31
0.0
  0
LINE
  5
DF82
330
1F
100
AcDbEntity
  8
AM_0
100
AcDbLine
 10
382.4962790577292
 20
297.9496104565255
 30
0.0
 11
428.1172752977291
 21
297.9496104565255
 31
0.0
  0
LINE
  5
DF83
330
1F
100
AcDbEntity
  8
AM_0
100
AcDbLine
 10
428.1172752977291
 20
297.9496104565255
 30
0.0
 11
428.1172752977291
 21
289.2916204565255
 31
0.0
  0
LINE
  5
DF84
330
1F
100
AcDbEntity
  8
AM_0
100
AcDbLine
 10
382.4962790577292
 20
297.9496104565255
 30
0.0
 11
382.4962790577292
 21
202.3786204565255
 31
0.0
  0
LINE
  5
DF85
330
1F
100
AcDbEntity
  8
AM_0
100
AcDbLine
 10
383.1622742977292
 20
356.8906104565255
 30
0.0
 11
427.4512782977291
 21
356.8906104565255
 31
0.0
  0
LINE
  5
DF86
330
1F
100
AcDbEntity
  8
AM_0
100
AcDbLine
 10
383.1622742977292
 20
356.8906104565255
 30
0.0
 11
383.1622742977292
 21
298.6156104565255
 31
0.0
  0
LINE
  5
DF87
330
1F
100
AcDbEntity
  8
AM_0
100
AcDbLine
 10
427.4512782977291
 20
356.8906104565255
 30
0.0
 11
427.4512782977291
 21
298.6156104565255
 31
0.0
  0
LINE
  5
DF88
330
1F
100
AcDbEntity
  8
AM_0
100
AcDbLine
 10
427.118274297729
 20
289.2916204565255
 30
0.0
 11
429.782268297729
 21
289.2916204565255
 31
0.0
  0
LINE
  5
DF89
330
1F
100
AcDbEntity
  8
AM_0
100
AcDbLine
 10
383.1622742977292
 20
298.6156104565255
 30
0.0
 11
427.4512782977291
 21
298.6156104565255
 31
0.0
  0
LINE
  5
DF8A
330
1F
100
AcDbEntity
  8
AM_0
100
AcDbLine
 10
427.118274297729
 20
281.6326304565255
 30
0.0
 11
427.118274297729
 21
289.2916204565255
 31
0.0
  0
LINE
  5
DF8B
330
1F
100
AcDbEntity
  8
AM_0
100
AcDbLine
 10
428.7832712977292
 20
281.6326304565255
 30
0.0
 11
428.7832712977292
 21
218.6956204565255
 31
0.0
  0
LINE
  5
DF8C
330
1F
100
AcDbEntity
  8
AM_0
100
AcDbLine
 10
428.1172752977291
 20
281.6326304565255
 30
0.0
 11
428.1172752977291
 21
218.6956204565255
 31
0.0
  0
LINE
  5
DF8D
330
1F
100
AcDbEntity
  8
AM_0
100
AcDbLine
 10
429.782268297729
 20
281.6326304565255
 30
0.0
 11
429.782268297729
 21
289.2916204565255
 31
0.0
  0
LINE
  5
DF8E
330
1F
100
AcDbEntity
  8
AM_0
100
AcDbLine
 10
427.118274297729
 20
281.6326304565255
 30
0.0
 11
429.782268297729
 21
281.6326304565255
 31
0.0
  0
LINE
  5
DF8F
330
1F
100
AcDbEntity
  8
AM_11
100
AcDbLine
 10
382.4962784877291
 20
297.9496304565255
 30
0.0
 11
428.1172752977291
 21
250.1641204565255
 31
0.0
  0
LINE
  5
DF90
102
{ACAD_REACTORS
330
E074
102
}
330
1F
100
AcDbEntity
  8
AM_11
100
AcDbLine
 10
428.1172782977291
 20
250.1641404565255
 30
0.0
 11
382.4962815877293
 21
202.3786304565255
 31
0.0
  0
LINE
  5
DF91
330
1F
100
AcDbEntity
  8
AM_0
100
AcDbLine
 10
381.8302838177292
 20
201.7126304565255
 30
0.0
 11
428.7832712977292
 21
201.7126304565255
 31
0.0
  0
LINE
  5
DF92
330
1F
100
AcDbEntity
  8
AM_0
100
AcDbLine
 10
429.782268297729
 20
218.6956204565255
 30
0.0
 11
429.782268297729
 21
211.0366204565255
 31
0.0
  0
LINE
  5
DF93
330
1F
100
AcDbEntity
  8
AM_0
100
AcDbLine
 10
386.1592846977292
 20
252.9946304565255
 30
0.0
 11
389.4892831977293
 21
252.9946304565255
 31
0.0
  0
LINE
  5
DF94
330
1F
100
AcDbEntity
  8
AM_0
100
AcDbLine
 10
386.1592846977292
 20
246.3346204565255
 30
0.0
 11
389.4892831977293
 21
246.3346204565255
 31
0.0
  0
LINE
  5
DF95
330
1F
100
AcDbEntity
  8
AM_0
100
AcDbLine
 10
428.1172752977291
 20
211.0366204565255
 30
0.0
 11
428.1172752977291
 21
202.3786204565255
 31
0.0
  0
LINE
  5
DF96
330
1F
100
AcDbEntity
  8
AM_0
100
AcDbLine
 10
382.4962790577292
 20
202.3786204565255
 30
0.0
 11
428.1172752977291
 21
202.3786204565255
 31
0.0
  0
LINE
  5
DF97
330
1F
100
AcDbEntity
  8
AM_0
100
AcDbLine
 10
427.118274297729
 20
218.6956204565255
 30
0.0
 11
429.782268297729
 21
218.6956204565255
 31
0.0
  0
LINE
  5
DF98
330
1F
100
AcDbEntity
  8
AM_0
100
AcDbLine
 10
427.118274297729
 20
211.0366204565255
 30
0.0
 11
429.782268297729
 21
211.0366204565255
 31
0.0
  0
DIMENSION
  5
DFF3
330
1F
100
AcDbEntity
  8
AM_5
100
AcDbDimension
  2
*D36
 10
428.1172752977291
 20
184.381634456526
 30
0.0
 11
405.3067771777292
 21
187.481634456526
 31
0.0
 70
    32
  1
W
 71
     5
 42
45.62099624000007
  3
SYS$0
100
AcDbAlignedDimension
 13
382.4962790577292
 23
202.3786204565255
 33
0.0
 14
428.1172752977291
 24
202.3786204565255
 34
0.0
 50
0.0000000000001132
100
AcDbRotatedDimension
  0
DIMENSION
  5
E01A
330
1F
100
AcDbEntity
  8
AM_5
100
AcDbDimension
  2
*D37
 10
446.1142882977293
 20
375.8716204565256
 30
0.0
 11
443.0142882977293
 21
289.1251204565256
 31
0.0
 70
    32
  1
H
 71
     5
 42
173.493
  3
SYS$0
100
AcDbAlignedDimension
 13
428.1172752977291
 23
202.3786204565255
 33
0.0
 14
427.4512742977291
 24
375.8716204565256
 34
0.0
 50
90.0
100
AcDbRotatedDimension
  0
HATCH
  5
E074
330
1F
100
AcDbEntity
  8
AM_2
100
AcDbHatch
 10
0.0
 20
0.0
 30
0.0
210
0.0
220
0.0
230
1.0
  2
ANSI37
 70
     0
 71
     1
 91
        3
 92
        7
 72
     0
 73
     1
 93
        4
 10
427.4512742977291
 20
375.8716204565256
 10
383.1622838377291
 20
375.8716204565256
 10
383.1622838377291
 20
361.8856004565255
 10
427.4512742977291
 20
361.8856004565255
 97
        4
330
DF7D
330
DF7E
330
DF7F
330
DF80
 92
        7
 72
     0
 73
     1
 93
        5
 10
425.7862732977291
 20
219.6946204565255
 10
399.0279189568898
 20
219.6946204565255
 10
384.8272846977292
 20
204.8202292916188
 10
384.8272846977293
 20
204.7096204565256
 10
425.7862732977291
 20
204.7096204565255
 97
        5
330
DF72
330
DF90
330
DF6E
330
DF73
330
DF6B
 92
       23
 72
     0
 73
     1
 93
        3
 10
399.0279189568898
 20
219.6946204565255
 10
384.8272846977293
 20
219.6946204565255
 10
384.8272846977292
 20
204.820229291619
 97
        3
330
DF72
330
DF6E
330
DF90
 75
     0
 76
     1
 52
0.0
 41
1.0
 77
     0
 78
     2
 53
45.0
 43
0.0
 44
0.0
 45
-2.245064030267287
 46
2.245064030267287
 79
     0
 53
135.0
 43
0.0
 44
0.0
 45
-2.245064030267287
 46
-2.245064030267287
 79
     0
 47
0.0940222489650273
 98
        3
 10
413.9437229111298
 20
369.187143514906
 10
415.0586551999499
 20
209.3250684844889
 10
391.0773358781157
 20
215.5305372379666
1001
ACAD
1010
0.0
1020
0.0
1030
0.0
  0
LINE
  5
E0BF
330
1F
100
AcDbEntity
  8
AM_6
100
AcDbLine
 10
34.32670054438677
 20
401.3068150848014
 30
0.0
 11
37.0431729515617
 21
401.3068150848014
 31
0.0
  0
LINE
  5
E0C0
330
1F
100
AcDbEntity
  8
AM_6
100
AcDbLine
 10
34.32670054438677
 20
397.9009630829866
 30
0.0
 11
37.0431729515617
 21
397.9009630829866
 31
0.0
  0
LINE
  5
E0C1
330
1F
100
AcDbEntity
  8
AM_6
100
AcDbLine
 10
35.68493674797423
 20
401.3068150848014
 30
0.0
 11
35.68493674797423
 21
397.9009630829866
 31
0.0
  0
LINE
  5
E0CA
330
1F
100
AcDbEntity
  8
AM_6
100
AcDbLine
 10
34.93493674797424
 20
401.3068150848014
 30
0.0
 11
34.93493674797424
 21
397.9009630829866
 31
0.0
  0
LINE
  5
E0CB
330
1F
100
AcDbEntity
  8
AM_6
100
AcDbLine
 10
36.43493674797424
 20
401.3068150848014
 30
0.0
 11
36.43493674797424
 21
397.9009630829866
 31
0.0
  0
SPLINE
  5
E0DA
102
{ACAD_REACTORS
330
E133
102
}
330
1F
100
AcDbEntity
  8
AM_2
100
AcDbSpline
210
0.0
220
0.0
230
1.0
 70
     8
 71
     3
 72
    10
 73
     6
 74
     4
 42
0.0000000001
 43
0.0000000001
 44
0.0000000001
 40
0.0
 40
0.0
 40
0.0
 40
0.0
 40
2.599569909576043
 40
5.399515127637107
 40
7.302616570902966
 40
7.302616570902966
 40
7.302616570902966
 40
7.302616570902966
 10
220.7936532077106
 20
319.6114392311764
 30
0.0
 10
221.6269723697327
 20
319.9629844952177
 30
0.0
 10
223.3578430821969
 20
320.6931721944398
 30
0.0
 10
225.7990353376797
 20
319.316430219119
 30
0.0
 10
227.2599334263711
 20
320.0655835496688
 30
0.0
 10
227.8510900661542
 20
320.3687306131075
 30
0.0
 11
220.7936532077106
 21
319.6114392311764
 31
0.0
 11
223.3107940762506
 21
320.2608740336769
 31
0.0
 11
226.0593981057255
 21
319.7271427217817
 31
0.0
 11
227.8510900661542
 21
320.3687306131075
 31
0.0
  0
SPLINE
  5
E0DB
102
{ACAD_REACTORS
330
E133
102
}
330
1F
100
AcDbEntity
  8
AM_2
100
AcDbSpline
210
0.0
220
0.0
230
1.0
 70
     8
 71
     3
 72
    32
 73
    28
 74
     0
 42
0.0000000001
 43
0.0000000001
 40
0.0
 40
0.0
 40
0.0
 40
0.0
 40
0.6504153777655574
 40
0.6504153777655574
 40
1.621433937359926
 40
1.621433937359926
 40
2.429814872110346
 40
2.429814872110346
 40
2.817473530561366
 40
2.817473530561366
 40
3.205132189012386
 40
3.205132189012386
 40
3.987957322154938
 40
3.987957322154938
 40
4.770782455297488
 40
4.770782455297488
 40
5.129818797371214
 40
5.129818797371214
 40
5.384985007195839
 40
5.384985007195839
 40
5.800741954586506
 40
5.800741954586506
 40
6.21649890197717
 40
6.21649890197717
 40
7.193675160304557
 40
7.193675160304557
 40
7.302616570903031
 40
7.302616570903031
 40
7.302616570903031
 40
7.302616570903031
 10
221.5710330858069
 20
317.7687019940395
 30
0.0
 10
221.7795304974631
 20
317.8566590229583
 30
0.0
 10
221.972111765845
 20
317.9376369389328
 30
0.0
 10
222.4095603557173
 20
318.1086431868623
 30
0.0
 10
222.633184523418
 20
318.1820541530131
 30
0.0
 10
222.9516529762453
 20
318.2555689722828
 30
0.0
 10
223.0598665792993
 20
318.2665515990795
 30
0.0
 10
223.1763344340288
 20
318.2662134004609
 30
0.0
 10
223.2045519503142
 20
318.2644850957097
 30
0.0
 10
223.3079326102459
 20
318.2504655959121
 30
0.0
 10
223.3762058935675
 20
318.2379786230534
 30
0.0
 10
223.6265145691618
 20
318.1804137513549
 30
0.0
 10
223.8517628538128
 20
318.1138389610906
 30
0.0
 10
224.4011787693517
 20
317.9552962823554
 30
0.0
 10
224.7258309695427
 20
317.8626771182815
 30
0.0
 10
225.2915510931031
 20
317.7661281281706
 30
0.0
 10
225.483050094948
 20
317.7417823720977
 30
0.0
 10
225.8348925620651
 20
317.7223029809842
 30
0.0
 10
225.988217717923
 20
317.7208294328826
 30
0.0
 10
226.407635099146
 20
317.7423094497714
 30
0.0
 10
226.656042777963
 20
317.7804173645998
 30
0.0
 10
227.1118505792452
 20
317.8835538643198
 30
0.0
 10
227.3216707030293
 20
317.9485313873127
 30
0.0
 10
227.9716019330099
 20
318.1835426465964
 30
0.0
 10
228.3434700101282
 20
318.37412838319
 30
0.0
 10
228.6952974483539
 20
318.5540060984812
 30
0.0
 10
228.7298588227435
 20
318.5717298408264
 30
0.0
 10
228.7636990777917
 20
318.5890832345862
 30
0.0
  0
SPLINE
  5
E0DC
330
1F
100
AcDbEntity
  8
AM_2
100
AcDbSpline
210
0.0
220
0.0
230
1.0
 70
     8
 71
     3
 72
    10
 73
     6
 74
     4
 42
0.0000000001
 43
0.0000000001
 44
0.0000000001
 40
0.0
 40
0.0
 40
0.0
 40
0.0
 40
2.599569909576175
 40
5.399515127637159
 40
7.302616570903081
 40
7.302616570903081
 40
7.302616570903081
 40
7.302616570903081
 10
219.1230548195601
 20
246.6481755291978
 30
0.0
 10
219.9563739815823
 20
246.9997207932392
 30
0.0
 10
221.6872446940464
 20
247.7299084924614
 30
0.0
 10
224.1284369495293
 20
246.3531665171402
 30
0.0
 10
225.5893350382206
 20
247.1023198476901
 30
0.0
 10
226.1804916780037
 20
247.4054669111289
 30
0.0
 11
219.1230548195601
 21
246.6481755291978
 31
0.0
 11
221.6401956881002
 21
247.2976103316984
 31
0.0
 11
224.388799717575
 21
246.7638790198031
 31
0.0
 11
226.1804916780037
 21
247.4054669111289
 31
0.0
  0
SPLINE
  5
E0DD
330
1F
100
AcDbEntity
  8
AM_2
100
AcDbSpline
210
0.0
220
0.0
230
1.0
 70
     8
 71
     3
 72
    32
 73
    28
 74
     0
 42
0.0000000001
 43
0.0000000001
 40
0.0
 40
0.0
 40
0.0
 40
0.0
 40
0.6504153777655574
 40
0.6504153777655574
 40
1.621433937359926
 40
1.621433937359926
 40
2.429814872110346
 40
2.429814872110346
 40
2.817473530561366
 40
2.817473530561366
 40
3.205132189012386
 40
3.205132189012386
 40
3.987957322154938
 40
3.987957322154938
 40
4.770782455297488
 40
4.770782455297488
 40
5.129818797371214
 40
5.129818797371214
 40
5.384985007195839
 40
5.384985007195839
 40
5.800741954586506
 40
5.800741954586506
 40
6.21649890197717
 40
6.21649890197717
 40
7.193675160304557
 40
7.193675160304557
 40
7.302616570903031
 40
7.302616570903031
 40
7.302616570903031
 40
7.302616570903031
 10
219.9004346976564
 20
244.8054382920609
 30
0.0
 10
220.1089321093126
 20
244.8933953209797
 30
0.0
 10
220.3015133776945
 20
244.9743732369543
 30
0.0
 10
220.7389619675669
 20
245.1453794848837
 30
0.0
 10
220.9625861352675
 20
245.2187904510345
 30
0.0
 10
221.2810545880949
 20
245.2923052703043
 30
0.0
 10
221.3892681911489
 20
245.303287897101
 30
0.0
 10
221.5057360458783
 20
245.3029496984823
 30
0.0
 10
221.5339535621637
 20
245.3012213937311
 30
0.0
 10
221.6373342220955
 20
245.2872018939335
 30
0.0
 10
221.705607505417
 20
245.2747149210749
 30
0.0
 10
221.9559161810114
 20
245.2171500493764
 30
0.0
 10
222.1811644656624
 20
245.1505752591121
 30
0.0
 10
222.7305803812013
 20
244.9920325803768
 30
0.0
 10
223.0552325813923
 20
244.8994134163029
 30
0.0
 10
223.6209527049527
 20
244.8028644261921
 30
0.0
 10
223.8124517067976
 20
244.7785186701191
 30
0.0
 10
224.1642941739147
 20
244.7590392790057
 30
0.0
 10
224.3176193297725
 20
244.7575657309041
 30
0.0
 10
224.7370367109956
 20
244.7790457477928
 30
0.0
 10
224.9854443898126
 20
244.8171536626213
 30
0.0
 10
225.4412521910948
 20
244.9202901623412
 30
0.0
 10
225.6510723148789
 20
244.9852676853341
 30
0.0
 10
226.3010035448595
 20
245.2202789446179
 30
0.0
 10
226.6728716219778
 20
245.4108646812114
 30
0.0
 10
227.0246990602034
 20
245.5907423965026
 30
0.0
 10
227.0592604345931
 20
245.6084661388478
 30
0.0
 10
227.0931006896412
 20
245.6258195326076
 30
0.0
  0
SPLINE
  5
E0DE
330
1F
100
AcDbEntity
  8
AM_2
100
AcDbSpline
210
0.0
220
0.0
230
1.0
 70
     8
 71
     3
 72
    11
 73
     7
 74
     5
 42
0.0000000001
 43
0.0000000001
 44
0.0000000001
 40
0.0
 40
0.0
 40
0.0
 40
0.0
 40
9.89173216134459
 40
18.98758382538536
 40
32.56214349879147
 40
40.07481322746714
 40
40.07481322746714
 40
40.07481322746714
 40
40.07481322746714
 10
188.6868426942223
 20
147.4390455884842
 30
0.0
 10
191.821711354028
 20
148.7102299622718
 30
0.0
 10
197.8392197629439
 20
151.1503202782161
 30
0.0
 10
208.6980663247544
 20
148.8705903076717
 30
0.0
 10
218.8182332318259
 20
146.6680983031682
 30
0.0
 10
225.5661487412202
 20
148.9540352289066
 30
0.0
 10
227.9702038028152
 20
149.7684375771811
 30
0.0
 11
188.6868426942223
 21
147.4390455884842
 31
0.0
 11
198.1767988518475
 21
150.2295826834052
 31
0.0
 11
207.2111164259579
 21
149.1733519016376
 31
0.0
 11
220.7171077868988
 21
147.8106825781943
 31
0.0
 11
227.9702038028152
 21
149.7684375771811
 31
0.0
  0
SPLINE
  5
E0DF
102
{ACAD_REACTORS
330
E11A
102
}
330
1F
100
AcDbEntity
  8
AM_2
100
AcDbSpline
210
0.0
220
0.0
230
1.0
 70
     8
 71
     3
 72
    38
 73
    34
 74
     0
 42
0.0000000001
 43
0.0000000001
 40
0.0
 40
0.0
 40
0.0
 40
0.0
 40
1.397112642655873
 40
1.397112642655873
 40
4.191337927967622
 40
4.191337927967622
 40
6.902586450396821
 40
6.902586450396821
 40
9.735946073613856
 40
9.735946073613856
 40
11.7055496698517
 40
11.7055496698517
 40
13.67515326608955
 40
13.67515326608955
 40
17.91302261659788
 40
17.91302261659788
 40
20.97464768938422
 40
20.97464768938422
 40
24.03627276217056
 40
24.03627276217056
 40
27.64838615686565
 40
27.64838615686565
 40
30.47155376478565
 40
30.47155376478565
 40
32.29426092737667
 40
32.29426092737667
 40
33.87522621806347
 40
33.87522621806347
 40
35.4561915087503
 40
35.4561915087503
 40
38.61812209012394
 40
38.61812209012394
 40
40.07481322746709
 40
40.07481322746709
 40
40.07481322746709
 40
40.07481322746709
 10
189.4384010133027
 20
145.585627100117
 30
0.0
 10
189.8811712547773
 20
145.7651697455099
 30
0.0
 10
190.3203811736819
 20
145.9432565404496
 30
0.0
 10
191.627861559872
 20
146.4646429244414
 30
0.0
 10
192.4860782299117
 20
146.7949320447277
 30
0.0
 10
194.1506612430465
 20
147.3695809198265
 30
0.0
 10
194.9576709085746
 20
147.6161230373083
 30
0.0
 10
196.5809485142183
 20
148.0111725644254
 30
0.0
 10
197.3955930929095
 20
148.1547592127499
 30
0.0
 10
198.7561133716679
 20
148.2732136203133
 30
0.0
 10
199.3209459387642
 20
148.2865289210646
 30
0.0
 10
200.4808691592418
 20
148.2543712489154
 30
0.0
 10
201.0734514298196
 20
148.2087299236827
 30
0.0
 10
202.9778933394256
 20
147.9913099096513
 30
0.0
 10
204.3316869772707
 20
147.7337383239894
 30
0.0
 10
206.7333131909028
 20
147.233126651973
 30
0.0
 10
207.7620382548967
 20
147.0084189020608
 30
0.0
 10
209.8351262192447
 20
146.5794151396169
 30
0.0
 10
210.8824220911277
 20
146.3733980651644
 30
0.0
 10
213.1869423084864
 20
145.9855965308171
 30
0.0
 10
214.4481709719204
 20
145.8147027946248
 30
0.0
 10
216.7180749327854
 20
145.6418875025766
 30
0.0
 10
217.7218333690609
 20
145.6112921436001
 30
0.0
 10
219.3838102239449
 20
145.6651400720595
 30
0.0
 10
220.0383964557178
 20
145.7126937873482
 30
0.0
 10
221.2634794613031
 20
145.860170376224
 30
0.0
 10
221.8297250572726
 20
145.9528710254497
 30
0.0
 10
222.941949026684
 20
146.1741411802956
 30
0.0
 10
223.4902557600483
 20
146.3027932214113
 30
0.0
 10
225.113891059182
 20
146.7261788354669
 30
0.0
 10
226.1680987192787
 20
147.0580530346918
 30
0.0
 10
227.6752137436884
 20
147.5568451498893
 30
0.0
 10
228.1457653647528
 20
147.7162675743269
 30
0.0
 10
228.6119066738194
 20
147.8741785068992
 30
0.0
  0
SPLINE
  5
E0EA
330
1F
100
AcDbEntity
  8
AM_2
100
AcDbSpline
210
0.0
220
0.0
230
1.0
 70
     8
 71
     3
 72
    11
 73
     7
 74
     5
 42
0.0000000001
 43
0.0000000001
 44
0.0000000001
 40
0.0
 40
0.0
 40
0.0
 40
0.0
 40
9.891732161344576
 40
18.98758382538528
 40
32.56214349879142
 40
40.07481322746708
 40
40.07481322746708
 40
40.07481322746708
 40
40.07481322746708
 10
387.4561804038524
 20
60.5062059896823
 30
0.0
 10
388.72736477764
 20
63.64107464948801
 30
0.0
 10
391.1674550935842
 20
69.65858305840388
 30
0.0
 10
388.8877251230399
 20
80.51742962021437
 30
0.0
 10
386.6852331185366
 20
90.63759652728579
 30
0.0
 10
388.9711700442749
 20
97.38551203668023
 30
0.0
 10
389.7855723925493
 20
99.78956709827517
 30
0.0
 11
387.4561804038524
 21
60.5062059896823
 31
0.0
 11
390.2467174987734
 21
69.9961621473075
 31
0.0
 11
389.1904867170059
 21
79.03047972141783
 31
0.0
 11
387.8278173935626
 21
92.53647108235876
 31
0.0
 11
389.7855723925493
 21
99.78956709827517
 31
0.0
  0
SPLINE
  5
E0EB
102
{ACAD_REACTORS
330
E100
102
}
330
1F
100
AcDbEntity
  8
AM_2
100
AcDbSpline
210
0.0
220
0.0
230
1.0
 70
     8
 71
     3
 72
    38
 73
    34
 74
     0
 42
0.0000000001
 43
0.0000000001
 40
0.0
 40
0.0
 40
0.0
 40
0.0
 40
1.397112642655873
 40
1.397112642655873
 40
4.191337927967622
 40
4.191337927967622
 40
6.902586450396821
 40
6.902586450396821
 40
9.735946073613856
 40
9.735946073613856
 40
11.7055496698517
 40
11.7055496698517
 40
13.67515326608955
 40
13.67515326608955
 40
17.91302261659788
 40
17.91302261659788
 40
20.97464768938422
 40
20.97464768938422
 40
24.03627276217056
 40
24.03627276217056
 40
27.64838615686565
 40
27.64838615686565
 40
30.47155376478565
 40
30.47155376478565
 40
32.29426092737667
 40
32.29426092737667
 40
33.87522621806347
 40
33.87522621806347
 40
35.4561915087503
 40
35.4561915087503
 40
38.61812209012394
 40
38.61812209012394
 40
40.07481322746709
 40
40.07481322746709
 40
40.07481322746709
 40
40.07481322746709
 10
385.6027619154851
 20
61.25776430876264
 30
0.0
 10
385.782304560878
 20
61.70053455023722
 30
0.0
 10
385.9603913558178
 20
62.13974446914178
 30
0.0
 10
386.4817777398097
 20
63.447224855332
 30
0.0
 10
386.812066860096
 20
64.30544152537166
 30
0.0
 10
387.3867157351948
 20
65.97002453850646
 30
0.0
 10
387.6332578526765
 20
66.77703420403449
 30
0.0
 10
388.0283073797936
 20
68.40031180967824
 30
0.0
 10
388.1718940281181
 20
69.2149563883694
 30
0.0
 10
388.2903484356816
 20
70.5754766671279
 30
0.0
 10
388.3036637364328
 20
71.14030923422413
 30
0.0
 10
388.2715060642836
 20
72.30023245470167
 30
0.0
 10
388.2258647390509
 20
72.8928147252795
 30
0.0
 10
388.0084447250196
 20
74.79725663488548
 30
0.0
 10
387.7508731393576
 20
76.1510502727306
 30
0.0
 10
387.2502614673411
 20
78.55267648636268
 30
0.0
 10
387.0255537174291
 20
79.5814015503566
 30
0.0
 10
386.5965499549851
 20
81.65448951470464
 30
0.0
 10
386.3905328805326
 20
82.70178538658766
 30
0.0
 10
386.0027313461853
 20
85.00630560394634
 30
0.0
 10
385.831837609993
 20
86.26753426738027
 30
0.0
 10
385.6590223179448
 20
88.53743822824529
 30
0.0
 10
385.6284269589683
 20
89.54119666452081
 30
0.0
 10
385.6822748874277
 20
91.20317351940485
 30
0.0
 10
385.7298286027165
 20
91.8577597511777
 30
0.0
 10
385.8773051915922
 20
93.08284275676298
 30
0.0
 10
385.9700058408179
 20
93.64908835273249
 30
0.0
 10
386.1912759956638
 20
94.76131232214394
 30
0.0
 10
386.3199280367794
 20
95.30961905550819
 30
0.0
 10
386.7433136508351
 20
96.93325435464196
 30
0.0
 10
387.07518785006
 20
97.98746201473861
 30
0.0
 10
387.5739799652575
 20
99.49457703914831
 30
0.0
 10
387.7334023896951
 20
99.96512866021269
 30
0.0
 10
387.8913133222674
 20
100.4312699692793
 30
0.0
  0
HATCH
  5
E100
330
1F
100
AcDbEntity
  8
AM_2
100
AcDbHatch
 10
0.0
 20
0.0
 30
0.0
210
0.0
220
0.0
230
1.0
  2
ANSI37
 70
     0
 71
     1
 91
        1
 92
        5
 93
        4
 72
     4
 94
        3
 73
     0
 74
     0
 95
       10
 96
        6
 40
30.20758142524055
 40
30.20758142524055
 40
30.20758142524055
 40
30.20758142524055
 40
30.47155376478565
 40
30.47155376478565
 40
31.69572136500149
 40
31.69572136500149
 40
31.69572136500149
 40
31.69572136500149
 10
385.6536160208845
 20
90.26800295652552
 10
385.6555832602331
 20
90.36232476535607
 10
385.658089265968
 20
90.45670203504116
 10
385.6753375253319
 20
90.98905692166225
 10
385.7014470531207
 20
91.42812897344064
 10
385.7409903805658
 20
91.86802055652552
 72
     1
 10
385.7409903805658
 20
91.86802055652552
 11
355.1174204171742
 21
91.86802055652552
 72
     1
 10
355.1174204171742
 20
91.86802055652552
 11
355.1174204171742
 21
90.26800295652554
 72
     1
 10
355.1174204171742
 20
90.26800295652554
 11
385.6536160208845
 21
90.26800295652552
 97
        4
330
E0EB
330
CF6A
330
CF76
330
CF77
 75
     0
 76
     1
 52
0.0
 41
0.5
 77
     0
 78
     2
 53
45.0
 43
0.0
 44
0.0
 45
-1.122532015133643
 46
1.122532015133643
 79
     0
 53
135.0
 43
0.0
 44
0.0
 45
-1.122532015133643
 46
-1.122532015133643
 79
     0
 47
0.0444894652917289
 98
        1
 10
373.0863365627986
 20
90.41747025758251
1001
ACAD
1010
0.0
1020
0.0
1030
0.0
  0
HATCH
  5
E11A
330
1F
100
AcDbEntity
  8
AM_2
100
AcDbHatch
 10
0.0
 20
0.0
 30
0.0
210
0.0
220
0.0
230
1.0
  2
ANSI37
 70
     0
 71
     1
 91
        1
 92
        5
 93
        4
 72
     4
 94
        3
 73
     0
 74
     0
 95
        8
 96
        4
 40
7.094118497613591
 40
7.094118497613591
 40
7.094118497613591
 40
7.094118497613591
 40
8.940682097188568
 40
8.940682097188568
 40
8.940682097188568
 40
8.940682097188568
 10
197.519464417174
 20
148.1487181286849
 10
196.9918416423427
 20
148.0770023803475
 10
196.4587653239798
 20
147.9758179908086
 10
195.919454417174
 20
147.8494333877204
 72
     1
 10
195.919454417174
 20
147.8494333877204
 11
195.9194544171741
 21
116.2096084565255
 72
     1
 10
195.9194544171741
 20
116.2096084565255
 11
197.519464417174
 21
116.2096084565255
 72
     1
 10
197.519464417174
 20
116.2096084565255
 11
197.519464417174
 21
148.1487181286849
 97
        4
330
E0DF
330
CF98
330
CFA4
330
CFA5
 75
     0
 76
     1
 52
0.0
 41
0.5
 77
     0
 78
     2
 53
45.0
 43
0.0
 44
0.0
 45
-1.122532015133643
 46
1.122532015133643
 79
     0
 53
135.0
 43
0.0
 44
0.0
 45
-1.122532015133643
 46
-1.122532015133643
 79
     0
 47
0.0618812760456831
 98
        1
 10
197.3083714487297
 20
138.0001360974999
1001
ACAD
1010
0.0
1020
0.0
1030
0.0
  0
HATCH
  5
E133
330
1F
100
AcDbEntity
  8
AM_2
100
AcDbHatch
 10
0.0
 20
0.0
 30
0.0
210
0.0
220
0.0
230
1.0
  2
ANSI37
 70
     0
 71
     1
 91
        2
 92
        5
 93
        6
 72
     1
 10
225.519464417174
 20
335.9246504565255
 11
223.919454417174
 21
335.9246504565255
 72
     1
 10
223.919454417174
 20
335.9246504565255
 11
223.919454417174
 21
334.2653810630762
 72
     2
 10
222.254464417174
 20
334.2596104565234
 40
1.665000000000006
 50
359.8014221846052
 51
360.1985778153948
 73
     0
 72
     1
 10
223.919454417174
 20
334.2538398499706
 11
223.919454417174
 21
320.1652383311551
 72
     4
 94
        3
 73
     0
 74
     0
 95
        8
 96
        4
 40
3.217378895386226
 40
3.217378895386226
 40
3.217378895386226
 40
3.217378895386226
 40
4.841838926606881
 40
4.841838926606881
 40
4.841838926606881
 40
4.841838926606881
 10
223.919454417174
 20
320.165238331155
 10
224.4543564250342
 20
320.0410103782751
 10
224.9915583670942
 20
319.8365290307032
 10
225.519464417174
 20
319.7568219662876
 72
     1
 10
225.5194644171741
 20
319.7568219662876
 11
225.519464417174
 21
335.9246504565255
 97
        5
330
CF55
330
CF58
330
CFDA
330
E0DA
330
CF89
 92
        5
 93
        6
 72
     4
 94
        3
 73
     0
 74
     0
 95
       12
 96
        8
 40
3.781351117655116
 40
3.781351117655116
 40
3.781351117655116
 40
3.781351117655116
 40
4.039969524920973
 40
4.039969524920973
 40
4.822794658063522
 40
4.822794658063522
 40
5.029400862563346
 40
5.029400862563346
 40
5.029400862563346
 40
5.029400862563346
 10
225.5194644171816
 20
317.7428389598546
 10
225.3769957487005
 20
317.7558710793049
 10
225.2418003591304
 20
317.7746188693026
 10
224.7258309695427
 20
317.8626771182815
 10
224.4011787693517
 20
317.9552962823554
 10
224.0539688362397
 20
318.0554892169286
 10
223.9849120133091
 20
318.0755264240255
 10
223.9194544171845
 20
318.0943965259264
 72
     1
 10
223.919454417174
 20
318.0943965259294
 11
223.919454417174
 21
304.4254010630762
 72
     2
 10
222.254464417174
 20
304.4196304565255
 40
1.665000000000006
 50
359.8014221846777
 51
360.1985778153244
 73
     0
 72
     1
 10
223.919454417174
 20
304.4138598499748
 11
223.919454417174
 21
302.7546304565256
 72
     1
 10
223.919454417174
 20
302.7546304565256
 11
225.5194644171741
 21
302.7546304565256
 72
     1
 10
225.5194644171741
 20
302.7546304565256
 11
225.5194644171741
 21
317.7428389598558
 97
        5
330
E0DB
330
CF8C
330
CFDD
330
CF8A
330
CF8B
 75
     0
 76
     1
 52
0.0
 41
0.5
 77
     0
 78
     2
 53
45.0
 43
0.0
 44
0.0
 45
-1.122532015133643
 46
1.122532015133643
 79
     0
 53
135.0
 43
0.0
 44
0.0
 45
-1.122532015133643
 46
-1.122532015133643
 79
     0
 47
0.0684914944658824
 98
        2
 10
224.9265505520618
 20
327.247236836498
 10
224.6525201135187
 20
315.1242414869198
1001
ACAD
1010
0.0
1020
0.0
1030
0.0
  0
LINE
  5
E13D
330
1F
100
AcDbEntity
  8
AM_0
100
AcDbLine
 10
192.319454417174
 20
146.7226924712301
 30
0.0
 11
192.319454417174
 21
94.53462625652552
 31
0.0
  0
MTEXT
  5
E17B
330
1F
100
AcDbEntity
  8
0文字
100
AcDbMText
 10
21.50000000000003
 20
375.5000000000002
 30
0.0
 40
3.2
 41
20.0
 71
     5
 72
     5
  1
左右勝手
 73
     1
 44
1.0
1001
ACAD
1000
MTEXTBEGIN
1070
    73
1070
     1
1070
    44
1040
1.0
1070
    74
1070
     0
1000
MTEXTEND
1000
ACAD_MTEXT_DEFINED_HEIGHT_BEGIN
1070
    46
1040
8.000000000000012
1000
ACAD_MTEXT_DEFINED_HEIGHT_END
  0
ENDSEC
  0
SECTION
  2
OBJECTS
  0
DICTIONARY
  5
C
330
0
100
AcDbDictionary
281
     1
  3
ACAD_2007HEADERVARS_RT
350
E218
  3
ACAD_BGPLOT_KEY
350
AB06
  3
ACAD_COLOR
350
A91D
  3
ACAD_GROUP
350
D
  3
ACAD_LAYOUT
350
1A
  3
ACAD_MATERIAL
350
A91C
  3
ACAD_MLINESTYLE
350
17
  3
ACAD_PLOTSETTINGS
350
19
  3
ACAD_PLOTSTYLENAME
350
E
  3
ACAD_TABLESTYLE
350
AAB9
  3
ACAD_VISUALSTYLE
350
B0F1
  3
AcAsAppObject
350
3DA1
  3
ACASGREF_MASTER
350
3DE9
  3
AcDbVariableDictionary
350
34
  3
AcmDictionary
350
47
  3
AD_GREF_MODULE
350
3DEA
  3
AD_MAPI_MODULE
350
3E06
  3
AMG
350
2B
  3
AMGSNAPSETTINGS
350
7D
  3
ASE_INDEX_DICTIONARY
350
B331
  3
DWGPROPS
350
E217
  3
MAPISURF_MODULE
350
3DEB
  0
DICTIONARY
  5
3F95
330
2
100
AcDbDictionary
280
     1
281
     1
  3
ACAD_LAYERFILTERS
360
B466
  3
ACAD_LAYERSTATES
360
3F96
  3
ACLYDICTIONARY
360
B465
  3
AMLAYER_GROUPCOLORS
360
AAB4
  0
DICTIONARY
  5
8A
330
1F
100
AcDbDictionary
280
     1
281
     1
  3
ACAD_SORTENTS
360
B1BA
  0
DICTIONARY
  5
E218
102
{ACAD_REACTORS
330
C
102
}
330
C
100
AcDbDictionary
281
     1
  3
DIMARCSYM
350
E219
  0
DICTIONARY
  5
AB06
102
{ACAD_REACTORS
330
C
102
}
330
C
100
AcDbDictionary
280
     1
281
     1
  0
DICTIONARY
  5
A91D
102
{ACAD_REACTORS
330
C
102
}
330
C
100
AcDbDictionary
281
     1
  0
DICTIONARY
  5
D
102
{ACAD_REACTORS
330
C
102
}
330
C
100
AcDbDictionary
281
     1
  0
DICTIONARY
  5
1A
102
{ACAD_REACTORS
330
C
102
}
330
C
100
AcDbDictionary
281
     1
  3
Model
350
22
  3
ﾚｲｱｳﾄ1
350
1E
  3
ﾚｲｱｳﾄ2
350
26
  0
DICTIONARY
  5
A91C
102
{ACAD_REACTORS
330
C
102
}
330
C
100
AcDbDictionary
281
     1
  3
ByBlock
350
B0EF
  3
ByLayer
350
B0EE
  3
Global
350
B0F0
  0
DICTIONARY
  5
17
102
{ACAD_REACTORS
330
C
102
}
330
C
100
AcDbDictionary
281
     1
  3
Standard
350
18
  0
DICTIONARY
  5
19
102
{ACAD_REACTORS
330
C
102
}
330
C
100
AcDbDictionary
281
     1
  0
ACDBDICTIONARYWDFLT
  5
E
102
{ACAD_REACTORS
330
C
102
}
330
C
100
AcDbDictionary
281
     1
  3
Normal
350
F
100
AcDbDictionaryWithDefault
340
F
  0
DICTIONARY
  5
AAB9
102
{ACAD_REACTORS
330
C
102
}
330
C
100
AcDbDictionary
281
     1
  3
Standard
350
AABA
  0
DICTIONARY
  5
B0F1
102
{ACAD_REACTORS
330
C
102
}
330
C
100
AcDbDictionary
281
     1
  3
2dWireframe
350
B0F7
  3
3D Hidden
350
B0F9
  3
3dWireframe
350
B0F8
  3
Basic
350
B0F6
  3
Brighten
350
B0FD
  3
ColorChange
350
B101
  3
Conceptual
350
B0FA
  3
Dim
350
B0FC
  3
Facepattern
350
B100
  3
Flat
350
B0F2
  3
FlatWithEdges
350
B0F3
  3
Gouraud
350
B0F4
  3
GouraudWithEdges
350
B0F5
  3
Linepattern
350
B0FF
  3
Realistic
350
B0FB
  3
Thicken
350
B0FE
  0
ACAD_PROXY_OBJECT
  5
3DA1
102
{ACAD_REACTORS
330
C
102
}
330
C
100
AcDbProxyObject
 90
      499
 91
      576
 95
       23
 70
     0
 93
       10
310
407F
 94
        0
1001
ACAD
1000
AcRTDxfName
1000
ASAPP
1000
AcRTDxfName
1000
ASAPP
  0
ACAD_PROXY_OBJECT
  5
3DE9
102
{ACAD_REACTORS
330
C
102
}
330
C
100
AcDbProxyObject
 90
      499
 91
      581
 95
       23
 70
     0
 93
       34
310
010000407F
 94
        0
1001
ACAD
1000
AcRTDxfName
1000
ACASGREFMASTER
1000
AcRTDxfName
1000
ACASGREFMASTER
  0
DICTIONARY
  5
34
102
{ACAD_REACTORS
330
C
102
}
330
C
100
AcDbDictionary
281
     1
  3
CTABLESTYLE
350
AAF3
  3
DIMASSOC
350
A10C
  3
FIELDEVAL
350
AB07
  3
INDEXCTL
350
35
  3
SORTENTS
350
194C
  0
DICTIONARY
  5
47
102
{ACAD_REACTORS
330
C
102
}
330
C
100
AcDbDictionary
281
     1
  3
AcmBOM
350
7E8
  3
AcmStdDictionary
350
4C
  3
AMDTSECTSYM_ARROWCOLOR
350
A929
  0
ACAD_PROXY_OBJECT
  5
3DEA
102
{ACAD_REACTORS
330
C
102
}
330
C
100
AcDbProxyObject
 90
      499
 91
      582
 95
       23
 70
     0
 93
      114
310
00000043800000000000000000003F
 94
        0
1001
ACAD
1000
AcRTDxfName
1000
ACADGREFMODULE
1000
AcRTDxfName
1000
ACADGREFMODULE
  0
ACAD_PROXY_OBJECT
  5
3E06
102
{ACAD_REACTORS
330
C
102
}
330
C
100
AcDbProxyObject
 90
      499
 91
      594
 95
       23
 70
     0
 93
       34
310
05000044FF
 94
        0
1001
ACAD
1000
AcRTDxfName
1000
MAPIADMODULE
1000
AcRTDxfName
1000
MAPIADMODULE
  0
DICTIONARY
  5
2B
102
{ACAD_REACTORS
330
C
102
}
330
C
100
AcDbDictionary
281
     1
  0
DICTIONARY
  5
7D
102
{ACAD_REACTORS
330
C
102
}
330
C
100
AcDbDictionary
281
     1
  0
DICTIONARY
  5
B331
102
{ACAD_REACTORS
330
C
102
}
330
C
100
AcDbDictionary
281
     1
  3
ASEBlockHierarchyIndexRecord
350
B332
1001
DCO15
1040
1594111214.218
  0
XRECORD
  5
E217
102
{ACAD_REACTORS
330
C
102
}
330
C
100
AcDbXrecord
280
     1
  1
DWGPROPS COOKIE
  2

  3

  4

  6

  7

  8
Administrator
  9

300
AmdtFileType=84
301
=
302
=
303
=
304
=
305
=
306
=
307
=
308
=
309
=
 40
0.052827337962963
 41
2455831.751787465
 42
2456030.718235313
  1

 90
        1
  0
ACAD_PROXY_OBJECT
  5
3DEB
102
{ACAD_REACTORS
330
C
102
}
330
C
100
AcDbProxyObject
 90
      499
 91
      583
 95
       23
 70
     0
 93
        8
310
0473
 94
        0
1001
ACAD
1000
AcRTDxfName
1000
AMDTMAPISURFMOUDULE
1000
AcRTDxfName
1000
AMDTMAPISURFMOUDULE
  0
DICTIONARY
  5
B466
102
{ACAD_REACTORS
330
3F95
102
}
330
3F95
100
AcDbDictionary
281
     1
  0
DICTIONARY
  5
3F96
102
{ACAD_REACTORS
330
3F95
102
}
330
3F95
100
AcDbDictionary
281
     1
  3
20011210
350
3FB7
  0
DICTIONARY
  5
B465
102
{ACAD_REACTORS
330
3F95
102
}
330
3F95
100
AcDbDictionary
281
     1
1001
ACAD
1000
<All
  0
DICTIONARY
  5
AAB4
102
{ACAD_REACTORS
330
3F95
102
}
330
3F95
100
AcDbDictionary
280
     1
281
     1
  0
SORTENTSTABLE
  5
B1BA
102
{ACAD_REACTORS
330
8A
102
}
330
8A
100
AcDbSortentsTable
330
1F
331
D3D2
  5
D478
331
D851
  5
D8F2
331
B5B3
  5
B5B3
331
CF61
  5
CF62
331
DF96
  5
E045
331
CF69
  5
CF6A
331
CF98
  5
CF9C
331
CDAA
  5
CDAA
331
CFA0
  5
CFA4
331
CFA8
  5
CFAC
331
DF6F
  5
DF74
331
CF71
  5
CF73
331
CFB0
  5
CFB4
331
BAC3
  5
BAC3
331
CF52
  5
CF52
331
CF79
  5
CF7B
331
BACB
  5
BACD
331
CFD8
  5
CFDC
331
DF77
  5
DF7C
331
DF7F
  5
DF84
331
E0DE
  5
E0EC
331
CF5A
  5
CF5B
331
CF89
  5
CF8B
331
BAD3
  5
BAD5
331
CFE0
  5
CFE4
331
DF87
  5
DF8C
331
CF91
  5
CF94
331
DF8F
  5
DF94
331
D5E5
  5
D67E
331
CFE8
  5
CFEC
331
CF62
  5
CF63
331
B5B4
  5
B5B4
331
CF99
  5
CF9D
331
CDAB
  5
CDAB
331
CF6A
  5
CF6C
331
DF97
  5
E0BF
331
CFA1
  5
CFA5
331
E0BF
  5
E0CB
331
CF72
  5
CF74
331
CFA9
  5
CFAD
331
D8F2
  5
DF6C
331
D6F8
  5
D7AC
331
E01A
  5
E0CA
331
DF70
  5
DF75
331
CF53
  5
CF53
331
CF7A
  5
CF7C
331
BAC4
  5
BAC5
331
CFB1
  5
CFB5
331
CFD9
  5
CFDD
331
DF78
  5
DF7D
331
E133
  5
CF55
331
CF82
  5
CF84
331
BACC
  5
BACE
331
CFE1
  5
CFE5
331
DF80
  5
DF85
331
BAD4
  5
BAD6
331
CF5B
  5
CF5C
331
CF8A
  5
CF8C
331
E0DF
  5
E101
331
CF92
  5
CF95
331
CA84
  5
CA84
331
DF88
  5
DF8D
331
D778
  5
D7EA
331
D546
  5
D5FB
331
D5C6
  5
D627
331
DF90
  5
DF95
331
CF63
  5
CF64
331
B5B5
  5
B5B5
331
E11A
  5
CF9B
331
CFE9
  5
CFED
331
DF98
  5
E0C0
331
CF6B
  5
CF6D
331
CF9A
  5
CF9E
331
CDAC
  5
CDAC
331
DF69
  5
DF6D
331
CFA2
  5
CFA6
331
CFAA
  5
CFAE
331
CF73
  5
CF75
331
E0C0
  5
E0DA
331
DFF3
  5
E0C1
331
CFB2
  5
CFB6
331
DF71
  5
DF76
331
BAC5
  5
BAC6
331
CF54
  5
CF54
331
CF7B
  5
CF7D
331
CF83
  5
CF85
331
BACD
  5
BACF
331
CFDA
  5
CFDE
331
DF79
  5
DF7E
331
DF81
  5
DF86
331
CF5C
  5
CF5D
331
CF8B
  5
CF8D
331
BAD5
  5
BAD7
331
CFE2
  5
CFE6
331
DF89
  5
DF8E
331
CF93
  5
CF96
331
D8DC
  5
DF6B
331
CFEA
  5
CFEE
331
CDA5
  5
CDA5
331
CF64
  5
CF65
331
DF91
  5
DF96
331
B5B6
  5
B5B6
331
CF9B
  5
CF9F
331
CDAD
  5
CDAD
331
CF6C
  5
CF6E
331
B5BE
  5
B5BE
331
CFA3
  5
CFA7
331
DF6A
  5
DF6E
331
E0C1
  5
E0DB
331
CF74
  5
CF76
331
CFAB
  5
CFAF
331
D627
  5
D6E4
331
DF72
  5
DF77
331
CF55
  5
CF56
331
CF7C
  5
CF7F
331
BAC6
  5
BAC7
331
CFB3
  5
CFD8
331
CFDB
  5
CFDF
331
DF7A
  5
DF7F
331
BACE
  5
BAD0
331
CF84
  5
CF86
331
CFE3
  5
CFE7
331
DF82
  5
DF87
331
BAD6
  5
BADF
331
CF5D
  5
CF5E
331
CF8C
  5
CF8E
331
CF94
  5
CF97
331
DF8A
  5
DF8F
331
D792
  5
D804
331
D7C2
  5
D851
331
D45E
  5
D546
331
DF92
  5
DF97
331
CF65
  5
CF66
331
CDA6
  5
CDA6
331
CFEB
  5
D3D2
331
CF6D
  5
CF6F
331
CF9C
  5
CFA0
331
CDAE
  5
CDAE
331
DF6B
  5
DF70
331
B5BF
  5
B5BF
331
CFA4
  5
CFA8
331
CFAC
  5
CFB0
331
CF4E
  5
CF4E
331
CF75
  5
CF77
331
D7EA
  5
D88E
331
D81A
  5
D8DC
331
E0CA
  5
E0DD
331
CF7D
  5
CF80
331
CFB4
  5
CFD9
331
BAC7
  5
BAC8
331
CF56
  5
CF57
331
DF73
  5
DF78
331
E0DA
  5
E0DE
331
CF85
  5
CF87
331
BACF
  5
BAD1
331
CFDC
  5
CFE0
331
DF7B
  5
DF80
331
DF83
  5
DF88
331
E0EA
  5
E11B
331
CF5E
  5
CF5F
331
CF8D
  5
CF8F
331
BAD7
  5
BAE0
331
CFE4
  5
CFE8
331
DF8B
  5
DF90
331
CF95
  5
CF98
331
D88E
  5
DF69
331
D8C6
  5
DF6A
331
E13D
  5
CF90
331
CFEC
  5
D3E8
331
CDA7
  5
CDA7
331
CF66
  5
CF67
331
DF93
  5
DF98
331
CF9D
  5
CFA1
331
D6E4
  5
D778
331
CDAF
  5
CDAF
331
CF6E
  5
CF70
331
B5C0
  5
B5C0
331
CFA5
  5
CFA9
331
DF6C
  5
DF71
331
E074
  5
DF6F
331
CF76
  5
CF78
331
CFAD
  5
CFB1
331
CF4F
  5
CF4F
331
D611
  5
D6B4
331
D6B4
  5
D70E
331
DF74
  5
DF79
331
E0CB
  5
E0DC
331
CF57
  5
CF58
331
BAC8
  5
BACA
331
CFB5
  5
CFDA
331
CFDD
  5
CFE1
331
DF7C
  5
DF81
331
BAD0
  5
BAD3
331
CF86
  5
CF88
331
E0DB
  5
E0DF
331
E0EB
  5
E13D
331
CF8E
  5
CF91
331
CFE5
  5
CFE9
331
CF5F
  5
CF60
331
DF84
  5
DF89
331
CF96
  5
CF99
331
DF8C
  5
DF91
331
D3E8
  5
D4D1
331
D7AC
  5
D81A
331
D448
  5
D530
331
DF94
  5
DFF3
331
CF67
  5
CF68
331
CDA8
  5
CDA8
331
CFED
  5
D448
331
D6E5
  5
D792
331
CDB0
  5
CDB0
331
CF6F
  5
CF71
331
CF9E
  5
CFA2
331
DF6D
  5
DF72
331
B5C1
  5
B5C1
331
CFA6
  5
CFAA
331
CFAE
  5
CFB2
331
CF77
  5
CF79
331
D478
  5
D57B
331
D804
  5
D8C6
331
D530
  5
D5E5
331
CF50
  5
CF50
331
CF7F
  5
CF82
331
BAC9
  5
BACB
331
CFB6
  5
CFDB
331
DF75
  5
DF7A
331
DF7D
  5
DF82
331
E0DC
  5
E0EA
331
CF87
  5
CF89
331
CFDE
  5
CFE2
331
BAD1
  5
BAD4
331
CF58
  5
CF59
331
DF85
  5
DF8A
331
CF8F
  5
CF92
331
CFE6
  5
CFEA
331
DF8D
  5
DF92
331
CF97
  5
CF9A
331
D57B
  5
D611
331
D67E
  5
D6E5
331
CF60
  5
CF61
331
CFEE
  5
D45E
331
CDA9
  5
CDA9
331
CF68
  5
CF69
331
DF95
  5
E01A
331
CF9F
  5
CFA3
331
E100
  5
CF6B
331
CF70
  5
CF72
331
CFA7
  5
CFAB
331
DF6E
  5
DF73
331
CFAF
  5
CFB3
331
D69E
  5
D6F8
331
D5FB
  5
D69E
331
D4D1
  5
D5C6
331
D70E
  5
D7C2
331
CF51
  5
CF51
331
CF78
  5
CF7A
331
BAC2
  5
BAC2
331
DF76
  5
DF7B
331
CF80
  5
CF83
331
BACA
  5
BACC
331
CFDF
  5
CFE3
331
DF7E
  5
DF83
331
CF59
  5
CF5A
331
CF88
  5
CF8A
331
E0DD
  5
E0EB
331
CF90
  5
CF93
331
CFE7
  5
CFEB
331
DF86
  5
DF8B
331
DF8E
  5
DF93
  0
XRECORD
  5
E219
102
{ACAD_REACTORS
330
E218
102
}
330
E218
100
AcDbXrecord
280
     1
 70
     1
  0
LAYOUT
  5
22
102
{ACAD_XDICTIONARY
360
E21C
102
}
102
{ACAD_REACTORS
330
1A
102
}
330
1A
100
AcDbPlotSettings
  1

  2
Adobe PDF
  4
User66
  6
AM_VIEW1
 40
3.174999952316283
 41
3.174999952316283
 42
3.17498779296875
 43
3.17498779296875
 44
420.0
 45
594.0
 46
-3.174993872642517
 47
-3.174993872642517
 48
214.3704939521119
 49
367.5855324241177
140
275.6727856380065
141
407.6291914078169
142
1.0
143
1.0
 70
  3748
 72
     1
 73
     1
 74
     2
  7
monochrome.ctb
 75
     0
147
0.9787267410393916
148
0.0
149
0.0
100
AcDbLayout
  1
Model
 70
     1
 71
     0
 10
0.0
 20
0.0
 11
12.0
 21
9.0
 12
0.0
 22
0.0
 32
0.0
 14
0.0
 24
0.0
 34
0.0
 15
0.0
 25
0.0
 35
0.0
146
0.0
 13
0.0
 23
0.0
 33
0.0
 16
1.0
 26
0.0
 36
0.0
 17
0.0
 27
1.0
 37
0.0
 76
     0
330
1F
331
B0EC
1001
ACAD_PSEXT
1000
Adobe PDF
1000
Adobe PDF Converter
1000
My Documents\*.pdf
1000

1070
     0
  0
LAYOUT
  5
1E
102
{ACAD_XDICTIONARY
360
E21A
102
}
102
{ACAD_REACTORS
330
1A
102
}
330
1A
100
AcDbPlotSettings
  1

  2
\\ML370\XEROX
  4
A4
  6

 40
3.174999952316283
 41
3.174999952316283
 42
3.175003051757812
 43
3.17498779296875
 44
209.8674926757813
 45
296.6719970703125
 46
0.0
 47
0.0
 48
0.0
 49
0.0
140
0.0
141
0.0
142
1.0
143
1.0
 70
   688
 72
     1
 73
     1
 74
     5
  7
monochrome.ctb
 75
    16
147
1.0
148
0.0
149
0.0
100
AcDbLayout
  1
ﾚｲｱｳﾄ1
 70
     1
 71
     1
 10
-3.17498779296875
 20
-3.174999952316283
 11
293.4970092773438
 21
206.692492723465
 12
0.0
 22
0.0
 32
0.0
 14
1.000000000000000E+20
 24
1.000000000000000E+20
 34
1.000000000000000E+20
 15
-1.000000000000000E+20
 25
-1.000000000000000E+20
 35
-1.000000000000000E+20
146
0.0
 13
0.0
 23
0.0
 33
0.0
 16
1.0
 26
0.0
 36
0.0
 17
0.0
 27
1.0
 37
0.0
 76
     0
330
1B
  0
LAYOUT
  5
26
102
{ACAD_XDICTIONARY
360
E21E
102
}
102
{ACAD_REACTORS
330
1A
102
}
330
1A
100
AcDbPlotSettings
  1

  2
\\ML370\XEROX
  4

  6

 40
0.0
 41
0.0
 42
0.0
 43
0.0
 44
0.0
 45
0.0
 46
0.0
 47
0.0
 48
0.0
 49
0.0
140
0.0
141
0.0
142
1.0
143
1.0
 70
   688
 72
     0
 73
     0
 74
     5
  7
monochrome.ctb
 75
    16
147
1.0
148
0.0
149
0.0
100
AcDbLayout
  1
ﾚｲｱｳﾄ2
 70
     1
 71
     2
 10
0.0
 20
0.0
 11
12.0
 21
9.0
 12
0.0
 22
0.0
 32
0.0
 14
0.0
 24
0.0
 34
0.0
 15
0.0
 25
0.0
 35
0.0
146
0.0
 13
0.0
 23
0.0
 33
0.0
 16
1.0
 26
0.0
 36
0.0
 17
0.0
 27
1.0
 37
0.0
 76
     0
330
23
  0
MATERIAL
  5
B0EF
102
{ACAD_XDICTIONARY
360
E192
102
}
102
{ACAD_REACTORS
330
A91C
102
}
330
A91C
100
AcDbMaterial
  1
ByBlock
  0
MATERIAL
  5
B0EE
102
{ACAD_XDICTIONARY
360
E190
102
}
102
{ACAD_REACTORS
330
A91C
102
}
330
A91C
100
AcDbMaterial
  1
ByLayer
  0
MATERIAL
  5
B0F0
102
{ACAD_XDICTIONARY
360
E194
102
}
102
{ACAD_REACTORS
330
A91C
102
}
330
A91C
100
AcDbMaterial
  1
Global
  0
MLINESTYLE
  5
18
102
{ACAD_REACTORS
330
17
102
}
330
17
100
AcDbMlineStyle
  2
STANDARD
 70
     0
  3

 62
   256
 51
90.0
 52
90.0
 71
     2
 49
0.5
 62
   256
  6
BYLAYER
 49
-0.5
 62
   256
  6
BYLAYER
  0
ACDBPLACEHOLDER
  5
F
102
{ACAD_REACTORS
330
E
102
}
330
E
  0
TABLESTYLE
  5
AABA
102
{ACAD_XDICTIONARY
360
E220
102
}
102
{ACAD_REACTORS
330
AAB9
102
}
330
AAB9
100
AcDbTableStyle
  3
Standard
 70
     0
 71
     0
 40
1.5
 41
1.5
280
     0
281
     0
  7
STANDARD
140
4.5
170
     2
 62
     0
 63
     7
283
     0
274
    -2
284
     1
 64
     0
275
    -2
285
     1
 65
     0
276
    -2
286
     1
 66
     0
277
    -2
287
     1
 67
     0
278
    -2
288
     1
 68
     0
279
    -2
289
     1
 69
     0
  7
STANDARD
140
6.0
170
     5
 62
     0
 63
     7
283
     0
274
    -2
284
     1
 64
     0
275
    -2
285
     1
 65
     0
276
    -2
286
     1
 66
     0
277
    -2
287
     1
 67
     0
278
    -2
288
     1
 68
     0
279
    -2
289
     1
 69
     0
  7
STANDARD
140
4.5
170
     5
 62
     0
 63
     7
283
     0
274
    -2
284
     1
 64
     0
275
    -2
285
     1
 65
     0
276
    -2
286
     1
 66
     0
277
    -2
287
     1
 67
     0
278
    -2
288
     1
 68
     0
279
    -2
289
     1
 69
     0
  0
VISUALSTYLE
  5
B0F7
102
{ACAD_REACTORS
330
B0F1
102
}
330
B0F1
100
AcDbVisualStyle
  2
2dWireframe
 70
     4
 71
     0
 72
     2
 73
     0
 90
        0
 40
-0.6
 41
-30.0
 62
     5
 63
     7
 74
     1
 91
        4
 64
     7
 65
   257
 75
     1
175
     1
 42
1.0
 92
        0
 66
   257
 43
1.0
 76
     1
 77
     6
 78
     2
 67
     7
 79
     5
170
     0
171
     0
290
     0
174
     0
 93
        1
 44
0.0
173
     0
291
     0
 45
0.0
1001
ACAD
1000
AcDbSavedByObjectVersion
1070
     0
1000
AcDbSavedByObjectVersion
1070
     0
  0
VISUALSTYLE
  5
B0F9
102
{ACAD_REACTORS
330
B0F1
102
}
330
B0F1
100
AcDbVisualStyle
  2
3D Hidden
 70
     6
 71
     1
 72
     2
 73
     2
 90
        0
 40
-0.6
 41
-30.0
 62
     5
 63
     7
 74
     2
 91
        2
 64
     7
 65
   257
 75
     2
175
     1
 42
40.0
 92
        0
 66
   257
 43
1.0
 76
     1
 77
     6
 78
     2
 67
     7
 79
     3
170
     0
171
     0
290
     0
174
     0
 93
        1
 44
0.0
173
     0
291
     0
 45
0.0
1001
ACAD
1000
AcDbSavedByObjectVersion
1070
     0
1000
AcDbSavedByObjectVersion
1070
     0
  0
VISUALSTYLE
  5
B0F8
102
{ACAD_REACTORS
330
B0F1
102
}
330
B0F1
100
AcDbVisualStyle
  2
3dWireframe
 70
     5
 71
     0
 72
     2
 73
     0
 90
        0
 40
-0.6
 41
-30.0
 62
     5
 63
     7
 74
     1
 91
        4
 64
     7
 65
   257
 75
     1
175
     1
 42
1.0
 92
        0
 66
   257
 43
1.0
 76
     1
 77
     6
 78
     2
 67
     7
 79
     5
170
     0
171
     0
290
     0
174
     0
 93
        1
 44
0.0
173
     0
291
     0
 45
0.0
1001
ACAD
1000
AcDbSavedByObjectVersion
1070
     0
1000
AcDbSavedByObjectVersion
1070
     0
  0
VISUALSTYLE
  5
B0F6
102
{ACAD_REACTORS
330
B0F1
102
}
330
B0F1
100
AcDbVisualStyle
  2
Basic
 70
     7
 71
     1
 72
     0
 73
     1
 90
        0
 40
-0.6
 41
-30.0
 62
     5
 63
     7
 74
     0
 91
        4
 64
     7
 65
   257
 75
     1
175
     1
 42
1.0
 92
        8
 66
     7
 43
1.0
 76
     1
 77
     6
 78
     2
 67
     7
 79
     5
170
     0
171
     0
290
     0
174
     0
 93
        1
 44
0.0
173
     0
291
     1
 45
0.0
1001
ACAD
1000
AcDbSavedByObjectVersion
1070
     0
1000
AcDbSavedByObjectVersion
1070
     0
  0
VISUALSTYLE
  5
B0FD
102
{ACAD_REACTORS
330
B0F1
102
}
330
B0F1
100
AcDbVisualStyle
  2
Brighten
 70
    12
 71
     2
 72
     2
 73
     0
 90
        0
 40
-0.6
 41
-30.0
 62
     5
 63
     7
 74
     1
 91
        4
 64
     7
 65
   257
 75
     1
175
     1
 42
1.0
 92
        8
 66
     7
 43
1.0
 76
     1
 77
     6
 78
     2
 67
     7
 79
     5
170
     0
171
     0
290
     0
174
     0
 93
        1
 44
50.0
173
     0
291
     1
 45
0.0
1001
ACAD
1000
AcDbSavedByObjectVersion
1070
     0
1000
AcDbSavedByObjectVersion
1070
     0
  0
VISUALSTYLE
  5
B101
102
{ACAD_REACTORS
330
B0F1
102
}
330
B0F1
100
AcDbVisualStyle
  2
ColorChange
 70
    16
 71
     2
 72
     2
 73
     3
 90
        0
 40
-0.6
 41
-30.0
 62
     5
 63
     8
 74
     1
 91
        4
 64
     7
 65
   257
 75
     1
175
     1
 42
1.0
 92
        8
 66
     8
 43
1.0
 76
     1
 77
     6
 78
     2
 67
     7
 79
     5
170
     0
171
     0
290
     0
174
     0
 93
        1
 44
0.0
173
     0
291
     1
 45
0.0
1001
ACAD
1000
AcDbSavedByObjectVersion
1070
     0
1000
AcDbSavedByObjectVersion
1070
     0
  0
VISUALSTYLE
  5
B0FA
102
{ACAD_REACTORS
330
B0F1
102
}
330
B0F1
100
AcDbVisualStyle
  2
Conceptual
 70
     9
 71
     3
 72
     2
 73
     0
 90
        0
 40
-0.6
 41
-30.0
 62
     5
 63
     7
 74
     2
 91
        2
 64
     7
 65
   257
 75
     1
175
     1
 42
40.0
 92
        8
 66
     7
 43
1.0
 76
     1
 77
     6
 78
     2
 67
     7
 79
     3
170
     0
171
     0
290
     0
174
     0
 93
        1
 44
0.0
173
     0
291
     0
 45
0.0
1001
ACAD
1000
AcDbSavedByObjectVersion
1070
     0
1000
AcDbSavedByObjectVersion
1070
     0
  0
VISUALSTYLE
  5
B0FC
102
{ACAD_REACTORS
330
B0F1
102
}
330
B0F1
100
AcDbVisualStyle
  2
Dim
 70
    11
 71
     2
 72
     2
 73
     0
 90
        0
 40
-0.6
 41
-30.0
 62
     5
 63
     7
 74
     1
 91
        4
 64
     7
 65
   257
 75
     1
175
     1
 42
1.0
 92
        8
 66
     7
 43
1.0
 76
     1
 77
     6
 78
     2
 67
     7
 79
     5
170
     0
171
     0
290
     0
174
     0
 93
        1
 44
-50.0
173
     0
291
     1
 45
0.0
1001
ACAD
1000
AcDbSavedByObjectVersion
1070
     0
1000
AcDbSavedByObjectVersion
1070
     0
  0
VISUALSTYLE
  5
B100
102
{ACAD_REACTORS
330
B0F1
102
}
330
B0F1
100
AcDbVisualStyle
  2
Facepattern
 70
    15
 71
     2
 72
     2
 73
     0
 90
        0
 40
-0.6
 41
-30.0
 62
     5
 63
     7
 74
     1
 91
        4
 64
     7
 65
   257
 75
     1
175
     1
 42
1.0
 92
        8
 66
     7
 43
1.0
 76
     1
 77
     6
 78
     2
 67
     7
 79
     5
170
     0
171
     0
290
     0
174
     0
 93
        1
 44
0.0
173
     0
291
     1
 45
0.0
1001
ACAD
1000
AcDbSavedByObjectVersion
1070
     0
1000
AcDbSavedByObjectVersion
1070
     0
  0
VISUALSTYLE
  5
B0F2
102
{ACAD_REACTORS
330
B0F1
102
}
330
B0F1
100
AcDbVisualStyle
  2
Flat
 70
     0
 71
     2
 72
     1
 73
     1
 90
        2
 40
-0.6
 41
30.0
 62
     5
 63
     7
 74
     0
 91
        4
 64
     7
 65
   257
 75
     1
175
     1
 42
1.0
 92
        8
 66
     7
 43
1.0
 76
     1
 77
     6
 78
     2
 67
     7
 79
     5
170
     0
171
     0
290
     0
174
     0
 93
       13
 44
0.0
173
     0
291
     1
 45
0.0
1001
ACAD
1000
AcDbSavedByObjectVersion
1070
     0
1000
AcDbSavedByObjectVersion
1070
     0
  0
VISUALSTYLE
  5
B0F3
102
{ACAD_REACTORS
330
B0F1
102
}
330
B0F1
100
AcDbVisualStyle
  2
FlatWithEdges
 70
     1
 71
     2
 72
     1
 73
     1
 90
        2
 40
-0.6
 41
30.0
 62
     5
 63
     7
 74
     1
 91
        4
 64
     7
 65
   257
 75
     1
175
     1
 42
1.0
 92
        0
 66
   257
 43
1.0
 76
     1
 77
     6
 78
     2
 67
     7
 79
     5
170
     0
171
     0
290
     0
174
     0
 93
       13
 44
0.0
173
     0
291
     1
 45
0.0
1001
ACAD
1000
AcDbSavedByObjectVersion
1070
     0
1000
AcDbSavedByObjectVersion
1070
     0
  0
VISUALSTYLE
  5
B0F4
102
{ACAD_REACTORS
330
B0F1
102
}
330
B0F1
100
AcDbVisualStyle
  2
Gouraud
 70
     2
 71
     2
 72
     2
 73
     1
 90
        2
 40
-0.6
 41
30.0
 62
     5
 63
     7
 74
     0
 91
        4
 64
     7
 65
   257
 75
     1
175
     1
 42
1.0
 92
        0
 66
     7
 43
1.0
 76
     1
 77
     6
 78
     2
 67
     7
 79
     5
170
     0
171
     0
290
     0
174
     0
 93
       13
 44
0.0
173
     0
291
     1
 45
0.0
1001
ACAD
1000
AcDbSavedByObjectVersion
1070
     0
1000
AcDbSavedByObjectVersion
1070
     0
  0
VISUALSTYLE
  5
B0F5
102
{ACAD_REACTORS
330
B0F1
102
}
330
B0F1
100
AcDbVisualStyle
  2
GouraudWithEdges
 70
     3
 71
     2
 72
     2
 73
     1
 90
        2
 40
-0.6
 41
30.0
 62
     5
 63
     7
 74
     1
 91
        4
 64
     7
 65
   257
 75
     1
175
     1
 42
1.0
 92
        0
 66
   257
 43
1.0
 76
     1
 77
     6
 78
     2
 67
     7
 79
     5
170
     0
171
     0
290
     0
174
     0
 93
       13
 44
0.0
173
     0
291
     1
 45
0.0
1001
ACAD
1000
AcDbSavedByObjectVersion
1070
     0
1000
AcDbSavedByObjectVersion
1070
     0
  0
VISUALSTYLE
  5
B0FF
102
{ACAD_REACTORS
330
B0F1
102
}
330
B0F1
100
AcDbVisualStyle
  2
Linepattern
 70
    14
 71
     2
 72
     2
 73
     0
 90
        0
 40
-0.6
 41
-30.0
 62
     5
 63
     7
 74
     1
 91
        4
 64
     7
 65
   257
 75
     7
175
     7
 42
1.0
 92
        8
 66
     7
 43
1.0
 76
     1
 77
     6
 78
     2
 67
     7
 79
     5
170
     0
171
     0
290
     0
174
     0
 93
        1
 44
0.0
173
     0
291
     1
 45
0.0
1001
ACAD
1000
AcDbSavedByObjectVersion
1070
     0
1000
AcDbSavedByObjectVersion
1070
     0
  0
VISUALSTYLE
  5
B0FB
102
{ACAD_REACTORS
330
B0F1
102
}
330
B0F1
100
AcDbVisualStyle
  2
Realistic
 70
     8
 71
     2
 72
     2
 73
     0
 90
        0
 40
-0.6
 41
-30.0
 62
     5
 63
     7
 74
     1
 91
        0
 64
     7
 65
   257
 75
     1
175
     1
 42
1.0
 92
        8
 66
     8
 43
1.0
 76
     1
 77
     6
 78
     2
 67
     7
 79
     5
170
     0
171
     0
290
     0
174
     0
 93
       13
 44
0.0
173
     0
291
     0
 45
0.0
1001
ACAD
1000
AcDbSavedByObjectVersion
1070
     0
1000
AcDbSavedByObjectVersion
1070
     0
  0
VISUALSTYLE
  5
B0FE
102
{ACAD_REACTORS
330
B0F1
102
}
330
B0F1
100
AcDbVisualStyle
  2
Thicken
 70
    13
 71
     2
 72
     2
 73
     0
 90
        0
 40
-0.6
 41
-30.0
 62
     5
 63
     7
 74
     1
 91
        4
 64
     7
 65
   257
 75
     1
175
     1
 42
1.0
 92
       12
 66
     7
 43
1.0
 76
     1
 77
     6
 78
     2
 67
     7
 79
     5
170
     0
171
     0
290
     0
174
     0
 93
        1
 44
0.0
173
     0
291
     1
 45
0.0
1001
ACAD
1000
AcDbSavedByObjectVersion
1070
     0
1000
AcDbSavedByObjectVersion
1070
     0
  0
DICTIONARYVAR
  5
AAF3
102
{ACAD_REACTORS
330
34
102
}
330
34
100
DictionaryVariables
280
     0
  1
STANDARD
  0
DICTIONARYVAR
  5
A10C
102
{ACAD_REACTORS
330
34
102
}
330
34
100
DictionaryVariables
280
     0
  1
1
  0
DICTIONARYVAR
  5
AB07
102
{ACAD_REACTORS
330
34
102
}
330
34
100
DictionaryVariables
280
     0
  1
4
  0
DICTIONARYVAR
  5
35
102
{ACAD_REACTORS
330
34
102
}
330
34
100
DictionaryVariables
280
     0
  1
0
  0
DICTIONARYVAR
  5
194C
102
{ACAD_REACTORS
330
34
102
}
330
34
100
DictionaryVariables
280
     0
  1
96
  0
DICTIONARY
  5
7E8
102
{ACAD_REACTORS
330
47
102
}
330
47
100
AcDbDictionary
281
     1
  0
DICTIONARY
  5
4C
102
{ACAD_REACTORS
330
47
102
}
330
47
100
AcDbDictionary
281
     1
  0
XRECORD
  5
A929
102
{ACAD_REACTORS
330
47
102
}
330
47
100
AcDbXrecord
280
     1
 90
-1023410169
  0
XRECORD
  5
B332
102
{ACAD_REACTORS
330
B331
102
}
330
B331
100
AcDbXrecord
280
     1
  0
XRECORD
  5
3FB7
102
{ACAD_REACTORS
330
3F96
102
}
330
3F96
100
AcDbXrecord
280
     1
 91
        3
330
0
 90
        8
 62
     7
370
    40
331
16
  1
Color_7
330
0
 90
        0
 62
    14
370
    -3
331
16
  1
Color_14
330
0
 90
        8
 62
     7
370
    20
331
16
  1
Color_7
330
6D1
 90
        0
 62
     7
370
    -3
331
16
  1
Color_7
330
0
 90
        8
 62
     7
370
    50
331
16
  1
Color_7
330
0
 90
        8
 62
     2
370
    35
331
16
  1
Color_2
330
0
 90
        8
 62
     7
370
    -3
331
16
  1
Color_7
330
10
 90
        8
 62
     7
370
    -3
331
16
  1
Color_7
  0
DICTIONARY
  5
E21C
330
22
100
AcDbDictionary
280
     1
281
     1
  3
ACAD_XREC_ROUNDTRIP
360
E21D
  0
DICTIONARY
  5
E21A
330
1E
100
AcDbDictionary
280
     1
281
     1
  3
ACAD_XREC_ROUNDTRIP
360
E21B
  0
DICTIONARY
  5
E21E
330
26
100
AcDbDictionary
280
     1
281
     1
  3
ACAD_XREC_ROUNDTRIP
360
E21F
  0
DICTIONARY
  5
E192
330
B0EF
100
AcDbDictionary
280
     1
281
     1
  3
ACAD_XREC_ROUNDTRIP
360
E193
  0
DICTIONARY
  5
E190
330
B0EE
100
AcDbDictionary
280
     1
281
     1
  3
ACAD_XREC_ROUNDTRIP
360
E191
  0
DICTIONARY
  5
E194
330
B0F0
100
AcDbDictionary
280
     1
281
     1
  3
ACAD_XREC_ROUNDTRIP
360
E195
  0
DICTIONARY
  5
E220
330
AABA
100
AcDbDictionary
280
     1
281
     1
  3
ACAD_XREC_ROUNDTRIP
360
E221
  0
XRECORD
  5
E21D
102
{ACAD_REACTORS
330
E21C
102
}
330
E21C
100
AcDbXrecord
280
     1
102
SHADEPLOT
 70
     0
102
SHADEPLOTRESLEVEL
 70
     2
102
SHADEPLOTCUSTOMDPI
 70
   200
  0
XRECORD
  5
E21B
102
{ACAD_REACTORS
330
E21A
102
}
330
E21A
100
AcDbXrecord
280
     1
102
SHADEPLOT
 70
     0
102
SHADEPLOTRESLEVEL
 70
     2
102
SHADEPLOTCUSTOMDPI
 70
   300
  0
XRECORD
  5
E21F
102
{ACAD_REACTORS
330
E21E
102
}
330
E21E
100
AcDbXrecord
280
     1
102
SHADEPLOT
 70
     0
102
SHADEPLOTRESLEVEL
 70
     2
102
SHADEPLOTCUSTOMDPI
 70
   300
  0
XRECORD
  5
E193
102
{ACAD_REACTORS
330
E192
102
}
330
E192
100
AcDbXrecord
280
     1
102
MATERIAL
148
0.0
149
0.0
149
0.0
 93
        0
 94
       63
282
     0
 72
     1
 77
     1
171
     1
175
     1
179
     1
273
     0
  0
XRECORD
  5
E191
102
{ACAD_REACTORS
330
E190
102
}
330
E190
100
AcDbXrecord
280
     1
102
MATERIAL
148
0.0
149
0.0
149
0.0
 93
        0
 94
       63
282
     0
 72
     1
 77
     1
171
     1
175
     1
179
     1
273
     0
  0
XRECORD
  5
E195
102
{ACAD_REACTORS
330
E194
102
}
330
E194
100
AcDbXrecord
280
     1
102
MATERIAL
148
0.0
149
0.0
149
0.0
 93
        0
 94
       63
282
     0
 72
     1
 77
     1
171
     1
175
     1
179
     1
273
     0
  0
XRECORD
  5
E221
102
{ACAD_REACTORS
330
E220
102
}
330
E220
100
AcDbXrecord
280
     1
102
ACAD_ROUNDTRIP_PRE2007_TABLESTYLE
 90
        4
 91
        0
  1

 92
        4
 93
        0
  2

 94
        4
 95
        0
  3

  0
ENDSEC
  0
EOF
